  0
SECTION
  2
HEADER
  9
$ACADVER
  1
AC1009
  9
$INSBASE
 10
0.0
 20
0.0
 30
0.0
  9
$EXTMIN
 10
750.0
 20
900.0
 30
0.0
  9
$EXTMAX
 10
5550.0
 20
8359.9567845000001
 30
0.0
  9
$LIMMIN
 10
0.0
 20
0.0
  9
$LIMMAX
 10
297.0
 20
210.0
  9
$ORTHOMODE
 70
     0
  9
$REGENMODE
 70
     1
  9
$FILLMODE
 70
     0
  9
$QTEXTMODE
 70
     0
  9
$MIRRTEXT
 70
     1
  9
$DRAGMODE
 70
     2
  9
$LTSCALE
 40
100.0
  9
$OSMODE
 70
    37
  9
$ATTMODE
 70
     1
  9
$TEXTSIZE
 40
180.0
  9
$TRACEWID
 40
0.05
  9
$TEXTSTYLE
  7
STANDARD
  9
$CLAYER
  8
3
  9
$CELTYPE
  6
BYLAYER
  9
$CECOLOR
 62
   256
  9
$DIMSCALE
 40
30.0
  9
$DIMASZ
 40
2.0
  9
$DIMEXO
 40
0.5
  9
$DIMDLI
 40
10.0
  9
$DIMRND
 40
0.0
  9
$DIMDLE
 40
0.0
  9
$DIMEXE
 40
1.0
  9
$DIMTP
 40
1.0
  9
$DIMTM
 40
1.0
  9
$DIMTXT
 40
3.0
  9
$DIMCEN
 40
0.0
  9
$DIMTSZ
 40
0.0
  9
$DIMTOL
 70
     0
  9
$DIMLIM
 70
     0
  9
$DIMTIH
 70
     0
  9
$DIMTOH
 70
     0
  9
$DIMSE1
 70
     0
  9
$DIMSE2
 70
     0
  9
$DIMTAD
 70
     1
  9
$DIMZIN
 70
     8
  9
$DIMBLK
  1

  9
$DIMASO
 70
     1
  9
$DIMSHO
 70
     1
  9
$DIMPOST
  1

  9
$DIMAPOST
  1

  9
$DIMALT
 70
     0
  9
$DIMALTD
 70
     2
  9
$DIMALTF
 40
0.039
  9
$DIMLFAC
 40
1.0
  9
$DIMTOFL
 70
     1
  9
$DIMTVP
 40
0.0
  9
$DIMTIX
 70
     0
  9
$DIMSOXD
 70
     0
  9
$DIMSAH
 70
     1
  9
$DIMBLK1
  1
OPEN
  9
$DIMBLK2
  1
OPEN
  9
$DIMSTYLE
  2
IGA
  9
$DIMCLRD
 70
     0
  9
$DIMCLRE
 70
     0
  9
$DIMCLRT
 70
     0
  9
$DIMTFAC
 40
10.0
  9
$DIMGAP
 40
1.0
  9
$LUNITS
 70
     2
  9
$LUPREC
 70
     3
  9
$SKETCHINC
 40
0.1
  9
$FILLETRAD
 40
50.0
  9
$AUNITS
 70
     0
  9
$AUPREC
 70
     0
  9
$MENU
  1
acad
  9
$ELEVATION
 40
0.0
  9
$PELEVATION
 40
0.0
  9
$THICKNESS
 40
0.0
  9
$LIMCHECK
 70
     0
  9
$BLIPMODE
 70
     0
  9
$CHAMFERA
 40
0.5
  9
$CHAMFERB
 40
0.5
  9
$SKPOLY
 70
     0
  9
$TDCREATE
 40
2450754.5556082171
  9
$TDUPDATE
 40
2454953.6829396291
  9
$TDINDWG
 40
0.0031921181
  9
$TDUSRTIMER
 40
0.0031921181
  9
$USRTIMER
 70
     1
  9
$ANGBASE
 50
0.0
  9
$ANGDIR
 70
     0
  9
$PDMODE
 70
     0
  9
$PDSIZE
 40
0.0
  9
$PLINEWID
 40
0.0
  9
$COORDS
 70
     1
  9
$SPLFRAME
 70
     0
  9
$SPLINETYPE
 70
     6
  9
$SPLINESEGS
 70
     8
  9
$ATTDIA
 70
     0
  9
$ATTREQ
 70
     1
  9
$HANDLING
 70
 10241
  9
$HANDSEED
  5
7E9E
  9
$SURFTAB1
 70
     6
  9
$SURFTAB2
 70
     6
  9
$SURFTYPE
 70
     6
  9
$SURFU
 70
     6
  9
$SURFV
 70
     6
  9
$UCSNAME
  2

  9
$UCSORG
 10
0.0
 20
0.0
 30
0.0
  9
$UCSXDIR
 10
1.0
 20
0.0
 30
0.0
  9
$UCSYDIR
 10
0.0
 20
1.0
 30
0.0
  9
$PUCSNAME
  2

  9
$PUCSORG
 10
0.0
 20
0.0
 30
0.0
  9
$PUCSXDIR
 10
1.0
 20
0.0
 30
0.0
  9
$PUCSYDIR
 10
0.0
 20
1.0
 30
0.0
  9
$USERI1
 70
     0
  9
$USERI2
 70
     0
  9
$USERI3
 70
     0
  9
$USERI4
 70
     0
  9
$USERI5
 70
     0
  9
$USERR1
 40
0.0
  9
$USERR2
 40
0.0
  9
$USERR3
 40
0.0
  9
$USERR4
 40
0.0
  9
$USERR5
 40
0.0
  9
$WORLDVIEW
 70
     1
  9
$SHADEDGE
 70
     3
  9
$SHADEDIF
 70
    70
  9
$TILEMODE
 70
     1
  9
$MAXACTVP
 70
    16
  9
$PLIMCHECK
 70
     0
  9
$PEXTMIN
 10
1.0000000000000000E+020
 20
1.0000000000000000E+020
 30
1.0000000000000000E+020
  9
$PEXTMAX
 10
-1.0000000000000000E+020
 20
-1.0000000000000000E+020
 30
-1.0000000000000000E+020
  9
$PLIMMIN
 10
0.0
 20
0.0
  9
$PLIMMAX
 10
12.0
 20
9.0
  9
$UNITMODE
 70
     0
  9
$VISRETAIN
 70
     0
  9
$PLINEGEN
 70
     0
  9
$PSLTSCALE
 70
     1
  0
ENDSEC
  0
SECTION
  2
TABLES
  0
TABLE
  2
VPORT
 70
     2
  0
VPORT
  2
*ACTIVE
 70
     0
 10
0.0
 20
0.0
 11
1.0
 21
1.0
 12
16949.267321752261
 22
4420.7106148571411
 13
0.0
 23
0.0
 14
10.0
 24
10.0
 15
10.0
 25
10.0
 16
0.0
 26
0.0
 36
1.0
 17
0.0
 27
0.0
 37
0.0
 40
13421.942509111859
 41
3.1666666666666661
 42
50.0
 43
0.0
 44
0.0
 50
0.0
 51
0.0
 71
     0
 72
   100
 73
     1
 74
     0
 75
     0
 76
     0
 77
     0
 78
     0
  0
ENDTAB
  0
TABLE
  2
LTYPE
 70
     2
  0
LTYPE
  2
CONTINUOUS
 70
     0
  3
Solid line
 72
    65
 73
     0
 40
0.0
  0
LTYPE
  2
CENTER
 70
     0
  3
____ _ ____ _ ____ _ ____ _ ____ _ ____ _ ____ 
 72
    65
 73
     4
 40
2.0
 49
1.25
 49
-0.25
 49
0.25
 49
-0.25
  0
ENDTAB
  0
TABLE
  2
LAYER
 70
     6
  0
LAYER
  2
0
 70
     0
 62
     7
  6
CONTINUOUS
  0
LAYER
  2
3
 70
     0
 62
     2
  6
CONTINUOUS
  0
LAYER
  2
2
 70
     0
 62
     3
  6
CENTER
  0
LAYER
  2
1
 70
     0
 62
     4
  6
CONTINUOUS
  0
LAYER
  2
4
 70
     0
 62
     7
  6
CONTINUOUS
  0
LAYER
  2
DEFPOINTS
 70
     0
 62
     7
  6
CONTINUOUS
  0
ENDTAB
  0
TABLE
  2
STYLE
 70
     1
  0
STYLE
  2
STANDARD
 70
     0
 40
0.0
 41
1.0
 50
0.0
 71
     0
 42
180.0
  3
simplex.shx
  4
extfont.shx
  0
ENDTAB
  0
TABLE
  2
VIEW
 70
     0
  0
ENDTAB
  0
TABLE
  2
UCS
 70
     0
  0
ENDTAB
  0
TABLE
  2
APPID
 70
     1
  0
APPID
  2
ACAD
 70
     0
  0
ENDTAB
  0
TABLE
  2
DIMSTYLE
 70
     1
  0
DIMSTYLE
  2
IGA
 70
     0
  3

  4

  5

  6
OPEN
  7
OPEN
 40
2.0
 41
2.0
 42
0.5
 43
10.0
 44
1.0
 45
0.0
 46
0.0
 47
1.0
 48
1.0
140
3.0
141
0.0
142
0.0
143
0.03937
144
1.0
145
0.0
146
10.0
147
1.0
 71
     0
 72
     0
 73
     0
 74
     0
 75
     0
 76
     0
 77
     1
 78
     8
170
     0
171
     2
172
     0
173
     1
174
     0
175
     0
176
     0
177
     0
178
     0
  0
ENDTAB
  0
ENDSEC
  0
SECTION
  2
BLOCKS
  0
BLOCK
  8
0
  2
$MODEL_SPACE
 70
     0
 10
0.0
 20
0.0
 30
0.0
  3
$MODEL_SPACE
  1

  0
ENDBLK
  5
1B
  8
0
  0
BLOCK
 67
     1
  8
0
  2
$PAPER_SPACE
 70
     0
 10
0.0
 20
0.0
 30
0.0
  3
$PAPER_SPACE
  1

  0
ENDBLK
  5
18
 67
     1
  8
0
  0
BLOCK
  8
0
  2
_OPEN
 70
     0
 10
0.0
 20
0.0
 30
0.0
  3
_OPEN
  1

  0
LINE
  5
7AC8
  8
0
  6
BYBLOCK
 62
     0
 10
-1.0
 20
0.166667
 30
0.0
 11
0.0
 21
0.0
 31
0.0
  0
LINE
  5
7AC9
  8
0
  6
BYBLOCK
 62
     0
 10
0.0
 20
0.0
 30
0.0
 11
-1.0
 21
-0.166667
 31
0.0
  0
LINE
  5
7ACA
  8
0
  6
BYBLOCK
 62
     0
 10
0.0
 20
0.0
 30
0.0
 11
-1.0
 21
0.0
 31
0.0
  0
ENDBLK
  5
7ACB
  8
0
  0
BLOCK
  8
0
  2
*D1
 70
     1
 10
0.0
 20
0.0
 30
0.0
  3
*D1
  1

  0
LINE
  5
7CFD
  8
0
  6
BYBLOCK
 62
     0
 10
2221.6253589999992
 20
2875.5060613468108
 30
0.0
 11
2221.6253589999992
 21
2642.5838503468108
 31
0.0
  0
LINE
  5
7CFE
  8
0
  6
BYBLOCK
 62
     0
 10
2621.6253589999992
 20
2799.892701346811
 30
0.0
 11
2621.6253589999992
 21
2642.5838503468108
 31
0.0
  0
LINE
  5
7CFF
  8
0
  6
BYBLOCK
 62
     0
 10
2281.6253589999992
 20
2672.5838503468108
 30
0.0
 11
2561.6253589999992
 21
2672.5838503468108
 31
0.0
  0
TEXT
  5
7D00
  8
3
 62
     0
 10
2305.911073285713
 20
2708.3850488476228
 30
0.0
 40
90.0
  1
400
  0
INSERT
  5
7D01
  8
0
  6
BYBLOCK
 62
     0
  2
_OPEN
 10
2221.6253589999992
 20
2672.5838503468108
 30
0.0
 41
60.0
 42
60.0
 43
60.0
 50
180.0
  0
INSERT
  5
7D02
  8
0
  6
BYBLOCK
 62
     0
  2
_OPEN
 10
2621.6253589999992
 20
2672.5838503468108
 30
0.0
 41
60.0
 42
60.0
 43
60.0
  0
POINT
  5
7D03
  8
DEFPOINTS
  6
BYBLOCK
 62
     0
 10
2221.6253589999992
 20
2890.5060613468108
 30
0.0
  0
POINT
  5
7D04
  8
DEFPOINTS
  6
BYBLOCK
 62
     0
 10
2621.6253589999992
 20
2814.892701346811
 30
0.0
  0
POINT
  5
7D05
  8
DEFPOINTS
  6
BYBLOCK
 62
     0
 10
2621.6253589999992
 20
2672.5838503468108
 30
0.0
  0
ENDBLK
  5
7D06
  8
0
  0
BLOCK
  8
0
  2
*D2
 70
     1
 10
0.0
 20
0.0
 30
0.0
  3
*D2
  1

  0
LINE
  5
7E1B
  8
3
  6
CONTINUOUS
 62
     0
 10
2162.0771014818688
 20
2799.892701346811
 30
0.0
 11
2162.0771014818688
 21
2642.5838503468108
 31
0.0
  0
LINE
  5
7E1C
  8
3
  6
CONTINUOUS
 62
     0
 10
3162.0771014818702
 20
2875.5060613468108
 30
0.0
 11
3162.0771014818702
 21
2642.5838503468108
 31
0.0
  0
LINE
  5
7E1D
  8
3
  6
CONTINUOUS
 62
     0
 10
2222.0771014818688
 20
2672.5838503468108
 30
0.0
 11
3102.0771014818702
 21
2672.5838503468108
 31
0.0
  0
INSERT
  5
7E1E
  8
3
  6
CONTINUOUS
 62
     0
  2
_OPEN
 10
2162.0771014818688
 20
2672.5838503468108
 30
0.0
 41
60.0
 42
60.0
 43
60.0
 50
180.0
  0
INSERT
  5
7E1F
  8
3
  6
CONTINUOUS
 62
     0
  2
_OPEN
 10
3162.0771014818702
 20
2672.5838503468108
 30
0.0
 41
60.0
 42
60.0
 43
60.0
  0
TEXT
  8
3
  40
90
  5
7E90
  62
0
  72
0
  71
0
 10
2482.08
 20
2588.28
 30
0.000000
  1
1000
  0
POINT
  5
7E21
  8
DEFPOINTS
  6
CONTINUOUS
 62
     0
 10
2162.0771014818688
 20
2814.892701346811
 30
0.0
  0
POINT
  5
7E22
  8
DEFPOINTS
  6
CONTINUOUS
 62
     0
 10
3162.0771014818702
 20
2890.5060613468108
 30
0.0
  0
POINT
  5
7E23
  8
DEFPOINTS
  6
CONTINUOUS
 62
     0
 10
3162.0771014818702
 20
2672.5838503468108
 30
0.0
  0
ENDBLK
  5
7CB7
  8
0
  0
BLOCK
  8
0
  2
*D3
 70
     1
 10
0.0
 20
0.0
 30
0.0
  3
*D3
  1

  0
LINE
  5
7E24
  8
3
  6
CONTINUOUS
 62
     0
 10
1687.077101481869
 20
4073.5060613468108
 30
0.0
 11
1512.14054748187
 21
4073.5060613468108
 31
0.0
  0
LINE
  5
7E25
  8
3
  6
CONTINUOUS
 62
     0
 10
1687.077101481869
 20
3423.5060613468108
 30
0.0
 11
1512.14054748187
 21
3423.5060613468108
 31
0.0
  0
LINE
  5
7E26
  8
3
  6
CONTINUOUS
 62
     0
 10
1542.14054748187
 20
4013.5060613468108
 30
0.0
 11
1542.1405474818689
 21
3483.5060613468108
 31
0.0
  0
INSERT
  5
7E27
  8
3
  6
CONTINUOUS
 62
     0
  2
_OPEN
 10
1542.14054748187
 20
4073.5060613468108
 30
0.0
 41
60.0
 42
60.0
 43
60.0
 50
90.0
  0
INSERT
  5
7E28
  8
3
  6
CONTINUOUS
 62
     0
  2
_OPEN
 10
1542.1405474818689
 20
3423.5060613468108
 30
0.0
 41
60.0
 42
60.0
 43
60.0
 50
270.0
  0
TEXT
  8
3
  40
90
  5
7E91
  62
0
  72
0
  71
0
 10
1287.14
 20
3597.01
 30
0.000000
  1
650
  0
POINT
  5
7E2A
  8
DEFPOINTS
  6
CONTINUOUS
 62
     0
 10
1702.077101481869
 20
4073.5060613468108
 30
0.0
  0
POINT
  5
7E2B
  8
DEFPOINTS
  6
CONTINUOUS
 62
     0
 10
1702.077101481869
 20
3423.5060613468108
 30
0.0
  0
POINT
  5
7E2C
  8
DEFPOINTS
  6
CONTINUOUS
 62
     0
 10
1542.1405474818689
 20
3423.5060613468108
 30
0.0
  0
ENDBLK
  5
7CAC
  8
0
  0
BLOCK
  8
0
  2
*D4
 70
     1
 10
0.0
 20
0.0
 30
0.0
  3
*D4
  1

  0
LINE
  5
7E2D
  8
3
  6
CONTINUOUS
 62
     0
 10
1687.077101481869
 20
4073.5060613468108
 30
0.0
 11
1317.01605848187
 21
4073.5060613468108
 31
0.0
  0
LINE
  5
7E2E
  8
3
  6
CONTINUOUS
 62
     0
 10
1769.798514481869
 20
3395.5060613468108
 30
0.0
 11
1317.01605848187
 21
3395.5060613468108
 31
0.0
  0
LINE
  5
7E2F
  8
3
  6
CONTINUOUS
 62
     0
 10
1347.01605848187
 20
4013.5060613468108
 30
0.0
 11
1347.01605848187
 21
3455.5060613468108
 31
0.0
  0
INSERT
  5
7E30
  8
3
  6
CONTINUOUS
 62
     0
  2
_OPEN
 10
1347.01605848187
 20
4073.5060613468108
 30
0.0
 41
60.0
 42
60.0
 43
60.0
 50
90.0
  0
INSERT
  5
7E31
  8
3
  6
CONTINUOUS
 62
     0
  2
_OPEN
 10
1347.01605848187
 20
3395.5060613468108
 30
0.0
 41
60.0
 42
60.0
 43
60.0
 50
270.0
  0
TEXT
  8
3
  40
90
  5
7E92
  62
0
  72
0
  71
0
 10
1092.02
 20
3582.24
 30
0.000000
  1
678
  0
POINT
  5
7E33
  8
DEFPOINTS
  6
CONTINUOUS
 62
     0
 10
1702.077101481869
 20
4073.5060613468108
 30
0.0
  0
POINT
  5
7E34
  8
DEFPOINTS
  6
CONTINUOUS
 62
     0
 10
1784.798514481869
 20
3395.5060613468108
 30
0.0
  0
POINT
  5
7E35
  8
DEFPOINTS
  6
CONTINUOUS
 62
     0
 10
1347.01605848187
 20
3395.5060613468108
 30
0.0
  0
ENDBLK
  5
7CA1
  8
0
  0
BLOCK
  8
0
  2
*D5
 70
     1
 10
0.0
 20
0.0
 30
0.0
  3
*D5
  1

  0
LINE
  5
7E36
  8
3
  6
CONTINUOUS
 62
     0
 10
1769.798514481869
 20
3395.5060613468108
 30
0.0
 11
1317.0160584818691
 21
3395.5060613468108
 31
0.0
  0
LINE
  5
7E37
  8
3
  6
CONTINUOUS
 62
     0
 10
1747.077101481869
 20
2890.5060613468108
 30
0.0
 11
1317.0160584818691
 21
2890.5060613468108
 31
0.0
  0
LINE
  5
7E38
  8
3
  6
CONTINUOUS
 62
     0
 10
1347.0160584818691
 20
3335.5060613468108
 30
0.0
 11
1347.0160584818691
 21
2950.5060613468108
 31
0.0
  0
INSERT
  5
7E39
  8
3
  6
CONTINUOUS
 62
     0
  2
_OPEN
 10
1347.0160584818691
 20
3395.5060613468108
 30
0.0
 41
60.0
 42
60.0
 43
60.0
 50
90.0
  0
INSERT
  5
7E3A
  8
3
  6
CONTINUOUS
 62
     0
  2
_OPEN
 10
1347.0160584818691
 20
2890.5060613468108
 30
0.0
 41
60.0
 42
60.0
 43
60.0
 50
270.0
  0
TEXT
  8
3
  40
90
  5
7E93
  62
0
  72
0
  71
0
 10
1092.02
 20
2983.71
 30
0.000000
  1
505
  0
POINT
  5
7E3C
  8
DEFPOINTS
  6
CONTINUOUS
 62
     0
 10
1784.798514481869
 20
3395.5060613468108
 30
0.0
  0
POINT
  5
7E3D
  8
DEFPOINTS
  6
CONTINUOUS
 62
     0
 10
1762.077101481869
 20
2890.5060613468108
 30
0.0
  0
POINT
  5
7E3E
  8
DEFPOINTS
  6
CONTINUOUS
 62
     0
 10
1347.0160584818691
 20
2890.5060613468108
 30
0.0
  0
ENDBLK
  5
7C96
  8
0
  0
BLOCK
  8
0
  2
*D6
 70
     1
 10
0.0
 20
0.0
 30
0.0
  3
*D6
  1

  0
LINE
  5
7E3F
  8
3
  6
CONTINUOUS
 62
     0
 10
1687.077101481869
 20
4115.5060613468113
 30
0.0
 11
1129.77486848187
 21
4115.5060613468113
 31
0.0
  0
LINE
  5
7E40
  8
3
  6
CONTINUOUS
 62
     0
 10
1747.077101481869
 20
2890.5060613468108
 30
0.0
 11
1129.77486848187
 21
2890.5060613468108
 31
0.0
  0
LINE
  5
7E41
  8
3
  6
CONTINUOUS
 62
     0
 10
1159.77486848187
 20
4055.5060613468099
 30
0.0
 11
1159.77486848187
 21
2950.5060613468108
 31
0.0
  0
INSERT
  5
7E42
  8
3
  6
CONTINUOUS
 62
     0
  2
_OPEN
 10
1159.77486848187
 20
4115.5060613468113
 30
0.0
 41
60.0
 42
60.0
 43
60.0
 50
90.0
  0
INSERT
  5
7E43
  8
3
  6
CONTINUOUS
 62
     0
  2
_OPEN
 10
1159.77486848187
 20
2890.5060613468108
 30
0.0
 41
60.0
 42
60.0
 43
60.0
 50
270.0
  0
TEXT
  8
3
  40
90
  5
7E94
  62
0
  72
0
  71
0
 10
904.775
 20
3345.90
 30
0.000000
  1
1225
  0
POINT
  5
7E45
  8
DEFPOINTS
  6
CONTINUOUS
 62
     0
 10
1702.077101481869
 20
4115.5060613468113
 30
0.0
  0
POINT
  5
7E46
  8
DEFPOINTS
  6
CONTINUOUS
 62
     0
 10
1762.077101481869
 20
2890.5060613468108
 30
0.0
  0
POINT
  5
7E47
  8
DEFPOINTS
  6
CONTINUOUS
 62
     0
 10
1159.77486848187
 20
2890.5060613468108
 30
0.0
  0
ENDBLK
  5
7C8B
  8
0
  0
BLOCK
  8
0
  2
*D7
 70
     1
 10
0.0
 20
0.0
 30
0.0
  3
*D7
  1

  0
LINE
  5
7E48
  8
3
  6
CONTINUOUS
 62
     0
 10
1702.077101481869
 20
4130.5060613468113
 30
0.0
 11
1702.077101481869
 21
4289.7615723468107
 31
0.0
  0
LINE
  5
7E49
  8
3
  6
CONTINUOUS
 62
     0
 10
2162.0771014818688
 20
4052.5060613468108
 30
0.0
 11
2162.0771014818688
 21
4289.7615723468107
 31
0.0
  0
LINE
  5
7E4A
  8
3
  6
CONTINUOUS
 62
     0
 10
1762.077101481869
 20
4259.7615723468107
 30
0.0
 11
2102.0771014818688
 21
4259.7615723468107
 31
0.0
  0
INSERT
  5
7E4B
  8
3
  6
CONTINUOUS
 62
     0
  2
_OPEN
 10
1702.077101481869
 20
4259.7615723468107
 30
0.0
 41
60.0
 42
60.0
 43
60.0
 50
180.0
  0
INSERT
  5
7E4C
  8
3
  6
CONTINUOUS
 62
     0
  2
_OPEN
 10
2162.0771014818688
 20
4259.7615723468107
 30
0.0
 41
60.0
 42
60.0
 43
60.0
  0
TEXT
  8
3
  40
90
  5
7E95
  62
0
  72
0
  71
0
 10
1727.79
 20
4175.46
 30
0.000000
  1
460
  0
POINT
  5
7E4E
  8
DEFPOINTS
  6
CONTINUOUS
 62
     0
 10
1702.077101481869
 20
4115.5060613468113
 30
0.0
  0
POINT
  5
7E4F
  8
DEFPOINTS
  6
CONTINUOUS
 62
     0
 10
2162.0771014818688
 20
4037.5060613468108
 30
0.0
  0
POINT
  5
7E50
  8
DEFPOINTS
  6
CONTINUOUS
 62
     0
 10
2162.0771014818688
 20
4259.7615723468107
 30
0.0
  0
ENDBLK
  5
7C80
  8
0
  0
BLOCK
  8
0
  2
*D8
 70
     1
 10
0.0
 20
0.0
 30
0.0
  3
*D8
  1

  0
LINE
  5
7E51
  8
3
  6
CONTINUOUS
 62
     0
 10
2162.0771014818688
 20
4052.5060613468108
 30
0.0
 11
2162.0771014818688
 21
4289.7615723468107
 31
0.0
  0
LINE
  5
7E52
  8
3
  6
CONTINUOUS
 62
     0
 10
2709.7760234818688
 20
3410.5060613468108
 30
0.0
 11
2709.7760234818688
 21
4289.7615723468107
 31
0.0
  0
LINE
  5
7E53
  8
3
  6
CONTINUOUS
 62
     0
 10
2222.0771014818688
 20
4259.7615723468107
 30
0.0
 11
2649.7760234818688
 21
4259.7615723468107
 31
0.0
  0
INSERT
  5
7E54
  8
3
  6
CONTINUOUS
 62
     0
  2
_OPEN
 10
2162.0771014818688
 20
4259.7615723468107
 30
0.0
 41
60.0
 42
60.0
 43
60.0
 50
180.0
  0
INSERT
  5
7E55
  8
3
  6
CONTINUOUS
 62
     0
  2
_OPEN
 10
2709.7760234818688
 20
4259.7615723468107
 30
0.0
 41
60.0
 42
60.0
 43
60.0
  0
TEXT
  8
3
  40
90
  5
7E96
  62
0
  72
0
  71
0
 10
2255.93
 20
4175.46
 30
0.000000
  1
548
  0
POINT
  5
7E57
  8
DEFPOINTS
  6
CONTINUOUS
 62
     0
 10
2162.0771014818688
 20
4037.5060613468108
 30
0.0
  0
POINT
  5
7E58
  8
DEFPOINTS
  6
CONTINUOUS
 62
     0
 10
2709.7760234818688
 20
3395.5060613468108
 30
0.0
  0
POINT
  5
7E59
  8
DEFPOINTS
  6
CONTINUOUS
 62
     0
 10
2709.7760234818688
 20
4259.7615723468107
 30
0.0
  0
ENDBLK
  5
7C75
  8
0
  0
BLOCK
  8
0
  2
*D9
 70
     1
 10
0.0
 20
0.0
 30
0.0
  3
*D9
  1

  0
LINE
  5
7E5A
  8
3
  6
CONTINUOUS
 62
     0
 10
1762.077101481869
 20
5796.3836223468106
 30
0.0
 11
1762.077101481869
 21
5436.0792363468117
 31
0.0
  0
LINE
  5
7E5B
  8
3
  6
CONTINUOUS
 62
     0
 10
3162.0771014818702
 20
5796.3836223468106
 30
0.0
 11
3162.0771014818702
 21
5436.0792363468117
 31
0.0
  0
LINE
  5
7E5C
  8
3
  6
CONTINUOUS
 62
     0
 10
1822.077101481869
 20
5466.0792363468117
 30
0.0
 11
3102.0771014818702
 21
5466.0792363468117
 31
0.0
  0
INSERT
  5
7E5D
  8
3
  6
CONTINUOUS
 62
     0
  2
_OPEN
 10
1762.077101481869
 20
5466.0792363468117
 30
0.0
 41
60.0
 42
60.0
 43
60.0
 50
180.0
  0
INSERT
  5
7E5E
  8
3
  6
CONTINUOUS
 62
     0
  2
_OPEN
 10
3162.0771014818702
 20
5466.0792363468117
 30
0.0
 41
60.0
 42
60.0
 43
60.0
  0
TEXT
  8
3
  40
90
  5
7E97
  62
0
  72
0
  71
0
 10
2234.29
 20
5381.78
 30
0.000000
  1
1400
  0
POINT
  5
7E60
  8
DEFPOINTS
  6
CONTINUOUS
 62
     0
 10
1762.077101481869
 20
5811.3836223468124
 30
0.0
  0
POINT
  5
7E61
  8
DEFPOINTS
  6
CONTINUOUS
 62
     0
 10
3162.0771014818702
 20
5811.3836223468124
 30
0.0
  0
POINT
  5
7E62
  8
DEFPOINTS
  6
CONTINUOUS
 62
     0
 10
3162.0771014818702
 20
5466.0792363468117
 30
0.0
  0
ENDBLK
  5
7C6A
  8
0
  0
BLOCK
  8
0
  2
*D10
 70
     1
 10
0.0
 20
0.0
 30
0.0
  3
*D10
  1

  0
LINE
  5
7E63
  8
3
  6
CONTINUOUS
 62
     0
 10
3177.0771014818702
 20
6501.3836223468106
 30
0.0
 11
3452.4357834818702
 21
6501.3836223468106
 31
0.0
  0
LINE
  5
7E64
  8
3
  6
CONTINUOUS
 62
     0
 10
3177.0771014818702
 20
5811.3836223468124
 30
0.0
 11
3452.4357834818702
 21
5811.3836223468124
 31
0.0
  0
LINE
  5
7E65
  8
3
  6
CONTINUOUS
 62
     0
 10
3422.4357834818702
 20
6441.3836223468106
 30
0.0
 11
3422.4357834818702
 21
5871.3836223468124
 31
0.0
  0
INSERT
  5
7E66
  8
3
  6
CONTINUOUS
 62
     0
  2
_OPEN
 10
3422.4357834818702
 20
6501.3836223468106
 30
0.0
 41
60.0
 42
60.0
 43
60.0
 50
90.0
  0
INSERT
  5
7E67
  8
3
  6
CONTINUOUS
 62
     0
  2
_OPEN
 10
3422.4357834818702
 20
5811.3836223468124
 30
0.0
 41
60.0
 42
60.0
 43
60.0
 50
270.0
  0
TEXT
  8
3
  40
90
  5
7E98
  62
0
  72
0
  71
0
 10
3167.44
 20
6004.48
 30
0.000000
  1
690
  0
POINT
  5
7E69
  8
DEFPOINTS
  6
CONTINUOUS
 62
     0
 10
3162.0771014818702
 20
6501.3836223468106
 30
0.0
  0
POINT
  5
7E6A
  8
DEFPOINTS
  6
CONTINUOUS
 62
     0
 10
3162.0771014818702
 20
5811.3836223468124
 30
0.0
  0
POINT
  5
7E6B
  8
DEFPOINTS
  6
CONTINUOUS
 62
     0
 10
3422.4357834818702
 20
5811.3836223468124
 30
0.0
  0
ENDBLK
  5
7C5F
  8
0
  0
BLOCK
  8
0
  2
*D11
 70
     1
 10
0.0
 20
0.0
 30
0.0
  3
*D11
  1

  0
LINE
  5
7D08
  8
0
  6
BYBLOCK
 62
     0
 10
4535.3685215122532
 20
2875.5060613468108
 30
0.0
 11
4535.3685215122532
 21
2666.7065993468118
 31
0.0
  0
LINE
  5
7D09
  8
0
  6
BYBLOCK
 62
     0
 10
4935.3685215122532
 20
2775.258807346811
 30
0.0
 11
4935.3685215122532
 21
2666.7065993468118
 31
0.0
  0
LINE
  5
7D0A
  8
0
  6
BYBLOCK
 62
     0
 10
4595.3685215122532
 20
2696.7065993468118
 30
0.0
 11
4875.3685215122532
 21
2696.7065993468118
 31
0.0
  0
TEXT
  5
7D0B
  8
3
 62
     0
 10
4619.6542357979679
 20
2714.2718204137668
 30
0.0
 40
90.0
  1
400
  0
INSERT
  5
7D0C
  8
0
  6
BYBLOCK
 62
     0
  2
_OPEN
 10
4535.3685215122532
 20
2696.7065993468118
 30
0.0
 41
60.0
 42
60.0
 43
60.0
 50
180.0
  0
INSERT
  5
7D0D
  8
0
  6
BYBLOCK
 62
     0
  2
_OPEN
 10
4935.3685215122532
 20
2696.7065993468118
 30
0.0
 41
60.0
 42
60.0
 43
60.0
  0
POINT
  5
7D0E
  8
DEFPOINTS
  6
BYBLOCK
 62
     0
 10
4535.3685215122532
 20
2890.5060613468108
 30
0.0
  0
POINT
  5
7D0F
  8
DEFPOINTS
  6
BYBLOCK
 62
     0
 10
4935.3685215122532
 20
2790.258807346811
 30
0.0
  0
POINT
  5
7D10
  8
DEFPOINTS
  6
BYBLOCK
 62
     0
 10
4935.3685215122532
 20
2696.7065993468118
 30
0.0
  0
ENDBLK
  5
7D11
  8
0
  0
BLOCK
  8
0
  2
*D12
 70
     1
 10
0.0
 20
0.0
 30
0.0
  3
*D12
  1

  0
LINE
  5
7D13
  8
0
  6
BYBLOCK
 62
     0
 10
4935.3685215122532
 20
2775.258807346811
 30
0.0
 11
4935.3685215122532
 21
2666.7065993468118
 31
0.0
  0
LINE
  5
7D14
  8
0
  6
BYBLOCK
 62
     0
 10
5225.3685215122532
 20
2875.5060613468108
 30
0.0
 11
5225.3685215122532
 21
2666.7065993468118
 31
0.0
  0
LINE
  5
7D15
  8
0
  6
BYBLOCK
 62
     0
 10
4995.3685215122532
 20
2696.7065993468118
 30
0.0
 11
5165.3685215122532
 21
2696.7065993468118
 31
0.0
  0
TEXT
  5
7D16
  8
3
 62
     0
 10
4969.3577565705682
 20
2726.0453881017929
 30
0.0
 40
90.0
  1
290
  0
INSERT
  5
7D17
  8
0
  6
BYBLOCK
 62
     0
  2
_OPEN
 10
4935.3685215122532
 20
2696.7065993468118
 30
0.0
 41
60.0
 42
60.0
 43
60.0
 50
180.0
  0
INSERT
  5
7D18
  8
0
  6
BYBLOCK
 62
     0
  2
_OPEN
 10
5225.3685215122532
 20
2696.7065993468118
 30
0.0
 41
60.0
 42
60.0
 43
60.0
  0
POINT
  5
7D19
  8
DEFPOINTS
  6
BYBLOCK
 62
     0
 10
4935.3685215122532
 20
2790.258807346811
 30
0.0
  0
POINT
  5
7D1A
  8
DEFPOINTS
  6
BYBLOCK
 62
     0
 10
5225.3685215122532
 20
2890.5060613468108
 30
0.0
  0
POINT
  5
7D1B
  8
DEFPOINTS
  6
BYBLOCK
 62
     0
 10
5225.3685215122532
 20
2696.7065993468118
 30
0.0
  0
ENDBLK
  5
7D1C
  8
0
  0
BLOCK
  8
0
  2
*D13
 70
     1
 10
0.0
 20
0.0
 30
0.0
  3
*D13
  1

  0
LINE
  5
7E6C
  8
3
  6
CONTINUOUS
 62
     0
 10
4483.412670818484
 20
4088.5060613468108
 30
0.0
 11
4483.412670818484
 21
4228.4659433468114
 31
0.0
  0
LINE
  5
7E6D
  8
3
  6
CONTINUOUS
 62
     0
 10
4958.4126708184849
 20
4088.5060613468108
 30
0.0
 11
4958.4126708184849
 21
4228.4659433468114
 31
0.0
  0
LINE
  5
7E6E
  8
3
  6
CONTINUOUS
 62
     0
 10
4543.4126708184849
 20
4198.4659433468114
 30
0.0
 11
4898.4126708184849
 21
4198.4659433468114
 31
0.0
  0
INSERT
  5
7E6F
  8
3
  6
CONTINUOUS
 62
     0
  2
_OPEN
 10
4483.412670818484
 20
4198.4659433468114
 30
0.0
 41
60.0
 42
60.0
 43
60.0
 50
180.0
  0
INSERT
  5
7E70
  8
3
  6
CONTINUOUS
 62
     0
  2
_OPEN
 10
4958.4126708184849
 20
4198.4659433468114
 30
0.0
 41
60.0
 42
60.0
 43
60.0
  0
TEXT
  8
3
  40
90
  5
7E99
  62
0
  72
0
  71
0
 10
4540.91
 20
4114.17
 30
0.000000
  1
475
  0
POINT
  5
7E72
  8
DEFPOINTS
  6
CONTINUOUS
 62
     0
 10
4483.412670818484
 20
4073.5060613468108
 30
0.0
  0
POINT
  5
7E73
  8
DEFPOINTS
  6
CONTINUOUS
 62
     0
 10
4958.4126708184849
 20
4073.5060613468108
 30
0.0
  0
POINT
  5
7E74
  8
DEFPOINTS
  6
CONTINUOUS
 62
     0
 10
4958.4126708184849
 20
4198.4659433468114
 30
0.0
  0
ENDBLK
  5
7C3B
  8
0
  0
BLOCK
  8
0
  2
*D14
 70
     1
 10
0.0
 20
0.0
 30
0.0
  3
*D14
  1

  0
LINE
  5
7E75
  8
3
  6
CONTINUOUS
 62
     0
 10
4240.912670818484
 20
3600.5060613468108
 30
0.0
 11
4240.912670818484
 21
4474.6559883468108
 31
0.0
  0
LINE
  5
7E76
  8
3
  6
CONTINUOUS
 62
     0
 10
4720.912670818484
 20
4353.5477378746709
 30
0.0
 11
4720.912670818484
 21
4474.6559883468108
 31
0.0
  0
LINE
  5
7E77
  8
3
  6
CONTINUOUS
 62
     0
 10
4300.9126708184849
 20
4444.6559883468117
 30
0.0
 11
4660.9126708184849
 21
4444.6559883468117
 31
0.0
  0
INSERT
  5
7E78
  8
3
  6
CONTINUOUS
 62
     0
  2
_OPEN
 10
4240.912670818484
 20
4444.6559883468117
 30
0.0
 41
60.0
 42
60.0
 43
60.0
 50
180.0
  0
INSERT
  5
7E79
  8
3
  6
CONTINUOUS
 62
     0
  2
_OPEN
 10
4720.912670818484
 20
4444.6559883468117
 30
0.0
 41
60.0
 42
60.0
 43
60.0
  0
TEXT
  8
3
  40
90
  5
7E9A
  62
0
  72
0
  71
0
 10
4279.48
 20
4435.36
 30
0.000000
  1
MAX
  0
TEXT
  8
3
  40
90
  5
7E9B
  62
0
  72
0
  71
0
 10
4279.48
 20
4318.36
 30
0.000000
  1
550
  0
POINT
  5
7E7B
  8
DEFPOINTS
  6
CONTINUOUS
 62
     0
 10
4240.912670818484
 20
3585.5060613468108
 30
0.0
  0
POINT
  5
7E7C
  8
DEFPOINTS
  6
CONTINUOUS
 62
     0
 10
4720.912670818484
 20
4338.54773787467
 30
0.0
  0
POINT
  5
7E7D
  8
DEFPOINTS
  6
CONTINUOUS
 62
     0
 10
4720.912670818484
 20
4444.6559883468117
 30
0.0
  0
ENDBLK
  5
7D3D
  8
0
  0
BLOCK
  8
0
  2
*D15
 70
     1
 10
0.0
 20
0.0
 30
0.0
  3
*D15
  1

  0
LINE
  5
7D3F
  8
0
  6
BYBLOCK
 62
     0
 10
4935.3685215122532
 20
4353.5477378746709
 30
0.0
 11
4935.3685215122532
 21
4474.6559883468108
 31
0.0
  0
LINE
  5
7D40
  8
0
  6
BYBLOCK
 62
     0
 10
5255.3685215122532
 20
3765.5060613468108
 30
0.0
 11
5255.3685215122532
 21
4474.6559883468108
 31
0.0
  0
LINE
  5
7D41
  8
0
  6
BYBLOCK
 62
     0
 10
4995.3685215122532
 20
4444.6559883468117
 30
0.0
 11
5195.3685215122541
 21
4444.6559883468117
 31
0.0
  0
TEXT
  5
7D42
  8
3
 62
     0
 10
4987.032668441866
 20
4480.3066052817194
 30
0.0
 40
90.0
  1
320
  0
INSERT
  5
7D43
  8
0
  6
BYBLOCK
 62
     0
  2
_OPEN
 10
4935.3685215122532
 20
4444.6559883468117
 30
0.0
 41
60.0
 42
60.0
 43
60.0
 50
180.0
  0
INSERT
  5
7D44
  8
0
  6
BYBLOCK
 62
     0
  2
_OPEN
 10
5255.3685215122532
 20
4444.6559883468117
 30
0.0
 41
60.0
 42
60.0
 43
60.0
  0
POINT
  5
7D45
  8
DEFPOINTS
  6
BYBLOCK
 62
     0
 10
4935.3685215122532
 20
4338.54773787467
 30
0.0
  0
POINT
  5
7D46
  8
DEFPOINTS
  6
BYBLOCK
 62
     0
 10
5255.3685215122532
 20
3750.5060613468108
 30
0.0
  0
POINT
  5
7D47
  8
DEFPOINTS
  6
BYBLOCK
 62
     0
 10
5255.3685215122532
 20
4444.6559883468117
 30
0.0
  0
ENDBLK
  5
7D48
  8
0
  0
BLOCK
  8
0
  2
*D16
 70
     1
 10
0.0
 20
0.0
 30
0.0
  3
*D16
  1

  0
LINE
  5
7E7E
  8
3
  6
CONTINUOUS
 62
     0
 10
5055.9126708184849
 20
3710.5060613468108
 30
0.0
 11
5348.8283448184857
 21
3710.5060613468108
 31
0.0
  0
LINE
  5
7E7F
  8
3
  6
CONTINUOUS
 62
     0
 10
5055.9126708184849
 20
3080.5060613468108
 30
0.0
 11
5348.8283448184857
 21
3080.5060613468099
 31
0.0
  0
LINE
  5
7E80
  8
3
  6
CONTINUOUS
 62
     0
 10
5318.8283448184866
 20
3650.5060613468108
 30
0.0
 11
5318.8283448184866
 21
3140.5060613468099
 31
0.0
  0
INSERT
  5
7E81
  8
3
  6
CONTINUOUS
 62
     0
  2
_OPEN
 10
5318.8283448184866
 20
3710.5060613468108
 30
0.0
 41
60.0
 42
60.0
 43
60.0
 50
90.0
  0
INSERT
  5
7E82
  8
3
  6
CONTINUOUS
 62
     0
  2
_OPEN
 10
5318.8283448184866
 20
3080.5060613468099
 30
0.0
 41
60.0
 42
60.0
 43
60.0
 50
270.0
  0
TEXT
  8
3
  40
90
  5
7E9C
  62
0
  72
0
  71
0
 10
5063.83
 20
3226.74
 30
0.000000
  1
φ630
  0
POINT
  5
7E84
  8
DEFPOINTS
  6
CONTINUOUS
 62
     0
 10
5040.9126708184849
 20
3710.5060613468108
 30
0.0
  0
POINT
  5
7E85
  8
DEFPOINTS
  6
CONTINUOUS
 62
     0
 10
5040.9126708184849
 20
3080.5060613468108
 30
0.0
  0
POINT
  5
7E86
  8
DEFPOINTS
  6
CONTINUOUS
 62
     0
 10
5318.8283448184866
 20
3080.5060613468099
 30
0.0
  0
ENDBLK
  5
7D32
  8
0
  0
BLOCK
  8
0
  2
*D17
 70
     1
 10
0.0
 20
0.0
 30
0.0
  3
*D17
  1

  0
LINE
  5
7E87
  8
3
 62
     0
 10
1702.077101481869
 20
4145.5060613468113
 30
0.0
 11
1702.077101481869
 21
4472.8916560212701
 31
0.0
  0
LINE
  5
7E88
  8
3
 62
     0
 10
3162.0771014818702
 20
3005.5060613468108
 30
0.0
 11
3162.0771014818702
 21
4472.8916560212701
 31
0.0
  0
LINE
  5
7E89
  8
3
 62
     0
 10
1762.077101481869
 20
4442.891656021271
 30
0.0
 11
3102.0771014818702
 21
4442.891656021271
 31
0.0
  0
INSERT
  5
7E8A
  8
3
 62
     0
  2
_OPEN
 10
1702.077101481869
 20
4442.891656021271
 30
0.0
 41
60.0
 42
60.0
 43
60.0
 50
180.0
  0
INSERT
  5
7E8B
  8
3
 62
     0
  2
_OPEN
 10
3162.0771014818702
 20
4442.891656021271
 30
0.0
 41
60.0
 42
60.0
 43
60.0
  0
TEXT
  8
3
  40
90
  5
7E9D
  62
0
  72
0
  71
0
 10
2277.40
 20
4358.59
 30
0.000000
  1
1460
  0
POINT
  5
7E8D
  8
DEFPOINTS
 62
     0
 10
1702.077101481869
 20
4130.5060613468113
 30
0.0
  0
POINT
  5
7E8E
  8
DEFPOINTS
 62
     0
 10
3162.0771014818702
 20
2990.5060613468108
 30
0.0
  0
POINT
  5
7E8F
  8
DEFPOINTS
 62
     0
 10
3162.0771014818702
 20
4442.891656021271
 30
0.0
  0
ENDBLK
  5
7D54
  8
0
  0
ENDSEC
  0
SECTION
  2
ENTITIES
  0
LINE
  5
7A63
  8
1
  6
CONTINUOUS
 10
2945.6771014818692
 20
3002.7060613468111
 30
0.0
 11
2115.77710148187
 21
3211.306061346811
 31
0.0
  0
LINE
  5
7A64
  8
1
  6
CONTINUOUS
 10
2969.9771014818698
 20
3099.7060613468111
 30
0.0
 11
2140.1771014818692
 21
3308.306061346811
 31
0.0
  0
LINE
  5
7A65
  8
1
  6
CONTINUOUS
 10
3036.1771014818692
 20
3330.306061346811
 30
0.0
 11
2216.9771014818689
 21
3577.4060613468109
 31
0.0
  0
LINE
  5
7A66
  8
1
  6
CONTINUOUS
 10
3007.27710148187
 20
3234.6060613468112
 30
0.0
 11
2188.0771014818688
 21
3481.7060613468111
 31
0.0
  0
LINE
  5
7A67
  8
1
  6
CONTINUOUS
 10
2252.0771014818688
 20
5811.3836223468124
 30
0.0
 11
2917.0771014818702
 21
5811.3836223468124
 31
0.0
  0
LINE
  5
7A68
  8
1
  6
CONTINUOUS
 10
2477.0771014818688
 20
6501.3836223468106
 30
0.0
 11
3162.0771014818702
 21
6501.3836223468106
 31
0.0
  0
LINE
  5
7A69
  8
1
  6
CONTINUOUS
 10
1972.077101481869
 20
5891.3836223468106
 30
0.0
 11
3187.0771014818702
 21
5891.3836223468106
 31
0.0
  0
LINE
  5
7A6A
  8
1
  6
CONTINUOUS
 10
1972.077101481869
 20
5731.3836223468106
 30
0.0
 11
3187.0771014818702
 21
5731.3836223468106
 31
0.0
  0
LINE
  5
7A6B
  8
1
  6
CONTINUOUS
 10
1702.077101481869
 20
5973.8836223468124
 30
0.0
 11
2711.9771014818698
 21
5973.8836223468124
 31
0.0
  0
LINE
  5
7A6C
  8
1
  6
CONTINUOUS
 10
1702.077101481869
 20
6448.8836223468106
 30
0.0
 11
2711.9771014818698
 21
6448.8836223468106
 31
0.0
  0
LINE
  5
7A6D
  8
1
  6
CONTINUOUS
 10
1762.077101481869
 20
2990.5060613468108
 30
0.0
 11
3162.0771014818702
 21
2990.5060613468108
 31
0.0
  0
ARC
  5
7A6E
  8
1
  6
CONTINUOUS
 10
2209.0771014818688
 20
3442.5060613468108
 30
0.0
 40
502.89999999999992
 50
264.0
 51
0.0
  0
ARC
  5
7A6F
  8
1
  6
CONTINUOUS
 10
2115.0771014818688
 20
3442.5060613468108
 30
0.0
 40
596.89999999999998
 50
0.0
 51
85.5
  0
LINE
  5
7A70
  8
1
  6
CONTINUOUS
 10
1762.077101481869
 20
2890.5060613468108
 30
0.0
 11
3162.0771014818702
 21
2890.5060613468108
 31
0.0
  0
ARC
  5
7A71
  8
1
  6
CONTINUOUS
 10
2200.0771014818688
 20
3357.5060613468108
 30
0.0
 40
417.39999999999992
 50
180.0
 51
264.0
  0
LINE
  5
7A72
  8
1
  6
CONTINUOUS
 10
1702.077101481869
 20
4073.5060613468108
 30
0.0
 11
2162.0771014818688
 21
4037.5060613468108
 31
0.0
  0
LINE
  5
7A73
  8
1
  6
CONTINUOUS
 10
1789.1771014818689
 20
3423.5060613468108
 30
0.0
 11
1702.077101481869
 21
3423.5060613468108
 31
0.0
  0
LINE
  5
7A74
  8
1
  6
CONTINUOUS
 10
1702.077101481869
 20
3381.5060613468108
 30
0.0
 11
1702.077101481869
 21
4115.5060613468113
 31
0.0
  0
LINE
  5
7A75
  8
1
  6
CONTINUOUS
 10
1742.077101481869
 20
3423.5060613468108
 30
0.0
 11
1742.077101481869
 21
4073.5060613468108
 31
0.0
  0
LINE
  5
7A76
  8
2
  6
CENTER
 10
5122.6704978184862
 20
3395.5060613468108
 30
0.0
 11
4160.8893478184846
 21
3395.5060613468108
 31
0.0
  0
ARC
  5
7A77
  8
1
  6
CONTINUOUS
 10
2162.0771014818688
 20
3395.5060613468108
 30
0.0
 40
190.0
 50
73.200000000000003
 51
255.90000000000001
  0
CIRCLE
  5
7A78
  8
1
  6
CONTINUOUS
 10
2162.0771014818688
 20
3395.5060613468108
 30
0.0
 40
90.0
  0
CIRCLE
  5
7A79
  8
1
  6
CONTINUOUS
 10
2162.0771014818688
 20
3395.5060613468108
 30
0.0
 40
355.0
  0
CIRCLE
  5
7A7A
  8
1
  6
CONTINUOUS
 10
2162.0771014818688
 20
3395.5060613468108
 30
0.0
 40
315.0
  0
LINE
  5
7A7B
  8
2
  6
CENTER
 10
2162.0771014818688
 20
2797.6593883468122
 30
0.0
 11
2162.0771014818688
 21
4131.9809713468121
 31
0.0
  0
LINE
  5
7A7C
  8
1
  6
CONTINUOUS
 10
1762.077101481869
 20
2990.5060613468108
 30
0.0
 11
1762.077101481869
 21
2890.5060613468108
 31
0.0
  0
ARC
  5
7A7D
  8
1
  6
CONTINUOUS
 10
2124.0771014818688
 20
3357.5060613468108
 30
0.0
 40
341.39999999999992
 50
168.90000000000001
 51
180.0
  0
LINE
  5
7A7E
  8
1
  6
CONTINUOUS
 10
1702.077101481869
 20
5933.8836223468124
 30
0.0
 11
1702.077101481869
 21
6488.8836223468106
 31
0.0
  0
LINE
  5
7A7F
  8
1
  6
CONTINUOUS
 10
1807.077101481869
 20
6531.3836223468124
 30
0.0
 11
2517.0771014818688
 21
6531.3836223468124
 31
0.0
  0
LINE
  5
7A80
  8
1
  6
CONTINUOUS
 10
2252.0771014818688
 20
5851.3836223468124
 30
0.0
 11
2072.0771014818688
 21
5851.3836223468124
 31
0.0
  0
LINE
  5
7A81
  8
1
  6
CONTINUOUS
 10
2252.0771014818688
 20
5771.3836223468106
 30
0.0
 11
2072.0771014818688
 21
5771.3836223468106
 31
0.0
  0
LINE
  5
7A82
  8
1
  6
CONTINUOUS
 10
1742.077101481869
 20
5973.8836223468124
 30
0.0
 11
1742.077101481869
 21
6448.8836223468106
 31
0.0
  0
LINE
  5
7A83
  8
1
  6
CONTINUOUS
 10
1762.077101481869
 20
5811.3836223468124
 30
0.0
 11
2072.0771014818688
 21
5811.3836223468124
 31
0.0
  0
LINE
  5
7A84
  8
1
  6
CONTINUOUS
 10
1762.077101481869
 20
5973.8836223468124
 30
0.0
 11
1762.077101481869
 21
5811.3836223468124
 31
0.0
  0
LINE
  5
7A85
  8
1
  6
CONTINUOUS
 10
2143.0771014818688
 20
5851.3836223468124
 30
0.0
 11
2143.0771014818688
 21
5973.8836223468124
 31
0.0
  0
LINE
  5
7A86
  8
1
  6
CONTINUOUS
 10
2072.0771014818688
 20
5771.3836223468106
 30
0.0
 11
2072.0771014818688
 21
5851.3836223468124
 31
0.0
  0
LINE
  5
7A87
  8
1
  6
CONTINUOUS
 10
1972.077101481869
 20
5731.3836223468106
 30
0.0
 11
1972.077101481869
 21
5891.3836223468106
 31
0.0
  0
LINE
  5
7A88
  8
1
  6
CONTINUOUS
 10
1847.077101481869
 20
6531.3836223468124
 30
0.0
 11
1847.077101481869
 21
6448.8836223468106
 31
0.0
  0
LINE
  5
7A89
  8
1
  6
CONTINUOUS
 10
1762.077101481869
 20
6501.3836223468106
 30
0.0
 11
1847.077101481869
 21
6501.3836223468106
 31
0.0
  0
LINE
  5
7A8A
  8
1
  6
CONTINUOUS
 10
1762.077101481869
 20
6501.3836223468106
 30
0.0
 11
1762.077101481869
 21
6448.8836223468106
 31
0.0
  0
LINE
  5
7A8B
  8
1
  6
CONTINUOUS
 10
2181.0771014818688
 20
5851.3836223468124
 30
0.0
 11
2181.0771014818688
 21
5973.8836223468124
 31
0.0
  0
LINE
  5
7A8C
  8
1
  6
CONTINUOUS
 10
2252.0771014818688
 20
5771.3836223468106
 30
0.0
 11
2252.0771014818688
 21
5851.3836223468124
 31
0.0
  0
LINE
  5
7A8D
  8
1
  6
CONTINUOUS
 10
2477.0771014818688
 20
6531.3836223468124
 30
0.0
 11
2477.0771014818688
 21
6448.8836223468106
 31
0.0
  0
ARC
  5
7A8E
  8
1
  6
CONTINUOUS
 10
2987.0771014818702
 20
3167.5060613468108
 30
0.0
 40
170.0
 50
255.90000000000001
 51
73.200000000000003
  0
LINE
  5
7A8F
  8
1
  6
CONTINUOUS
 10
2822.0771014818688
 20
3035.5060613468108
 30
0.0
 11
3152.0771014818702
 21
3035.5060613468108
 31
0.0
  0
ARC
  5
7A90
  8
1
  6
CONTINUOUS
 10
2987.0771014818702
 20
3167.5060613468108
 30
0.0
 40
142.0
 50
324.60000000000002
 51
215.39999999999989
  0
LINE
  5
7A91
  8
1
  6
CONTINUOUS
 10
2857.0771014818688
 20
3050.5060613468108
 30
0.0
 11
2871.377101481869
 21
3085.306061346811
 31
0.0
  0
LINE
  5
7A92
  8
1
  6
CONTINUOUS
 10
2812.0771014818688
 20
2990.5060613468108
 30
0.0
 11
2822.0771014818688
 21
3035.5060613468108
 31
0.0
  0
LINE
  5
7A93
  8
1
  6
CONTINUOUS
 10
2857.0771014818688
 20
3035.5060613468108
 30
0.0
 11
2857.0771014818688
 21
3050.5060613468108
 31
0.0
  0
LINE
  5
7A94
  8
2
  6
CENTER
 10
3057.0771014818702
 20
3167.5060613468108
 30
0.0
 11
2917.0771014818702
 21
3167.5060613468108
 31
0.0
  0
LINE
  5
7A95
  8
2
  6
CENTER
 10
2987.0771014818702
 20
3097.5060613468108
 30
0.0
 11
2987.0771014818702
 21
3237.5060613468108
 31
0.0
  0
CIRCLE
  5
7A96
  8
1
  6
CONTINUOUS
 10
2987.0771014818702
 20
3167.5060613468108
 30
0.0
 40
70.0
  0
LINE
  5
7A97
  8
1
  6
CONTINUOUS
 10
3152.0771014818702
 20
3035.5060613468108
 30
0.0
 11
3162.0771014818702
 21
2990.5060613468108
 31
0.0
  0
LINE
  5
7A98
  8
1
  6
CONTINUOUS
 10
3117.0771014818702
 20
3035.5060613468108
 30
0.0
 11
3117.0771014818702
 21
3050.5060613468108
 31
0.0
  0
LINE
  5
7A99
  8
1
  6
CONTINUOUS
 10
3117.0771014818702
 20
3050.5060613468108
 30
0.0
 11
3102.77710148187
 21
3085.306061346811
 31
0.0
  0
LINE
  5
7A9A
  8
1
  6
CONTINUOUS
 10
3162.0771014818702
 20
2990.5060613468108
 30
0.0
 11
3162.0771014818702
 21
2890.5060613468108
 31
0.0
  0
LINE
  5
7A9B
  8
1
  6
CONTINUOUS
 10
3057.0771014818702
 20
5811.3836223468124
 30
0.0
 11
3162.0771014818702
 21
5811.3836223468124
 31
0.0
  0
LINE
  5
7A9C
  8
1
  6
CONTINUOUS
 10
3129.0771014818702
 20
6343.9836223468119
 30
0.0
 11
2845.0771014818688
 21
6343.9836223468119
 31
0.0
  0
LINE
  5
7A9D
  8
1
  6
CONTINUOUS
 10
3129.0771014818702
 20
5943.9836223468119
 30
0.0
 11
2845.0771014818688
 21
5943.9836223468119
 31
0.0
  0
LINE
  5
7A9E
  8
1
  6
CONTINUOUS
 10
2711.9771014818698
 20
5973.8836223468124
 30
0.0
 11
2711.9771014818698
 21
6448.8836223468106
 31
0.0
  0
LINE
  5
7A9F
  8
1
  6
CONTINUOUS
 10
2845.0771014818688
 20
5943.9836223468119
 30
0.0
 11
2845.0771014818688
 21
6343.9836223468119
 31
0.0
  0
LINE
  5
7AA0
  8
1
  6
CONTINUOUS
 10
2917.0771014818702
 20
5771.3836223468106
 30
0.0
 11
2917.0771014818702
 21
5851.3836223468124
 31
0.0
  0
LINE
  5
7AA1
  8
1
  6
CONTINUOUS
 10
3057.0771014818702
 20
5771.3836223468106
 30
0.0
 11
3057.0771014818702
 21
5851.3836223468124
 31
0.0
  0
LINE
  5
7AA2
  8
1
  6
CONTINUOUS
 10
3057.0771014818702
 20
5771.3836223468106
 30
0.0
 11
2917.0771014818702
 21
5771.3836223468106
 31
0.0
  0
LINE
  5
7AA3
  8
1
  6
CONTINUOUS
 10
3057.0771014818702
 20
5851.3836223468124
 30
0.0
 11
2917.0771014818702
 21
5851.3836223468124
 31
0.0
  0
LINE
  5
7AA4
  8
1
  6
CONTINUOUS
 10
2968.0771014818702
 20
5851.3836223468124
 30
0.0
 11
2968.0771014818702
 21
5943.9836223468119
 31
0.0
  0
LINE
  5
7AA5
  8
1
  6
CONTINUOUS
 10
3006.0771014818702
 20
5851.3836223468124
 30
0.0
 11
3006.0771014818702
 21
5943.9836223468119
 31
0.0
  0
LINE
  5
7AA6
  8
1
  6
CONTINUOUS
 10
3162.0771014818702
 20
6501.3836223468106
 30
0.0
 11
3162.0771014818702
 21
5811.3836223468124
 31
0.0
  0
LINE
  5
7AA7
  8
1
  6
CONTINUOUS
 10
3129.0771014818702
 20
5943.9836223468119
 30
0.0
 11
3129.0771014818702
 21
6343.9836223468119
 31
0.0
  0
LINE
  5
7AA8
  8
1
  6
CONTINUOUS
 10
3187.0771014818702
 20
5731.3836223468106
 30
0.0
 11
3187.0771014818702
 21
5891.3836223468106
 31
0.0
  0
LINE
  5
7AA9
  8
1
  6
CONTINUOUS
 10
5010.9126708184849
 20
2990.5060613468108
 30
0.0
 11
4320.9126708184849
 21
2990.5060613468108
 31
0.0
  0
LINE
  5
7AAA
  8
1
  6
CONTINUOUS
 10
5010.9126708184849
 20
2890.5060613468108
 30
0.0
 11
4320.9126708184849
 21
2890.5060613468108
 31
0.0
  0
LINE
  5
7AAB
  8
1
  6
CONTINUOUS
 10
4483.412670818484
 20
4073.5060613468108
 30
0.0
 11
4958.4126708184849
 21
4073.5060613468108
 31
0.0
  0
LINE
  5
7AAC
  8
1
  6
CONTINUOUS
 10
4483.412670818484
 20
3423.5060613468108
 30
0.0
 11
4958.4126708184849
 21
3423.5060613468108
 31
0.0
  0
LINE
  5
7AAD
  8
1
  6
CONTINUOUS
 10
4483.412670818484
 20
4073.5060613468108
 30
0.0
 11
4958.4126708184849
 21
3423.5060613468108
 31
0.0
  0
LINE
  5
7AAE
  8
1
  6
CONTINUOUS
 10
4483.412670818484
 20
3423.5060613468108
 30
0.0
 11
4958.4126708184849
 21
4073.5060613468108
 31
0.0
  0
LINE
  5
7AAF
  8
1
  6
CONTINUOUS
 10
4483.412670818484
 20
4073.5060613468108
 30
0.0
 11
4483.412670818484
 21
2990.5060613468108
 31
0.0
  0
LINE
  5
7AB0
  8
1
  6
CONTINUOUS
 10
4240.912670818484
 20
2997.5060613468108
 30
0.0
 11
4400.9126708184849
 21
2997.5060613468108
 31
0.0
  0
LINE
  5
7AB1
  8
1
  6
CONTINUOUS
 10
4240.912670818484
 20
3585.5060613468108
 30
0.0
 11
4400.9126708184849
 21
3585.5060613468108
 31
0.0
  0
LINE
  5
7AB2
  8
1
  6
CONTINUOUS
 10
4280.9126708184849
 20
3485.5060613468108
 30
0.0
 11
4360.9126708184849
 21
3485.5060613468108
 31
0.0
  0
LINE
  5
7AB3
  8
1
  6
CONTINUOUS
 10
4280.9126708184849
 20
3305.5060613468108
 30
0.0
 11
4360.9126708184849
 21
3305.5060613468108
 31
0.0
  0
LINE
  5
7AB4
  8
1
  6
CONTINUOUS
 10
4280.9126708184849
 20
3237.5060613468108
 30
0.0
 11
4360.9126708184849
 21
3237.5060613468108
 31
0.0
  0
LINE
  5
7AB5
  8
1
  6
CONTINUOUS
 10
4280.9126708184849
 20
3097.5060613468108
 30
0.0
 11
4360.9126708184849
 21
3097.5060613468108
 31
0.0
  0
LINE
  5
7AB6
  8
1
  6
CONTINUOUS
 10
4240.912670818484
 20
3585.5060613468108
 30
0.0
 11
4240.912670818484
 21
2997.5060613468108
 31
0.0
  0
LINE
  5
7AB7
  8
1
  6
CONTINUOUS
 10
4280.9126708184849
 20
3485.5060613468108
 30
0.0
 11
4280.9126708184849
 21
3305.5060613468108
 31
0.0
  0
LINE
  5
7AB8
  8
1
  6
CONTINUOUS
 10
4280.9126708184849
 20
3237.5060613468108
 30
0.0
 11
4280.9126708184849
 21
3097.5060613468108
 31
0.0
  0
LINE
  5
7AB9
  8
1
  6
CONTINUOUS
 10
4400.9126708184849
 20
3585.5060613468108
 30
0.0
 11
4400.9126708184849
 21
2997.5060613468108
 31
0.0
  0
LINE
  5
7ABA
  8
1
  6
CONTINUOUS
 10
4360.9126708184849
 20
3485.5060613468108
 30
0.0
 11
4360.9126708184849
 21
3305.5060613468108
 31
0.0
  0
LINE
  5
7ABB
  8
1
  6
CONTINUOUS
 10
4320.9126708184849
 20
2990.5060613468108
 30
0.0
 11
4320.9126708184849
 21
2890.5060613468108
 31
0.0
  0
LINE
  5
7ABC
  8
1
  6
CONTINUOUS
 10
4360.9126708184849
 20
3237.5060613468108
 30
0.0
 11
4360.9126708184849
 21
3097.5060613468108
 31
0.0
  0
LINE
  5
7ABD
  8
1
  6
CONTINUOUS
 10
4483.412670818484
 20
3148.5060613468108
 30
0.0
 11
4360.9126708184849
 21
3148.5060613468108
 31
0.0
  0
LINE
  5
7ABE
  8
1
  6
CONTINUOUS
 10
4483.412670818484
 20
3186.5060613468108
 30
0.0
 11
4360.9126708184849
 21
3186.5060613468108
 31
0.0
  0
LINE
  5
7ABF
  8
1
  6
CONTINUOUS
 10
4483.412670818484
 20
3414.5060613468108
 30
0.0
 11
4360.9126708184849
 21
3414.5060613468108
 31
0.0
  0
LINE
  5
7AC0
  8
1
  6
CONTINUOUS
 10
4483.412670818484
 20
3376.5060613468108
 30
0.0
 11
4360.9126708184849
 21
3376.5060613468108
 31
0.0
  0
LINE
  5
7AC1
  8
1
  6
CONTINUOUS
 10
4958.4126708184849
 20
4073.5060613468108
 30
0.0
 11
4958.4126708184849
 21
2990.5060613468108
 31
0.0
  0
LINE
  5
7AC2
  8
1
  6
CONTINUOUS
 10
5040.9126708184849
 20
3750.5060613468108
 30
0.0
 11
5040.9126708184849
 21
3040.5060613468108
 31
0.0
  0
LINE
  5
7AC3
  8
1
  6
CONTINUOUS
 10
4958.4126708184849
 20
3080.5060613468108
 30
0.0
 11
5040.9126708184849
 21
3080.5060613468108
 31
0.0
  0
LINE
  5
7AC4
  8
1
  6
CONTINUOUS
 10
5010.9126708184849
 20
2990.5060613468108
 30
0.0
 11
5010.9126708184849
 21
2890.5060613468108
 31
0.0
  0
LINE
  5
7AC5
  8
1
  6
CONTINUOUS
 10
4958.4126708184849
 20
3710.5060613468108
 30
0.0
 11
5040.9126708184849
 21
3710.5060613468108
 31
0.0
  0
DIMENSION
  5
7ADB
  8
3
  6
CONTINUOUS
  2
*D1
 10
2162.0771014818688
 20
2672.5838503468108
 30
0.0
 11
1962.077101481869
 21
2753.3850488476228
 31
0.0
 12
-459.5482575181303
 22
0.0
 32
0.0
 70
   128
 13
1762.077101481869
 23
2890.5060613468108
 33
0.0
 14
2162.0771014818688
 24
2814.892701346811
 34
0.0
1001
ACAD
1000
DSTYLE
1002
{
1070
   288
1070
     1
1070
   172
1070
     1
1070
    40
1040
30.0
1070
   271
1070
     0
1070
   143
1040
0.039
1002
}
  0
DIMENSION
  5
7AE7
  8
3
  6
CONTINUOUS
  2
*D2
 10
3162.0771014818702
 20
2672.5838503468108
 30
0.0
 11
2662.0771014818702
 21
2747.5838503468108
 31
0.0
 70
     0
 13
2162.0771014818688
 23
2814.892701346811
 33
0.0
 14
3162.0771014818702
 24
2890.5060613468108
 34
0.0
1001
ACAD
1000
DSTYLE
1002
{
1070
   287
1070
     3
1070
   287
1070
     3
1070
    40
1040
30.0
1070
   143
1040
0.039
1070
   172
1070
     1
1070
   271
1070
     0
1070
   279
1070
     0
1070
   288
1070
     1
1002
}
  0
DIMENSION
  5
7AF4
  8
3
  6
CONTINUOUS
  2
*D3
 10
1542.1405474818689
 20
3423.5060613468108
 30
0.0
 11
1542.1405474818689
 21
3756.3097283468119
 31
0.0
 70
   128
 13
1702.077101481869
 23
4073.5060613468108
 33
0.0
 14
1702.077101481869
 24
3423.5060613468108
 34
0.0
 50
90.0
1001
ACAD
1000
DSTYLE
1002
{
1070
   287
1070
     3
1070
   287
1070
     3
1070
    40
1040
30.0
1070
   143
1040
0.039
1070
   172
1070
     1
1070
   271
1070
     0
1070
   279
1070
     0
1070
   288
1070
     1
1002
}
  0
DIMENSION
  5
7B01
  8
3
  6
CONTINUOUS
  2
*D4
 10
1347.01605848187
 20
3395.5060613468108
 30
0.0
 11
1347.0160584818691
 21
3741.5383273468119
 31
0.0
 70
   128
 13
1702.077101481869
 23
4073.5060613468108
 33
0.0
 14
1784.798514481869
 24
3395.5060613468108
 34
0.0
 50
90.0
1001
ACAD
1000
DSTYLE
1002
{
1070
   287
1070
     3
1070
   287
1070
     3
1070
    40
1040
30.0
1070
   143
1040
0.039
1070
   172
1070
     1
1070
   271
1070
     0
1070
   279
1070
     0
1070
   288
1070
     1
1002
}
  0
DIMENSION
  5
7B0D
  8
3
  6
CONTINUOUS
  2
*D5
 10
1347.0160584818691
 20
2890.5060613468108
 30
0.0
 11
1272.0160584818691
 21
3143.0060613468108
 31
0.0
 70
     0
 13
1784.798514481869
 23
3395.5060613468108
 33
0.0
 14
1762.077101481869
 24
2890.5060613468108
 34
0.0
 50
90.0
1001
ACAD
1000
DSTYLE
1002
{
1070
   287
1070
     3
1070
   287
1070
     3
1070
    40
1040
30.0
1070
   143
1040
0.039
1070
   172
1070
     1
1070
   271
1070
     0
1070
   279
1070
     0
1070
   288
1070
     1
1002
}
  0
DIMENSION
  5
7B1A
  8
3
  6
CONTINUOUS
  2
*D6
 10
1159.77486848187
 20
2890.5060613468108
 30
0.0
 11
1159.7748684818689
 21
3505.1958833468111
 31
0.0
 70
   128
 13
1702.077101481869
 23
4115.5060613468113
 33
0.0
 14
1762.077101481869
 24
2890.5060613468108
 34
0.0
 50
90.0
1001
ACAD
1000
DSTYLE
1002
{
1070
   287
1070
     3
1070
   287
1070
     3
1070
    40
1040
30.0
1070
   143
1040
0.039
1070
   172
1070
     1
1070
   271
1070
     0
1070
   279
1070
     0
1070
   288
1070
     1
1002
}
  0
DIMENSION
  5
7B29
  8
3
  6
CONTINUOUS
  2
*D7
 10
2162.0771014818688
 20
4259.7615723468107
 30
0.0
 11
1907.791387196155
 21
4259.7615723468107
 31
0.0
 70
   128
 13
1702.077101481869
 23
4115.5060613468113
 33
0.0
 14
2162.0771014818688
 24
4037.5060613468108
 34
0.0
1001
ACAD
1000
DSTYLE
1002
{
1070
   287
1070
     3
1070
   287
1070
     3
1070
    40
1040
30.0
1070
   143
1040
0.039
1070
   172
1070
     1
1070
   271
1070
     0
1070
   279
1070
     0
1070
   288
1070
     1
1002
}
  0
DIMENSION
  5
7B35
  8
3
  6
CONTINUOUS
  2
*D8
 10
2709.7760234818688
 20
4259.7615723468107
 30
0.0
 11
2435.926562481869
 21
4334.7615723468116
 31
0.0
 70
     0
 13
2162.0771014818688
 23
4037.5060613468108
 33
0.0
 14
2709.7760234818688
 24
3395.5060613468108
 34
0.0
1001
ACAD
1000
DSTYLE
1002
{
1070
   287
1070
     3
1070
   287
1070
     3
1070
    40
1040
30.0
1070
   143
1040
0.039
1070
   172
1070
     1
1070
   271
1070
     0
1070
   279
1070
     0
1070
   288
1070
     1
1002
}
  0
DIMENSION
  5
7B42
  8
3
  6
CONTINUOUS
  2
*D9
 10
3162.0771014818702
 20
5466.0792363468117
 30
0.0
 11
2414.290328481869
 21
5466.0792363468117
 31
0.0
 70
   128
 13
1762.077101481869
 23
5811.3836223468124
 33
0.0
 14
3162.0771014818702
 24
5811.3836223468124
 34
0.0
1001
ACAD
1000
DSTYLE
1002
{
1070
   287
1070
     3
1070
   287
1070
     3
1070
    40
1040
30.0
1070
   143
1040
0.039
1070
   172
1070
     1
1070
   271
1070
     0
1070
   279
1070
     0
1070
   288
1070
     1
1002
}
  0
DIMENSION
  5
7B4F
  8
3
  6
CONTINUOUS
  2
*D10
 10
3422.4357834818702
 20
5811.3836223468124
 30
0.0
 11
3422.4357834818688
 21
6163.776387346812
 31
0.0
 70
   128
 13
3162.0771014818702
 23
6501.3836223468106
 33
0.0
 14
3162.0771014818702
 24
5811.3836223468124
 34
0.0
 50
90.0
1001
ACAD
1000
DSTYLE
1002
{
1070
   287
1070
     3
1070
   287
1070
     3
1070
    40
1040
30.0
1070
   143
1040
0.039
1070
   172
1070
     1
1070
   271
1070
     0
1070
   279
1070
     0
1070
   288
1070
     1
1002
}
  0
LINE
  5
7B50
  8
2
  6
CENTER
 10
2899.2182914818691
 20
6211.3836223468106
 30
0.0
 11
1588.9508254818691
 21
6211.3836223468106
 31
0.0
  0
LINE
  5
7B51
  8
2
  6
CENTER
 10
2162.0771014818688
 20
5643.5878923468108
 30
0.0
 11
2162.0771014818688
 21
6562.4198793468122
 31
0.0
  0
LINE
  5
7B52
  8
2
  6
CENTER
 10
4720.912670818484
 20
4231.351019346811
 30
0.0
 11
4720.912670818484
 21
2790.258807346811
 31
0.0
  0
DIMENSION
  5
7B61
  8
3
  6
CONTINUOUS
  2
*D11
 10
4720.912670818484
 20
2696.7065993468118
 30
0.0
 11
4520.9126708184849
 21
2759.2718204137668
 31
0.0
 12
-214.45585069376821
 22
0.0
 32
0.0
 70
   128
 13
4320.9126708184849
 23
2890.5060613468108
 33
0.0
 14
4720.912670818484
 24
2790.258807346811
 34
0.0
1001
ACAD
1000
DSTYLE
1002
{
1070
   288
1070
     1
1070
   172
1070
     1
1070
    40
1040
30.0
1070
   271
1070
     0
1070
   143
1040
0.039
1002
}
  0
DIMENSION
  5
7B6F
  8
3
  6
CONTINUOUS
  2
*D12
 10
5010.9126708184849
 20
2696.7065993468118
 30
0.0
 11
4870.6161915910861
 21
2771.0453881017929
 31
0.0
 12
-214.45585069376821
 22
0.0
 32
0.0
 70
   128
 13
4720.912670818484
 23
2790.258807346811
 33
0.0
 14
5010.9126708184849
 24
2890.5060613468108
 34
0.0
1001
ACAD
1000
DSTYLE
1002
{
1070
   288
1070
     1
1070
   172
1070
     1
1070
    40
1040
30.0
1070
   271
1070
     0
1070
   143
1040
0.039
1002
}
  0
DIMENSION
  5
7B94
  8
3
  6
CONTINUOUS
  2
*D13
 10
4958.4126708184849
 20
4198.4659433468114
 30
0.0
 11
4720.912670818484
 21
4198.4659433468114
 31
0.0
 70
   128
 13
4483.412670818484
 23
4073.5060613468108
 33
0.0
 14
4958.4126708184849
 24
4073.5060613468108
 34
0.0
1001
ACAD
1000
DSTYLE
1002
{
1070
   287
1070
     3
1070
   287
1070
     3
1070
    40
1040
30.0
1070
   143
1040
0.039
1070
   172
1070
     1
1070
   271
1070
     0
1070
   279
1070
     0
1070
   288
1070
     1
1002
}
  0
DIMENSION
  5
7BA1
  8
3
  6
CONTINUOUS
  2
*D14
 10
4720.912670818484
 20
4444.6559883468117
 30
0.0
 11
4459.4840993899134
 21
4444.6559883468117
 31
0.0
 70
   128
  1
MAX\P550
 13
4240.912670818484
 23
3585.5060613468108
 33
0.0
 14
4720.912670818484
 24
4338.54773787467
 34
0.0
1001
ACAD
1000
DSTYLE
1002
{
1070
   287
1070
     3
1070
   287
1070
     3
1070
    40
1040
30.0
1070
   143
1040
0.039
1070
   172
1070
     1
1070
   271
1070
     0
1070
   279
1070
     0
1070
   288
1070
     1
1002
}
  0
DIMENSION
  5
7BAF
  8
3
  6
CONTINUOUS
  2
*D15
 10
5040.9126708184849
 20
4444.6559883468117
 30
0.0
 11
4888.291103462383
 21
4525.3066052817194
 31
0.0
 12
-214.45585069376821
 22
0.0
 32
0.0
 70
   128
 13
4720.912670818484
 23
4338.54773787467
 33
0.0
 14
5040.9126708184849
 24
3750.5060613468108
 34
0.0
1001
ACAD
1000
DSTYLE
1002
{
1070
   288
1070
     1
1070
   172
1070
     1
1070
    40
1040
30.0
1070
   271
1070
     0
1070
   143
1040
0.039
1002
}
  0
DIMENSION
  5
7BD2
  8
3
  6
CONTINUOUS
  2
*D16
 10
5318.8283448184866
 20
3080.5060613468099
 30
0.0
 11
5318.8283448184848
 21
3386.0387543468109
 31
0.0
 70
   128
 13
5040.9126708184849
 23
3710.5060613468108
 33
0.0
 14
5040.9126708184849
 24
3080.5060613468108
 34
0.0
 50
90.0
1001
ACAD
1000
DSTYLE
1002
{
1070
   287
1070
     3
1070
   287
1070
     3
1070
     3
1000
φ<>
1070
    40
1040
30.0
1070
   143
1040
0.039
1070
   172
1070
     1
1070
   271
1070
     0
1070
   279
1070
     0
1070
   288
1070
     1
1002
}
  0
LINE
  5
7BD3
  8
2
  6
CENTER
 10
4131.3249598184857
 20
3395.5060613468108
 30
0.0
 11
4126.3975688184846
 21
3395.5060613468108
 31
0.0
  0
LINE
  5
7BD4
  8
2
  6
CENTER
 10
4160.8893478184846
 20
3395.5060613468108
 30
0.0
 11
4131.3249598184857
 21
3395.5060613468108
 31
0.0
  0
LINE
  5
7BD5
  8
2
  6
CENTER
 10
2955.56175548187
 20
3395.5060613468108
 30
0.0
 11
1604.644146481869
 21
3395.5060613468108
 31
0.0
  0
LINE
  5
7BD6
  8
4
  6
CONTINUOUS
 10
5550.0
 20
1500.0
 30
0.0
 11
5550.0
 21
900.0
 31
0.0
  0
LINE
  5
7BD7
  8
4
  6
CONTINUOUS
 10
3450.0
 20
1500.0
 30
0.0
 11
3450.0
 21
900.0
 31
0.0
  0
LINE
  5
7BD8
  8
4
  6
CONTINUOUS
 10
1950.0
 20
1500.0
 30
0.0
 11
1950.0
 21
900.0
 31
0.0
  0
LINE
  5
7BDB
  8
4
  6
CONTINUOUS
 10
1950.0
 20
900.0
 30
0.0
 11
5550.0
 21
900.0
 31
0.0
  0
LINE
  5
7BDC
  8
4
  6
CONTINUOUS
 10
1950.0
 20
1200.0
 30
0.0
 11
5550.0
 21
1200.0
 31
0.0
  0
TEXT
  5
7BDD
  8
4
  6
CONTINUOUS
 10
2065.50624225
 20
1294.6290779999999
 30
0.0
 40
150.0
  1
機器名称
  0
TEXT
  5
7BDE
  8
4
  6
CONTINUOUS
 10
2058.7743179999989
 20
964.93547024999998
 30
0.0
 40
150.0
  1
機器型番
  0
TEXT
  5
7BDF
  8
4
  6
CONTINUOUS
 10
3533.0362365000001
 20
1267.715306249999
 30
0.0
 40
120.0
  1
ミツヤリミットロードファン
  0
TEXT
  5
7BE0
  8
4
  6
CONTINUOUS
 10
3559.9634872500001
 20
951.4787527499999
 30
0.0
 40
150.0
  1
LLE#4-4
  0
TEXT
  5
7BE2
  8
4
  6
CONTINUOUS
 10
2714.3572964999998
 20
7150.2865245000012
 30
0.0
 40
162.0
  1
床置ベット
  0
TEXT
  5
7BE3
  8
4
  6
CONTINUOUS
 10
948.50278049999986
 20
7601.6429287499996
 30
0.0
 40
171.42857175
  1
ベルト駆動式片吸込両持排煙ファン
  0
LINE
  5
7BE4
  8
4
  6
CONTINUOUS
 10
750.0
 20
7408.2262627500004
 30
0.0
 11
5550.0
 21
7408.2262627500004
 31
0.0
  0
LINE
  5
7BE5
  8
4
  6
CONTINUOUS
 10
750.0
 20
8008.2262627500004
 30
0.0
 11
5550.0
 21
8008.2262627500004
 31
0.0
  0
LINE
  5
7BE6
  8
4
  6
CONTINUOUS
 10
1950.0
 20
1500.0
 30
0.0
 11
5550.0
 21
1500.0
 31
0.0
  0
LINE
  5
7BE7
  8
4
  6
CONTINUOUS
 10
750.0
 20
8008.2262627500004
 30
0.0
 11
750.0
 21
7408.2262627500004
 31
0.0
  0
TEXT
  5
7BE8
  8
4
  6
CONTINUOUS
 10
1406.780799749999
 20
7146.9584324999987
 30
0.0
 40
162.0
  1
左回転左横向
  0
TEXT
  5
7BE9
  8
4
  6
CONTINUOUS
 10
4406.9086777499988
 20
8118.1832445
 30
0.0
 40
168.0
  1
No.
  0
TEXT
  5
7BEA
  8
4
  6
CONTINUOUS
 10
3933.8881875000002
 20
7150.2865245000012
 30
0.0
 40
162.0
  1
縮尺：1/30
  0
LINE
  5
7BEB
  8
4
  6
CONTINUOUS
 10
5550.0
 20
8008.2262627500004
 30
0.0
 11
5550.0
 21
7408.2262627500004
 31
0.0
  0
LINE
  5
7BED
  8
4
  6
CONTINUOUS
 10
4321.8522667500001
 20
8043.79074975
 30
0.0
 11
4321.8522667500001
 21
8359.9567845000001
 31
0.0
  0
LINE
  5
7BEE
  8
4
  6
CONTINUOUS
 10
4321.8522667500001
 20
8359.9567845000001
 30
0.0
 11
5550.0
 21
8359.9567845000001
 31
0.0
  0
LINE
  5
7BEF
  8
4
  6
CONTINUOUS
 10
5550.0
 20
8359.9567845000001
 30
0.0
 11
5550.0
 21
8043.79074975
 31
0.0
  0
LINE
  5
7BF0
  8
4
  6
CONTINUOUS
 10
5550.0
 20
8043.79074975
 30
0.0
 11
4321.8522667500001
 21
8043.79074975
 31
0.0
  0
DIMENSION
  5
7D55
  8
3
  2
*D17
 10
3162.0771014818702
 20
4442.891656021271
 30
0.0
 11
2457.3985597859141
 21
4442.891656021271
 31
0.0
 70
   128
 13
1702.077101481869
 23
4130.5060613468113
 33
0.0
 14
3162.0771014818702
 24
2990.5060613468108
 34
0.0
1001
ACAD
1000
DSTYLE
1002
{
1070
   287
1070
     3
1070
   287
1070
     3
1070
    40
1040
30.0
1070
   143
1040
0.039
1070
   172
1070
     1
1070
   271
1070
     0
1070
   279
1070
     0
1070
   288
1070
     1
1002
}
  0
ENDSEC
  0
EOF
