  0
SECTION
  2
HEADER
  9
$ACADVER
  1
AC1009
  9
$INSBASE
 10
0.0
 20
0.0
 30
0.0
  9
$EXTMIN
 10
750.0
 20
900.0
 30
0.0
  9
$EXTMAX
 10
5550.0
 20
8359.9567845000001
 30
0.0
  9
$LIMMIN
 10
0.0
 20
0.0
  9
$LIMMAX
 10
297.0
 20
210.0
  9
$ORTHOMODE
 70
     0
  9
$REGENMODE
 70
     1
  9
$FILLMODE
 70
     0
  9
$QTEXTMODE
 70
     0
  9
$MIRRTEXT
 70
     1
  9
$DRAGMODE
 70
     2
  9
$LTSCALE
 40
100.0
  9
$OSMODE
 70
    37
  9
$ATTMODE
 70
     1
  9
$TEXTSIZE
 40
180.0
  9
$TRACEWID
 40
0.05
  9
$TEXTSTYLE
  7
STANDARD
  9
$CLAYER
  8
3
  9
$CELTYPE
  6
BYLAYER
  9
$CECOLOR
 62
   256
  9
$DIMSCALE
 40
30.0
  9
$DIMASZ
 40
2.0
  9
$DIMEXO
 40
0.5
  9
$DIMDLI
 40
10.0
  9
$DIMRND
 40
0.0
  9
$DIMDLE
 40
0.0
  9
$DIMEXE
 40
1.0
  9
$DIMTP
 40
1.0
  9
$DIMTM
 40
1.0
  9
$DIMTXT
 40
3.0
  9
$DIMCEN
 40
0.0
  9
$DIMTSZ
 40
0.0
  9
$DIMTOL
 70
     0
  9
$DIMLIM
 70
     0
  9
$DIMTIH
 70
     0
  9
$DIMTOH
 70
     0
  9
$DIMSE1
 70
     0
  9
$DIMSE2
 70
     0
  9
$DIMTAD
 70
     1
  9
$DIMZIN
 70
     8
  9
$DIMBLK
  1

  9
$DIMASO
 70
     1
  9
$DIMSHO
 70
     1
  9
$DIMPOST
  1

  9
$DIMAPOST
  1

  9
$DIMALT
 70
     0
  9
$DIMALTD
 70
     2
  9
$DIMALTF
 40
0.039
  9
$DIMLFAC
 40
1.0
  9
$DIMTOFL
 70
     1
  9
$DIMTVP
 40
0.0
  9
$DIMTIX
 70
     0
  9
$DIMSOXD
 70
     0
  9
$DIMSAH
 70
     1
  9
$DIMBLK1
  1
OPEN
  9
$DIMBLK2
  1
OPEN
  9
$DIMSTYLE
  2
IGA
  9
$DIMCLRD
 70
     0
  9
$DIMCLRE
 70
     0
  9
$DIMCLRT
 70
     0
  9
$DIMTFAC
 40
10.0
  9
$DIMGAP
 40
1.0
  9
$LUNITS
 70
     2
  9
$LUPREC
 70
     3
  9
$SKETCHINC
 40
0.1
  9
$FILLETRAD
 40
50.0
  9
$AUNITS
 70
     0
  9
$AUPREC
 70
     0
  9
$MENU
  1
acad
  9
$ELEVATION
 40
0.0
  9
$PELEVATION
 40
0.0
  9
$THICKNESS
 40
0.0
  9
$LIMCHECK
 70
     0
  9
$BLIPMODE
 70
     0
  9
$CHAMFERA
 40
0.5
  9
$CHAMFERB
 40
0.5
  9
$SKPOLY
 70
     0
  9
$TDCREATE
 40
2450759.669207986
  9
$TDUPDATE
 40
2454953.6828904389
  9
$TDINDWG
 40
0.0119954282
  9
$TDUSRTIMER
 40
0.0119954282
  9
$USRTIMER
 70
     1
  9
$ANGBASE
 50
0.0
  9
$ANGDIR
 70
     0
  9
$PDMODE
 70
     0
  9
$PDSIZE
 40
0.0
  9
$PLINEWID
 40
0.0
  9
$COORDS
 70
     1
  9
$SPLFRAME
 70
     0
  9
$SPLINETYPE
 70
     6
  9
$SPLINESEGS
 70
     8
  9
$ATTDIA
 70
     0
  9
$ATTREQ
 70
     1
  9
$HANDLING
 70
 10241
  9
$HANDSEED
  5
815E
  9
$SURFTAB1
 70
     6
  9
$SURFTAB2
 70
     6
  9
$SURFTYPE
 70
     6
  9
$SURFU
 70
     6
  9
$SURFV
 70
     6
  9
$UCSNAME
  2

  9
$UCSORG
 10
0.0
 20
0.0
 30
0.0
  9
$UCSXDIR
 10
1.0
 20
0.0
 30
0.0
  9
$UCSYDIR
 10
0.0
 20
1.0
 30
0.0
  9
$PUCSNAME
  2

  9
$PUCSORG
 10
0.0
 20
0.0
 30
0.0
  9
$PUCSXDIR
 10
1.0
 20
0.0
 30
0.0
  9
$PUCSYDIR
 10
0.0
 20
1.0
 30
0.0
  9
$USERI1
 70
     0
  9
$USERI2
 70
     0
  9
$USERI3
 70
     0
  9
$USERI4
 70
     0
  9
$USERI5
 70
     0
  9
$USERR1
 40
0.0
  9
$USERR2
 40
0.0
  9
$USERR3
 40
0.0
  9
$USERR4
 40
0.0
  9
$USERR5
 40
0.0
  9
$WORLDVIEW
 70
     1
  9
$SHADEDGE
 70
     3
  9
$SHADEDIF
 70
    70
  9
$TILEMODE
 70
     1
  9
$MAXACTVP
 70
    16
  9
$PLIMCHECK
 70
     0
  9
$PEXTMIN
 10
1.0000000000000000E+020
 20
1.0000000000000000E+020
 30
1.0000000000000000E+020
  9
$PEXTMAX
 10
-1.0000000000000000E+020
 20
-1.0000000000000000E+020
 30
-1.0000000000000000E+020
  9
$PLIMMIN
 10
0.0
 20
0.0
  9
$PLIMMAX
 10
12.0
 20
9.0
  9
$UNITMODE
 70
     0
  9
$VISRETAIN
 70
     0
  9
$PLINEGEN
 70
     0
  9
$PSLTSCALE
 70
     1
  0
ENDSEC
  0
SECTION
  2
TABLES
  0
TABLE
  2
VPORT
 70
     2
  0
VPORT
  2
*ACTIVE
 70
     0
 10
0.0
 20
0.0
 11
1.0
 21
1.0
 12
15951.086458378029
 22
3681.477559517748
 13
0.0
 23
0.0
 14
10.0
 24
10.0
 15
10.0
 25
10.0
 16
0.0
 26
0.0
 36
1.0
 17
0.0
 27
0.0
 37
0.0
 40
11479.018020928381
 41
3.1666666666666661
 42
50.0
 43
0.0
 44
0.0
 50
0.0
 51
0.0
 71
     0
 72
   100
 73
     1
 74
     0
 75
     0
 76
     0
 77
     0
 78
     0
  0
ENDTAB
  0
TABLE
  2
LTYPE
 70
     2
  0
LTYPE
  2
CONTINUOUS
 70
     0
  3
Solid line
 72
    65
 73
     0
 40
0.0
  0
LTYPE
  2
CENTER
 70
     0
  3
____ _ ____ _ ____ _ ____ _ ____ _ ____ _ ____ 
 72
    65
 73
     4
 40
2.0
 49
1.25
 49
-0.25
 49
0.25
 49
-0.25
  0
ENDTAB
  0
TABLE
  2
LAYER
 70
     6
  0
LAYER
  2
0
 70
     0
 62
     7
  6
CONTINUOUS
  0
LAYER
  2
3
 70
     0
 62
     2
  6
CONTINUOUS
  0
LAYER
  2
2
 70
     0
 62
     3
  6
CENTER
  0
LAYER
  2
1
 70
     0
 62
     4
  6
CONTINUOUS
  0
LAYER
  2
4
 70
     0
 62
     7
  6
CONTINUOUS
  0
LAYER
  2
DEFPOINTS
 70
     0
 62
    -7
  6
CONTINUOUS
  0
ENDTAB
  0
TABLE
  2
STYLE
 70
     1
  0
STYLE
  2
STANDARD
 70
     0
 40
0.0
 41
1.0
 50
0.0
 71
     0
 42
180.0
  3
simplex.shx
  4
extfont.shx
  0
ENDTAB
  0
TABLE
  2
VIEW
 70
     0
  0
ENDTAB
  0
TABLE
  2
UCS
 70
     0
  0
ENDTAB
  0
TABLE
  2
APPID
 70
     1
  0
APPID
  2
ACAD
 70
     0
  0
ENDTAB
  0
TABLE
  2
DIMSTYLE
 70
     1
  0
DIMSTYLE
  2
IGA
 70
     0
  3

  4

  5

  6
OPEN
  7
OPEN
 40
2.0
 41
2.0
 42
0.5
 43
10.0
 44
1.0
 45
0.0
 46
0.0
 47
1.0
 48
1.0
140
3.0
141
0.0
142
0.0
143
0.03937
144
1.0
145
0.0
146
10.0
147
1.0
 71
     0
 72
     0
 73
     0
 74
     0
 75
     0
 76
     0
 77
     1
 78
     8
170
     0
171
     2
172
     0
173
     1
174
     0
175
     0
176
     0
177
     0
178
     0
  0
ENDTAB
  0
ENDSEC
  0
SECTION
  2
BLOCKS
  0
BLOCK
  8
0
  2
$MODEL_SPACE
 70
     0
 10
0.0
 20
0.0
 30
0.0
  3
$MODEL_SPACE
  1

  0
ENDBLK
  5
1B
  8
0
  0
BLOCK
 67
     1
  8
0
  2
$PAPER_SPACE
 70
     0
 10
0.0
 20
0.0
 30
0.0
  3
$PAPER_SPACE
  1

  0
ENDBLK
  5
18
 67
     1
  8
0
  0
BLOCK
  8
0
  2
_OPEN
 70
     0
 10
0.0
 20
0.0
 30
0.0
  3
_OPEN
  1

  0
LINE
  5
7B1E
  8
0
  6
BYBLOCK
 62
     0
 10
-1.0
 20
0.166667
 30
0.0
 11
0.0
 21
0.0
 31
0.0
  0
LINE
  5
7B1F
  8
0
  6
BYBLOCK
 62
     0
 10
0.0
 20
0.0
 30
0.0
 11
-1.0
 21
-0.166667
 31
0.0
  0
LINE
  5
7B20
  8
0
  6
BYBLOCK
 62
     0
 10
0.0
 20
0.0
 30
0.0
 11
-1.0
 21
0.0
 31
0.0
  0
ENDBLK
  5
7B21
  8
0
  0
BLOCK
  8
0
  2
*D1
 70
     1
 10
0.0
 20
0.0
 30
0.0
  3
*D1
  1

  0
LINE
  5
7F73
  8
0
  6
BYBLOCK
 62
     0
 10
2000.2359009999991
 20
2660.594560338342
 30
0.0
 11
2000.2359009999991
 21
2402.3148106491299
 31
0.0
  0
LINE
  5
7F74
  8
0
  6
BYBLOCK
 62
     0
 10
2355.2359009999991
 20
2590.0877463383422
 30
0.0
 11
2355.2359009999991
 21
2402.3148106491299
 31
0.0
  0
LINE
  5
7F75
  8
0
  6
BYBLOCK
 62
     0
 10
2060.2359009999991
 20
2432.314810649129
 30
0.0
 11
2295.235901
 21
2432.314810649129
 31
0.0
  0
TEXT
  5
7F76
  8
3
 62
     0
 10
2062.0216152857138
 20
2453.8496354492781
 30
0.0
 40
90.0
  1
355
  0
INSERT
  5
7F77
  8
0
  6
BYBLOCK
 62
     0
  2
_OPEN
 10
2000.2359009999991
 20
2432.314810649129
 30
0.0
 41
60.0
 42
60.0
 43
60.0
 50
180.0
  0
INSERT
  5
7F78
  8
0
  6
BYBLOCK
 62
     0
  2
_OPEN
 10
2355.2359009999991
 20
2432.314810649129
 30
0.0
 41
60.0
 42
60.0
 43
60.0
  0
POINT
  5
7F79
  8
DEFPOINTS
  6
BYBLOCK
 62
     0
 10
2000.2359009999991
 20
2675.5945603383411
 30
0.0
  0
POINT
  5
7F7A
  8
DEFPOINTS
  6
BYBLOCK
 62
     0
 10
2355.2359009999991
 20
2605.0877463383422
 30
0.0
  0
POINT
  5
7F7B
  8
DEFPOINTS
  6
BYBLOCK
 62
     0
 10
2355.2359009999991
 20
2432.314810649129
 30
0.0
  0
ENDBLK
  5
7F7C
  8
0
  0
BLOCK
  8
0
  2
*D2
 70
     1
 10
0.0
 20
0.0
 30
0.0
  3
*D2
  1

  0
LINE
  5
80D6
  8
3
 62
     0
 10
2355.2359009999991
 20
2600.0877463383422
 30
0.0
 11
2355.2359009999991
 21
2412.3148106491299
 31
0.0
  0
LINE
  5
80D7
  8
3
 62
     0
 10
3280.235901
 20
2670.5945603383411
 30
0.0
 11
3280.235901
 21
2412.3148106491299
 31
0.0
  0
LINE
  5
80D8
  8
3
 62
     0
 10
2415.235901
 20
2442.3148106491299
 30
0.0
 11
3220.235901
 21
2442.3148106491299
 31
0.0
  0
INSERT
  5
80D9
  8
3
 62
     0
  2
_OPEN
 10
2355.2359009999991
 20
2442.3148106491299
 30
0.0
 41
60.0
 42
60.0
 43
60.0
 50
180.0
  0
INSERT
  5
80DA
  8
3
 62
     0
  2
_OPEN
 10
3280.235901
 20
2442.3148106491299
 30
0.0
 41
60.0
 42
60.0
 43
60.0
  0
TEXT
  8
3
  40
90
  5
8150
  62
0
  72
0
  71
0
 10
2637.74
 20
2358.01
 30
0.000000
  1
925
  0
POINT
  5
80DC
  8
DEFPOINTS
 62
     0
 10
2355.2359009999991
 20
2615.0877463383422
 30
0.0
  0
POINT
  5
80DD
  8
DEFPOINTS
 62
     0
 10
3280.235901
 20
2685.5945603383411
 30
0.0
  0
POINT
  5
80DE
  8
DEFPOINTS
 62
     0
 10
3280.235901
 20
2442.3148106491299
 30
0.0
  0
ENDBLK
  5
7F66
  8
0
  0
BLOCK
  8
0
  2
*D3
 70
     1
 10
0.0
 20
0.0
 30
0.0
  3
*D3
  1

  0
LINE
  5
80DF
  8
3
 62
     0
 10
1950.235901
 20
3550.5945603383411
 30
0.0
 11
1761.9536599999999
 21
3550.5945603383411
 31
0.0
  0
LINE
  5
80E0
  8
3
 62
     0
 10
1950.235901
 20
2970.5945603383411
 30
0.0
 11
1761.9536599999999
 21
2970.5945603383411
 31
0.0
  0
LINE
  5
80E1
  8
3
 62
     0
 10
1791.9536599999999
 20
3490.5945603383411
 30
0.0
 11
1791.9536599999999
 21
3030.5945603383411
 31
0.0
  0
INSERT
  5
80E2
  8
3
 62
     0
  2
_OPEN
 10
1791.9536599999999
 20
3550.5945603383411
 30
0.0
 41
60.0
 42
60.0
 43
60.0
 50
90.0
  0
INSERT
  5
80E3
  8
3
 62
     0
  2
_OPEN
 10
1791.9536599999999
 20
2970.5945603383411
 30
0.0
 41
60.0
 42
60.0
 43
60.0
 50
270.0
  0
TEXT
  8
3
  40
90
  5
8151
  62
0
  72
0
  71
0
 10
1536.95
 20
3151.29
 30
0.000000
  1
580
  0
POINT
  5
80E5
  8
DEFPOINTS
 62
     0
 10
1965.235901
 20
3550.5945603383411
 30
0.0
  0
POINT
  5
80E6
  8
DEFPOINTS
 62
     0
 10
1965.235901
 20
2970.5945603383411
 30
0.0
  0
POINT
  5
80E7
  8
DEFPOINTS
 62
     0
 10
1791.9536599999999
 20
2970.5945603383411
 30
0.0
  0
ENDBLK
  5
7E55
  8
0
  0
BLOCK
  8
0
  2
*D4
 70
     1
 10
0.0
 20
0.0
 30
0.0
  3
*D4
  1

  0
LINE
  5
80E8
  8
3
 62
     0
 10
1950.235901
 20
2970.5945603383411
 30
0.0
 11
1571.598122000001
 21
2970.5945603383411
 31
0.0
  0
LINE
  5
80E9
  8
3
 62
     0
 10
2007.7225629999989
 20
3570.594560338342
 30
0.0
 11
1571.598122000001
 21
3570.594560338342
 31
0.0
  0
LINE
  5
80EA
  8
3
 62
     0
 10
1601.5981220000001
 20
3030.5945603383411
 30
0.0
 11
1601.5981220000001
 21
3510.594560338342
 31
0.0
  0
INSERT
  5
80EB
  8
3
 62
     0
  2
_OPEN
 10
1601.5981220000001
 20
2970.5945603383411
 30
0.0
 41
60.0
 42
60.0
 43
60.0
 50
270.0
  0
INSERT
  5
80EC
  8
3
 62
     0
  2
_OPEN
 10
1601.5981220000001
 20
3570.594560338342
 30
0.0
 41
60.0
 42
60.0
 43
60.0
 50
90.0
  0
TEXT
  8
3
  40
90
  5
8152
  62
0
  72
0
  71
0
 10
1346.60
 20
3171.29
 30
0.000000
  1
600
  0
POINT
  5
80EE
  8
DEFPOINTS
 62
     0
 10
1965.235901
 20
2970.5945603383411
 30
0.0
  0
POINT
  5
80EF
  8
DEFPOINTS
 62
     0
 10
2022.7225629999989
 20
3570.594560338342
 30
0.0
  0
POINT
  5
80F0
  8
DEFPOINTS
 62
     0
 10
1601.5981220000001
 20
3570.594560338342
 30
0.0
  0
ENDBLK
  5
7E4A
  8
0
  0
BLOCK
  8
0
  2
*D5
 70
     1
 10
0.0
 20
0.0
 30
0.0
  3
*D5
  1

  0
LINE
  5
7FC0
  8
0
  6
BYBLOCK
 62
     0
 10
2340.235901
 20
3968.5945603383411
 30
0.0
 11
1367.7868849999991
 21
3968.5945603383411
 31
0.0
  0
LINE
  5
7FC1
  8
0
  6
BYBLOCK
 62
     0
 10
2007.7225629999989
 20
3570.594560338342
 30
0.0
 11
1367.7868849999991
 21
3570.594560338342
 31
0.0
  0
LINE
  5
7FC2
  8
0
  6
BYBLOCK
 62
     0
 10
1397.7868849999991
 20
3908.5945603383411
 30
0.0
 11
1397.7868849999991
 21
3630.5945603383411
 31
0.0
  0
TEXT
  5
7FC3
  8
3
 62
     0
 10
1373.0234290537551
 20
3659.7594655102071
 30
0.0
 40
90.0
  1
400
 50
90.0
  0
INSERT
  5
7FC4
  8
0
  6
BYBLOCK
 62
     0
  2
_OPEN
 10
1397.7868849999991
 20
3968.5945603383411
 30
0.0
 41
60.0
 42
60.0
 43
60.0
 50
90.0
  0
INSERT
  5
7FC5
  8
0
  6
BYBLOCK
 62
     0
  2
_OPEN
 10
1397.7868849999991
 20
3570.594560338342
 30
0.0
 41
60.0
 42
60.0
 43
60.0
 50
270.0
  0
POINT
  5
7FC6
  8
DEFPOINTS
  6
BYBLOCK
 62
     0
 10
2355.2359009999991
 20
3968.5945603383411
 30
0.0
  0
POINT
  5
7FC7
  8
DEFPOINTS
  6
BYBLOCK
 62
     0
 10
2022.7225629999989
 20
3570.594560338342
 30
0.0
  0
POINT
  5
7FC8
  8
DEFPOINTS
  6
BYBLOCK
 62
     0
 10
1397.7868849999991
 20
3570.594560338342
 30
0.0
  0
ENDBLK
  5
7FC9
  8
0
  0
BLOCK
  8
0
  2
*D6
 70
     1
 10
0.0
 20
0.0
 30
0.0
  3
*D6
  1

  0
LINE
  5
80F1
  8
3
 62
     0
 10
2007.7225629999989
 20
3570.594560338342
 30
0.0
 11
1367.7868849999991
 21
3570.594560338342
 31
0.0
  0
LINE
  5
80F2
  8
3
 62
     0
 10
1985.235901
 20
2850.594560338342
 30
0.0
 11
1367.7868849999991
 21
2850.594560338342
 31
0.0
  0
LINE
  5
80F3
  8
3
 62
     0
 10
1397.7868849999991
 20
3510.594560338342
 30
0.0
 11
1397.7868849999991
 21
2910.594560338342
 31
0.0
  0
INSERT
  5
80F4
  8
3
 62
     0
  2
_OPEN
 10
1397.7868849999991
 20
3570.594560338342
 30
0.0
 41
60.0
 42
60.0
 43
60.0
 50
90.0
  0
INSERT
  5
80F5
  8
3
 62
     0
  2
_OPEN
 10
1397.7868849999991
 20
2850.594560338342
 30
0.0
 41
60.0
 42
60.0
 43
60.0
 50
270.0
  0
TEXT
  8
3
  40
90
  5
8153
  62
0
  72
0
  71
0
 10
1142.79
 20
3051.29
 30
0.000000
  1
720
  0
POINT
  5
80F7
  8
DEFPOINTS
 62
     0
 10
2022.7225629999989
 20
3570.594560338342
 30
0.0
  0
POINT
  5
80F8
  8
DEFPOINTS
 62
     0
 10
2000.2359009999991
 20
2850.594560338342
 30
0.0
  0
POINT
  5
80F9
  8
DEFPOINTS
 62
     0
 10
1397.7868849999991
 20
2850.594560338342
 30
0.0
  0
ENDBLK
  5
7E32
  8
0
  0
BLOCK
  8
0
  2
*D7
 70
     1
 10
0.0
 20
0.0
 30
0.0
  3
*D7
  1

  0
LINE
  5
7EC3
  8
0
  6
BYBLOCK
 62
     0
 10
1965.235901
 20
3595.594560338342
 30
0.0
 11
1965.235901
 21
4129.8894893383413
 31
0.0
  0
LINE
  5
7EC4
  8
0
  6
BYBLOCK
 62
     0
 10
2355.2359009999991
 20
3983.5945603383411
 30
0.0
 11
2355.2359009999991
 21
4129.8894893383413
 31
0.0
  0
LINE
  5
7EC5
  8
0
  6
BYBLOCK
 62
     0
 10
2025.2359009999991
 20
4099.8894893383422
 30
0.0
 11
2295.235901
 21
4099.8894893383422
 31
0.0
  0
TEXT
  5
7EC6
  8
3
 62
     0
 10
2044.521615285714
 20
4148.0354720200921
 30
0.0
 40
90.0
  1
390
  0
INSERT
  5
7EC7
  8
0
  6
BYBLOCK
 62
     0
  2
_OPEN
 10
1965.235901
 20
4099.8894893383422
 30
0.0
 41
60.0
 42
60.0
 43
60.0
 50
180.0
  0
INSERT
  5
7EC8
  8
0
  6
BYBLOCK
 62
     0
  2
_OPEN
 10
2355.2359009999991
 20
4099.8894893383422
 30
0.0
 41
60.0
 42
60.0
 43
60.0
  0
POINT
  5
7EC9
  8
DEFPOINTS
  6
BYBLOCK
 62
     0
 10
1965.235901
 20
3580.5945603383411
 30
0.0
  0
POINT
  5
7ECA
  8
DEFPOINTS
  6
BYBLOCK
 62
     0
 10
2355.2359009999991
 20
3968.5945603383411
 30
0.0
  0
POINT
  5
7ECB
  8
DEFPOINTS
  6
BYBLOCK
 62
     0
 10
2355.2359009999991
 20
4099.8894893383422
 30
0.0
  0
ENDBLK
  5
7ECC
  8
0
  0
BLOCK
  8
0
  2
*D8
 70
     1
 10
0.0
 20
0.0
 30
0.0
  3
*D8
  1

  0
LINE
  5
80FA
  8
3
 62
     0
 10
2355.2359009999991
 20
3983.5945603383411
 30
0.0
 11
2355.2359009999991
 21
4129.8894893383413
 31
0.0
  0
LINE
  5
80FB
  8
3
 62
     0
 10
2837.235901
 20
3585.5945603383411
 30
0.0
 11
2837.235901
 21
4129.8894893383413
 31
0.0
  0
LINE
  5
80FC
  8
3
 62
     0
 10
2415.235901
 20
4099.8894893383422
 30
0.0
 11
2777.235901
 21
4099.8894893383422
 31
0.0
  0
INSERT
  5
80FD
  8
3
 62
     0
  2
_OPEN
 10
2355.2359009999991
 20
4099.8894893383422
 30
0.0
 41
60.0
 42
60.0
 43
60.0
 50
180.0
  0
INSERT
  5
80FE
  8
3
 62
     0
  2
_OPEN
 10
2837.235901
 20
4099.8894893383422
 30
0.0
 41
60.0
 42
60.0
 43
60.0
  0
TEXT
  8
3
  40
90
  5
8154
  62
0
  72
0
  71
0
 10
2416.24
 20
4015.59
 30
0.000000
  1
484
  0
POINT
  5
8100
  8
DEFPOINTS
 62
     0
 10
2355.2359009999991
 20
3968.5945603383411
 30
0.0
  0
POINT
  5
8101
  8
DEFPOINTS
 62
     0
 10
2837.235901
 20
3570.594560338342
 30
0.0
  0
POINT
  5
8102
  8
DEFPOINTS
 62
     0
 10
2837.235901
 20
4099.8894893383422
 30
0.0
  0
ENDBLK
  5
7FBA
  8
0
  0
BLOCK
  8
0
  2
*D9
 70
     1
 10
0.0
 20
0.0
 30
0.0
  3
*D9
  1

  0
LINE
  5
8103
  8
3
 62
     0
 10
2000.2359009999991
 20
5724.8941316957789
 30
0.0
 11
2000.2359009999991
 21
5295.6206506957787
 31
0.0
  0
LINE
  5
8104
  8
3
 62
     0
 10
3280.235901
 20
5724.8941316957789
 30
0.0
 11
3280.235901
 21
5295.6206506957787
 31
0.0
  0
LINE
  5
8105
  8
3
 62
     0
 10
2060.2359009999991
 20
5325.6206506957778
 30
0.0
 11
3220.235901
 21
5325.6206506957778
 31
0.0
  0
INSERT
  5
8106
  8
3
 62
     0
  2
_OPEN
 10
2000.2359009999991
 20
5325.6206506957778
 30
0.0
 41
60.0
 42
60.0
 43
60.0
 50
180.0
  0
INSERT
  5
8107
  8
3
 62
     0
  2
_OPEN
 10
3280.235901
 20
5325.6206506957778
 30
0.0
 41
60.0
 42
60.0
 43
60.0
  0
TEXT
  8
3
  40
90
  5
8155
  62
0
  72
0
  71
0
 10
2484.64
 20
5241.32
 30
0.000000
  1
1280
  0
POINT
  5
8109
  8
DEFPOINTS
 62
     0
 10
2000.2359009999991
 20
5739.8941316957789
 30
0.0
  0
POINT
  5
810A
  8
DEFPOINTS
 62
     0
 10
3280.235901
 20
5739.8941316957789
 30
0.0
  0
POINT
  5
810B
  8
DEFPOINTS
 62
     0
 10
3280.235901
 20
5325.6206506957778
 30
0.0
  0
ENDBLK
  5
7E0F
  8
0
  0
BLOCK
  8
0
  2
*D10
 70
     1
 10
0.0
 20
0.0
 30
0.0
  3
*D10
  1

  0
LINE
  5
810C
  8
3
 62
     0
 10
3295.235901
 20
6349.8941316957789
 30
0.0
 11
3636.5671650000008
 21
6349.8941316957789
 31
0.0
  0
LINE
  5
810D
  8
3
 62
     0
 10
3295.235901
 20
5739.8941316957789
 30
0.0
 11
3636.5671650000008
 21
5739.8941316957789
 31
0.0
  0
LINE
  5
810E
  8
3
 62
     0
 10
3606.5671650000008
 20
6289.8941316957789
 30
0.0
 11
3606.5671650000008
 21
5799.8941316957789
 31
0.0
  0
INSERT
  5
810F
  8
3
 62
     0
  2
_OPEN
 10
3606.5671650000008
 20
6349.8941316957789
 30
0.0
 41
60.0
 42
60.0
 43
60.0
 50
90.0
  0
INSERT
  5
8110
  8
3
 62
     0
  2
_OPEN
 10
3606.5671650000008
 20
5739.8941316957789
 30
0.0
 41
60.0
 42
60.0
 43
60.0
 50
270.0
  0
TEXT
  8
3
  40
90
  5
8156
  62
0
  72
0
  71
0
 10
3351.57
 20
5907.51
 30
0.000000
  1
610
  0
POINT
  5
8112
  8
DEFPOINTS
 62
     0
 10
3280.235901
 20
6349.8941316957789
 30
0.0
  0
POINT
  5
8113
  8
DEFPOINTS
 62
     0
 10
3280.235901
 20
5739.8941316957789
 30
0.0
  0
POINT
  5
8114
  8
DEFPOINTS
 62
     0
 10
3606.5671650000008
 20
5739.8941316957789
 30
0.0
  0
ENDBLK
  5
7E04
  8
0
  0
BLOCK
  8
0
  2
*D11
 70
     1
 10
0.0
 20
0.0
 30
0.0
  3
*D11
  1

  0
LINE
  5
8115
  8
3
 62
     0
 10
4655.8736150965442
 20
3985.5945603383411
 30
0.0
 11
4655.8736150965442
 21
4169.2567913383418
 31
0.0
  0
LINE
  5
8116
  8
3
 62
     0
 10
5080.8736150965451
 20
3985.5945603383411
 30
0.0
 11
5080.8736150965451
 21
4169.2567913383418
 31
0.0
  0
LINE
  5
8117
  8
3
 62
     0
 10
4715.8736150965451
 20
4139.2567913383418
 30
0.0
 11
5020.8736150965451
 21
4139.2567913383418
 31
0.0
  0
INSERT
  5
8118
  8
3
 62
     0
  2
_OPEN
 10
4655.8736150965442
 20
4139.2567913383418
 30
0.0
 41
60.0
 42
60.0
 43
60.0
 50
180.0
  0
INSERT
  5
8119
  8
3
 62
     0
  2
_OPEN
 10
5080.8736150965451
 20
4139.2567913383418
 30
0.0
 41
60.0
 42
60.0
 43
60.0
  0
TEXT
  8
3
  40
90
  5
8157
  62
0
  72
0
  71
0
 10
4681.59
 20
4054.96
 30
0.000000
  1
425
  0
POINT
  5
811B
  8
DEFPOINTS
 62
     0
 10
4655.8736150965442
 20
3970.594560338342
 30
0.0
  0
POINT
  5
811C
  8
DEFPOINTS
 62
     0
 10
5080.8736150965451
 20
3970.594560338342
 30
0.0
  0
POINT
  5
811D
  8
DEFPOINTS
 62
     0
 10
5080.8736150965451
 20
4139.2567913383418
 30
0.0
  0
ENDBLK
  5
7DF9
  8
0
  0
BLOCK
  8
0
  2
*D12
 70
     1
 10
0.0
 20
0.0
 30
0.0
  3
*D12
  1

  0
LINE
  5
811E
  8
3
 62
     0
 10
4408.3736150965451
 20
3749.8945603383422
 30
0.0
 11
4408.3736150965451
 21
4415.5273450527502
 31
0.0
  0
LINE
  5
811F
  8
3
 62
     0
 10
4868.3736150965451
 20
4317.835450844228
 30
0.0
 11
4868.3736150965451
 21
4415.5273450527502
 31
0.0
  0
LINE
  5
8120
  8
3
 62
     0
 10
4468.3736150965442
 20
4385.5273450527511
 30
0.0
 11
4808.3736150965451
 21
4385.5273450527511
 31
0.0
  0
INSERT
  5
8121
  8
3
 62
     0
  2
_OPEN
 10
4408.3736150965451
 20
4385.5273450527511
 30
0.0
 41
60.0
 42
60.0
 43
60.0
 50
180.0
  0
INSERT
  5
8122
  8
3
 62
     0
  2
_OPEN
 10
4868.3736150965451
 20
4385.5273450527511
 30
0.0
 41
60.0
 42
60.0
 43
60.0
  0
TEXT
  8
3
  40
90
  5
8158
  62
0
  72
0
  71
0
 10
4446.95
 20
4376.23
 30
0.000000
  1
MAX
  0
TEXT
  8
3
  40
90
  5
8159
  62
0
  72
0
  71
0
 10
4446.95
 20
4259.23
 30
0.000000
  1
510
  0
POINT
  5
8124
  8
DEFPOINTS
 62
     0
 10
4408.3736150965451
 20
3734.8945603383422
 30
0.0
  0
POINT
  5
8125
  8
DEFPOINTS
 62
     0
 10
4868.3736150965451
 20
4302.835450844228
 30
0.0
  0
POINT
  5
8126
  8
DEFPOINTS
 62
     0
 10
4868.3736150965451
 20
4385.5273450527511
 30
0.0
  0
ENDBLK
  5
7FFC
  8
0
  0
BLOCK
  8
0
  2
*D13
 70
     1
 10
0.0
 20
0.0
 30
0.0
  3
*D13
  1

  0
LINE
  5
7FFE
  8
0
  6
BYBLOCK
 62
     0
 10
4868.3736150965451
 20
4308.714568477546
 30
0.0
 11
4868.3736150965451
 21
4415.5273450527502
 31
0.0
  0
LINE
  5
7FFF
  8
0
  6
BYBLOCK
 62
     0
 10
5144.3736150965451
 20
3895.5945603383411
 30
0.0
 11
5144.3736150965451
 21
4415.5273450527502
 31
0.0
  0
LINE
  5
8000
  8
0
  6
BYBLOCK
 62
     0
 10
4928.3736150965451
 20
4385.5273450527511
 30
0.0
 11
5084.3736150965451
 21
4385.5273450527511
 31
0.0
  0
TEXT
  5
8001
  8
3
 62
     0
 10
4892.6674119202999
 20
4422.0594654172783
 30
0.0
 40
90.0
  1
276
  0
INSERT
  5
8002
  8
0
  6
BYBLOCK
 62
     0
  2
_OPEN
 10
4868.3736150965451
 20
4385.5273450527511
 30
0.0
 41
60.0
 42
60.0
 43
60.0
 50
180.0
  0
INSERT
  5
8003
  8
0
  6
BYBLOCK
 62
     0
  2
_OPEN
 10
5144.3736150965451
 20
4385.5273450527511
 30
0.0
 41
60.0
 42
60.0
 43
60.0
  0
POINT
  5
8004
  8
DEFPOINTS
  6
BYBLOCK
 62
     0
 10
4868.3736150965451
 20
4293.714568477546
 30
0.0
  0
POINT
  5
8005
  8
DEFPOINTS
  6
BYBLOCK
 62
     0
 10
5144.3736150965451
 20
3880.5945603383411
 30
0.0
  0
POINT
  5
8006
  8
DEFPOINTS
  6
BYBLOCK
 62
     0
 10
5144.3736150965451
 20
4385.5273450527511
 30
0.0
  0
ENDBLK
  5
8007
  8
0
  0
BLOCK
  8
0
  2
*D14
 70
     1
 10
0.0
 20
0.0
 30
0.0
  3
*D14
  1

  0
LINE
  5
8127
  8
3
 62
     0
 10
5159.3736150965451
 20
3850.594560338342
 30
0.0
 11
5480.4831550965464
 21
3850.594560338342
 31
0.0
  0
LINE
  5
8128
  8
3
 62
     0
 10
5159.3736150965451
 20
3290.5945603383411
 30
0.0
 11
5480.4831550965464
 21
3290.5945603383411
 31
0.0
  0
LINE
  5
8129
  8
3
 62
     0
 10
5450.4831550965464
 20
3790.5945603383411
 30
0.0
 11
5450.4831550965464
 21
3350.594560338342
 31
0.0
  0
INSERT
  5
812A
  8
3
 62
     0
  2
_OPEN
 10
5450.4831550965464
 20
3850.594560338342
 30
0.0
 41
60.0
 42
60.0
 43
60.0
 50
90.0
  0
INSERT
  5
812B
  8
3
 62
     0
  2
_OPEN
 10
5450.4831550965464
 20
3290.5945603383411
 30
0.0
 41
60.0
 42
60.0
 43
60.0
 50
270.0
  0
TEXT
  8
3
  40
90
  5
815A
  62
0
  72
0
  71
0
 10
5195.48
 20
3431.58
 30
0.000000
  1
φ560
  0
POINT
  5
812D
  8
DEFPOINTS
 62
     0
 10
5144.3736150965451
 20
3850.594560338342
 30
0.0
  0
POINT
  5
812E
  8
DEFPOINTS
 62
     0
 10
5144.3736150965451
 20
3290.5945603383411
 30
0.0
  0
POINT
  5
812F
  8
DEFPOINTS
 62
     0
 10
5450.4831550965464
 20
3290.5945603383411
 30
0.0
  0
ENDBLK
  5
7F19
  8
0
  0
BLOCK
  8
0
  2
*D15
 70
     1
 10
0.0
 20
0.0
 30
0.0
  3
*D15
  1

  0
LINE
  5
7F89
  8
0
  6
BYBLOCK
 62
     0
 10
4513.3736150965451
 20
2660.594560338342
 30
0.0
 11
4513.3736150965451
 21
2416.2137353599469
 31
0.0
  0
LINE
  5
7F8A
  8
0
  6
BYBLOCK
 62
     0
 10
4868.3736150965451
 20
2618.2568743383408
 30
0.0
 11
4868.3736150965451
 21
2416.2137353599469
 31
0.0
  0
LINE
  5
7F8B
  8
0
  6
BYBLOCK
 62
     0
 10
4573.3736150965451
 20
2446.2137353599469
 30
0.0
 11
4808.3736150965451
 21
2446.2137353599469
 31
0.0
  0
TEXT
  5
7F8C
  8
3
 62
     0
 10
4575.1593293822598
 20
2460.7930158046879
 30
0.0
 40
90.0
  1
355
  0
INSERT
  5
7F8D
  8
0
  6
BYBLOCK
 62
     0
  2
_OPEN
 10
4513.3736150965451
 20
2446.2137353599469
 30
0.0
 41
60.0
 42
60.0
 43
60.0
 50
180.0
  0
INSERT
  5
7F8E
  8
0
  6
BYBLOCK
 62
     0
  2
_OPEN
 10
4868.3736150965451
 20
2446.2137353599469
 30
0.0
 41
60.0
 42
60.0
 43
60.0
  0
POINT
  5
7F8F
  8
DEFPOINTS
  6
BYBLOCK
 62
     0
 10
4513.3736150965451
 20
2675.5945603383411
 30
0.0
  0
POINT
  5
7F90
  8
DEFPOINTS
  6
BYBLOCK
 62
     0
 10
4868.3736150965451
 20
2633.2568743383408
 30
0.0
  0
POINT
  5
7F91
  8
DEFPOINTS
  6
BYBLOCK
 62
     0
 10
4868.3736150965451
 20
2446.2137353599469
 30
0.0
  0
ENDBLK
  5
7F92
  8
0
  0
BLOCK
  8
0
  2
*D16
 70
     1
 10
0.0
 20
0.0
 30
0.0
  3
*D16
  1

  0
LINE
  5
7F7E
  8
0
  6
BYBLOCK
 62
     0
 10
4868.3736150965451
 20
2618.2568743383408
 30
0.0
 11
4868.3736150965451
 21
2416.1708534697032
 31
0.0
  0
LINE
  5
7F7F
  8
0
  6
BYBLOCK
 62
     0
 10
5123.373615096546
 20
2660.594560338342
 30
0.0
 11
5123.373615096546
 21
2416.1708534697032
 31
0.0
  0
LINE
  5
7F80
  8
0
  6
BYBLOCK
 62
     0
 10
4928.3736150965451
 20
2446.1708534697018
 30
0.0
 11
5063.3736150965451
 21
2446.1708534697018
 31
0.0
  0
TEXT
  5
7F81
  8
3
 62
     0
 10
4881.3961403103358
 20
2469.318156603018
 30
0.0
 40
90.0
  1
255
  0
INSERT
  5
7F82
  8
0
  6
BYBLOCK
 62
     0
  2
_OPEN
 10
4868.3736150965451
 20
2446.1708534697018
 30
0.0
 41
60.0
 42
60.0
 43
60.0
 50
180.0
  0
INSERT
  5
7F83
  8
0
  6
BYBLOCK
 62
     0
  2
_OPEN
 10
5123.373615096546
 20
2446.1708534697018
 30
0.0
 41
60.0
 42
60.0
 43
60.0
  0
POINT
  5
7F84
  8
DEFPOINTS
  6
BYBLOCK
 62
     0
 10
4868.3736150965451
 20
2633.2568743383408
 30
0.0
  0
POINT
  5
7F85
  8
DEFPOINTS
  6
BYBLOCK
 62
     0
 10
5123.373615096546
 20
2675.5945603383411
 30
0.0
  0
POINT
  5
7F86
  8
DEFPOINTS
  6
BYBLOCK
 62
     0
 10
5123.373615096546
 20
2446.1708534697018
 30
0.0
  0
ENDBLK
  5
7F87
  8
0
  0
BLOCK
  8
0
  2
*D17
 70
     1
 10
0.0
 20
0.0
 30
0.0
  3
*D17
  1

  0
LINE
  5
8130
  8
3
 62
     0
 10
2340.235901
 20
3968.5945603383411
 30
0.0
 11
1170.1613440000001
 21
3968.5945603383411
 31
0.0
  0
LINE
  5
8131
  8
3
 62
     0
 10
1985.235901
 20
2685.5945603383411
 30
0.0
 11
1170.1613440000001
 21
2685.5945603383411
 31
0.0
  0
LINE
  5
8132
  8
3
 62
     0
 10
1200.1613440000001
 20
3908.5945603383411
 30
0.0
 11
1200.1613440000001
 21
2745.5945603383411
 31
0.0
  0
INSERT
  5
8133
  8
3
 62
     0
  2
_OPEN
 10
1200.1613440000001
 20
3968.5945603383411
 30
0.0
 41
60.0
 42
60.0
 43
60.0
 50
90.0
  0
INSERT
  5
8134
  8
3
 62
     0
  2
_OPEN
 10
1200.1613440000001
 20
2685.5945603383411
 30
0.0
 41
60.0
 42
60.0
 43
60.0
 50
270.0
  0
TEXT
  8
3
  40
90
  5
815B
  62
0
  72
0
  71
0
 10
945.161
 20
3132.77
 30
0.000000
  1
1285
  0
POINT
  5
8136
  8
DEFPOINTS
 62
     0
 10
2355.2359009999991
 20
3968.5945603383411
 30
0.0
  0
POINT
  5
8137
  8
DEFPOINTS
 62
     0
 10
2000.2359009999991
 20
2685.5945603383411
 30
0.0
  0
POINT
  5
8138
  8
DEFPOINTS
 62
     0
 10
1200.1613440000001
 20
2685.5945603383411
 30
0.0
  0
ENDBLK
  5
7FD4
  8
0
  0
BLOCK
  8
0
  2
*D18
 70
     1
 10
0.0
 20
0.0
 30
0.0
  3
*D18
  1

  0
LINE
  5
8139
  8
3
 62
     0
 10
1985.235901
 20
2750.5945603383411
 30
0.0
 11
1367.7868849999991
 21
2750.5945603383411
 31
0.0
  0
LINE
  5
813A
  8
3
 62
     0
 10
1985.235901
 20
2685.5945603383411
 30
0.0
 11
1367.7868849999991
 21
2685.5945603383411
 31
0.0
  0
LINE
  5
813B
  8
3
 62
     0
 10
1397.7868849999991
 20
2810.5945603383411
 30
0.0
 11
1397.7868849999991
 21
2870.5945603383411
 31
0.0
  0
LINE
  5
813C
  8
3
 62
     0
 10
1397.7868849999991
 20
2625.5945603383411
 30
0.0
 11
1397.7868849999991
 21
2359.8802746240549
 31
0.0
  0
LINE
  5
813D
  8
3
 62
     0
 10
1397.7868849999991
 20
2750.5945603383411
 30
0.0
 11
1397.7868849999991
 21
2685.5945603383411
 31
0.0
  0
INSERT
  5
813E
  8
3
 62
     0
  2
_DOT
 10
1397.7868849999991
 20
2750.5945603383411
 30
0.0
 41
60.0
 42
60.0
 43
60.0
 50
270.0
  0
INSERT
  5
813F
  8
3
 62
     0
  2
_OPEN
 10
1397.7868849999991
 20
2685.5945603383411
 30
0.0
 41
60.0
 42
60.0
 43
60.0
 50
90.0
  0
TEXT
  8
3
  40
90
  5
815C
  62
0
  72
0
  71
0
 10
1142.79
 20
2303.44
 30
0.000000
  1
65
  0
POINT
  5
8141
  8
DEFPOINTS
 62
     0
 10
2000.2359009999991
 20
2750.5945603383411
 30
0.0
  0
POINT
  5
8142
  8
DEFPOINTS
 62
     0
 10
2000.2359009999991
 20
2685.5945603383411
 30
0.0
  0
POINT
  5
8143
  8
DEFPOINTS
 62
     0
 10
1397.7868849999991
 20
2685.5945603383411
 30
0.0
  0
ENDBLK
  5
7FA0
  8
0
  0
BLOCK
  8
0
  2
_DOT
 70
     0
 10
0.0
 20
0.0
 30
0.0
  3
_DOT
  1

  0
LINE
  5
7E7B
  8
0
  6
BYBLOCK
 62
     0
 10
0.0
 20
0.0
 30
0.0
 11
-1.0
 21
-0.0000000000000284
 31
0.0
  0
POLYLINE
  5
7E7C
  8
0
  6
BYBLOCK
 62
     0
 66
     1
 10
0.0
 20
0.0
 30
0.0
 70
     1
 40
0.1666666666666666
 41
0.1666666666666666
  0
VERTEX
  5
8144
  8
0
  6
BYBLOCK
 62
     0
 10
-0.0833333333333286
 20
-0.0000000000000284
 30
0.0
 42
1.0
  0
VERTEX
  5
8145
  8
0
  6
BYBLOCK
 62
     0
 10
0.0833333333333286
 20
-0.0000000000000284
 30
0.0
 42
1.0
  0
SEQEND
  5
8146
  8
0
  6
BYBLOCK
 62
     0
  0
ENDBLK
  5
7D0E
  8
0
  0
BLOCK
  8
0
  2
*D20
 70
     1
 10
0.0
 20
0.0
 30
0.0
  3
*D20
  1

  0
LINE
  5
8147
  8
3
 62
     0
 10
1965.235901
 20
3595.594560338342
 30
0.0
 11
1965.235901
 21
4333.3145482623549
 31
0.0
  0
LINE
  5
8148
  8
3
 62
     0
 10
3280.235901
 20
2940.5945603383411
 30
0.0
 11
3280.235901
 21
4333.3145482623549
 31
0.0
  0
LINE
  5
8149
  8
3
 62
     0
 10
2025.2359009999991
 20
4303.3145482623549
 30
0.0
 11
3220.235901
 21
4303.3145482623549
 31
0.0
  0
INSERT
  5
814A
  8
3
 62
     0
  2
_OPEN
 10
1965.235901
 20
4303.3145482623549
 30
0.0
 41
60.0
 42
60.0
 43
60.0
 50
180.0
  0
INSERT
  5
814B
  8
3
 62
     0
  2
_OPEN
 10
3280.235901
 20
4303.3145482623549
 30
0.0
 41
60.0
 42
60.0
 43
60.0
  0
TEXT
  8
3
  40
90
  5
815D
  62
0
  72
0
  71
0
 10
2464.62
 20
4219.01
 30
0.000000
  1
1315
  0
POINT
  5
814D
  8
DEFPOINTS
 62
     0
 10
1965.235901
 20
3580.5945603383411
 30
0.0
  0
POINT
  5
814E
  8
DEFPOINTS
 62
     0
 10
3280.235901
 20
2925.5945603383411
 30
0.0
  0
POINT
  5
814F
  8
DEFPOINTS
 62
     0
 10
3280.235901
 20
4303.3145482623549
 30
0.0
  0
ENDBLK
  5
7FE5
  8
0
  0
ENDSEC
  0
SECTION
  2
ENTITIES
  0
LINE
  5
7A92
  8
1
 10
2991.708423
 20
3007.5748283383409
 30
0.0
 11
2291.708423
 21
3475.5748283383409
 31
0.0
  0
LINE
  5
7A93
  8
1
 10
2963.9186249999998
 20
2966.008891338342
 30
0.0
 11
2263.9186249999998
 21
3434.008891338342
 31
0.0
  0
ARC
  5
7A94
  8
1
 10
3055.235901
 20
3102.5945603383411
 30
0.0
 40
164.30000000000001
 50
236.23444399999991
 51
56.234444000000003
  0
ARC
  5
7A95
  8
1
 10
2313.235901
 20
3528.5945603383411
 30
0.0
 40
526.0
 50
274.57982399999997
 51
4.5798239999999986
  0
LINE
  5
7A96
  8
1
 10
1965.235901
 20
2940.5945603383411
 30
0.0
 11
1965.235901
 21
3580.5945603383411
 31
0.0
  0
LINE
  5
7A97
  8
1
 10
1995.235901
 20
2973.1852903383419
 30
0.0
 11
1995.235901
 21
3550.5945603383411
 31
0.0
  0
ARC
  5
7A98
  8
1
 10
3055.235901
 20
3102.5945603383411
 30
0.0
 40
143.0
 50
324.34590999999989
 51
215.65408999999991
  0
CIRCLE
  5
7A99
  8
1
 10
3055.235901
 20
3102.5945603383411
 30
0.0
 40
114.3
  0
LINE
  5
7A9A
  8
2
 10
3055.235901
 20
2983.2945603383409
 30
0.0
 11
3055.235901
 21
3221.8945603383409
 31
0.0
  0
LINE
  5
7A9B
  8
1
 10
3280.235901
 20
2750.5945603383411
 30
0.0
 11
2000.2359009999991
 21
2750.5945603383411
 31
0.0
  0
LINE
  5
7A9C
  8
1
 10
3280.235901
 20
2685.5945603383411
 30
0.0
 11
2000.2359009999991
 21
2685.5945603383411
 31
0.0
  0
LINE
  5
7A9D
  8
1
 10
3280.235901
 20
2850.594560338342
 30
0.0
 11
2000.2359009999991
 21
2850.594560338342
 31
0.0
  0
LINE
  5
7A9E
  8
1
 10
3280.235901
 20
2925.5945603383411
 30
0.0
 11
2000.2359009999991
 21
2925.5945603383411
 31
0.0
  0
LINE
  5
7A9F
  8
1
 10
2355.2359009999991
 20
3004.274047338341
 30
0.0
 11
1965.235901
 21
2970.5945603383411
 31
0.0
  0
LINE
  5
7AA0
  8
1
 10
2000.2359009999991
 20
2750.5945603383411
 30
0.0
 11
2000.2359009999991
 21
2685.5945603383411
 31
0.0
  0
LINE
  5
7AA1
  8
1
 10
2000.2359009999991
 20
2925.5945603383411
 30
0.0
 11
2000.2359009999991
 21
2850.594560338342
 31
0.0
  0
LINE
  5
7AA2
  8
1
 10
3230.235901
 20
2925.5945603383411
 30
0.0
 11
2880.235901
 21
2925.5945603383411
 31
0.0
  0
LINE
  5
7AA3
  8
2
 10
3174.5359010000002
 20
3102.5945603383411
 30
0.0
 11
2935.9359009999998
 21
3102.5945603383411
 31
0.0
  0
LINE
  5
7AA4
  8
1
 10
2925.235901
 20
2985.5945603383411
 30
0.0
 11
2939.2651779999992
 21
3019.7873053383419
 31
0.0
  0
LINE
  5
7AA5
  8
1
 10
2925.235901
 20
2970.5945603383411
 30
0.0
 11
2925.235901
 21
2985.5945603383411
 31
0.0
  0
LINE
  5
7AA6
  8
1
 10
2880.235901
 20
2925.5945603383411
 30
0.0
 11
2890.235901
 21
2970.5945603383411
 31
0.0
  0
LINE
  5
7AA7
  8
1
 10
2925.235901
 20
2970.5945603383411
 30
0.0
 11
2890.235901
 21
2970.5945603383411
 31
0.0
  0
LINE
  5
7AA8
  8
1
 10
3280.235901
 20
2750.5945603383411
 30
0.0
 11
3280.235901
 21
2685.5945603383411
 31
0.0
  0
LINE
  5
7AA9
  8
1
 10
3280.235901
 20
2925.5945603383411
 30
0.0
 11
3280.235901
 21
2850.594560338342
 31
0.0
  0
LINE
  5
7AAA
  8
1
 10
3220.235901
 20
2970.5945603383411
 30
0.0
 11
3185.235901
 21
2970.5945603383411
 31
0.0
  0
LINE
  5
7AAB
  8
1
 10
3185.235901
 20
2970.5945603383411
 30
0.0
 11
3185.235901
 21
2985.5945603383411
 31
0.0
  0
LINE
  5
7AAC
  8
1
 10
3185.235901
 20
2985.5945603383411
 30
0.0
 11
3171.206623
 21
3019.7873053383419
 31
0.0
  0
LINE
  5
7AAD
  8
1
 10
3220.235901
 20
2970.5945603383411
 30
0.0
 11
3230.235901
 21
2925.5945603383411
 31
0.0
  0
LINE
  5
7AAE
  8
1
 10
3118.763379
 20
3197.6142923383418
 30
0.0
 11
2418.763379
 21
3665.6142923383418
 31
0.0
  0
LINE
  5
7AAF
  8
1
 10
3146.5531769999989
 20
3239.180229338343
 30
0.0
 11
2446.5531769999998
 21
3707.180229338343
 31
0.0
  0
ARC
  5
7AB0
  8
1
 10
2397.235901
 20
3528.5945603383411
 30
0.0
 40
442.0
 50
5.452621999999999
 51
95.452621999999991
  0
ARC
  5
7AB1
  8
1
 10
2355.2359009999991
 20
3570.594560338342
 30
0.0
 40
164.30000000000001
 50
56.234444000000003
 51
236.23444399999991
  0
ARC
  5
7AB2
  8
1
 10
2388.235901
 20
3603.594560338342
 30
0.0
 40
367.0
 50
95.158904000000007
 51
185.15890400000001
  0
CIRCLE
  5
7AB3
  8
1
 10
2355.2359009999991
 20
3570.594560338342
 30
0.0
 40
280.0
  0
CIRCLE
  5
7AB4
  8
1
 10
2355.2359009999991
 20
3570.594560338342
 30
0.0
 40
310.0
  0
CIRCLE
  5
7AB5
  8
1
 10
2355.2359009999991
 20
3570.594560338342
 30
0.0
 40
114.3
  0
LINE
  5
7AB6
  8
2
 10
5217.7029450965447
 20
3570.594560338342
 30
0.0
 11
4361.9528070965462
 21
3570.594560338342
 31
0.0
  0
ARC
  5
7AB7
  8
1
 10
2322.235901
 20
3603.594560338342
 30
0.0
 40
301.0
 50
186.29425000000001
 51
190.14149800000001
  0
LINE
  5
7AB8
  8
1
 10
2025.9387529999999
 20
3550.5945603383411
 30
0.0
 11
1965.235901
 21
3550.5945603383411
 31
0.0
  0
LINE
  5
7AB9
  8
2
 10
2355.2359009999991
 20
6429.207988695779
 30
0.0
 11
2355.2359009999991
 21
5560.7730296957789
 31
0.0
  0
LINE
  5
7ABA
  8
1
 10
2355.2359009999991
 20
2570.0877463383422
 30
0.0
 11
2355.2359009999991
 21
2570.0877463383422
 31
0.0
  0
LINE
  5
7ABB
  8
1
 10
3280.235901
 20
6349.8941316957789
 30
0.0
 11
2635.235901
 21
6349.8941316957789
 31
0.0
  0
LINE
  5
7ABC
  8
1
 10
2839.235901
 20
6307.3941316957798
 30
0.0
 11
1965.235901
 21
6307.3941316957798
 31
0.0
  0
LINE
  5
7ABD
  8
1
 10
2839.235901
 20
5882.3941316957789
 30
0.0
 11
1965.235901
 21
5882.3941316957789
 31
0.0
  0
LINE
  5
7ABE
  8
1
 10
3036.235901
 20
5739.8941316957789
 30
0.0
 11
2375.2359009999991
 21
5739.8941316957789
 31
0.0
  0
LINE
  5
7ABF
  8
1
 10
3219.5359010000002
 20
5634.8941316957789
 30
0.0
 11
2190.9359009999998
 21
5634.8941316957789
 31
0.0
  0
LINE
  5
7AC0
  8
1
 10
3219.5359010000002
 20
5729.8941316957789
 30
0.0
 11
2190.9359009999998
 21
5729.8941316957789
 31
0.0
  0
LINE
  5
7AC1
  8
1
 10
1965.235901
 20
5852.3941316957789
 30
0.0
 11
1965.235901
 21
6337.3941316957789
 31
0.0
  0
LINE
  5
7AC2
  8
1
 10
1995.235901
 20
5882.3941316957789
 30
0.0
 11
1995.235901
 21
6307.3941316957798
 31
0.0
  0
LINE
  5
7AC3
  8
1
 10
2469.5359010000002
 20
5712.8941316957789
 30
0.0
 11
2240.9359009999998
 21
5712.8941316957789
 31
0.0
  0
LINE
  5
7AC4
  8
1
 10
2469.5359010000002
 20
5649.8941316957789
 30
0.0
 11
2240.9359009999998
 21
5649.8941316957789
 31
0.0
  0
LINE
  5
7AC5
  8
1
 10
2000.2359009999991
 20
5739.8941316957789
 30
0.0
 11
2000.2359009999991
 21
5882.3941316957789
 31
0.0
  0
LINE
  5
7AC6
  8
1
 10
2335.235901
 20
5712.8941316957789
 30
0.0
 11
2335.235901
 21
5882.3941316957789
 31
0.0
  0
LINE
  5
7AC7
  8
1
 10
2335.235901
 20
5739.8941316957789
 30
0.0
 11
2000.2359009999991
 21
5739.8941316957789
 31
0.0
  0
LINE
  5
7AC8
  8
1
 10
2240.9359009999998
 20
5649.8941316957789
 30
0.0
 11
2240.9359009999998
 21
5712.8941316957789
 31
0.0
  0
LINE
  5
7AC9
  8
1
 10
2190.9359009999998
 20
5634.8941316957789
 30
0.0
 11
2190.9359009999998
 21
5729.8941316957789
 31
0.0
  0
LINE
  5
7ACA
  8
1
 10
2375.2359009999991
 20
5712.8941316957789
 30
0.0
 11
2375.2359009999991
 21
5882.3941316957789
 31
0.0
  0
LINE
  5
7ACB
  8
1
 10
2469.5359010000002
 20
5649.8941316957789
 30
0.0
 11
2469.5359010000002
 21
5712.8941316957789
 31
0.0
  0
LINE
  5
7ACC
  8
1
 10
2665.235901
 20
6370.8941316957789
 30
0.0
 11
2045.235901
 21
6370.8941316957789
 31
0.0
  0
LINE
  5
7ACD
  8
1
 10
2000.2359009999991
 20
6307.3941316957798
 30
0.0
 11
2000.2359009999991
 21
6349.8941316957789
 31
0.0
  0
LINE
  5
7ACE
  8
1
 10
2075.235901
 20
6307.3941316957798
 30
0.0
 11
2075.235901
 21
6370.8941316957789
 31
0.0
  0
LINE
  5
7ACF
  8
1
 10
2075.235901
 20
6349.8941316957789
 30
0.0
 11
2000.2359009999991
 21
6349.8941316957789
 31
0.0
  0
LINE
  5
7AD0
  8
1
 10
2635.235901
 20
6307.3941316957798
 30
0.0
 11
2635.235901
 21
6370.8941316957789
 31
0.0
  0
LINE
  5
7AD1
  8
1
 10
3280.235901
 20
5739.8941316957789
 30
0.0
 11
3280.235901
 21
6349.8941316957789
 31
0.0
  0
LINE
  5
7AD2
  8
1
 10
2839.235901
 20
5882.3941316957789
 30
0.0
 11
2839.235901
 21
6307.3941316957798
 31
0.0
  0
LINE
  5
7AD3
  8
1
 10
3198.235901
 20
5749.8941316957789
 30
0.0
 11
3198.235901
 21
6118.894131695778
 31
0.0
  0
LINE
  5
7AD4
  8
1
 10
2912.235901
 20
5749.8941316957789
 30
0.0
 11
2912.235901
 21
6118.894131695778
 31
0.0
  0
LINE
  5
7AD5
  8
1
 10
3280.235901
 20
5739.8941316957789
 30
0.0
 11
3074.235901
 21
5739.8941316957789
 31
0.0
  0
LINE
  5
7AD6
  8
1
 10
2912.235901
 20
5749.8941316957789
 30
0.0
 11
3198.235901
 21
5749.8941316957789
 31
0.0
  0
LINE
  5
7AD7
  8
1
 10
3169.5359010000002
 20
5712.8941316957789
 30
0.0
 11
2940.9359009999998
 21
5712.8941316957789
 31
0.0
  0
LINE
  5
7AD8
  8
1
 10
3169.5359010000002
 20
5649.8941316957789
 30
0.0
 11
2940.9359009999998
 21
5649.8941316957789
 31
0.0
  0
LINE
  5
7AD9
  8
1
 10
3036.235901
 20
5712.8941316957789
 30
0.0
 11
3036.235901
 21
5749.8941316957789
 31
0.0
  0
LINE
  5
7ADA
  8
1
 10
3074.235901
 20
5712.8941316957789
 30
0.0
 11
3074.235901
 21
5749.8941316957789
 31
0.0
  0
LINE
  5
7ADB
  8
1
 10
2940.9359009999998
 20
5649.8941316957789
 30
0.0
 11
2940.9359009999998
 21
5712.8941316957789
 31
0.0
  0
LINE
  5
7ADC
  8
1
 10
3169.5359010000002
 20
5649.8941316957789
 30
0.0
 11
3169.5359010000002
 21
5712.8941316957789
 31
0.0
  0
LINE
  5
7ADD
  8
1
 10
3219.5359010000002
 20
5634.8941316957789
 30
0.0
 11
3219.5359010000002
 21
5729.8941316957789
 31
0.0
  0
LINE
  5
7ADE
  8
1
 10
3198.235901
 20
6118.894131695778
 30
0.0
 11
2912.235901
 21
6118.894131695778
 31
0.0
  0
LINE
  5
7ADF
  8
1
 10
4523.3736150965442
 20
3245.594560338342
 30
0.0
 11
4523.3736150965442
 21
2925.5945603383411
 31
0.0
  0
LINE
  5
7AE0
  8
1
 10
4503.3736150965451
 20
3734.8945603383422
 30
0.0
 11
4503.3736150965451
 21
2938.2945603383409
 31
0.0
  0
LINE
  5
7AE1
  8
1
 10
4408.3736150965451
 20
3734.8945603383422
 30
0.0
 11
4408.3736150965451
 21
2938.2945603383409
 31
0.0
  0
LINE
  5
7AE2
  8
1
 10
4655.8736150965442
 20
3970.594560338342
 30
0.0
 11
4655.8736150965442
 21
2925.5945603383411
 31
0.0
  0
LINE
  5
7AE3
  8
1
 10
5080.8736150965451
 20
3970.594560338342
 30
0.0
 11
5080.8736150965451
 21
2925.5945603383411
 31
0.0
  0
LINE
  5
7AE4
  8
1
 10
5080.8736150965451
 20
3550.5945603383411
 30
0.0
 11
4655.8736150965442
 21
2970.5945603383411
 31
0.0
  0
LINE
  5
7AE5
  8
1
 10
4655.8736150965442
 20
3550.5945603383411
 30
0.0
 11
5080.8736150965451
 21
2970.5945603383411
 31
0.0
  0
LINE
  5
7AE6
  8
1
 10
4423.3736150965451
 20
3216.8945603383422
 30
0.0
 11
4423.3736150965451
 21
2988.2945603383409
 31
0.0
  0
LINE
  5
7AE7
  8
1
 10
4486.3736150965451
 20
3216.8945603383422
 30
0.0
 11
4486.3736150965451
 21
2988.2945603383409
 31
0.0
  0
LINE
  5
7AE8
  8
1
 10
4513.3736150965451
 20
2685.5945603383411
 30
0.0
 11
5123.373615096546
 21
2685.5945603383411
 31
0.0
  0
LINE
  5
7AE9
  8
1
 10
4513.3736150965451
 20
2750.5945603383411
 30
0.0
 11
5123.373615096546
 21
2750.5945603383411
 31
0.0
  0
LINE
  5
7AEA
  8
1
 10
4513.3736150965451
 20
2925.5945603383411
 30
0.0
 11
5123.373615096546
 21
2925.5945603383411
 31
0.0
  0
LINE
  5
7AEB
  8
1
 10
4513.3736150965451
 20
2850.594560338342
 30
0.0
 11
5123.373615096546
 21
2850.594560338342
 31
0.0
  0
LINE
  5
7AEC
  8
1
 10
4655.8736150965442
 20
2970.5945603383411
 30
0.0
 11
5080.8736150965451
 21
2970.5945603383411
 31
0.0
  0
LINE
  5
7AEE
  8
1
 10
4513.3736150965451
 20
2750.5945603383411
 30
0.0
 11
4513.3736150965451
 21
2685.5945603383411
 31
0.0
  0
LINE
  5
7AEF
  8
1
 10
4486.3736150965451
 20
3083.5945603383411
 30
0.0
 11
4523.3736150965442
 21
3083.5945603383411
 31
0.0
  0
LINE
  5
7AF0
  8
1
 10
4486.3736150965451
 20
3121.5945603383411
 30
0.0
 11
4523.3736150965442
 21
3121.5945603383411
 31
0.0
  0
LINE
  5
7AF1
  8
1
 10
4423.3736150965451
 20
2988.2945603383409
 30
0.0
 11
4486.3736150965451
 21
2988.2945603383409
 31
0.0
  0
LINE
  5
7AF2
  8
1
 10
4523.3736150965442
 20
2970.5945603383411
 30
0.0
 11
4655.8736150965442
 21
2970.5945603383411
 31
0.0
  0
LINE
  5
7AF3
  8
1
 10
4408.3736150965451
 20
2938.2945603383409
 30
0.0
 11
4503.3736150965451
 21
2938.2945603383409
 31
0.0
  0
LINE
  5
7AF4
  8
1
 10
4513.3736150965451
 20
2925.5945603383411
 30
0.0
 11
4513.3736150965451
 21
2850.594560338342
 31
0.0
  0
LINE
  5
7AF5
  8
1
 10
5123.373615096546
 20
2750.5945603383411
 30
0.0
 11
5123.373615096546
 21
2685.5945603383411
 31
0.0
  0
LINE
  5
7AF6
  8
1
 10
5123.373615096546
 20
2925.5945603383411
 30
0.0
 11
5123.373615096546
 21
2850.594560338342
 31
0.0
  0
LINE
  5
7AF7
  8
1
 10
4655.8736150965442
 20
3970.594560338342
 30
0.0
 11
5080.8736150965451
 21
3970.594560338342
 31
0.0
  0
LINE
  5
7AF8
  8
1
 10
4655.8736150965442
 20
3550.5945603383411
 30
0.0
 11
5080.8736150965451
 21
3550.5945603383411
 31
0.0
  0
LINE
  5
7AF9
  8
1
 10
4523.3736150965442
 20
3245.594560338342
 30
0.0
 11
4655.8736150965442
 21
3245.594560338342
 31
0.0
  0
LINE
  5
7AFA
  8
1
 10
4486.3736150965451
 20
3684.8945603383422
 30
0.0
 11
4486.3736150965451
 21
3456.2945603383409
 31
0.0
  0
LINE
  5
7AFB
  8
1
 10
4423.3736150965451
 20
3456.2945603383409
 30
0.0
 11
4486.3736150965451
 21
3456.2945603383409
 31
0.0
  0
LINE
  5
7AFC
  8
1
 10
4423.3736150965451
 20
3684.8945603383422
 30
0.0
 11
4486.3736150965451
 21
3684.8945603383422
 31
0.0
  0
LINE
  5
7AFD
  8
1
 10
4423.3736150965451
 20
3684.8945603383422
 30
0.0
 11
4423.3736150965451
 21
3456.2945603383409
 31
0.0
  0
LINE
  5
7AFE
  8
1
 10
4486.3736150965451
 20
3550.5945603383411
 30
0.0
 11
4655.8736150965442
 21
3550.5945603383411
 31
0.0
  0
LINE
  5
7AFF
  8
1
 10
4486.3736150965451
 20
3590.5945603383411
 30
0.0
 11
4655.8736150965442
 21
3590.5945603383411
 31
0.0
  0
LINE
  5
7B00
  8
1
 10
4423.3736150965451
 20
3216.8945603383422
 30
0.0
 11
4486.3736150965451
 21
3216.8945603383422
 31
0.0
  0
LINE
  5
7B01
  8
1
 10
4408.3736150965451
 20
3734.8945603383422
 30
0.0
 11
4503.3736150965451
 21
3734.8945603383422
 31
0.0
  0
LINE
  5
7B02
  8
1
 10
5144.3736150965451
 20
3880.5945603383411
 30
0.0
 11
5144.3736150965451
 21
3260.594560338342
 31
0.0
  0
LINE
  5
7B03
  8
1
 10
5080.8736150965451
 20
3290.5945603383411
 30
0.0
 11
5144.3736150965451
 21
3290.5945603383411
 31
0.0
  0
LINE
  5
7B04
  8
1
 10
5080.8736150965451
 20
3850.594560338342
 30
0.0
 11
5144.3736150965451
 21
3850.594560338342
 31
0.0
  0
LINE
  5
7B22
  8
4
 10
5550.0
 20
1500.0
 30
0.0
 11
5550.0
 21
900.0
 31
0.0
  0
LINE
  5
7B23
  8
4
 10
3450.0
 20
1500.0
 30
0.0
 11
3450.0
 21
900.0
 31
0.0
  0
LINE
  5
7B24
  8
4
 10
1950.0
 20
1500.0
 30
0.0
 11
1950.0
 21
900.0
 31
0.0
  0
LINE
  5
7B27
  8
4
 10
1950.0
 20
900.0
 30
0.0
 11
5550.0
 21
900.0
 31
0.0
  0
LINE
  5
7B28
  8
4
 10
1950.0
 20
1200.0
 30
0.0
 11
5550.0
 21
1200.0
 31
0.0
  0
TEXT
  5
7B29
  8
4
 10
2065.50624225
 20
1294.6290779999999
 30
0.0
 40
150.0
  1
機器名称
  0
TEXT
  5
7B2A
  8
4
 10
2058.7743179999989
 20
964.93547024999998
 30
0.0
 40
150.0
  1
機器型番
  0
TEXT
  5
7B2B
  8
4
 10
3533.0362365000001
 20
1267.715306249999
 30
0.0
 40
120.0
  1
ミツヤリミットロードファン
  0
TEXT
  5
7B2C
  8
4
 10
3559.9634872500001
 20
951.4787527499999
 30
0.0
 40
150.0
  1
LLE#3 1/2-4
  0
TEXT
  5
7B2E
  8
4
 10
2242.229372249999
 20
7150.2865245000012
 30
0.0
 40
162.0
  1
床置防振ベット
  0
TEXT
  5
7B2F
  8
4
 10
948.50278049999986
 20
7601.6429287499996
 30
0.0
 40
180.0
  1
ベルト駆動式片吸込両持排煙ファン
  0
LINE
  5
7B30
  8
4
 10
750.0
 20
7408.2262627500004
 30
0.0
 11
5550.0
 21
7408.2262627500004
 31
0.0
  0
LINE
  5
7B31
  8
4
 10
750.0
 20
8008.2262627500004
 30
0.0
 11
5550.0
 21
8008.2262627500004
 31
0.0
  0
LINE
  5
7B32
  8
4
 10
1950.0
 20
1500.0
 30
0.0
 11
5550.0
 21
1500.0
 31
0.0
  0
LINE
  5
7B33
  8
4
 10
750.0
 20
8008.2262627500004
 30
0.0
 11
750.0
 21
7408.2262627500004
 31
0.0
  0
TEXT
  5
7B34
  8
4
 10
934.65287549999994
 20
7146.9584324999987
 30
0.0
 40
162.0
  1
右回転左横向
  0
TEXT
  5
7B35
  8
4
 10
4406.9086777499988
 20
8118.1832445
 30
0.0
 40
168.0
  1
No.
  0
TEXT
  5
7B36
  8
4
 10
3933.8881875000002
 20
7150.2865245000012
 30
0.0
 40
162.0
  1
縮尺：1/30
  0
LINE
  5
7B37
  8
4
 10
5550.0
 20
8008.2262627500004
 30
0.0
 11
5550.0
 21
7408.2262627500004
 31
0.0
  0
LINE
  5
7B38
  8
4
 10
5512.5
 20
7743.75
 30
0.0
 11
5512.5
 21
7743.75
 31
0.0
  0
LINE
  5
7B39
  8
4
 10
4321.8522667500001
 20
8043.79074975
 30
0.0
 11
4321.8522667500001
 21
8359.9567845000001
 31
0.0
  0
LINE
  5
7B3A
  8
4
 10
4321.8522667500001
 20
8359.9567845000001
 30
0.0
 11
5550.0
 21
8359.9567845000001
 31
0.0
  0
LINE
  5
7B3B
  8
4
 10
5550.0
 20
8359.9567845000001
 30
0.0
 11
5550.0
 21
8043.79074975
 31
0.0
  0
LINE
  5
7B3C
  8
4
 10
5550.0
 20
8043.79074975
 30
0.0
 11
4321.8522667500001
 21
8043.79074975
 31
0.0
  0
DIMENSION
  5
7B4F
  8
3
  2
*D1
 10
2355.2359009999991
 20
2442.3148106491299
 30
0.0
 11
2177.735901
 21
2508.8496354492781
 31
0.0
 12
0.0
 22
10.0
 32
0.0
 70
   128
 13
2000.2359009999991
 23
2685.5945603383411
 33
0.0
 14
2355.2359009999991
 24
2615.0877463383422
 34
0.0
1001
ACAD
1000
DSTYLE
1002
{
1070
   288
1070
     1
1070
   172
1070
     1
1070
    40
1040
30.0
1070
   271
1070
     0
1070
   143
1040
0.039
1002
}
  0
DIMENSION
  5
7B5B
  8
3
  2
*D2
 10
3280.235901
 20
2442.3148106491299
 30
0.0
 11
2817.735901
 21
2517.3148106491299
 31
0.0
 70
     0
 13
2355.2359009999991
 23
2615.0877463383422
 33
0.0
 14
3280.235901
 24
2685.5945603383411
 34
0.0
1001
ACAD
1000
DSTYLE
1002
{
1070
   287
1070
     3
1070
   287
1070
     3
1070
    40
1040
30.0
1070
   143
1040
0.039
1070
   172
1070
     1
1070
   271
1070
     0
1070
   279
1070
     0
1070
   288
1070
     1
1002
}
  0
DIMENSION
  5
7B6A
  8
3
  2
*D3
 10
1791.9536599999999
 20
2970.5945603383411
 30
0.0
 11
1791.9536599999999
 21
3310.5945603383411
 31
0.0
 70
   128
 13
1965.235901
 23
3550.5945603383411
 33
0.0
 14
1965.235901
 24
2970.5945603383411
 34
0.0
 50
90.0
1001
ACAD
1000
DSTYLE
1002
{
1070
   287
1070
     3
1070
   287
1070
     3
1070
    40
1040
30.0
1070
   143
1040
0.039
1070
   172
1070
     1
1070
   271
1070
     0
1070
   279
1070
     0
1070
   288
1070
     1
1002
}
  0
DIMENSION
  5
7B77
  8
3
  2
*D4
 10
1601.5981220000001
 20
3570.594560338342
 30
0.0
 11
1601.5981220000001
 21
3330.5945603383411
 31
0.0
 70
   128
 13
1965.235901
 23
2970.5945603383411
 33
0.0
 14
2022.7225629999989
 24
3570.594560338342
 34
0.0
 50
90.0
1001
ACAD
1000
DSTYLE
1002
{
1070
   287
1070
     3
1070
   287
1070
     3
1070
    40
1040
30.0
1070
   143
1040
0.039
1070
   172
1070
     1
1070
   271
1070
     0
1070
   279
1070
     0
1070
   288
1070
     1
1002
}
  0
DIMENSION
  5
7B86
  8
3
  2
*D5
 10
1397.7868849999991
 20
3570.594560338342
 30
0.0
 11
1328.0234290537551
 21
3775.4737512244942
 31
0.0
 70
   128
  1
400
 13
2355.2359009999991
 23
3968.5945603383411
 33
0.0
 14
2022.7225629999989
 24
3570.594560338342
 34
0.0
 50
90.0
1001
ACAD
1000
DSTYLE
1002
{
1070
   288
1070
     1
1070
   172
1070
     1
1070
    40
1040
30.0
1070
   271
1070
     0
1070
   143
1040
0.039
1002
}
  0
DIMENSION
  5
7B92
  8
3
  2
*D6
 10
1397.7868849999991
 20
2850.594560338342
 30
0.0
 11
1322.7868849999991
 21
3210.5945603383411
 31
0.0
 70
     0
 13
2022.7225629999989
 23
3570.594560338342
 33
0.0
 14
2000.2359009999991
 24
2850.594560338342
 34
0.0
 50
90.0
1001
ACAD
1000
DSTYLE
1002
{
1070
   287
1070
     3
1070
   287
1070
     3
1070
    40
1040
30.0
1070
   143
1040
0.039
1070
   172
1070
     1
1070
   271
1070
     0
1070
   279
1070
     0
1070
   288
1070
     1
1002
}
  0
DIMENSION
  5
7BA1
  8
3
  2
*D7
 10
2355.2359009999991
 20
4099.8894893383422
 30
0.0
 11
2160.235901
 21
4193.0354720200921
 31
0.0
 70
   128
 13
1965.235901
 23
3580.5945603383411
 33
0.0
 14
2355.2359009999991
 24
3968.5945603383411
 34
0.0
1001
ACAD
1000
DSTYLE
1002
{
1070
   288
1070
     1
1070
   172
1070
     1
1070
    40
1040
30.0
1070
   271
1070
     0
1070
   143
1040
0.039
1002
}
  0
DIMENSION
  5
7BAD
  8
3
  2
*D8
 10
2837.235901
 20
4099.8894893383422
 30
0.0
 11
2596.235901
 21
4174.8894893383422
 31
0.0
 70
     0
  1
484
 13
2355.2359009999991
 23
3968.5945603383411
 33
0.0
 14
2837.235901
 24
3570.594560338342
 34
0.0
1001
ACAD
1000
DSTYLE
1002
{
1070
   287
1070
     3
1070
   287
1070
     3
1070
    40
1040
30.0
1070
   143
1040
0.039
1070
   172
1070
     1
1070
   271
1070
     0
1070
   279
1070
     0
1070
   288
1070
     1
1002
}
  0
DIMENSION
  5
7BBA
  8
3
  2
*D9
 10
3280.235901
 20
5325.6206506957778
 30
0.0
 11
2664.6356030000002
 21
5325.6206506957778
 31
0.0
 70
   128
 13
2000.2359009999991
 23
5739.8941316957789
 33
0.0
 14
3280.235901
 24
5739.8941316957789
 34
0.0
1001
ACAD
1000
DSTYLE
1002
{
1070
   287
1070
     3
1070
   287
1070
     3
1070
    40
1040
30.0
1070
   143
1040
0.039
1070
   172
1070
     1
1070
   271
1070
     0
1070
   279
1070
     0
1070
   288
1070
     1
1002
}
  0
DIMENSION
  5
7BC7
  8
3
  2
*D10
 10
3606.5671650000008
 20
5739.8941316957789
 30
0.0
 11
3606.5671649999999
 21
6066.8089556957802
 31
0.0
 70
   128
 13
3280.235901
 23
6349.8941316957789
 33
0.0
 14
3280.235901
 24
5739.8941316957789
 34
0.0
 50
90.0
1001
ACAD
1000
DSTYLE
1002
{
1070
   287
1070
     3
1070
   287
1070
     3
1070
    40
1040
30.0
1070
   143
1040
0.039
1070
   172
1070
     1
1070
   271
1070
     0
1070
   279
1070
     0
1070
   288
1070
     1
1002
}
  0
LINE
  5
7BC8
  8
2
 10
2993.489493
 20
6094.8941316957789
 30
0.0
 11
1808.0358219999989
 21
6094.8941316957789
 31
0.0
  0
LINE
  5
7BC9
  8
2
 10
2355.2359009999991
 20
4009.7036903383419
 30
0.0
 11
2355.2359009999991
 21
2615.0877463383422
 31
0.0
  0
DIMENSION
  5
7BD9
  8
3
  2
*D11
 10
5080.8736150965451
 20
4139.2567913383418
 30
0.0
 11
4861.5879008108313
 21
4139.2567913383418
 31
0.0
 70
   128
 13
4655.8736150965442
 23
3970.594560338342
 33
0.0
 14
5080.8736150965451
 24
3970.594560338342
 34
0.0
1001
ACAD
1000
DSTYLE
1002
{
1070
   287
1070
     3
1070
   287
1070
     3
1070
    40
1040
30.0
1070
   143
1040
0.039
1070
   172
1070
     1
1070
   271
1070
     0
1070
   279
1070
     0
1070
   288
1070
     1
1002
}
  0
DIMENSION
  5
7BE8
  8
3
  2
*D12
 10
4868.3736150965451
 20
4385.5273450527511
 30
0.0
 11
4626.9450436679726
 21
4385.5273450527511
 31
0.0
 70
   128
  1
MAX\P510
 13
4408.3736150965451
 23
3734.8945603383422
 33
0.0
 14
4868.3736150965451
 24
4302.835450844228
 34
0.0
1001
ACAD
1000
DSTYLE
1002
{
1070
   287
1070
     3
1070
   287
1070
     3
1070
    40
1040
30.0
1070
   143
1040
0.039
1070
   172
1070
     1
1070
   271
1070
     0
1070
   279
1070
     0
1070
   288
1070
     1
1002
}
  0
DIMENSION
  5
7BF6
  8
3
  2
*D13
 10
5144.3736150965451
 20
4385.5273450527511
 30
0.0
 11
5006.2388404917292
 21
4467.0594654172774
 31
0.0
 70
   128
 13
4868.3736150965451
 23
4293.714568477546
 33
0.0
 14
5144.3736150965451
 24
3880.5945603383411
 34
0.0
1001
ACAD
1000
DSTYLE
1002
{
1070
   288
1070
     1
1070
   172
1070
     1
1070
    40
1040
30.0
1070
   271
1070
     0
1070
   143
1040
0.039
1002
}
  0
DIMENSION
  5
7C19
  8
3
  2
*D14
 10
5450.4831550965464
 20
3290.5945603383411
 30
0.0
 11
5450.4831550965446
 21
3590.8802746240558
 31
0.0
 70
   128
 13
5144.3736150965451
 23
3850.594560338342
 33
0.0
 14
5144.3736150965451
 24
3290.5945603383411
 34
0.0
 50
90.0
1001
ACAD
1000
DSTYLE
1002
{
1070
   287
1070
     3
1070
   287
1070
     3
1070
     3
1000
φ<>
1070
    40
1040
30.0
1070
   143
1040
0.039
1070
   172
1070
     1
1070
   271
1070
     0
1070
   279
1070
     0
1070
   288
1070
     1
1002
}
  0
DIMENSION
  5
7C28
  8
3
  2
*D15
 10
4868.3736150965451
 20
2456.2137353599469
 30
0.0
 11
4690.8736150965451
 21
2515.793015804687
 31
0.0
 12
0.0
 22
10.0
 32
0.0
 70
   128
 13
4513.3736150965451
 23
2685.5945603383411
 33
0.0
 14
4868.3736150965451
 24
2643.2568743383408
 34
0.0
1001
ACAD
1000
DSTYLE
1002
{
1070
   288
1070
     1
1070
   172
1070
     1
1070
    40
1040
30.0
1070
   271
1070
     0
1070
   143
1040
0.039
1002
}
  0
DIMENSION
  5
7C36
  8
3
  2
*D16
 10
5123.373615096546
 20
2456.1708534697032
 30
0.0
 11
4997.1104260246211
 21
2524.318156603018
 31
0.0
 12
0.0
 22
10.0
 32
0.0
 70
   128
 13
4868.3736150965451
 23
2643.2568743383408
 33
0.0
 14
5123.373615096546
 24
2685.5945603383411
 34
0.0
1001
ACAD
1000
DSTYLE
1002
{
1070
   288
1070
     1
1070
   172
1070
     1
1070
    40
1040
30.0
1070
   271
1070
     0
1070
   143
1040
0.039
1002
}
  0
LINE
  5
7C4D
  8
2
 10
2972.506594
 20
3570.594560338342
 30
0.0
 11
1921.388418
 21
3570.594560338342
 31
0.0
  0
DIMENSION
  5
7C85
  8
3
  2
*D17
 10
1200.1613440000001
 20
2685.5945603383411
 30
0.0
 11
1200.1613440000001
 21
3292.0732233383419
 31
0.0
 70
   128
  1
1285
 13
2355.2359009999991
 23
3968.5945603383411
 33
0.0
 14
2000.2359009999991
 24
2685.5945603383411
 34
0.0
 50
90.0
1001
ACAD
1000
DSTYLE
1002
{
1070
   287
1070
     3
1070
   287
1070
     3
1070
    40
1040
30.0
1070
   143
1040
0.039
1070
   172
1070
     1
1070
   271
1070
     0
1070
   279
1070
     0
1070
   288
1070
     1
1002
}
  0
LINE
  5
7C8B
  8
2
 10
4868.3736150965451
 20
4151.5633783383419
 30
0.0
 11
4868.3736150965451
 21
2643.2568743383408
 31
0.0
  0
LINE
  5
7C95
  8
1
 10
3280.235901
 20
2750.5945603383411
 30
0.0
 11
2000.2359009999991
 21
2750.5945603383411
 31
0.0
  0
DIMENSION
  5
7CE3
  8
3
  2
*D18
 10
1397.7868849999991
 20
2685.5945603383411
 30
0.0
 11
1322.7868849999991
 21
2462.7374174811989
 31
0.0
 70
     0
 13
2000.2359009999991
 23
2750.5945603383411
 33
0.0
 14
2000.2359009999991
 24
2685.5945603383411
 34
0.0
 50
90.0
1001
ACAD
1000
DSTYLE
1002
{
1070
   287
1070
     3
1070
   287
1070
     3
1070
    40
1040
30.0
1070
   143
1040
0.039
1070
   172
1070
     1
1070
   271
1070
     0
1070
   279
1070
     0
1070
   288
1070
     1
1070
     6
1000
DOT
1002
}
  0
LINE
  5
7D2A
  8
3
 10
1982.735901
 20
2750.5945603383411
 30
0.0
 11
1362.7868849999991
 21
2750.5945603383411
 31
0.0
  0
TEXT
  5
7D2F
  8
3
 10
1336.783316746076
 20
2700.1332174661989
 30
0.0
 40
90.0
  1
100
 50
90.0
  0
POINT
  5
7D33
  8
DEFPOINTS
  6
BYBLOCK
 62
     0
 10
2000.2359009999991
 20
2850.594560338342
 30
0.0
  0
POINT
  5
7D34
  8
DEFPOINTS
  6
BYBLOCK
 62
     0
 10
2000.2359009999991
 20
2750.5945603383411
 30
0.0
  0
LINE
  5
7D36
  8
1
 10
4513.3736150965451
 20
2750.5945603383411
 30
0.0
 11
5123.373615096546
 21
2750.5945603383411
 31
0.0
  0
DIMENSION
  5
7FE6
  8
3
  2
*D20
 10
3280.235901
 20
4303.3145482623549
 30
0.0
 11
2644.61690038603
 21
4303.3145482623549
 31
0.0
 70
   128
 13
1965.235901
 23
3580.5945603383411
 33
0.0
 14
3280.235901
 24
2925.5945603383411
 34
0.0
1001
ACAD
1000
DSTYLE
1002
{
1070
   287
1070
     3
1070
   287
1070
     3
1070
    40
1040
30.0
1070
   143
1040
0.039
1070
   172
1070
     1
1070
   271
1070
     0
1070
   279
1070
     0
1070
   288
1070
     1
1002
}
  0
ENDSEC
  0
EOF
