  0
SECTION
  2
HEADER
  9
$ACADVER
  1
AC1009
  9
$INSBASE
 10
0.0
 20
0.0
 30
0.0
  9
$EXTMIN
 10
750.0
 20
900.0
 30
0.0
  9
$EXTMAX
 10
5550.0
 20
8359.9567845000001
 30
0.0
  9
$LIMMIN
 10
0.0
 20
0.0
  9
$LIMMAX
 10
297.0
 20
210.0
  9
$ORTHOMODE
 70
     0
  9
$REGENMODE
 70
     1
  9
$FILLMODE
 70
     0
  9
$QTEXTMODE
 70
     0
  9
$MIRRTEXT
 70
     1
  9
$DRAGMODE
 70
     2
  9
$LTSCALE
 40
100.0
  9
$OSMODE
 70
    37
  9
$ATTMODE
 70
     1
  9
$TEXTSIZE
 40
180.0
  9
$TRACEWID
 40
0.05
  9
$TEXTSTYLE
  7
STANDARD
  9
$CLAYER
  8
3
  9
$CELTYPE
  6
BYLAYER
  9
$CECOLOR
 62
   256
  9
$DIMSCALE
 40
30.0
  9
$DIMASZ
 40
2.0
  9
$DIMEXO
 40
0.5
  9
$DIMDLI
 40
10.0
  9
$DIMRND
 40
0.0
  9
$DIMDLE
 40
0.0
  9
$DIMEXE
 40
1.0
  9
$DIMTP
 40
1.0
  9
$DIMTM
 40
1.0
  9
$DIMTXT
 40
3.0
  9
$DIMCEN
 40
0.0
  9
$DIMTSZ
 40
0.0
  9
$DIMTOL
 70
     0
  9
$DIMLIM
 70
     0
  9
$DIMTIH
 70
     0
  9
$DIMTOH
 70
     0
  9
$DIMSE1
 70
     0
  9
$DIMSE2
 70
     0
  9
$DIMTAD
 70
     1
  9
$DIMZIN
 70
     8
  9
$DIMBLK
  1

  9
$DIMASO
 70
     1
  9
$DIMSHO
 70
     1
  9
$DIMPOST
  1

  9
$DIMAPOST
  1

  9
$DIMALT
 70
     0
  9
$DIMALTD
 70
     2
  9
$DIMALTF
 40
0.039
  9
$DIMLFAC
 40
1.0
  9
$DIMTOFL
 70
     1
  9
$DIMTVP
 40
0.0
  9
$DIMTIX
 70
     0
  9
$DIMSOXD
 70
     0
  9
$DIMSAH
 70
     1
  9
$DIMBLK1
  1
OPEN
  9
$DIMBLK2
  1
OPEN
  9
$DIMSTYLE
  2
IGA
  9
$DIMCLRD
 70
     0
  9
$DIMCLRE
 70
     0
  9
$DIMCLRT
 70
     0
  9
$DIMTFAC
 40
10.0
  9
$DIMGAP
 40
1.0
  9
$LUNITS
 70
     2
  9
$LUPREC
 70
     3
  9
$SKETCHINC
 40
0.1
  9
$FILLETRAD
 40
50.0
  9
$AUNITS
 70
     0
  9
$AUPREC
 70
     0
  9
$MENU
  1
acad
  9
$ELEVATION
 40
0.0
  9
$PELEVATION
 40
0.0
  9
$THICKNESS
 40
0.0
  9
$LIMCHECK
 70
     0
  9
$BLIPMODE
 70
     0
  9
$CHAMFERA
 40
0.5
  9
$CHAMFERB
 40
0.5
  9
$SKPOLY
 70
     0
  9
$TDCREATE
 40
2450759.6544600688
  9
$TDUPDATE
 40
2454953.682836724
  9
$TDINDWG
 40
0.0156026736
  9
$TDUSRTIMER
 40
0.0156026736
  9
$USRTIMER
 70
     1
  9
$ANGBASE
 50
0.0
  9
$ANGDIR
 70
     0
  9
$PDMODE
 70
     0
  9
$PDSIZE
 40
0.0
  9
$PLINEWID
 40
0.0
  9
$COORDS
 70
     1
  9
$SPLFRAME
 70
     0
  9
$SPLINETYPE
 70
     6
  9
$SPLINESEGS
 70
     8
  9
$ATTDIA
 70
     0
  9
$ATTREQ
 70
     1
  9
$HANDLING
 70
 10241
  9
$HANDSEED
  5
83FF
  9
$SURFTAB1
 70
     6
  9
$SURFTAB2
 70
     6
  9
$SURFTYPE
 70
     6
  9
$SURFU
 70
     6
  9
$SURFV
 70
     6
  9
$UCSNAME
  2

  9
$UCSORG
 10
0.0
 20
0.0
 30
0.0
  9
$UCSXDIR
 10
1.0
 20
0.0
 30
0.0
  9
$UCSYDIR
 10
0.0
 20
1.0
 30
0.0
  9
$PUCSNAME
  2

  9
$PUCSORG
 10
0.0
 20
0.0
 30
0.0
  9
$PUCSXDIR
 10
1.0
 20
0.0
 30
0.0
  9
$PUCSYDIR
 10
0.0
 20
1.0
 30
0.0
  9
$USERI1
 70
     0
  9
$USERI2
 70
     0
  9
$USERI3
 70
     0
  9
$USERI4
 70
     0
  9
$USERI5
 70
     0
  9
$USERR1
 40
0.0
  9
$USERR2
 40
0.0
  9
$USERR3
 40
0.0
  9
$USERR4
 40
0.0
  9
$USERR5
 40
0.0
  9
$WORLDVIEW
 70
     1
  9
$SHADEDGE
 70
     3
  9
$SHADEDIF
 70
    70
  9
$TILEMODE
 70
     1
  9
$MAXACTVP
 70
    16
  9
$PLIMCHECK
 70
     0
  9
$PEXTMIN
 10
1.0000000000000000E+020
 20
1.0000000000000000E+020
 30
1.0000000000000000E+020
  9
$PEXTMAX
 10
-1.0000000000000000E+020
 20
-1.0000000000000000E+020
 30
-1.0000000000000000E+020
  9
$PLIMMIN
 10
0.0
 20
0.0
  9
$PLIMMAX
 10
12.0
 20
9.0
  9
$UNITMODE
 70
     0
  9
$VISRETAIN
 70
     0
  9
$PLINEGEN
 70
     0
  9
$PSLTSCALE
 70
     1
  0
ENDSEC
  0
SECTION
  2
TABLES
  0
TABLE
  2
VPORT
 70
     2
  0
VPORT
  2
*ACTIVE
 70
     0
 10
0.0
 20
0.0
 11
1.0
 21
1.0
 12
11216.55322813038
 22
3919.6937826388889
 13
0.0
 23
0.0
 14
10.0
 24
10.0
 15
10.0
 25
10.0
 16
0.0
 26
0.0
 36
1.0
 17
0.0
 27
0.0
 37
0.0
 40
9585.3385812954075
 41
3.1666666666666661
 42
50.0
 43
0.0
 44
0.0
 50
0.0
 51
0.0
 71
     0
 72
   100
 73
     1
 74
     0
 75
     0
 76
     0
 77
     0
 78
     0
  0
ENDTAB
  0
TABLE
  2
LTYPE
 70
     2
  0
LTYPE
  2
CONTINUOUS
 70
     0
  3
Solid line
 72
    65
 73
     0
 40
0.0
  0
LTYPE
  2
CENTER
 70
     0
  3
____ _ ____ _ ____ _ ____ _ ____ _ ____ _ ____ 
 72
    65
 73
     4
 40
2.0
 49
1.25
 49
-0.25
 49
0.25
 49
-0.25
  0
ENDTAB
  0
TABLE
  2
LAYER
 70
     6
  0
LAYER
  2
0
 70
     0
 62
     7
  6
CONTINUOUS
  0
LAYER
  2
3
 70
     0
 62
     2
  6
CONTINUOUS
  0
LAYER
  2
2
 70
     0
 62
     3
  6
CENTER
  0
LAYER
  2
1
 70
     0
 62
     4
  6
CONTINUOUS
  0
LAYER
  2
4
 70
     0
 62
     7
  6
CONTINUOUS
  0
LAYER
  2
DEFPOINTS
 70
     0
 62
     7
  6
CONTINUOUS
  0
ENDTAB
  0
TABLE
  2
STYLE
 70
     1
  0
STYLE
  2
STANDARD
 70
     0
 40
0.0
 41
1.0
 50
0.0
 71
     0
 42
180.0
  3
simplex.shx
  4
extfont.shx
  0
ENDTAB
  0
TABLE
  2
VIEW
 70
     0
  0
ENDTAB
  0
TABLE
  2
UCS
 70
     0
  0
ENDTAB
  0
TABLE
  2
APPID
 70
     1
  0
APPID
  2
ACAD
 70
     0
  0
ENDTAB
  0
TABLE
  2
DIMSTYLE
 70
     1
  0
DIMSTYLE
  2
IGA
 70
     0
  3

  4

  5

  6
OPEN
  7
OPEN
 40
2.0
 41
2.0
 42
0.5
 43
10.0
 44
1.0
 45
0.0
 46
0.0
 47
1.0
 48
1.0
140
3.0
141
0.0
142
0.0
143
0.03937
144
1.0
145
0.0
146
10.0
147
1.0
 71
     0
 72
     0
 73
     0
 74
     0
 75
     0
 76
     0
 77
     1
 78
     8
170
     0
171
     2
172
     0
173
     1
174
     0
175
     0
176
     0
177
     0
178
     0
  0
ENDTAB
  0
ENDSEC
  0
SECTION
  2
BLOCKS
  0
BLOCK
  8
0
  2
$MODEL_SPACE
 70
     0
 10
0.0
 20
0.0
 30
0.0
  3
$MODEL_SPACE
  1

  0
ENDBLK
  5
1B
  8
0
  0
BLOCK
 67
     1
  8
0
  2
$PAPER_SPACE
 70
     0
 10
0.0
 20
0.0
 30
0.0
  3
$PAPER_SPACE
  1

  0
ENDBLK
  5
18
 67
     1
  8
0
  0
BLOCK
  8
0
  2
_OPEN
 70
     0
 10
0.0
 20
0.0
 30
0.0
  3
_OPEN
  1

  0
LINE
  5
7AEA
  8
0
  6
BYBLOCK
 62
     0
 10
-1.0
 20
0.166667
 30
0.0
 11
0.0
 21
0.0
 31
0.0
  0
LINE
  5
7AEB
  8
0
  6
BYBLOCK
 62
     0
 10
0.0
 20
0.0
 30
0.0
 11
-1.0
 21
-0.166667
 31
0.0
  0
LINE
  5
7AEC
  8
0
  6
BYBLOCK
 62
     0
 10
0.0
 20
0.0
 30
0.0
 11
-1.0
 21
0.0
 31
0.0
  0
ENDBLK
  5
7AED
  8
0
  0
BLOCK
  8
0
  2
*D1
 70
     1
 10
0.0
 20
0.0
 30
0.0
  3
*D1
  1

  0
LINE
  5
8381
  8
3
 62
     0
 10
1440.043140814101
 20
2578.1963398088419
 30
0.0
 11
1440.043140814101
 21
2346.101118808841
 31
0.0
  0
LINE
  5
8382
  8
3
 62
     0
 10
2365.0431408141012
 20
2521.2546868088411
 30
0.0
 11
2365.0431408141012
 21
2346.101118808841
 31
0.0
  0
LINE
  5
8383
  8
3
 62
     0
 10
1500.043140814101
 20
2376.101118808841
 30
0.0
 11
2305.0431408141012
 21
2376.101118808841
 31
0.0
  0
INSERT
  5
8384
  8
3
 62
     0
  2
_OPEN
 10
1440.043140814101
 20
2376.101118808841
 30
0.0
 41
60.0
 42
60.0
 43
60.0
 50
180.0
  0
INSERT
  5
8385
  8
3
 62
     0
  2
_OPEN
 10
2365.0431408141012
 20
2376.101118808841
 30
0.0
 41
60.0
 42
60.0
 43
60.0
  0
TEXT
  8
3
  40
90
  5
83F2
  62
0
  72
0
  71
0
 10
1726.02
 20
2291.80
 30
0.000000
  1
925
  0
POINT
  5
8387
  8
DEFPOINTS
 62
     0
 10
1440.043140814101
 20
2593.1963398088419
 30
0.0
  0
POINT
  5
8388
  8
DEFPOINTS
 62
     0
 10
2365.0431408141012
 20
2536.2546868088411
 30
0.0
  0
POINT
  5
8389
  8
DEFPOINTS
 62
     0
 10
2365.0431408141012
 20
2376.101118808841
 30
0.0
  0
ENDBLK
  5
809A
  8
0
  0
BLOCK
  8
0
  2
*D2
 70
     1
 10
0.0
 20
0.0
 30
0.0
  3
*D2
  1

  0
LINE
  5
8165
  8
0
  6
BYBLOCK
 62
     0
 10
2365.0431408141012
 20
2511.2546868088411
 30
0.0
 11
2365.0431408141012
 21
2336.101118808841
 31
0.0
  0
LINE
  5
8166
  8
0
  6
BYBLOCK
 62
     0
 10
2720.0431408141012
 20
2568.1963398088419
 30
0.0
 11
2720.0431408141012
 21
2336.101118808841
 31
0.0
  0
LINE
  5
8167
  8
0
  6
BYBLOCK
 62
     0
 10
2425.0431408141012
 20
2366.101118808841
 30
0.0
 11
2660.0431408141012
 21
2366.101118808841
 31
0.0
  0
TEXT
  5
8168
  8
3
 62
     0
 10
2423.6687640852651
 20
2391.3591761154762
 30
0.0
 40
90.0
  1
355
  0
INSERT
  5
8169
  8
0
  6
BYBLOCK
 62
     0
  2
_OPEN
 10
2365.0431408141012
 20
2366.101118808841
 30
0.0
 41
60.0
 42
60.0
 43
60.0
 50
180.0
  0
INSERT
  5
816A
  8
0
  6
BYBLOCK
 62
     0
  2
_OPEN
 10
2720.0431408141012
 20
2366.101118808841
 30
0.0
 41
60.0
 42
60.0
 43
60.0
  0
POINT
  5
816B
  8
DEFPOINTS
  6
BYBLOCK
 62
     0
 10
2365.0431408141012
 20
2526.2546868088411
 30
0.0
  0
POINT
  5
816C
  8
DEFPOINTS
  6
BYBLOCK
 62
     0
 10
2720.0431408141012
 20
2583.1963398088419
 30
0.0
  0
POINT
  5
816D
  8
DEFPOINTS
  6
BYBLOCK
 62
     0
 10
2720.0431408141012
 20
2366.101118808841
 30
0.0
  0
ENDBLK
  5
816E
  8
0
  0
BLOCK
  8
0
  2
*D3
 70
     1
 10
0.0
 20
0.0
 30
0.0
  3
*D3
  1

  0
LINE
  5
838A
  8
3
 62
     0
 10
1765.043140814101
 20
3718.1963398088419
 30
0.0
 11
1765.043140814101
 21
3915.3015998088408
 31
0.0
  0
LINE
  5
838B
  8
3
 62
     0
 10
2345.0431408141012
 20
3718.1963398088419
 30
0.0
 11
2345.0431408141012
 21
3915.3015998088408
 31
0.0
  0
LINE
  5
838C
  8
3
 62
     0
 10
1825.043140814101
 20
3885.3015998088408
 30
0.0
 11
2285.0431408141012
 21
3885.3015998088408
 31
0.0
  0
INSERT
  5
838D
  8
3
 62
     0
  2
_OPEN
 10
1765.043140814101
 20
3885.3015998088408
 30
0.0
 41
60.0
 42
60.0
 43
60.0
 50
180.0
  0
INSERT
  5
838E
  8
3
 62
     0
  2
_OPEN
 10
2345.0431408141012
 20
3885.3015998088408
 30
0.0
 41
60.0
 42
60.0
 43
60.0
  0
TEXT
  8
3
  40
90
  5
83F3
  62
0
  72
0
  71
0
 10
1889.84
 20
3801.00
 30
0.000000
  1
580
  0
POINT
  5
8390
  8
DEFPOINTS
 62
     0
 10
1765.043140814101
 20
3703.1963398088419
 30
0.0
  0
POINT
  5
8391
  8
DEFPOINTS
 62
     0
 10
2345.0431408141012
 20
3703.1963398088419
 30
0.0
  0
POINT
  5
8392
  8
DEFPOINTS
 62
     0
 10
2345.0431408141012
 20
3885.3015998088408
 30
0.0
  0
ENDBLK
  5
8082
  8
0
  0
BLOCK
  8
0
  2
*D4
 70
     1
 10
0.0
 20
0.0
 30
0.0
  3
*D4
  1

  0
LINE
  5
8393
  8
3
 62
     0
 10
1765.043140814101
 20
3718.1963398088419
 30
0.0
 11
1765.043140814101
 21
4104.6807058088407
 31
0.0
  0
LINE
  5
8394
  8
3
 62
     0
 10
2365.0431408141012
 20
3904.2724960429969
 30
0.0
 11
2365.0431408141012
 21
4104.6807058088407
 31
0.0
  0
LINE
  5
8395
  8
3
 62
     0
 10
1825.043140814101
 20
4074.6807058088411
 30
0.0
 11
2305.0431408141012
 21
4074.6807058088411
 31
0.0
  0
INSERT
  5
8396
  8
3
 62
     0
  2
_OPEN
 10
1765.043140814101
 20
4074.6807058088411
 30
0.0
 41
60.0
 42
60.0
 43
60.0
 50
180.0
  0
INSERT
  5
8397
  8
3
 62
     0
  2
_OPEN
 10
2365.0431408141012
 20
4074.6807058088411
 30
0.0
 41
60.0
 42
60.0
 43
60.0
  0
TEXT
  8
3
  40
90
  5
83F4
  62
0
  72
0
  71
0
 10
1867.35
 20
3990.38
 30
0.000000
  1
600
  0
POINT
  5
8399
  8
DEFPOINTS
 62
     0
 10
1765.043140814101
 20
3703.1963398088419
 30
0.0
  0
POINT
  5
839A
  8
DEFPOINTS
 62
     0
 10
2365.0431408141012
 20
3889.272496042996
 30
0.0
  0
POINT
  5
839B
  8
DEFPOINTS
 62
     0
 10
2365.0431408141012
 20
4074.6807058088411
 30
0.0
  0
ENDBLK
  5
81D8
  8
0
  0
BLOCK
  8
0
  2
*D5
 70
     1
 10
0.0
 20
0.0
 30
0.0
  3
*D5
  1

  0
LINE
  5
81EA
  8
0
  6
BYBLOCK
 62
     0
 10
2365.0431408141012
 20
3852.7288986914332
 30
0.0
 11
2365.0431408141012
 21
4104.6807058088407
 31
0.0
  0
LINE
  5
81EB
  8
0
  6
BYBLOCK
 62
     0
 10
2763.0431408141012
 20
3328.1963398088419
 30
0.0
 11
2763.0431408141012
 21
4104.6807058088407
 31
0.0
  0
LINE
  5
81EC
  8
0
  6
BYBLOCK
 62
     0
 10
2425.0431408141012
 20
4074.6807058088411
 30
0.0
 11
2703.0431408141012
 21
4074.6807058088411
 31
0.0
  0
TEXT
  5
81ED
  8
3
 62
     0
 10
2449.9545630578868
 20
4103.778954167321
 30
0.0
 40
90.0
  1
400
  0
INSERT
  5
81EE
  8
0
  6
BYBLOCK
 62
     0
  2
_OPEN
 10
2365.0431408141012
 20
4074.6807058088411
 30
0.0
 41
60.0
 42
60.0
 43
60.0
 50
180.0
  0
INSERT
  5
81EF
  8
0
  6
BYBLOCK
 62
     0
  2
_OPEN
 10
2763.0431408141012
 20
4074.6807058088411
 30
0.0
 41
60.0
 42
60.0
 43
60.0
  0
POINT
  5
81F0
  8
DEFPOINTS
  6
BYBLOCK
 62
     0
 10
2365.0431408141012
 20
3837.7288986914341
 30
0.0
  0
POINT
  5
81F1
  8
DEFPOINTS
  6
BYBLOCK
 62
     0
 10
2763.0431408141012
 20
3313.196339808841
 30
0.0
  0
POINT
  5
81F2
  8
DEFPOINTS
  6
BYBLOCK
 62
     0
 10
2763.0431408141012
 20
4074.6807058088411
 30
0.0
  0
ENDBLK
  5
81F3
  8
0
  0
BLOCK
  8
0
  2
*D6
 70
     1
 10
0.0
 20
0.0
 30
0.0
  3
*D6
  1

  0
LINE
  5
81AE
  8
0
  6
BYBLOCK
 62
     0
 10
2390.0431408141012
 20
3703.1963398088419
 30
0.0
 11
3170.1272398141009
 21
3703.1963398088419
 31
0.0
  0
LINE
  5
81AF
  8
0
  6
BYBLOCK
 62
     0
 10
2957.280958634834
 20
3313.196339808841
 30
0.0
 11
3170.1272398141009
 21
3313.196339808841
 31
0.0
  0
LINE
  5
81B0
  8
0
  6
BYBLOCK
 62
     0
 10
3140.1272398141009
 20
3643.1963398088419
 30
0.0
 11
3140.1272398141009
 21
3373.1963398088419
 31
0.0
  0
TEXT
  5
81B1
  8
3
 62
     0
 10
3099.5847220889082
 20
3392.2204604710232
 30
0.0
 40
90.0
  1
390
 50
90.0
  0
INSERT
  5
81B2
  8
0
  6
BYBLOCK
 62
     0
  2
_OPEN
 10
3140.1272398141009
 20
3703.1963398088419
 30
0.0
 41
60.0
 42
60.0
 43
60.0
 50
90.0
  0
INSERT
  5
81B3
  8
0
  6
BYBLOCK
 62
     0
  2
_OPEN
 10
3140.1272398141009
 20
3313.196339808841
 30
0.0
 41
60.0
 42
60.0
 43
60.0
 50
270.0
  0
POINT
  5
81B4
  8
DEFPOINTS
  6
BYBLOCK
 62
     0
 10
2375.0431408141012
 20
3703.1963398088419
 30
0.0
  0
POINT
  5
81B5
  8
DEFPOINTS
  6
BYBLOCK
 62
     0
 10
2942.280958634833
 20
3313.196339808841
 30
0.0
  0
POINT
  5
81B6
  8
DEFPOINTS
  6
BYBLOCK
 62
     0
 10
3140.1272398141009
 20
3313.196339808841
 30
0.0
  0
ENDBLK
  5
81B7
  8
0
  0
BLOCK
  8
0
  2
*D7
 70
     1
 10
0.0
 20
0.0
 30
0.0
  3
*D7
  1

  0
LINE
  5
839C
  8
3
 62
     0
 10
2957.280958634834
 20
3313.196339808841
 30
0.0
 11
3170.1272398141009
 21
3313.196339808841
 31
0.0
  0
LINE
  5
839D
  8
3
 62
     0
 10
2735.0431408141012
 20
2758.1963398088419
 30
0.0
 11
3170.1272398141009
 21
2758.196339808841
 31
0.0
  0
LINE
  5
839E
  8
3
 62
     0
 10
3140.1272398141009
 20
3253.196339808841
 30
0.0
 11
3140.1272398141009
 21
2818.196339808841
 31
0.0
  0
INSERT
  5
839F
  8
3
 62
     0
  2
_OPEN
 10
3140.1272398141009
 20
3313.196339808841
 30
0.0
 41
60.0
 42
60.0
 43
60.0
 50
90.0
  0
INSERT
  5
83A0
  8
3
 62
     0
  2
_OPEN
 10
3140.1272398141009
 20
2758.196339808841
 30
0.0
 41
60.0
 42
60.0
 43
60.0
 50
270.0
  0
TEXT
  8
3
  40
90
  5
83F5
  62
0
  72
0
  71
0
 10
2885.13
 20
2876.40
 30
0.000000
  1
555
  0
POINT
  5
83A2
  8
DEFPOINTS
 62
     0
 10
2942.280958634833
 20
3313.196339808841
 30
0.0
  0
POINT
  5
83A3
  8
DEFPOINTS
 62
     0
 10
2720.0431408141012
 20
2758.1963398088419
 30
0.0
  0
POINT
  5
83A4
  8
DEFPOINTS
 62
     0
 10
3140.1272398141009
 20
2758.196339808841
 30
0.0
  0
ENDBLK
  5
81AC
  8
0
  0
BLOCK
  8
0
  2
*D8
 70
     1
 10
0.0
 20
0.0
 30
0.0
  3
*D8
  1

  0
LINE
  5
83A5
  8
3
 62
     0
 10
2390.0431408141012
 20
3703.1963398088419
 30
0.0
 11
3404.6150548141022
 21
3703.196339808841
 31
0.0
  0
LINE
  5
83A6
  8
3
 62
     0
 10
2735.0431408141012
 20
2593.1963398088419
 30
0.0
 11
3404.6150548141022
 21
2593.196339808841
 31
0.0
  0
LINE
  5
83A7
  8
3
 62
     0
 10
3374.6150548141022
 20
3643.196339808841
 30
0.0
 11
3374.6150548141022
 21
2653.196339808841
 31
0.0
  0
INSERT
  5
83A8
  8
3
 62
     0
  2
_OPEN
 10
3374.6150548141022
 20
3703.196339808841
 30
0.0
 41
60.0
 42
60.0
 43
60.0
 50
90.0
  0
INSERT
  5
83A9
  8
3
 62
     0
  2
_OPEN
 10
3374.6150548141022
 20
2593.196339808841
 30
0.0
 41
60.0
 42
60.0
 43
60.0
 50
270.0
  0
TEXT
  8
3
  40
90
  5
83F6
  62
0
  72
0
  71
0
 10
3119.62
 20
3022.73
 30
0.000000
  1
1110
  0
POINT
  5
83AB
  8
DEFPOINTS
 62
     0
 10
2375.0431408141012
 20
3703.1963398088419
 30
0.0
  0
POINT
  5
83AC
  8
DEFPOINTS
 62
     0
 10
2720.0431408141012
 20
2593.1963398088419
 30
0.0
  0
POINT
  5
83AD
  8
DEFPOINTS
 62
     0
 10
3374.6150548141022
 20
2593.196339808841
 30
0.0
  0
ENDBLK
  5
818B
  8
0
  0
BLOCK
  8
0
  2
*D9
 70
     1
 10
0.0
 20
0.0
 30
0.0
  3
*D9
  1

  0
LINE
  5
83AE
  8
3
 62
     0
 10
1440.043140814101
 20
5676.3560838088424
 30
0.0
 11
1440.043140814101
 21
5266.0126218088408
 31
0.0
  0
LINE
  5
83AF
  8
3
 62
     0
 10
2720.0431408141012
 20
5676.3560838088424
 30
0.0
 11
2720.0431408141012
 21
5266.0126218088408
 31
0.0
  0
LINE
  5
83B0
  8
3
 62
     0
 10
1500.043140814101
 20
5296.0126218088408
 30
0.0
 11
2660.0431408141012
 21
5296.0126218088408
 31
0.0
  0
INSERT
  5
83B1
  8
3
 62
     0
  2
_OPEN
 10
1440.043140814101
 20
5296.0126218088408
 30
0.0
 41
60.0
 42
60.0
 43
60.0
 50
180.0
  0
INSERT
  5
83B2
  8
3
 62
     0
  2
_OPEN
 10
2720.0431408141012
 20
5296.0126218088408
 30
0.0
 41
60.0
 42
60.0
 43
60.0
  0
TEXT
  8
3
  40
90
  5
83F7
  62
0
  72
0
  71
0
 10
1938.66
 20
5211.71
 30
0.000000
  1
1280
  0
POINT
  5
83B4
  8
DEFPOINTS
 62
     0
 10
1440.043140814101
 20
5691.3560838088424
 30
0.0
  0
POINT
  5
83B5
  8
DEFPOINTS
 62
     0
 10
2720.0431408141012
 20
5691.3560838088424
 30
0.0
  0
POINT
  5
83B6
  8
DEFPOINTS
 62
     0
 10
2720.0431408141012
 20
5296.0126218088408
 30
0.0
  0
ENDBLK
  5
803C
  8
0
  0
BLOCK
  8
0
  2
*D10
 70
     1
 10
0.0
 20
0.0
 30
0.0
  3
*D10
  1

  0
LINE
  5
83B7
  8
3
 62
     0
 10
2735.0431408141012
 20
6301.3560838088424
 30
0.0
 11
3048.065097814102
 21
6301.3560838088424
 31
0.0
  0
LINE
  5
83B8
  8
3
 62
     0
 10
2735.0431408141012
 20
5691.3560838088424
 30
0.0
 11
3048.065097814102
 21
5691.3560838088424
 31
0.0
  0
LINE
  5
83B9
  8
3
 62
     0
 10
3018.065097814103
 20
6241.3560838088424
 30
0.0
 11
3018.065097814103
 21
5751.3560838088424
 31
0.0
  0
INSERT
  5
83BA
  8
3
 62
     0
  2
_OPEN
 10
3018.065097814103
 20
6301.3560838088424
 30
0.0
 41
60.0
 42
60.0
 43
60.0
 50
90.0
  0
INSERT
  5
83BB
  8
3
 62
     0
  2
_OPEN
 10
3018.065097814103
 20
5691.3560838088424
 30
0.0
 41
60.0
 42
60.0
 43
60.0
 50
270.0
  0
TEXT
  8
3
  40
90
  5
83F8
  62
0
  72
0
  71
0
 10
2763.07
 20
5874.97
 30
0.000000
  1
610
  0
POINT
  5
83BD
  8
DEFPOINTS
 62
     0
 10
2720.0431408141012
 20
6301.3560838088424
 30
0.0
  0
POINT
  5
83BE
  8
DEFPOINTS
 62
     0
 10
2720.0431408141012
 20
5691.3560838088424
 30
0.0
  0
POINT
  5
83BF
  8
DEFPOINTS
 62
     0
 10
3018.065097814103
 20
5691.3560838088424
 30
0.0
  0
ENDBLK
  5
8031
  8
0
  0
BLOCK
  8
0
  2
*D11
 70
     1
 10
0.0
 20
0.0
 30
0.0
  3
*D11
  1

  0
LINE
  5
814C
  8
0
  6
BYBLOCK
 62
     0
 10
4324.9898679040307
 20
2568.1963398088419
 30
0.0
 11
4324.9898679040307
 21
2342.864121016491
 31
0.0
  0
LINE
  5
814D
  8
0
  6
BYBLOCK
 62
     0
 10
4679.9898679040316
 20
2504.7971078088408
 30
0.0
 11
4679.9898679040316
 21
2342.864121016491
 31
0.0
  0
LINE
  5
814E
  8
0
  6
BYBLOCK
 62
     0
 10
4384.9898679040307
 20
2372.864121016491
 30
0.0
 11
4619.9898679040307
 21
2372.864121016491
 31
0.0
  0
TEXT
  5
814F
  8
3
 62
     0
 10
4381.8726723186046
 20
2394.9542948111862
 30
0.0
 40
90.0
  1
355
  0
INSERT
  5
8150
  8
0
  6
BYBLOCK
 62
     0
  2
_OPEN
 10
4324.9898679040307
 20
2372.864121016491
 30
0.0
 41
60.0
 42
60.0
 43
60.0
 50
180.0
  0
INSERT
  5
8151
  8
0
  6
BYBLOCK
 62
     0
  2
_OPEN
 10
4679.9898679040316
 20
2372.864121016491
 30
0.0
 41
60.0
 42
60.0
 43
60.0
  0
POINT
  5
8152
  8
DEFPOINTS
  6
BYBLOCK
 62
     0
 10
4324.9898679040307
 20
2583.1963398088419
 30
0.0
  0
POINT
  5
8153
  8
DEFPOINTS
  6
BYBLOCK
 62
     0
 10
4679.9898679040316
 20
2519.7971078088408
 30
0.0
  0
POINT
  5
8154
  8
DEFPOINTS
  6
BYBLOCK
 62
     0
 10
4679.9898679040316
 20
2372.864121016491
 30
0.0
  0
ENDBLK
  5
8155
  8
0
  0
BLOCK
  8
0
  2
*D12
 70
     1
 10
0.0
 20
0.0
 30
0.0
  3
*D12
  1

  0
LINE
  5
83C0
  8
3
 62
     0
 10
4970.9898679040307
 20
3593.1963398088419
 30
0.0
 11
5196.2574720111816
 21
3593.196339808841
 31
0.0
  0
LINE
  5
83C1
  8
3
 62
     0
 10
4970.9898679040307
 20
3033.1963398088419
 30
0.0
 11
5196.2574720111816
 21
3033.196339808841
 31
0.0
  0
LINE
  5
83C2
  8
3
 62
     0
 10
5166.2574720111816
 20
3533.196339808841
 30
0.0
 11
5166.2574720111816
 21
3093.196339808841
 31
0.0
  0
INSERT
  5
83C3
  8
3
 62
     0
  2
_OPEN
 10
5166.2574720111816
 20
3593.196339808841
 30
0.0
 41
60.0
 42
60.0
 43
60.0
 50
90.0
  0
INSERT
  5
83C4
  8
3
 62
     0
  2
_OPEN
 10
5166.2574720111816
 20
3033.196339808841
 30
0.0
 41
60.0
 42
60.0
 43
60.0
 50
270.0
  0
TEXT
  8
3
  40
90
  5
83F9
  62
0
  72
0
  71
0
 10
4911.26
 20
3174.18
 30
0.000000
  1
φ560
  0
POINT
  5
83C6
  8
DEFPOINTS
 62
     0
 10
4955.9898679040307
 20
3593.1963398088419
 30
0.0
  0
POINT
  5
83C7
  8
DEFPOINTS
 62
     0
 10
4955.9898679040307
 20
3033.1963398088419
 30
0.0
  0
POINT
  5
83C8
  8
DEFPOINTS
 62
     0
 10
5166.2574720111816
 20
3033.196339808841
 30
0.0
  0
ENDBLK
  5
821A
  8
0
  0
BLOCK
  8
0
  2
*D13
 70
     1
 10
0.0
 20
0.0
 30
0.0
  3
*D13
  1

  0
LINE
  5
83C9
  8
3
 62
     0
 10
4467.4898679040307
 20
3718.1963398088419
 30
0.0
 11
4467.4898679040307
 21
3815.7854388088408
 31
0.0
  0
LINE
  5
83CA
  8
3
 62
     0
 10
4892.4898679040316
 20
3718.1963398088419
 30
0.0
 11
4892.4898679040316
 21
3815.7854388088408
 31
0.0
  0
LINE
  5
83CB
  8
3
 62
     0
 10
4527.4898679040316
 20
3785.7854388088422
 30
0.0
 11
4832.4898679040316
 21
3785.7854388088422
 31
0.0
  0
INSERT
  5
83CC
  8
3
 62
     0
  2
_OPEN
 10
4467.4898679040307
 20
3785.7854388088422
 30
0.0
 41
60.0
 42
60.0
 43
60.0
 50
180.0
  0
INSERT
  5
83CD
  8
3
 62
     0
  2
_OPEN
 10
4892.4898679040316
 20
3785.7854388088422
 30
0.0
 41
60.0
 42
60.0
 43
60.0
  0
TEXT
  8
3
  40
90
  5
83FA
  62
0
  72
0
  71
0
 10
4493.20
 20
3701.49
 30
0.000000
  1
425
  0
POINT
  5
83CF
  8
DEFPOINTS
 62
     0
 10
4467.4898679040307
 20
3703.1963398088419
 30
0.0
  0
POINT
  5
83D0
  8
DEFPOINTS
 62
     0
 10
4892.4898679040316
 20
3703.1963398088419
 30
0.0
  0
POINT
  5
83D1
  8
DEFPOINTS
 62
     0
 10
4892.4898679040316
 20
3785.7854388088422
 30
0.0
  0
ENDBLK
  5
800E
  8
0
  0
BLOCK
  8
0
  2
*D14
 70
     1
 10
0.0
 20
0.0
 30
0.0
  3
*D14
  1

  0
LINE
  5
83D2
  8
3
 62
     0
 10
4219.9898679040316
 20
3492.4963398088412
 30
0.0
 11
4219.9898679040316
 21
4037.2627508088408
 31
0.0
  0
LINE
  5
83D3
  8
3
 62
     0
 10
4679.9898679040316
 20
3958.9325308088419
 30
0.0
 11
4679.9898679040316
 21
4037.2627508088408
 31
0.0
  0
LINE
  5
83D4
  8
3
 62
     0
 10
4279.9898679040307
 20
4007.2627508088408
 30
0.0
 11
4619.9898679040307
 21
4007.2627508088408
 31
0.0
  0
INSERT
  5
83D5
  8
3
 62
     0
  2
_OPEN
 10
4219.9898679040316
 20
4007.2627508088408
 30
0.0
 41
60.0
 42
60.0
 43
60.0
 50
180.0
  0
INSERT
  5
83D6
  8
3
 62
     0
  2
_OPEN
 10
4679.9898679040316
 20
4007.2627508088408
 30
0.0
 41
60.0
 42
60.0
 43
60.0
  0
TEXT
  8
3
  40
90
  5
83FB
  62
0
  72
0
  71
0
 10
4258.56
 20
3997.96
 30
0.000000
  1
MAX
  0
TEXT
  8
3
  40
90
  5
83FC
  62
0
  72
0
  71
0
 10
4258.56
 20
3880.96
 30
0.000000
  1
510
  0
POINT
  5
83D8
  8
DEFPOINTS
 62
     0
 10
4219.9898679040316
 20
3477.4963398088398
 30
0.0
  0
POINT
  5
83D9
  8
DEFPOINTS
 62
     0
 10
4679.9898679040316
 20
3943.9325308088419
 30
0.0
  0
POINT
  5
83DA
  8
DEFPOINTS
 62
     0
 10
4679.9898679040316
 20
4007.2627508088408
 30
0.0
  0
ENDBLK
  5
820F
  8
0
  0
BLOCK
  8
0
  2
*D15
 70
     1
 10
0.0
 20
0.0
 30
0.0
  3
*D15
  1

  0
LINE
  5
8115
  8
0
  6
BYBLOCK
 62
     0
 10
4679.9898679040316
 20
3958.9325308088419
 30
0.0
 11
4679.9898679040316
 21
4037.5819508088412
 31
0.0
  0
LINE
  5
8116
  8
0
  6
BYBLOCK
 62
     0
 10
4955.9898679040307
 20
3638.1963398088419
 30
0.0
 11
4955.9898679040307
 21
4037.5819508088412
 31
0.0
  0
LINE
  5
8117
  8
0
  6
BYBLOCK
 62
     0
 10
4739.9898679040307
 20
4007.5819508088412
 30
0.0
 11
4895.9898679040307
 21
4007.5819508088412
 31
0.0
  0
TEXT
  5
8118
  8
3
 62
     0
 10
4702.1617936185894
 20
4040.7450949787981
 30
0.0
 40
90.0
  1
276
  0
INSERT
  5
8119
  8
0
  6
BYBLOCK
 62
     0
  2
_OPEN
 10
4679.9898679040316
 20
4007.5819508088412
 30
0.0
 41
60.0
 42
60.0
 43
60.0
 50
180.0
  0
INSERT
  5
811A
  8
0
  6
BYBLOCK
 62
     0
  2
_OPEN
 10
4955.9898679040307
 20
4007.5819508088412
 30
0.0
 41
60.0
 42
60.0
 43
60.0
  0
POINT
  5
811B
  8
DEFPOINTS
  6
BYBLOCK
 62
     0
 10
4679.9898679040316
 20
3943.9325308088419
 30
0.0
  0
POINT
  5
811C
  8
DEFPOINTS
  6
BYBLOCK
 62
     0
 10
4955.9898679040307
 20
3623.1963398088419
 30
0.0
  0
POINT
  5
811D
  8
DEFPOINTS
  6
BYBLOCK
 62
     0
 10
4955.9898679040307
 20
4007.5819508088412
 30
0.0
  0
ENDBLK
  5
811E
  8
0
  0
BLOCK
  8
0
  2
*D16
 70
     1
 10
0.0
 20
0.0
 30
0.0
  3
*D16
  1

  0
LINE
  5
83DB
  8
3
 62
     0
 10
2735.0431408141012
 20
2658.1963398088419
 30
0.0
 11
3170.1272398141009
 21
2658.196339808841
 31
0.0
  0
LINE
  5
83DC
  8
3
 62
     0
 10
2735.0431408141012
 20
2593.1963398088419
 30
0.0
 11
3170.1272398141009
 21
2593.196339808841
 31
0.0
  0
LINE
  5
83DD
  8
3
 62
     0
 10
3140.1272398141009
 20
2718.196339808841
 30
0.0
 11
3140.1272398141009
 21
2778.196339808841
 31
0.0
  0
LINE
  5
83DE
  8
3
 62
     0
 10
3140.1272398141009
 20
2533.196339808841
 30
0.0
 11
3140.1272398141009
 21
2267.4820540945552
 31
0.0
  0
LINE
  5
83DF
  8
3
 62
     0
 10
3140.1272398141009
 20
2658.196339808841
 30
0.0
 11
3140.1272398141009
 21
2593.196339808841
 31
0.0
  0
INSERT
  5
83E0
  8
3
 62
     0
  2
_DOT
 10
3140.1272398141009
 20
2658.196339808841
 30
0.0
 41
60.0
 42
60.0
 43
60.0
 50
270.0
  0
INSERT
  5
83E1
  8
3
 62
     0
  2
_OPEN
 10
3140.1272398141009
 20
2593.196339808841
 30
0.0
 41
60.0
 42
60.0
 43
60.0
 50
90.0
  0
TEXT
  8
3
  40
90
  5
83FD
  62
0
  72
0
  71
0
 10
2885.13
 20
2211.04
 30
0.000000
  1
65
  0
POINT
  5
83E3
  8
DEFPOINTS
 62
     0
 10
2720.0431408141012
 20
2658.1963398088419
 30
0.0
  0
POINT
  5
83E4
  8
DEFPOINTS
 62
     0
 10
2720.0431408141012
 20
2593.1963398088419
 30
0.0
  0
POINT
  5
83E5
  8
DEFPOINTS
 62
     0
 10
3140.1272398141009
 20
2593.196339808841
 30
0.0
  0
ENDBLK
  5
8180
  8
0
  0
BLOCK
  8
0
  2
_DOT
 70
     0
 10
0.0
 20
0.0
 30
0.0
  3
_DOT
  1

  0
LINE
  5
816F
  8
0
  6
BYBLOCK
 62
     0
 10
0.0
 20
0.0
 30
0.0
 11
-1.0
 21
-0.0000000000000284
 31
0.0
  0
POLYLINE
  5
8170
  8
0
  6
BYBLOCK
 62
     0
 66
     1
 10
0.0
 20
0.0
 30
0.0
 70
     1
 40
0.1666666666666666
 41
0.1666666666666666
  0
VERTEX
  5
83E6
  8
0
  6
BYBLOCK
 62
     0
 10
-0.0833333333333286
 20
-0.0000000000000284
 30
0.0
 42
1.0
  0
VERTEX
  5
83E7
  8
0
  6
BYBLOCK
 62
     0
 10
0.0833333333333286
 20
-0.0000000000000284
 30
0.0
 42
1.0
  0
SEQEND
  5
83E8
  8
0
  6
BYBLOCK
 62
     0
  0
ENDBLK
  5
7CF4
  8
0
  0
BLOCK
  8
0
  2
*D18
 70
     1
 10
0.0
 20
0.0
 30
0.0
  3
*D18
  1

  0
LINE
  5
8141
  8
0
  6
BYBLOCK
 62
     0
 10
4679.9898679040316
 20
2504.7971078088408
 30
0.0
 11
4679.9898679040316
 21
2342.864121016491
 31
0.0
  0
LINE
  5
8142
  8
0
  6
BYBLOCK
 62
     0
 10
4934.9898679040316
 20
2568.1963398088419
 30
0.0
 11
4934.9898679040316
 21
2342.864121016491
 31
0.0
  0
LINE
  5
8143
  8
0
  6
BYBLOCK
 62
     0
 10
4739.9898679040307
 20
2372.864121016491
 30
0.0
 11
4874.9898679040307
 21
2372.864121016491
 31
0.0
  0
TEXT
  5
8144
  8
3
 62
     0
 10
4696.4727373697469
 20
2402.6211362978229
 30
0.0
 40
90.0
  1
255
  0
INSERT
  5
8145
  8
0
  6
BYBLOCK
 62
     0
  2
_OPEN
 10
4679.9898679040316
 20
2372.864121016491
 30
0.0
 41
60.0
 42
60.0
 43
60.0
 50
180.0
  0
INSERT
  5
8146
  8
0
  6
BYBLOCK
 62
     0
  2
_OPEN
 10
4934.9898679040316
 20
2372.864121016491
 30
0.0
 41
60.0
 42
60.0
 43
60.0
  0
POINT
  5
8147
  8
DEFPOINTS
  6
BYBLOCK
 62
     0
 10
4679.9898679040316
 20
2519.7971078088408
 30
0.0
  0
POINT
  5
8148
  8
DEFPOINTS
  6
BYBLOCK
 62
     0
 10
4934.9898679040316
 20
2583.1963398088419
 30
0.0
  0
POINT
  5
8149
  8
DEFPOINTS
  6
BYBLOCK
 62
     0
 10
4934.9898679040316
 20
2372.864121016491
 30
0.0
  0
ENDBLK
  5
814A
  8
0
  0
BLOCK
  8
0
  2
*D19
 70
     1
 10
0.0
 20
0.0
 30
0.0
  3
*D19
  1

  0
LINE
  5
83E9
  8
3
 62
     0
 10
1440.043140814101
 20
2848.1963398088419
 30
0.0
 11
1440.043140814101
 21
4270.2203072971779
 31
0.0
  0
LINE
  5
83EA
  8
3
 62
     0
 10
2765.0431408141012
 20
3286.1963398088419
 30
0.0
 11
2765.0431408141012
 21
4270.2203072971779
 31
0.0
  0
LINE
  5
83EB
  8
3
 62
     0
 10
1500.043140814101
 20
4240.2203072971779
 30
0.0
 11
2705.0431408141012
 21
4240.2203072971779
 31
0.0
  0
INSERT
  5
83EC
  8
3
 62
     0
  2
_OPEN
 10
1440.043140814101
 20
4240.2203072971779
 30
0.0
 41
60.0
 42
60.0
 43
60.0
 50
180.0
  0
INSERT
  5
83ED
  8
3
 62
     0
  2
_OPEN
 10
2765.0431408141012
 20
4240.2203072971779
 30
0.0
 41
60.0
 42
60.0
 43
60.0
  0
TEXT
  8
3
  40
90
  5
83FE
  62
0
  72
0
  71
0
 10
1966.79
 20
4155.92
 30
0.000000
  1
1325
  0
POINT
  5
83EF
  8
DEFPOINTS
 62
     0
 10
1440.043140814101
 20
2833.196339808841
 30
0.0
  0
POINT
  5
83F0
  8
DEFPOINTS
 62
     0
 10
2765.0431408141012
 20
3271.1963398088419
 30
0.0
  0
POINT
  5
83F1
  8
DEFPOINTS
 62
     0
 10
2765.0431408141012
 20
4240.2203072971779
 30
0.0
  0
ENDBLK
  5
8203
  8
0
  0
ENDSEC
  0
SECTION
  2
ENTITIES
  0
CIRCLE
  5
7A78
  8
1
 10
2365.0431408141012
 20
3313.196339808841
 30
0.0
 40
310.0
  0
LINE
  5
7A79
  8
1
 10
1440.043140814101
 20
2833.196339808841
 30
0.0
 11
2720.0431408141012
 21
2833.196339808841
 31
0.0
  0
LINE
  5
7A7A
  8
1
 10
1440.043140814101
 20
2758.1963398088419
 30
0.0
 11
2720.0431408141012
 21
2758.1963398088419
 31
0.0
  0
CIRCLE
  5
7A7B
  8
1
 10
2365.0431408141012
 20
3313.196339808841
 30
0.0
 40
280.0
  0
ARC
  5
7A7C
  8
1
 10
2398.0431408141012
 20
3280.1963398088419
 30
0.0
 40
367.0
 50
5.1589039999999997
 51
95.158904000000007
  0
ARC
  5
7A7D
  8
1
 10
2323.0431408141012
 20
3271.1963398088419
 30
0.0
 40
442.0
 50
277.71408700000001
 51
5.452621999999999
  0
ARC
  5
7A7E
  8
1
 10
2365.0431408141012
 20
3313.196339808841
 30
0.0
 40
164.30000000000001
 50
293.40571799999998
 51
113.40571799999989
  0
LINE
  5
7A7F
  8
1
 10
1440.043140814101
 20
2593.1963398088419
 30
0.0
 11
2720.0431408141012
 21
2593.1963398088419
 31
0.0
  0
LINE
  5
7A80
  8
1
 10
1440.043140814101
 20
2658.1963398088419
 30
0.0
 11
2720.0431408141012
 21
2658.1963398088419
 31
0.0
  0
LINE
  5
7A81
  8
2
 10
1665.043140814101
 20
2890.8963398088422
 30
0.0
 11
1665.043140814101
 21
3129.4963398088412
 31
0.0
  0
CIRCLE
  5
7A82
  8
1
 10
1665.043140814101
 20
3010.1963398088419
 30
0.0
 40
114.3
  0
ARC
  5
7A83
  8
1
 10
1665.043140814101
 20
3010.1963398088419
 30
0.0
 40
143.0
 50
324.34590999999989
 51
215.65408999999991
  0
ARC
  5
7A84
  8
1
 10
2323.0431408141012
 20
3355.196339808841
 30
0.0
 40
526.0
 50
184.579824
 51
262.92949599999992
  0
ARC
  5
7A85
  8
1
 10
1665.043140814101
 20
3010.1963398088419
 30
0.0
 40
164.30000000000001
 50
113.40571799999989
 51
293.40571799999998
  0
LINE
  5
7A86
  8
1
 10
1730.3095888141011
 20
2859.4157678088409
 30
0.0
 11
2430.3095888141011
 21
3162.4157678088409
 31
0.0
  0
LINE
  5
7A87
  8
1
 10
1710.447613814101
 20
2905.3015168088418
 30
0.0
 11
2410.4476138141008
 21
3208.3015168088418
 31
0.0
  0
LINE
  5
7A88
  8
2
 10
1545.7431408141019
 20
3010.1963398088419
 30
0.0
 11
1784.3431408141009
 21
3010.1963398088419
 31
0.0
  0
LINE
  5
7A89
  8
1
 10
1500.043140814101
 20
2878.196339808841
 30
0.0
 11
1490.043140814101
 21
2833.196339808841
 31
0.0
  0
LINE
  5
7A8A
  8
1
 10
1535.043140814101
 20
2893.1963398088419
 30
0.0
 11
1549.072418814101
 21
2927.3890848088422
 31
0.0
  0
LINE
  5
7A8B
  8
1
 10
1535.043140814101
 20
2878.196339808841
 30
0.0
 11
1535.043140814101
 21
2893.1963398088419
 31
0.0
  0
LINE
  5
7A8C
  8
1
 10
1500.043140814101
 20
2878.196339808841
 30
0.0
 11
1535.043140814101
 21
2878.196339808841
 31
0.0
  0
LINE
  5
7A8D
  8
1
 10
1440.043140814101
 20
2833.196339808841
 30
0.0
 11
1440.043140814101
 21
2758.1963398088419
 31
0.0
  0
LINE
  5
7A8E
  8
1
 10
1440.043140814101
 20
2658.1963398088419
 30
0.0
 11
1440.043140814101
 21
2593.1963398088419
 31
0.0
  0
LINE
  5
7A8F
  8
1
 10
1795.043140814101
 20
2878.196339808841
 30
0.0
 11
1830.043140814101
 21
2878.196339808841
 31
0.0
  0
LINE
  5
7A90
  8
1
 10
1840.043140814101
 20
2833.196339808841
 30
0.0
 11
1830.043140814101
 21
2878.196339808841
 31
0.0
  0
LINE
  5
7A91
  8
1
 10
1795.043140814101
 20
2878.196339808841
 30
0.0
 11
1795.043140814101
 21
2893.1963398088419
 31
0.0
  0
LINE
  5
7A92
  8
1
 10
1795.043140814101
 20
2893.1963398088419
 30
0.0
 11
1781.0138638141009
 21
2927.3890848088422
 31
0.0
  0
LINE
  5
7A93
  8
1
 10
1599.776693814101
 20
3160.9769118088411
 30
0.0
 11
2299.7766938141008
 21
3463.9769118088411
 31
0.0
  0
LINE
  5
7A94
  8
1
 10
1619.6386678141
 20
3115.0911628088411
 30
0.0
 11
2319.6386678140998
 21
3418.0911628088411
 31
0.0
  0
LINE
  5
7A95
  8
1
 10
1798.7226278141011
 20
3313.196339808841
 30
0.0
 11
1765.043140814101
 21
3703.1963398088419
 31
0.0
  0
LINE
  5
7A96
  8
1
 10
2200.7431408141019
 20
3313.196339808841
 30
0.0
 11
2200.7431408141019
 21
3313.196339808841
 31
0.0
  0
LINE
  5
7A97
  8
2
 10
2365.0431408141012
 20
2507.3663428088421
 30
0.0
 11
2365.0431408141012
 21
3841.2546458088418
 31
0.0
  0
LINE
  5
7A98
  8
2
 10
4989.4182049040319
 20
3313.196339808841
 30
0.0
 11
4153.4217591230663
 21
3313.196339808841
 31
0.0
  0
CIRCLE
  5
7A99
  8
1
 10
2365.0431408141012
 20
3313.196339808841
 30
0.0
 40
114.3
  0
LINE
  5
7A9A
  8
1
 10
1767.6338708141011
 20
3673.196339808841
 30
0.0
 11
2345.0431408141012
 21
3673.196339808841
 31
0.0
  0
LINE
  5
7A9B
  8
1
 10
1735.043140814101
 20
3703.1963398088419
 30
0.0
 11
2375.0431408141012
 21
3703.1963398088419
 31
0.0
  0
LINE
  5
7A9C
  8
1
 10
2345.0431408141012
 20
3642.4934878088411
 30
0.0
 11
2345.0431408141012
 21
3703.1963398088419
 31
0.0
  0
ARC
  5
7A9D
  8
1
 10
2398.0431408141012
 20
3346.1963398088419
 30
0.0
 40
301.0
 50
96.294250000000005
 51
100.141498
  0
LINE
  5
7A9E
  8
1
 10
4334.9898679040307
 20
3153.196339808841
 30
0.0
 11
4334.9898679040307
 21
2833.196339808841
 31
0.0
  0
LINE
  5
7A9F
  8
1
 10
4314.9898679040307
 20
3477.4963398088398
 30
0.0
 11
4314.9898679040307
 21
2845.8963398088422
 31
0.0
  0
LINE
  5
7AA0
  8
1
 10
4219.9898679040316
 20
3477.4963398088398
 30
0.0
 11
4219.9898679040316
 21
2845.8963398088422
 31
0.0
  0
LINE
  5
7AA1
  8
1
 10
4955.9898679040307
 20
3623.1963398088419
 30
0.0
 11
4955.9898679040307
 21
3003.196339808841
 31
0.0
  0
LINE
  5
7AA2
  8
1
 10
4467.4898679040307
 20
3703.1963398088419
 30
0.0
 11
4467.4898679040307
 21
2833.196339808841
 31
0.0
  0
LINE
  5
7AA3
  8
1
 10
4892.4898679040316
 20
3703.1963398088419
 30
0.0
 11
4892.4898679040316
 21
2833.196339808841
 31
0.0
  0
LINE
  5
7AA4
  8
1
 10
4297.9898679040307
 20
3124.4963398088412
 30
0.0
 11
4297.9898679040307
 21
2895.8963398088408
 31
0.0
  0
LINE
  5
7AA5
  8
1
 10
4234.9898679040307
 20
3124.4963398088412
 30
0.0
 11
4234.9898679040307
 21
2895.8963398088408
 31
0.0
  0
LINE
  5
7AA6
  8
1
 10
4324.9898679040307
 20
2658.1963398088419
 30
0.0
 11
4934.9898679040316
 21
2658.1963398088419
 31
0.0
  0
LINE
  5
7AA7
  8
1
 10
4324.9898679040307
 20
2593.1963398088419
 30
0.0
 11
4934.9898679040316
 21
2593.1963398088419
 31
0.0
  0
LINE
  5
7AA8
  8
1
 10
4324.9898679040307
 20
2833.196339808841
 30
0.0
 11
4934.9898679040316
 21
2833.196339808841
 31
0.0
  0
LINE
  5
7AA9
  8
1
 10
4324.9898679040307
 20
2758.1963398088419
 30
0.0
 11
4934.9898679040316
 21
2758.1963398088419
 31
0.0
  0
LINE
  5
7AAA
  8
1
 10
2720.0431408141012
 20
2833.196339808841
 30
0.0
 11
2720.0431408141012
 21
2758.1963398088419
 31
0.0
  0
LINE
  5
7AAB
  8
1
 10
2720.0431408141012
 20
2658.1963398088419
 30
0.0
 11
2720.0431408141012
 21
2593.1963398088419
 31
0.0
  0
LINE
  5
7AAC
  8
1
 10
4324.9898679040307
 20
2658.1963398088419
 30
0.0
 11
4324.9898679040307
 21
2593.1963398088419
 31
0.0
  0
LINE
  5
7AAD
  8
1
 10
4297.9898679040307
 20
2991.1963398088419
 30
0.0
 11
4334.9898679040307
 21
2991.1963398088419
 31
0.0
  0
LINE
  5
7AAE
  8
1
 10
4297.9898679040307
 20
3029.1963398088419
 30
0.0
 11
4334.9898679040307
 21
3029.1963398088419
 31
0.0
  0
LINE
  5
7AAF
  8
1
 10
4234.9898679040307
 20
2895.8963398088408
 30
0.0
 11
4297.9898679040307
 21
2895.8963398088408
 31
0.0
  0
LINE
  5
7AB0
  8
1
 10
4334.9898679040307
 20
2878.196339808841
 30
0.0
 11
4467.4898679040307
 21
2878.196339808841
 31
0.0
  0
LINE
  5
7AB1
  8
1
 10
4219.9898679040316
 20
2845.8963398088422
 30
0.0
 11
4314.9898679040307
 21
2845.8963398088422
 31
0.0
  0
LINE
  5
7AB2
  8
1
 10
4324.9898679040307
 20
2833.196339808841
 30
0.0
 11
4324.9898679040307
 21
2758.1963398088419
 31
0.0
  0
LINE
  5
7AB3
  8
1
 10
4892.4898679040316
 20
3033.1963398088419
 30
0.0
 11
4955.9898679040307
 21
3033.1963398088419
 31
0.0
  0
LINE
  5
7AB4
  8
1
 10
4934.9898679040316
 20
2658.1963398088419
 30
0.0
 11
4934.9898679040316
 21
2593.1963398088419
 31
0.0
  0
LINE
  5
7AB5
  8
1
 10
4934.9898679040316
 20
2833.196339808841
 30
0.0
 11
4934.9898679040316
 21
2758.1963398088419
 31
0.0
  0
LINE
  5
7AB6
  8
1
 10
4437.4898679040307
 20
3703.1963398088419
 30
0.0
 11
4922.4898679040307
 21
3703.1963398088419
 31
0.0
  0
LINE
  5
7AB7
  8
1
 10
4467.4898679040307
 20
3673.196339808841
 30
0.0
 11
4892.4898679040316
 21
3673.196339808841
 31
0.0
  0
LINE
  5
7AB8
  8
1
 10
4334.9898679040307
 20
3153.196339808841
 30
0.0
 11
4467.4898679040307
 21
3153.196339808841
 31
0.0
  0
LINE
  5
7AB9
  8
1
 10
4219.9898679040316
 20
3477.4963398088398
 30
0.0
 11
4314.9898679040307
 21
3477.4963398088398
 31
0.0
  0
LINE
  5
7ABA
  8
1
 10
4297.9898679040307
 20
3427.4963398088412
 30
0.0
 11
4297.9898679040307
 21
3198.8963398088408
 31
0.0
  0
LINE
  5
7ABB
  8
1
 10
4234.9898679040307
 20
3198.8963398088408
 30
0.0
 11
4297.9898679040307
 21
3198.8963398088408
 31
0.0
  0
LINE
  5
7ABC
  8
1
 10
4234.9898679040307
 20
3427.4963398088412
 30
0.0
 11
4297.9898679040307
 21
3427.4963398088412
 31
0.0
  0
LINE
  5
7ABD
  8
1
 10
4234.9898679040307
 20
3427.4963398088412
 30
0.0
 11
4234.9898679040307
 21
3198.8963398088408
 31
0.0
  0
LINE
  5
7ABE
  8
1
 10
4297.9898679040307
 20
3293.1963398088419
 30
0.0
 11
4467.4898679040307
 21
3293.1963398088419
 31
0.0
  0
LINE
  5
7ABF
  8
1
 10
4297.9898679040307
 20
3333.1963398088419
 30
0.0
 11
4467.4898679040307
 21
3333.1963398088419
 31
0.0
  0
LINE
  5
7AC0
  8
1
 10
4234.9898679040307
 20
3124.4963398088412
 30
0.0
 11
4297.9898679040307
 21
3124.4963398088412
 31
0.0
  0
LINE
  5
7AC1
  8
1
 10
4892.4898679040316
 20
3593.1963398088419
 30
0.0
 11
4955.9898679040307
 21
3593.1963398088419
 31
0.0
  0
LINE
  5
7AC2
  8
1
 10
2385.0431408141012
 20
5691.3560838088424
 30
0.0
 11
2720.0431408141012
 21
5691.3560838088424
 31
0.0
  0
LINE
  5
7AC3
  8
1
 10
2055.0431408141012
 20
6322.3560838088424
 30
0.0
 11
2675.0431408141012
 21
6322.3560838088424
 31
0.0
  0
LINE
  5
7AC4
  8
1
 10
1765.043140814101
 20
5833.8560838088433
 30
0.0
 11
2765.0431408141012
 21
5833.8560838088433
 31
0.0
  0
LINE
  5
7AC5
  8
1
 10
1765.043140814101
 20
6258.8560838088433
 30
0.0
 11
2765.0431408141012
 21
6258.8560838088433
 31
0.0
  0
LINE
  5
7AC6
  8
1
 10
1500.7431408141019
 20
5681.3560838088433
 30
0.0
 11
2529.3431408141009
 21
5681.3560838088433
 31
0.0
  0
LINE
  5
7AC7
  8
1
 10
1500.7431408141019
 20
5586.3560838088424
 30
0.0
 11
2529.3431408141009
 21
5586.3560838088424
 31
0.0
  0
LINE
  5
7AC8
  8
1
 10
1550.7431408141019
 20
5601.3560838088424
 30
0.0
 11
1779.3431408141009
 21
5601.3560838088424
 31
0.0
  0
LINE
  5
7AC9
  8
1
 10
1550.7431408141019
 20
5664.3560838088433
 30
0.0
 11
1779.3431408141009
 21
5664.3560838088433
 31
0.0
  0
LINE
  5
7ACA
  8
1
 10
1684.043140814101
 20
5691.3560838088424
 30
0.0
 11
2345.0431408141012
 21
5691.3560838088424
 31
0.0
  0
LINE
  5
7ACB
  8
1
 10
1808.043140814101
 20
5701.3560838088433
 30
0.0
 11
1522.043140814101
 21
5701.3560838088433
 31
0.0
  0
LINE
  5
7ACC
  8
1
 10
1522.043140814101
 20
6070.3560838088424
 30
0.0
 11
1765.043140814101
 21
6070.3560838088424
 31
0.0
  0
LINE
  5
7ACD
  8
1
 10
1440.043140814101
 20
6301.3560838088424
 30
0.0
 11
2085.0431408141012
 21
6301.3560838088424
 31
0.0
  0
LINE
  5
7ACE
  8
1
 10
1522.043140814101
 20
5701.3560838088433
 30
0.0
 11
1522.043140814101
 21
6070.3560838088424
 31
0.0
  0
LINE
  5
7ACF
  8
1
 10
1440.043140814101
 20
5691.3560838088424
 30
0.0
 11
1440.043140814101
 21
6301.3560838088424
 31
0.0
  0
LINE
  5
7AD0
  8
1
 10
1500.7431408141019
 20
5586.3560838088424
 30
0.0
 11
1500.7431408141019
 21
5681.3560838088433
 31
0.0
  0
LINE
  5
7AD1
  8
1
 10
1550.7431408141019
 20
5601.3560838088424
 30
0.0
 11
1550.7431408141019
 21
5664.3560838088433
 31
0.0
  0
LINE
  5
7AD2
  8
1
 10
1646.043140814101
 20
5664.3560838088433
 30
0.0
 11
1646.043140814101
 21
5701.3560838088433
 31
0.0
  0
LINE
  5
7AD3
  8
1
 10
1684.043140814101
 20
5664.3560838088433
 30
0.0
 11
1684.043140814101
 21
5701.3560838088433
 31
0.0
  0
LINE
  5
7AD4
  8
1
 10
1440.043140814101
 20
5691.3560838088424
 30
0.0
 11
1646.043140814101
 21
5691.3560838088424
 31
0.0
  0
LINE
  5
7AD5
  8
1
 10
1765.043140814101
 20
5833.8560838088433
 30
0.0
 11
1765.043140814101
 21
6258.8560838088433
 31
0.0
  0
LINE
  5
7AD6
  8
1
 10
2345.0431408141012
 20
5833.8560838088433
 30
0.0
 11
2345.0431408141012
 21
6258.8560838088433
 31
0.0
  0
LINE
  5
7AD7
  8
1
 10
1765.043140814101
 20
6258.8560838088433
 30
0.0
 11
2345.0431408141012
 21
5833.8560838088433
 31
0.0
  0
LINE
  5
7AD8
  8
1
 10
1765.043140814101
 20
5833.8560838088433
 30
0.0
 11
2345.0431408141012
 21
6258.8560838088433
 31
0.0
  0
LINE
  5
7AD9
  8
1
 10
1779.3431408141009
 20
5601.3560838088424
 30
0.0
 11
1779.3431408141009
 21
5664.3560838088433
 31
0.0
  0
LINE
  5
7ADA
  8
1
 10
1808.043140814101
 20
5701.3560838088433
 30
0.0
 11
1808.043140814101
 21
5833.8560838088433
 31
0.0
  0
LINE
  5
7ADB
  8
1
 10
2529.3431408141009
 20
5586.3560838088424
 30
0.0
 11
2529.3431408141009
 21
5681.3560838088433
 31
0.0
  0
LINE
  5
7ADC
  8
1
 10
2250.7431408141019
 20
5601.3560838088424
 30
0.0
 11
2250.7431408141019
 21
5664.3560838088433
 31
0.0
  0
LINE
  5
7ADD
  8
1
 10
2479.3431408141009
 20
5601.3560838088424
 30
0.0
 11
2479.3431408141009
 21
5664.3560838088433
 31
0.0
  0
LINE
  5
7ADE
  8
1
 10
2250.7431408141019
 20
5601.3560838088424
 30
0.0
 11
2479.3431408141009
 21
5601.3560838088424
 31
0.0
  0
LINE
  5
7ADF
  8
1
 10
2250.7431408141019
 20
5664.3560838088433
 30
0.0
 11
2479.3431408141009
 21
5664.3560838088433
 31
0.0
  0
LINE
  5
7AE0
  8
1
 10
2345.0431408141012
 20
5664.3560838088433
 30
0.0
 11
2345.0431408141012
 21
5833.8560838088433
 31
0.0
  0
LINE
  5
7AE1
  8
1
 10
2385.0431408141012
 20
5664.3560838088433
 30
0.0
 11
2385.0431408141012
 21
5833.8560838088433
 31
0.0
  0
LINE
  5
7AE2
  8
1
 10
2085.0431408141012
 20
6258.8560838088433
 30
0.0
 11
2085.0431408141012
 21
6322.3560838088424
 31
0.0
  0
LINE
  5
7AE3
  8
1
 10
2765.0431408141012
 20
5833.8560838088433
 30
0.0
 11
2765.0431408141012
 21
6258.8560838088433
 31
0.0
  0
LINE
  5
7AE4
  8
1
 10
2720.0431408141012
 20
5691.3560838088424
 30
0.0
 11
2720.0431408141012
 21
5833.8560838088433
 31
0.0
  0
LINE
  5
7AE5
  8
1
 10
2645.0431408141012
 20
6301.3560838088424
 30
0.0
 11
2720.0431408141012
 21
6301.3560838088424
 31
0.0
  0
LINE
  5
7AE6
  8
1
 10
2645.0431408141012
 20
6258.8560838088433
 30
0.0
 11
2645.0431408141012
 21
6322.3560838088424
 31
0.0
  0
LINE
  5
7AE7
  8
1
 10
2720.0431408141012
 20
6258.8560838088433
 30
0.0
 11
2720.0431408141012
 21
6301.3560838088424
 31
0.0
  0
DIMENSION
  5
7AFB
  8
3
  2
*D1
 10
2365.0431408141012
 20
2376.101118808841
 30
0.0
 11
1906.015296814101
 21
2376.101118808841
 31
0.0
 70
   128
 13
1440.043140814101
 23
2593.1963398088419
 33
0.0
 14
2365.0431408141012
 24
2536.2546868088411
 34
0.0
1001
ACAD
1000
DSTYLE
1002
{
1070
   287
1070
     3
1070
   287
1070
     3
1070
    40
1040
30.0
1070
   143
1040
0.039
1070
   172
1070
     1
1070
   271
1070
     0
1070
   279
1070
     0
1070
   288
1070
     1
1002
}
  0
DIMENSION
  5
7B09
  8
3
  2
*D2
 10
2720.0431408141012
 20
2376.101118808841
 30
0.0
 11
2539.3830497995509
 21
2446.3591761154771
 31
0.0
 12
0.0
 22
10.0
 32
0.0
 70
   128
 13
2365.0431408141012
 23
2536.2546868088411
 33
0.0
 14
2720.0431408141012
 24
2593.1963398088419
 34
0.0
1001
ACAD
1000
DSTYLE
1002
{
1070
   288
1070
     1
1070
   172
1070
     1
1070
    40
1040
30.0
1070
   271
1070
     0
1070
   143
1040
0.039
1002
}
  0
DIMENSION
  5
7B2C
  8
3
  2
*D3
 10
2345.0431408141012
 20
3885.3015998088408
 30
0.0
 11
2069.8355518141011
 21
3885.3015998088408
 31
0.0
 70
   128
 13
1765.043140814101
 23
3703.1963398088419
 33
0.0
 14
2345.0431408141012
 24
3703.1963398088419
 34
0.0
1001
ACAD
1000
DSTYLE
1002
{
1070
   287
1070
     3
1070
   287
1070
     3
1070
    40
1040
30.0
1070
   143
1040
0.039
1070
   172
1070
     1
1070
   271
1070
     0
1070
   279
1070
     0
1070
   288
1070
     1
1002
}
  0
DIMENSION
  5
7B39
  8
3
  2
*D4
 10
2365.0431408141012
 20
4074.6807058088411
 30
0.0
 11
2047.3504178141
 21
4074.6807058088411
 31
0.0
 70
   128
 13
1765.043140814101
 23
3703.1963398088419
 33
0.0
 14
2365.0431408141012
 24
3889.272496042996
 34
0.0
1001
ACAD
1000
DSTYLE
1002
{
1070
   287
1070
     3
1070
   287
1070
     3
1070
    40
1040
30.0
1070
   143
1040
0.039
1070
   172
1070
     1
1070
   271
1070
     0
1070
   279
1070
     0
1070
   288
1070
     1
1002
}
  0
DIMENSION
  5
7B47
  8
3
  2
*D5
 10
2763.0431408141012
 20
4074.6807058088411
 30
0.0
 11
2565.6688487721731
 21
4148.778954167321
 31
0.0
 70
   128
  1
400
 13
2365.0431408141012
 23
3837.7288986914341
 33
0.0
 14
2763.0431408141012
 24
3313.196339808841
 34
0.0
1001
ACAD
1000
DSTYLE
1002
{
1070
   288
1070
     1
1070
   172
1070
     1
1070
    40
1040
30.0
1070
   271
1070
     0
1070
   143
1040
0.039
1002
}
  0
DIMENSION
  5
7B6C
  8
3
  2
*D6
 10
3140.1272398141009
 20
3313.196339808841
 30
0.0
 11
3054.5847220889082
 21
3507.934746185309
 31
0.0
 70
   128
 13
2375.0431408141012
 23
3703.1963398088419
 33
0.0
 14
2942.280958634833
 24
3313.196339808841
 34
0.0
 50
90.0
1001
ACAD
1000
DSTYLE
1002
{
1070
   288
1070
     1
1070
   172
1070
     1
1070
    40
1040
30.0
1070
   271
1070
     0
1070
   143
1040
0.039
1002
}
  0
DIMENSION
  5
7B78
  8
3
  2
*D7
 10
3140.1272398141009
 20
2758.196339808841
 30
0.0
 11
3065.1272398141
 21
3035.6963398088419
 31
0.0
 70
     0
 13
2942.280958634833
 23
3313.196339808841
 33
0.0
 14
2720.0431408141012
 24
2758.1963398088419
 34
0.0
 50
90.0
1001
ACAD
1000
DSTYLE
1002
{
1070
   287
1070
     3
1070
   287
1070
     3
1070
    40
1040
30.0
1070
   143
1040
0.039
1070
   172
1070
     1
1070
   271
1070
     0
1070
   279
1070
     0
1070
   288
1070
     1
1002
}
  0
DIMENSION
  5
7BAF
  8
3
  2
*D8
 10
3374.6150548141022
 20
2593.196339808841
 30
0.0
 11
3374.6150548141022
 21
3182.032728808842
 31
0.0
 70
   128
 13
2375.0431408141012
 23
3703.1963398088419
 33
0.0
 14
2720.0431408141012
 24
2593.1963398088419
 34
0.0
 50
90.0
1001
ACAD
1000
DSTYLE
1002
{
1070
   287
1070
     3
1070
   287
1070
     3
1070
    40
1040
30.0
1070
   143
1040
0.039
1070
   172
1070
     1
1070
   271
1070
     0
1070
   279
1070
     0
1070
   288
1070
     1
1002
}
  0
DIMENSION
  5
7BBC
  8
3
  2
*D9
 10
2720.0431408141012
 20
5296.0126218088408
 30
0.0
 11
2118.6597548141008
 21
5296.0126218088408
 31
0.0
 70
   128
 13
1440.043140814101
 23
5691.3560838088424
 33
0.0
 14
2720.0431408141012
 24
5691.3560838088424
 34
0.0
1001
ACAD
1000
DSTYLE
1002
{
1070
   287
1070
     3
1070
   287
1070
     3
1070
    40
1040
30.0
1070
   143
1040
0.039
1070
   172
1070
     1
1070
   271
1070
     0
1070
   279
1070
     0
1070
   288
1070
     1
1002
}
  0
DIMENSION
  5
7BC9
  8
3
  2
*D10
 10
3018.065097814103
 20
5691.3560838088424
 30
0.0
 11
3018.065097814102
 21
6034.2702638088422
 31
0.0
 70
   128
 13
2720.0431408141012
 23
6301.3560838088424
 33
0.0
 14
2720.0431408141012
 24
5691.3560838088424
 34
0.0
 50
90.0
1001
ACAD
1000
DSTYLE
1002
{
1070
   287
1070
     3
1070
   287
1070
     3
1070
    40
1040
30.0
1070
   143
1040
0.039
1070
   172
1070
     1
1070
   271
1070
     0
1070
   279
1070
     0
1070
   288
1070
     1
1002
}
  0
LINE
  5
7BCA
  8
2
 10
2821.0116398141022
 20
6046.3560838088424
 30
0.0
 11
1588.653033814101
 21
6046.3560838088424
 31
0.0
  0
LINE
  5
7BCB
  8
2
 10
4679.9898679040316
 20
3802.3307918088422
 30
0.0
 11
4679.9898679040316
 21
2529.7971078088408
 31
0.0
  0
DIMENSION
  5
7BDA
  8
3
  2
*D11
 10
4679.9898679040316
 20
2382.864121016491
 30
0.0
 11
4497.5869580328908
 21
2449.9542948111862
 31
0.0
 12
0.0
 22
10.0
 32
0.0
 70
   128
 13
4324.9898679040307
 23
2593.1963398088419
 33
0.0
 14
4679.9898679040316
 24
2529.7971078088408
 34
0.0
1001
ACAD
1000
DSTYLE
1002
{
1070
   288
1070
     1
1070
   172
1070
     1
1070
    40
1040
30.0
1070
   271
1070
     0
1070
   143
1040
0.039
1002
}
  0
DIMENSION
  5
7C0B
  8
3
  2
*D12
 10
5166.2574720111816
 20
3033.196339808841
 30
0.0
 11
5166.2574720111807
 21
3333.4820540945561
 31
0.0
 70
   128
 13
4955.9898679040307
 23
3593.1963398088419
 33
0.0
 14
4955.9898679040307
 24
3033.1963398088419
 34
0.0
 50
90.0
1001
ACAD
1000
DSTYLE
1002
{
1070
   287
1070
     3
1070
   287
1070
     3
1070
     3
1000
φ<>
1070
    40
1040
30.0
1070
   143
1040
0.039
1070
   172
1070
     1
1070
   271
1070
     0
1070
   279
1070
     0
1070
   288
1070
     1
1002
}
  0
DIMENSION
  5
7C1A
  8
3
  2
*D13
 10
4892.4898679040316
 20
3785.7854388088422
 30
0.0
 11
4673.2041536183169
 21
3785.7854388088422
 31
0.0
 70
   128
 13
4467.4898679040307
 23
3703.1963398088419
 33
0.0
 14
4892.4898679040316
 24
3703.1963398088419
 34
0.0
1001
ACAD
1000
DSTYLE
1002
{
1070
   287
1070
     3
1070
   287
1070
     3
1070
    40
1040
30.0
1070
   143
1040
0.039
1070
   172
1070
     1
1070
   271
1070
     0
1070
   279
1070
     0
1070
   288
1070
     1
1002
}
  0
DIMENSION
  5
7C29
  8
3
  2
*D14
 10
4679.9898679040316
 20
4007.2627508088408
 30
0.0
 11
4438.56129647546
 21
4007.2627508088408
 31
0.0
 70
   128
  1
MAX\P510
 13
4219.9898679040316
 23
3477.4963398088398
 33
0.0
 14
4679.9898679040316
 24
3943.9325308088419
 34
0.0
1001
ACAD
1000
DSTYLE
1002
{
1070
   287
1070
     3
1070
   287
1070
     3
1070
    40
1040
30.0
1070
   143
1040
0.039
1070
   172
1070
     1
1070
   271
1070
     0
1070
   279
1070
     0
1070
   288
1070
     1
1002
}
  0
DIMENSION
  5
7C37
  8
3
  2
*D15
 10
4955.9898679040307
 20
4007.5819508088412
 30
0.0
 11
4815.7332221900178
 21
4085.7450949787981
 31
0.0
 70
   128
 13
4679.9898679040316
 23
3943.9325308088419
 33
0.0
 14
4955.9898679040307
 24
3623.1963398088419
 34
0.0
1001
ACAD
1000
DSTYLE
1002
{
1070
   288
1070
     1
1070
   172
1070
     1
1070
    40
1040
30.0
1070
   271
1070
     0
1070
   143
1040
0.039
1002
}
  0
LINE
  5
7C4E
  8
2
 10
2943.6398968141011
 20
3313.196339808841
 30
0.0
 11
1706.099950814101
 21
3313.196339808841
 31
0.0
  0
LINE
  5
7C4F
  8
2
 10
2365.0431408141012
 20
5435.5561188088413
 30
0.0
 11
2365.0431408141012
 21
6383.5761528088424
 31
0.0
  0
LINE
  5
7C50
  8
4
 10
5550.0
 20
1500.0
 30
0.0
 11
5550.0
 21
900.0
 31
0.0
  0
LINE
  5
7C51
  8
4
 10
3450.0
 20
1500.0
 30
0.0
 11
3450.0
 21
900.0
 31
0.0
  0
LINE
  5
7C52
  8
4
 10
1950.0
 20
1500.0
 30
0.0
 11
1950.0
 21
900.0
 31
0.0
  0
LINE
  5
7C55
  8
4
 10
1950.0
 20
900.0
 30
0.0
 11
5550.0
 21
900.0
 31
0.0
  0
LINE
  5
7C56
  8
4
 10
1950.0
 20
1200.0
 30
0.0
 11
5550.0
 21
1200.0
 31
0.0
  0
TEXT
  5
7C57
  8
4
 10
2065.50624225
 20
1294.6290779999999
 30
0.0
 40
150.0
  1
機器名称
  0
TEXT
  5
7C58
  8
4
 10
2058.7743179999989
 20
964.93547024999998
 30
0.0
 40
150.0
  1
機器型番
  0
TEXT
  5
7C59
  8
4
 10
3533.0362365000001
 20
1267.715306249999
 30
0.0
 40
120.0
  1
ミツヤリミットロードファン
  0
TEXT
  5
7C5A
  8
4
 10
3559.9634872500001
 20
951.4787527499999
 30
0.0
 40
150.0
  1
LLE#3 1/2-4
  0
TEXT
  5
7C5C
  8
4
 10
2291.0701800000002
 20
7150.2865245000012
 30
0.0
 40
162.0
  1
床置防振ベット
  0
TEXT
  5
7C5D
  8
4
 10
948.50278049999986
 20
7601.6429287499996
 30
0.0
 40
180.0
  1
ベルト駆動式片吸込両持排煙ファン
  0
LINE
  5
7C5E
  8
4
 10
750.0
 20
7408.2262627500004
 30
0.0
 11
5550.0
 21
7408.2262627500004
 31
0.0
  0
LINE
  5
7C5F
  8
4
 10
750.0
 20
8008.2262627500004
 30
0.0
 11
5550.0
 21
8008.2262627500004
 31
0.0
  0
LINE
  5
7C60
  8
4
 10
1950.0
 20
1500.0
 30
0.0
 11
5550.0
 21
1500.0
 31
0.0
  0
LINE
  5
7C61
  8
4
 10
750.0
 20
8008.2262627500004
 30
0.0
 11
750.0
 21
7408.2262627500004
 31
0.0
  0
TEXT
  5
7C62
  8
4
 10
983.49368399999969
 20
7146.9584324999987
 30
0.0
 40
162.0
  1
右回転上向
  0
TEXT
  5
7C63
  8
4
 10
4406.9086777499988
 20
8118.1832445
 30
0.0
 40
168.0
  1
No.
  0
TEXT
  5
7C64
  8
4
 10
4080.4106805000001
 20
7150.2865245000012
 30
0.0
 40
162.0
  1
縮尺：1/30
  0
LINE
  5
7C65
  8
4
 10
5550.0
 20
8008.2262627500004
 30
0.0
 11
5550.0
 21
7408.2262627500004
 31
0.0
  0
LINE
  5
7C67
  8
4
 10
4321.8522667500001
 20
8043.79074975
 30
0.0
 11
4321.8522667500001
 21
8359.9567845000001
 31
0.0
  0
LINE
  5
7C68
  8
4
 10
4321.8522667500001
 20
8359.9567845000001
 30
0.0
 11
5550.0
 21
8359.9567845000001
 31
0.0
  0
LINE
  5
7C69
  8
4
 10
5550.0
 20
8359.9567845000001
 30
0.0
 11
5550.0
 21
8043.79074975
 31
0.0
  0
LINE
  5
7C6A
  8
4
 10
5550.0
 20
8043.79074975
 30
0.0
 11
4321.8522667500001
 21
8043.79074975
 31
0.0
  0
LINE
  5
7C7E
  8
1
 10
1440.043140814101
 20
2658.1963398088419
 30
0.0
 11
2720.0431408141012
 21
2658.1963398088419
 31
0.0
  0
DIMENSION
  5
7CCA
  8
3
  2
*D16
 10
3140.1272398141009
 20
2593.196339808841
 30
0.0
 11
3065.1272398141
 21
2370.3391969516988
 31
0.0
 70
     0
 13
2720.0431408141012
 23
2658.1963398088419
 33
0.0
 14
2720.0431408141012
 24
2593.1963398088419
 34
0.0
 50
90.0
1001
ACAD
1000
DSTYLE
1002
{
1070
   287
1070
     3
1070
   287
1070
     3
1070
    40
1040
30.0
1070
   143
1040
0.039
1070
   172
1070
     1
1070
   271
1070
     0
1070
   279
1070
     0
1070
   288
1070
     1
1070
     6
1000
DOT
1002
}
  0
LINE
  5
7D39
  8
3
 10
2737.5431408141012
 20
2658.1963398088419
 30
0.0
 11
3175.1272398141
 21
2658.1963398088419
 31
0.0
  0
TEXT
  5
7D3E
  8
3
 10
3305.1099000044919
 20
2607.6801735797389
 30
0.0
 40
90.0
  1
100
 50
90.0
  0
POINT
  5
7D42
  8
DEFPOINTS
  6
BYBLOCK
 62
     0
 10
2720.0431408141012
 20
2758.1963398088419
 30
0.0
  0
POINT
  5
7D43
  8
DEFPOINTS
  6
BYBLOCK
 62
     0
 10
2720.0431408141012
 20
2658.1963398088419
 30
0.0
  0
LINE
  5
7D45
  8
1
 10
4324.9898679040307
 20
2658.1963398088419
 30
0.0
 11
4934.9898679040316
 21
2658.1963398088419
 31
0.0
  0
DIMENSION
  5
7D76
  8
3
  2
*D18
 10
4934.9898679040316
 20
2382.864121016491
 30
0.0
 11
4812.1870230840323
 21
2457.621136297822
 31
0.0
 12
0.0
 22
10.0
 32
0.0
 70
   128
 13
4679.9898679040316
 23
2529.7971078088408
 33
0.0
 14
4934.9898679040316
 24
2593.1963398088419
 34
0.0
1001
ACAD
1000
DSTYLE
1002
{
1070
   288
1070
     1
1070
   172
1070
     1
1070
    40
1040
30.0
1070
   271
1070
     0
1070
   143
1040
0.039
1002
}
  0
DIMENSION
  5
8204
  8
3
  2
*D19
 10
2765.0431408141012
 20
4240.2203072971779
 30
0.0
 11
2146.7880467995492
 21
4240.2203072971779
 31
0.0
 70
   128
 13
1440.043140814101
 23
2833.196339808841
 33
0.0
 14
2765.0431408141012
 24
3271.1963398088419
 34
0.0
1001
ACAD
1000
DSTYLE
1002
{
1070
   287
1070
     3
1070
   287
1070
     3
1070
    40
1040
30.0
1070
   143
1040
0.039
1070
   172
1070
     1
1070
   271
1070
     0
1070
   279
1070
     0
1070
   288
1070
     1
1002
}
  0
ENDSEC
  0
EOF
