  0
SECTION
  2
HEADER
  9
$ACADVER
  1
AC1009
  9
$INSBASE
 10
0.0
 20
0.0
 30
0.0
  9
$EXTMIN
 10
-869.80734525000003
 20
-7638.9699847499996
 30
0.0
  9
$EXTMAX
 10
3930.1926547499988
 20
-179.01319950000001
 30
0.0
  9
$LIMMIN
 10
0.0
 20
0.0
  9
$LIMMAX
 10
297.0
 20
210.0
  9
$ORTHOMODE
 70
     0
  9
$REGENMODE
 70
     1
  9
$FILLMODE
 70
     0
  9
$QTEXTMODE
 70
     0
  9
$MIRRTEXT
 70
     1
  9
$DRAGMODE
 70
     2
  9
$LTSCALE
 40
100.0
  9
$OSMODE
 70
    37
  9
$ATTMODE
 70
     1
  9
$TEXTSIZE
 40
180.0
  9
$TRACEWID
 40
0.05
  9
$TEXTSTYLE
  7
STANDARD
  9
$CLAYER
  8
3
  9
$CELTYPE
  6
BYLAYER
  9
$CECOLOR
 62
   256
  9
$DIMSCALE
 40
30.0
  9
$DIMASZ
 40
2.0
  9
$DIMEXO
 40
0.5
  9
$DIMDLI
 40
10.0
  9
$DIMRND
 40
0.0
  9
$DIMDLE
 40
0.0
  9
$DIMEXE
 40
1.0
  9
$DIMTP
 40
1.0
  9
$DIMTM
 40
1.0
  9
$DIMTXT
 40
3.0
  9
$DIMCEN
 40
0.0
  9
$DIMTSZ
 40
0.0
  9
$DIMTOL
 70
     0
  9
$DIMLIM
 70
     0
  9
$DIMTIH
 70
     0
  9
$DIMTOH
 70
     0
  9
$DIMSE1
 70
     0
  9
$DIMSE2
 70
     0
  9
$DIMTAD
 70
     1
  9
$DIMZIN
 70
     8
  9
$DIMBLK
  1

  9
$DIMASO
 70
     1
  9
$DIMSHO
 70
     1
  9
$DIMPOST
  1

  9
$DIMAPOST
  1

  9
$DIMALT
 70
     0
  9
$DIMALTD
 70
     2
  9
$DIMALTF
 40
0.039
  9
$DIMLFAC
 40
1.0
  9
$DIMTOFL
 70
     1
  9
$DIMTVP
 40
0.0
  9
$DIMTIX
 70
     0
  9
$DIMSOXD
 70
     0
  9
$DIMSAH
 70
     1
  9
$DIMBLK1
  1
OPEN
  9
$DIMBLK2
  1
OPEN
  9
$DIMSTYLE
  2
IGA
  9
$DIMCLRD
 70
     0
  9
$DIMCLRE
 70
     0
  9
$DIMCLRT
 70
     0
  9
$DIMTFAC
 40
10.0
  9
$DIMGAP
 40
1.0
  9
$LUNITS
 70
     2
  9
$LUPREC
 70
     3
  9
$SKETCHINC
 40
0.1
  9
$FILLETRAD
 40
50.0
  9
$AUNITS
 70
     0
  9
$AUPREC
 70
     0
  9
$MENU
  1
acad
  9
$ELEVATION
 40
0.0
  9
$PELEVATION
 40
0.0
  9
$THICKNESS
 40
0.0
  9
$LIMCHECK
 70
     0
  9
$BLIPMODE
 70
     0
  9
$CHAMFERA
 40
0.5
  9
$CHAMFERB
 40
0.5
  9
$SKPOLY
 70
     0
  9
$TDCREATE
 40
2450759.683201273
  9
$TDUPDATE
 40
2454953.6827862728
  9
$TDINDWG
 40
0.0106468519
  9
$TDUSRTIMER
 40
0.0106468519
  9
$USRTIMER
 70
     1
  9
$ANGBASE
 50
0.0
  9
$ANGDIR
 70
     0
  9
$PDMODE
 70
     0
  9
$PDSIZE
 40
0.0
  9
$PLINEWID
 40
0.0
  9
$COORDS
 70
     1
  9
$SPLFRAME
 70
     0
  9
$SPLINETYPE
 70
     6
  9
$SPLINESEGS
 70
     8
  9
$ATTDIA
 70
     0
  9
$ATTREQ
 70
     1
  9
$HANDLING
 70
 10241
  9
$HANDSEED
  5
816D
  9
$SURFTAB1
 70
     6
  9
$SURFTAB2
 70
     6
  9
$SURFTYPE
 70
     6
  9
$SURFU
 70
     6
  9
$SURFV
 70
     6
  9
$UCSNAME
  2

  9
$UCSORG
 10
0.0
 20
0.0
 30
0.0
  9
$UCSXDIR
 10
1.0
 20
0.0
 30
0.0
  9
$UCSYDIR
 10
0.0
 20
1.0
 30
0.0
  9
$PUCSNAME
  2

  9
$PUCSORG
 10
0.0
 20
0.0
 30
0.0
  9
$PUCSXDIR
 10
1.0
 20
0.0
 30
0.0
  9
$PUCSYDIR
 10
0.0
 20
1.0
 30
0.0
  9
$USERI1
 70
     0
  9
$USERI2
 70
     0
  9
$USERI3
 70
     0
  9
$USERI4
 70
     0
  9
$USERI5
 70
     0
  9
$USERR1
 40
0.0
  9
$USERR2
 40
0.0
  9
$USERR3
 40
0.0
  9
$USERR4
 40
0.0
  9
$USERR5
 40
0.0
  9
$WORLDVIEW
 70
     1
  9
$SHADEDGE
 70
     3
  9
$SHADEDIF
 70
    70
  9
$TILEMODE
 70
     1
  9
$MAXACTVP
 70
    16
  9
$PLIMCHECK
 70
     0
  9
$PEXTMIN
 10
1.0000000000000000E+020
 20
1.0000000000000000E+020
 30
1.0000000000000000E+020
  9
$PEXTMAX
 10
-1.0000000000000000E+020
 20
-1.0000000000000000E+020
 30
-1.0000000000000000E+020
  9
$PLIMMIN
 10
0.0
 20
0.0
  9
$PLIMMAX
 10
12.0
 20
9.0
  9
$UNITMODE
 70
     0
  9
$VISRETAIN
 70
     0
  9
$PLINEGEN
 70
     0
  9
$PSLTSCALE
 70
     1
  0
ENDSEC
  0
SECTION
  2
TABLES
  0
TABLE
  2
VPORT
 70
     2
  0
VPORT
  2
*ACTIVE
 70
     0
 10
0.0
 20
0.0
 11
1.0
 21
1.0
 12
13352.69785227694
 22
-4754.2055541621394
 13
0.0
 23
0.0
 14
10.0
 24
10.0
 15
10.0
 25
10.0
 16
0.0
 26
0.0
 36
1.0
 17
0.0
 27
0.0
 37
0.0
 40
13745.88911303291
 41
3.1666666666666661
 42
50.0
 43
0.0
 44
0.0
 50
0.0
 51
0.0
 71
     0
 72
   100
 73
     1
 74
     0
 75
     0
 76
     0
 77
     0
 78
     0
  0
ENDTAB
  0
TABLE
  2
LTYPE
 70
     2
  0
LTYPE
  2
CONTINUOUS
 70
     0
  3
Solid line
 72
    65
 73
     0
 40
0.0
  0
LTYPE
  2
CENTER
 70
     0
  3
____ _ ____ _ ____ _ ____ _ ____ _ ____ _ ____ 
 72
    65
 73
     4
 40
2.0
 49
1.25
 49
-0.25
 49
0.25
 49
-0.25
  0
ENDTAB
  0
TABLE
  2
LAYER
 70
     6
  0
LAYER
  2
0
 70
     0
 62
     7
  6
CONTINUOUS
  0
LAYER
  2
3
 70
     0
 62
     2
  6
CONTINUOUS
  0
LAYER
  2
2
 70
     0
 62
     3
  6
CENTER
  0
LAYER
  2
1
 70
     0
 62
     4
  6
CONTINUOUS
  0
LAYER
  2
4
 70
     0
 62
     7
  6
CONTINUOUS
  0
LAYER
  2
DEFPOINTS
 70
     0
 62
    -7
  6
CONTINUOUS
  0
ENDTAB
  0
TABLE
  2
STYLE
 70
     1
  0
STYLE
  2
STANDARD
 70
     0
 40
0.0
 41
1.0
 50
0.0
 71
     0
 42
180.0
  3
simplex.shx
  4
extfont.shx
  0
ENDTAB
  0
TABLE
  2
VIEW
 70
     0
  0
ENDTAB
  0
TABLE
  2
UCS
 70
     0
  0
ENDTAB
  0
TABLE
  2
APPID
 70
     1
  0
APPID
  2
ACAD
 70
     0
  0
ENDTAB
  0
TABLE
  2
DIMSTYLE
 70
     1
  0
DIMSTYLE
  2
IGA
 70
     0
  3

  4

  5

  6
OPEN
  7
OPEN
 40
2.0
 41
2.0
 42
0.5
 43
10.0
 44
1.0
 45
0.0
 46
0.0
 47
1.0
 48
1.0
140
3.0
141
0.0
142
0.0
143
0.03937
144
1.0
145
0.0
146
10.0
147
1.0
 71
     0
 72
     0
 73
     0
 74
     0
 75
     0
 76
     0
 77
     1
 78
     8
170
     0
171
     2
172
     0
173
     1
174
     0
175
     0
176
     0
177
     0
178
     0
  0
ENDTAB
  0
ENDSEC
  0
SECTION
  2
BLOCKS
  0
BLOCK
  8
0
  2
$MODEL_SPACE
 70
     0
 10
0.0
 20
0.0
 30
0.0
  3
$MODEL_SPACE
  1

  0
ENDBLK
  5
1B
  8
0
  0
BLOCK
 67
     1
  8
0
  2
$PAPER_SPACE
 70
     0
 10
0.0
 20
0.0
 30
0.0
  3
$PAPER_SPACE
  1

  0
ENDBLK
  5
18
 67
     1
  8
0
  0
BLOCK
  8
0
  2
_OPEN
 70
     0
 10
0.0
 20
0.0
 30
0.0
  3
_OPEN
  1

  0
LINE
  5
7B3D
  8
0
  6
BYBLOCK
 62
     0
 10
-1.0
 20
0.166667
 30
0.0
 11
0.0
 21
0.0
 31
0.0
  0
LINE
  5
7B3E
  8
0
  6
BYBLOCK
 62
     0
 10
0.0
 20
0.0
 30
0.0
 11
-1.0
 21
-0.166667
 31
0.0
  0
LINE
  5
7B3F
  8
0
  6
BYBLOCK
 62
     0
 10
0.0
 20
0.0
 30
0.0
 11
-1.0
 21
0.0
 31
0.0
  0
ENDBLK
  5
7B40
  8
0
  0
BLOCK
  8
0
  2
*D1
 70
     1
 10
0.0
 20
0.0
 30
0.0
  3
*D1
  1

  0
LINE
  5
80E5
  8
3
 62
     0
 10
-179.1833058342026
 20
-5800.4203177187201
 30
0.0
 11
-179.1833058342026
 21
-6066.2073197187192
 31
0.0
  0
LINE
  5
80E6
  8
3
 62
     0
 10
745.81669416579734
 20
-5812.1591587187204
 30
0.0
 11
745.81669416579734
 21
-6066.2073197187192
 31
0.0
  0
LINE
  5
80E7
  8
3
 62
     0
 10
-119.1833058342026
 20
-6036.2073197187201
 30
0.0
 11
685.81669416579734
 21
-6036.2073197187201
 31
0.0
  0
INSERT
  5
80E8
  8
3
 62
     0
  2
_OPEN
 10
-179.1833058342026
 20
-6036.2073197187201
 30
0.0
 41
60.0
 42
60.0
 43
60.0
 50
180.0
  0
INSERT
  5
80E9
  8
3
 62
     0
  2
_OPEN
 10
745.81669416579734
 20
-6036.2073197187201
 30
0.0
 41
60.0
 42
60.0
 43
60.0
  0
TEXT
  8
3
  40
90
  5
815F
  62
0
  72
0
  71
0
 10
91.8332
 20
-6120.51
 30
0.000000
  1
925
  0
POINT
  5
80EB
  8
DEFPOINTS
 62
     0
 10
-179.1833058342026
 20
-5785.4203177187201
 30
0.0
  0
POINT
  5
80EC
  8
DEFPOINTS
 62
     0
 10
745.81669416579734
 20
-5797.1591587187204
 30
0.0
  0
POINT
  5
80ED
  8
DEFPOINTS
 62
     0
 10
745.81669416579734
 20
-6036.2073197187201
 30
0.0
  0
ENDBLK
  5
7E94
  8
0
  0
BLOCK
  8
0
  2
*D2
 70
     1
 10
0.0
 20
0.0
 30
0.0
  3
*D2
  1

  0
LINE
  5
7EE3
  8
0
  6
BYBLOCK
 62
     0
 10
745.81669416579734
 20
-5822.1591587187204
 30
0.0
 11
745.81669416579734
 21
-6076.6478237187193
 31
0.0
  0
LINE
  5
7EE4
  8
0
  6
BYBLOCK
 62
     0
 10
1100.8166941657969
 20
-5810.4203177187201
 30
0.0
 11
1100.8166941657969
 21
-6076.6478237187193
 31
0.0
  0
LINE
  5
7EE5
  8
0
  6
BYBLOCK
 62
     0
 10
805.81669416579723
 20
-6046.6478237187184
 30
0.0
 11
1040.8166941657969
 21
-6046.6478237187184
 31
0.0
  0
TEXT
  5
7EE6
  8
3
 62
     0
 10
814.19988104302024
 20
-6017.3189385487349
 30
0.0
 40
90.0
  1
355
  0
INSERT
  5
7EE7
  8
0
  6
BYBLOCK
 62
     0
  2
_OPEN
 10
745.81669416579734
 20
-6046.6478237187184
 30
0.0
 41
60.0
 42
60.0
 43
60.0
 50
180.0
  0
INSERT
  5
7EE8
  8
0
  6
BYBLOCK
 62
     0
  2
_OPEN
 10
1100.8166941657969
 20
-6046.6478237187184
 30
0.0
 41
60.0
 42
60.0
 43
60.0
  0
POINT
  5
7EE9
  8
DEFPOINTS
  6
BYBLOCK
 62
     0
 10
745.81669416579734
 20
-5807.1591587187186
 30
0.0
  0
POINT
  5
7EEA
  8
DEFPOINTS
  6
BYBLOCK
 62
     0
 10
1100.8166941657969
 20
-5795.4203177187201
 30
0.0
  0
POINT
  5
7EEB
  8
DEFPOINTS
  6
BYBLOCK
 62
     0
 10
1100.8166941657969
 20
-6046.6478237187184
 30
0.0
  0
ENDBLK
  5
7EEC
  8
0
  0
BLOCK
  8
0
  2
*D3
 70
     1
 10
0.0
 20
0.0
 30
0.0
  3
*D3
  1

  0
LINE
  5
80EE
  8
3
 62
     0
 10
1150.8166941657969
 20
-4920.4203177187192
 30
0.0
 11
1370.4373569589941
 21
-4920.4203177187192
 31
0.0
  0
LINE
  5
80EF
  8
3
 62
     0
 10
1150.8166941657969
 20
-5500.4203177187201
 30
0.0
 11
1370.4373569589941
 21
-5500.4203177187201
 31
0.0
  0
LINE
  5
80F0
  8
3
 62
     0
 10
1340.4373569589941
 20
-4980.4203177187192
 30
0.0
 11
1340.4373569589941
 21
-5440.4203177187201
 31
0.0
  0
INSERT
  5
80F1
  8
3
 62
     0
  2
_OPEN
 10
1340.4373569589941
 20
-4920.4203177187192
 30
0.0
 41
60.0
 42
60.0
 43
60.0
 50
90.0
  0
INSERT
  5
80F2
  8
3
 62
     0
  2
_OPEN
 10
1340.4373569589941
 20
-5500.4203177187201
 30
0.0
 41
60.0
 42
60.0
 43
60.0
 50
270.0
  0
TEXT
  8
3
  40
90
  5
8160
  62
0
  72
0
  71
0
 10
1085.44
 20
-5319.72
 30
0.000000
  1
580
  0
POINT
  5
80F4
  8
DEFPOINTS
 62
     0
 10
1135.8166941657969
 20
-4920.4203177187192
 30
0.0
  0
POINT
  5
80F5
  8
DEFPOINTS
 62
     0
 10
1135.8166941657969
 20
-5500.4203177187201
 30
0.0
  0
POINT
  5
80F6
  8
DEFPOINTS
 62
     0
 10
1340.4373569589941
 20
-5500.4203177187201
 30
0.0
  0
ENDBLK
  5
7FC6
  8
0
  0
BLOCK
  8
0
  2
*D4
 70
     1
 10
0.0
 20
0.0
 30
0.0
  3
*D4
  1

  0
LINE
  5
80F7
  8
3
 62
     0
 10
1093.0022551657969
 20
-4900.4203177187192
 30
0.0
 11
1564.470228474215
 21
-4900.4203177187192
 31
0.0
  0
LINE
  5
80F8
  8
3
 62
     0
 10
1150.8166941657969
 20
-5500.4203177187201
 30
0.0
 11
1564.470228474215
 21
-5500.4203177187201
 31
0.0
  0
LINE
  5
80F9
  8
3
 62
     0
 10
1534.470228474215
 20
-4960.4203177187192
 30
0.0
 11
1534.470228474215
 21
-5440.4203177187201
 31
0.0
  0
INSERT
  5
80FA
  8
3
 62
     0
  2
_OPEN
 10
1534.470228474215
 20
-4900.4203177187192
 30
0.0
 41
60.0
 42
60.0
 43
60.0
 50
90.0
  0
INSERT
  5
80FB
  8
3
 62
     0
  2
_OPEN
 10
1534.470228474215
 20
-5500.4203177187201
 30
0.0
 41
60.0
 42
60.0
 43
60.0
 50
270.0
  0
TEXT
  8
3
  40
90
  5
8161
  62
0
  72
0
  71
0
 10
1279.47
 20
-5357.02
 30
0.000000
  1
600
  0
POINT
  5
80FD
  8
DEFPOINTS
 62
     0
 10
1078.0022551657969
 20
-4900.4203177187192
 30
0.0
  0
POINT
  5
80FE
  8
DEFPOINTS
 62
     0
 10
1135.8166941657969
 20
-5500.4203177187201
 30
0.0
  0
POINT
  5
80FF
  8
DEFPOINTS
 62
     0
 10
1534.470228474215
 20
-5500.4203177187201
 30
0.0
  0
ENDBLK
  5
7FD1
  8
0
  0
BLOCK
  8
0
  2
*D5
 70
     1
 10
0.0
 20
0.0
 30
0.0
  3
*D5
  1

  0
LINE
  5
7FEB
  8
0
  6
BYBLOCK
 62
     0
 10
760.81669416579734
 20
-4501.9069807187198
 30
0.0
 11
1763.702147687419
 21
-4501.9069807187198
 31
0.0
  0
LINE
  5
7FEC
  8
0
  6
BYBLOCK
 62
     0
 10
1093.0022551657969
 20
-4900.4203177187192
 30
0.0
 11
1763.702147687419
 21
-4900.4203177187192
 31
0.0
  0
LINE
  5
7FED
  8
0
  6
BYBLOCK
 62
     0
 10
1733.702147687419
 20
-4561.9069807187198
 30
0.0
 11
1733.702147687419
 21
-4840.4203177187192
 31
0.0
  0
TEXT
  5
7FEE
  8
3
 62
     0
 10
1700.588935780615
 20
-4821.0570094211243
 30
0.0
 40
90.0
  1
400
 50
90.0
  0
INSERT
  5
7FEF
  8
0
  6
BYBLOCK
 62
     0
  2
_OPEN
 10
1733.702147687419
 20
-4501.9069807187198
 30
0.0
 41
60.0
 42
60.0
 43
60.0
 50
90.0
  0
INSERT
  5
7FF0
  8
0
  6
BYBLOCK
 62
     0
  2
_OPEN
 10
1733.702147687419
 20
-4900.4203177187192
 30
0.0
 41
60.0
 42
60.0
 43
60.0
 50
270.0
  0
POINT
  5
7FF1
  8
DEFPOINTS
  6
BYBLOCK
 62
     0
 10
745.81669416579734
 20
-4501.9069807187198
 30
0.0
  0
POINT
  5
7FF2
  8
DEFPOINTS
  6
BYBLOCK
 62
     0
 10
1078.0022551657969
 20
-4900.4203177187192
 30
0.0
  0
POINT
  5
7FF3
  8
DEFPOINTS
  6
BYBLOCK
 62
     0
 10
1733.702147687419
 20
-4900.4203177187192
 30
0.0
  0
ENDBLK
  5
7FF4
  8
0
  0
BLOCK
  8
0
  2
*D6
 70
     1
 10
0.0
 20
0.0
 30
0.0
  3
*D6
  1

  0
LINE
  5
8100
  8
3
 62
     0
 10
1093.0022551657969
 20
-4900.4203177187192
 30
0.0
 11
1763.702147687419
 21
-4900.4203177187192
 31
0.0
  0
LINE
  5
8101
  8
3
 62
     0
 10
1115.8166941657969
 20
-5620.4203177187201
 30
0.0
 11
1763.702147687419
 21
-5620.4203177187201
 31
0.0
  0
LINE
  5
8102
  8
3
 62
     0
 10
1733.702147687419
 20
-4960.4203177187192
 30
0.0
 11
1733.702147687419
 21
-5560.4203177187201
 31
0.0
  0
INSERT
  5
8103
  8
3
 62
     0
  2
_OPEN
 10
1733.702147687419
 20
-4900.4203177187192
 30
0.0
 41
60.0
 42
60.0
 43
60.0
 50
90.0
  0
INSERT
  5
8104
  8
3
 62
     0
  2
_OPEN
 10
1733.702147687419
 20
-5620.4203177187201
 30
0.0
 41
60.0
 42
60.0
 43
60.0
 50
270.0
  0
TEXT
  8
3
  40
90
  5
8162
  62
0
  72
0
  71
0
 10
1478.70
 20
-5419.72
 30
0.000000
  1
720
  0
POINT
  5
8106
  8
DEFPOINTS
 62
     0
 10
1078.0022551657969
 20
-4900.4203177187192
 30
0.0
  0
POINT
  5
8107
  8
DEFPOINTS
 62
     0
 10
1100.8166941657969
 20
-5620.4203177187201
 30
0.0
  0
POINT
  5
8108
  8
DEFPOINTS
 62
     0
 10
1733.702147687419
 20
-5620.4203177187201
 30
0.0
  0
ENDBLK
  5
7FE9
  8
0
  0
BLOCK
  8
0
  2
*D7
 70
     1
 10
0.0
 20
0.0
 30
0.0
  3
*D7
  1

  0
LINE
  5
8109
  8
3
 62
     0
 10
760.81669416579734
 20
-4501.9069807187198
 30
0.0
 11
2048.4290128409989
 21
-4501.9069807187207
 31
0.0
  0
LINE
  5
810A
  8
3
 62
     0
 10
1115.8166941657969
 20
-5785.4203177187201
 30
0.0
 11
2048.429012840998
 21
-5785.4203177187201
 31
0.0
  0
LINE
  5
810B
  8
3
 62
     0
 10
2018.4290128409989
 20
-4561.9069807187198
 30
0.0
 11
2018.4290128409989
 21
-5725.4203177187201
 31
0.0
  0
INSERT
  5
810C
  8
3
 62
     0
  2
_OPEN
 10
2018.4290128409989
 20
-4501.9069807187198
 30
0.0
 41
60.0
 42
60.0
 43
60.0
 50
90.0
  0
INSERT
  5
810D
  8
3
 62
     0
  2
_OPEN
 10
2018.4290128409989
 20
-5785.4203177187201
 30
0.0
 41
60.0
 42
60.0
 43
60.0
 50
270.0
  0
TEXT
  8
3
  40
90
  5
8163
  62
0
  72
0
  71
0
 10
1763.43
 20
-5336.52
 30
0.000000
  1
1284
  0
POINT
  5
810F
  8
DEFPOINTS
 62
     0
 10
745.81669416579734
 20
-4501.9069807187198
 30
0.0
  0
POINT
  5
8110
  8
DEFPOINTS
 62
     0
 10
1100.8166941657969
 20
-5785.4203177187201
 30
0.0
  0
POINT
  5
8111
  8
DEFPOINTS
 62
     0
 10
2018.4290128409989
 20
-5785.4203177187201
 30
0.0
  0
ENDBLK
  5
800A
  8
0
  0
BLOCK
  8
0
  2
*D8
 70
     1
 10
0.0
 20
0.0
 30
0.0
  3
*D8
  1

  0
LINE
  5
8112
  8
3
 62
     0
 10
263.81669416579729
 20
-4885.4203177187192
 30
0.0
 11
263.8166941657974
 21
-4315.6980967187192
 31
0.0
  0
LINE
  5
8113
  8
3
 62
     0
 10
745.81669416579734
 20
-4486.9069807187188
 30
0.0
 11
745.81669416579734
 21
-4315.6980967187192
 31
0.0
  0
LINE
  5
8114
  8
3
 62
     0
 10
323.81669416579729
 20
-4345.6980967187192
 30
0.0
 11
685.81669416579734
 21
-4345.6980967187192
 31
0.0
  0
INSERT
  5
8115
  8
3
 62
     0
  2
_OPEN
 10
263.8166941657974
 20
-4345.6980967187192
 30
0.0
 41
60.0
 42
60.0
 43
60.0
 50
180.0
  0
INSERT
  5
8116
  8
3
 62
     0
  2
_OPEN
 10
745.81669416579734
 20
-4345.6980967187192
 30
0.0
 41
60.0
 42
60.0
 43
60.0
  0
TEXT
  8
3
  40
90
  5
8164
  62
0
  72
0
  71
0
 10
323.817
 20
-4430.00
 30
0.000000
  1
484
  0
POINT
  5
8118
  8
DEFPOINTS
 62
     0
 10
263.81669416579729
 20
-4900.4203177187192
 30
0.0
  0
POINT
  5
8119
  8
DEFPOINTS
 62
     0
 10
745.81669416579734
 20
-4501.9069807187198
 30
0.0
  0
POINT
  5
811A
  8
DEFPOINTS
 62
     0
 10
745.81669416579734
 20
-4345.6980967187192
 30
0.0
  0
ENDBLK
  5
7F94
  8
0
  0
BLOCK
  8
0
  2
*D9
 70
     1
 10
0.0
 20
0.0
 30
0.0
  3
*D9
  1

  0
LINE
  5
7ED8
  8
0
  6
BYBLOCK
 62
     0
 10
745.81669416579734
 20
-4486.9069807187188
 30
0.0
 11
745.81669416579734
 21
-4315.6980967187192
 31
0.0
  0
LINE
  5
7ED9
  8
0
  6
BYBLOCK
 62
     0
 10
1135.8166941657969
 20
-4875.4203177187192
 30
0.0
 11
1135.8166941657969
 21
-4315.6980967187192
 31
0.0
  0
LINE
  5
7EDA
  8
0
  6
BYBLOCK
 62
     0
 10
805.81669416579723
 20
-4345.6980967187192
 30
0.0
 11
1075.8166941657969
 21
-4345.6980967187192
 31
0.0
  0
TEXT
  5
7EDB
  8
3
 62
     0
 10
844.97715128947004
 20
-4313.6664686576878
 30
0.0
 40
90.0
  1
390
  0
INSERT
  5
7EDC
  8
0
  6
BYBLOCK
 62
     0
  2
_OPEN
 10
745.81669416579734
 20
-4345.6980967187192
 30
0.0
 41
60.0
 42
60.0
 43
60.0
 50
180.0
  0
INSERT
  5
7EDD
  8
0
  6
BYBLOCK
 62
     0
  2
_OPEN
 10
1135.8166941657969
 20
-4345.6980967187192
 30
0.0
 41
60.0
 42
60.0
 43
60.0
  0
POINT
  5
7EDE
  8
DEFPOINTS
  6
BYBLOCK
 62
     0
 10
745.81669416579734
 20
-4501.9069807187198
 30
0.0
  0
POINT
  5
7EDF
  8
DEFPOINTS
  6
BYBLOCK
 62
     0
 10
1135.8166941657969
 20
-4890.4203177187192
 30
0.0
  0
POINT
  5
7EE0
  8
DEFPOINTS
  6
BYBLOCK
 62
     0
 10
1135.8166941657969
 20
-4345.6980967187192
 30
0.0
  0
ENDBLK
  5
7EE1
  8
0
  0
BLOCK
  8
0
  2
*D10
 70
     1
 10
0.0
 20
0.0
 30
0.0
  3
*D10
  1

  0
LINE
  5
811B
  8
3
 62
     0
 10
-179.1833058342026
 20
-3106.8338807187188
 30
0.0
 11
-179.1833058342026
 21
-3539.398123718719
 31
0.0
  0
LINE
  5
811C
  8
3
 62
     0
 10
1100.8166941657969
 20
-3106.8338807187188
 30
0.0
 11
1100.8166941657969
 21
-3539.398123718719
 31
0.0
  0
LINE
  5
811D
  8
3
 62
     0
 10
-119.1833058342026
 20
-3509.3981237187199
 30
0.0
 11
1040.8166941657969
 21
-3509.3981237187199
 31
0.0
  0
INSERT
  5
811E
  8
3
 62
     0
  2
_OPEN
 10
-179.1833058342026
 20
-3509.3981237187199
 30
0.0
 41
60.0
 42
60.0
 43
60.0
 50
180.0
  0
INSERT
  5
811F
  8
3
 62
     0
  2
_OPEN
 10
1100.8166941657969
 20
-3509.3981237187199
 30
0.0
 41
60.0
 42
60.0
 43
60.0
  0
TEXT
  8
3
  40
90
  5
8165
  62
0
  72
0
  71
0
 10
246.980
 20
-3593.70
 30
0.000000
  1
1280
  0
POINT
  5
8121
  8
DEFPOINTS
 62
     0
 10
-179.1833058342026
 20
-3091.8338807187188
 30
0.0
  0
POINT
  5
8122
  8
DEFPOINTS
 62
     0
 10
1100.8166941657969
 20
-3091.8338807187188
 30
0.0
  0
POINT
  5
8123
  8
DEFPOINTS
 62
     0
 10
1100.8166941657969
 20
-3509.3981237187199
 30
0.0
  0
ENDBLK
  5
7E2B
  8
0
  0
BLOCK
  8
0
  2
*D11
 70
     1
 10
0.0
 20
0.0
 30
0.0
  3
*D11
  1

  0
LINE
  5
8124
  8
3
 62
     0
 10
1115.8166941657969
 20
-2481.8338807187188
 30
0.0
 11
1489.8251071657969
 21
-2481.8338807187188
 31
0.0
  0
LINE
  5
8125
  8
3
 62
     0
 10
1115.8166941657969
 20
-3091.8338807187188
 30
0.0
 11
1489.8251071657969
 21
-3091.8338807187188
 31
0.0
  0
LINE
  5
8126
  8
3
 62
     0
 10
1459.8251071657969
 20
-2541.8338807187188
 30
0.0
 11
1459.8251071657969
 21
-3031.8338807187188
 31
0.0
  0
INSERT
  5
8127
  8
3
 62
     0
  2
_OPEN
 10
1459.8251071657969
 20
-2481.8338807187188
 30
0.0
 41
60.0
 42
60.0
 43
60.0
 50
90.0
  0
INSERT
  5
8128
  8
3
 62
     0
  2
_OPEN
 10
1459.8251071657969
 20
-3091.8338807187188
 30
0.0
 41
60.0
 42
60.0
 43
60.0
 50
270.0
  0
TEXT
  8
3
  40
90
  5
8166
  62
0
  72
0
  71
0
 10
1204.83
 20
-2968.83
 30
0.000000
  1
610
  0
POINT
  5
812A
  8
DEFPOINTS
 62
     0
 10
1100.8166941657969
 20
-2481.8338807187188
 30
0.0
  0
POINT
  5
812B
  8
DEFPOINTS
 62
     0
 10
1100.8166941657969
 20
-3091.8338807187188
 30
0.0
  0
POINT
  5
812C
  8
DEFPOINTS
 62
     0
 10
1459.8251071657969
 20
-3091.8338807187188
 30
0.0
  0
ENDBLK
  5
7E20
  8
0
  0
BLOCK
  8
0
  2
*D12
 70
     1
 10
0.0
 20
0.0
 30
0.0
  3
*D12
  1

  0
LINE
  5
812D
  8
3
 62
     0
 10
2980.2532281657982
 20
-4485.4203177187192
 30
0.0
 11
2980.2532281657982
 21
-4293.533818718719
 31
0.0
  0
LINE
  5
812E
  8
3
 62
     0
 10
3405.2532281657968
 20
-4485.4203177187192
 30
0.0
 11
3405.2532281657968
 21
-4293.533818718719
 31
0.0
  0
LINE
  5
812F
  8
3
 62
     0
 10
3040.2532281657982
 20
-4323.5338187187181
 30
0.0
 11
3345.2532281657968
 21
-4323.5338187187181
 31
0.0
  0
INSERT
  5
8130
  8
3
 62
     0
  2
_OPEN
 10
2980.2532281657982
 20
-4323.5338187187181
 30
0.0
 41
60.0
 42
60.0
 43
60.0
 50
180.0
  0
INSERT
  5
8131
  8
3
 62
     0
  2
_OPEN
 10
3405.2532281657968
 20
-4323.5338187187181
 30
0.0
 41
60.0
 42
60.0
 43
60.0
  0
TEXT
  8
3
  40
90
  5
8167
  62
0
  72
0
  71
0
 10
3005.97
 20
-4407.83
 30
0.000000
  1
425
  0
POINT
  5
8133
  8
DEFPOINTS
 62
     0
 10
2980.2532281657982
 20
-4500.4203177187192
 30
0.0
  0
POINT
  5
8134
  8
DEFPOINTS
 62
     0
 10
3405.2532281657968
 20
-4500.4203177187192
 30
0.0
  0
POINT
  5
8135
  8
DEFPOINTS
 62
     0
 10
3405.2532281657968
 20
-4323.5338187187181
 30
0.0
  0
ENDBLK
  5
7E15
  8
0
  0
BLOCK
  8
0
  2
*D13
 70
     1
 10
0.0
 20
0.0
 30
0.0
  3
*D13
  1

  0
LINE
  5
7EEE
  8
0
  6
BYBLOCK
 62
     0
 10
2837.7532281657982
 20
-5810.4203177187201
 30
0.0
 11
2837.7532281657982
 21
-6010.1939117187194
 31
0.0
  0
LINE
  5
7EEF
  8
0
  6
BYBLOCK
 62
     0
 10
3192.7532281657968
 20
-5841.0398867187196
 30
0.0
 11
3192.7532281657968
 21
-6010.1939117187194
 31
0.0
  0
LINE
  5
7EF0
  8
0
  6
BYBLOCK
 62
     0
 10
2897.7532281657982
 20
-5980.1939117187194
 30
0.0
 11
3132.7532281657968
 21
-5980.1939117187194
 31
0.0
  0
TEXT
  5
7EF1
  8
3
 62
     0
 10
2907.0527580932289
 20
-5961.9656111264194
 30
0.0
 40
90.0
  1
355
  0
INSERT
  5
7EF2
  8
0
  6
BYBLOCK
 62
     0
  2
_OPEN
 10
2837.7532281657982
 20
-5980.1939117187194
 30
0.0
 41
60.0
 42
60.0
 43
60.0
 50
180.0
  0
INSERT
  5
7EF3
  8
0
  6
BYBLOCK
 62
     0
  2
_OPEN
 10
3192.7532281657968
 20
-5980.1939117187194
 30
0.0
 41
60.0
 42
60.0
 43
60.0
  0
POINT
  5
7EF4
  8
DEFPOINTS
  6
BYBLOCK
 62
     0
 10
2837.7532281657982
 20
-5795.4203177187201
 30
0.0
  0
POINT
  5
7EF5
  8
DEFPOINTS
  6
BYBLOCK
 62
     0
 10
3192.7532281657968
 20
-5826.0398867187196
 30
0.0
  0
POINT
  5
7EF6
  8
DEFPOINTS
  6
BYBLOCK
 62
     0
 10
3192.7532281657968
 20
-5980.1939117187194
 30
0.0
  0
ENDBLK
  5
7EF7
  8
0
  0
BLOCK
  8
0
  2
*D14
 70
     1
 10
0.0
 20
0.0
 30
0.0
  3
*D14
  1

  0
LINE
  5
7F63
  8
0
  6
BYBLOCK
 62
     0
 10
3192.7532281657968
 20
-5841.0398867187196
 30
0.0
 11
3192.7532281657968
 21
-6010.1939117187194
 31
0.0
  0
LINE
  5
7F64
  8
0
  6
BYBLOCK
 62
     0
 10
3447.7532281657968
 20
-5810.4203177187201
 30
0.0
 11
3447.7532281657968
 21
-6010.1939117187194
 31
0.0
  0
LINE
  5
7F65
  8
0
  6
BYBLOCK
 62
     0
 10
3252.7532281657968
 20
-5980.1939117187194
 30
0.0
 11
3387.7532281657968
 21
-5980.1939117187194
 31
0.0
  0
TEXT
  5
7F66
  8
3
 62
     0
 10
3204.3779530965262
 20
-5949.6648582386761
 30
0.0
 40
90.0
  1
255
  0
INSERT
  5
7F67
  8
0
  6
BYBLOCK
 62
     0
  2
_OPEN
 10
3192.7532281657968
 20
-5980.1939117187194
 30
0.0
 41
60.0
 42
60.0
 43
60.0
 50
180.0
  0
INSERT
  5
7F68
  8
0
  6
BYBLOCK
 62
     0
  2
_OPEN
 10
3447.7532281657968
 20
-5980.1939117187194
 30
0.0
 41
60.0
 42
60.0
 43
60.0
  0
POINT
  5
7F69
  8
DEFPOINTS
  6
BYBLOCK
 62
     0
 10
3192.7532281657968
 20
-5826.0398867187196
 30
0.0
  0
POINT
  5
7F6A
  8
DEFPOINTS
  6
BYBLOCK
 62
     0
 10
3447.7532281657968
 20
-5795.4203177187201
 30
0.0
  0
POINT
  5
7F6B
  8
DEFPOINTS
  6
BYBLOCK
 62
     0
 10
3447.7532281657968
 20
-5980.1939117187194
 30
0.0
  0
ENDBLK
  5
7F6C
  8
0
  0
BLOCK
  8
0
  2
*D15
 70
     1
 10
0.0
 20
0.0
 30
0.0
  3
*D15
  1

  0
LINE
  5
8136
  8
3
 62
     0
 10
3483.7532281657968
 20
-4620.4203177187192
 30
0.0
 11
3731.8950675922079
 21
-4620.4203177187192
 31
0.0
  0
LINE
  5
8137
  8
3
 62
     0
 10
3483.7532281657968
 20
-5180.4203177187192
 30
0.0
 11
3731.8950675922069
 21
-5180.4203177187192
 31
0.0
  0
LINE
  5
8138
  8
3
 62
     0
 10
3701.8950675922069
 20
-4680.4203177187192
 30
0.0
 11
3701.8950675922069
 21
-5120.4203177187192
 31
0.0
  0
INSERT
  5
8139
  8
3
 62
     0
  2
_OPEN
 10
3701.8950675922069
 20
-4620.4203177187192
 30
0.0
 41
60.0
 42
60.0
 43
60.0
 50
90.0
  0
INSERT
  5
813A
  8
3
 62
     0
  2
_OPEN
 10
3701.8950675922069
 20
-5180.4203177187192
 30
0.0
 41
60.0
 42
60.0
 43
60.0
 50
270.0
  0
TEXT
  8
3
  40
90
  5
8168
  62
0
  72
0
  71
0
 10
3446.90
 20
-5080.01
 30
0.000000
  1
φ560
  0
POINT
  5
813C
  8
DEFPOINTS
 62
     0
 10
3468.7532281657968
 20
-4620.4203177187192
 30
0.0
  0
POINT
  5
813D
  8
DEFPOINTS
 62
     0
 10
3468.7532281657968
 20
-5180.4203177187192
 30
0.0
  0
POINT
  5
813E
  8
DEFPOINTS
 62
     0
 10
3701.8950675922069
 20
-5180.4203177187192
 30
0.0
  0
ENDBLK
  5
8015
  8
0
  0
BLOCK
  8
0
  2
*D16
 70
     1
 10
0.0
 20
0.0
 30
0.0
  3
*D16
  1

  0
LINE
  5
813F
  8
3
 62
     0
 10
2732.7532281657982
 20
-4721.120317718719
 30
0.0
 11
2732.7532281657982
 21
-4071.3019587629378
 31
0.0
  0
LINE
  5
8140
  8
3
 62
     0
 10
3192.7532281657968
 20
-4162.0477905314983
 30
0.0
 11
3192.7532281657968
 21
-4071.3019587629378
 31
0.0
  0
LINE
  5
8141
  8
3
 62
     0
 10
2792.7532281657982
 20
-4101.3019587629369
 30
0.0
 11
3132.7532281657968
 21
-4101.3019587629369
 31
0.0
  0
INSERT
  5
8142
  8
3
 62
     0
  2
_OPEN
 10
2732.7532281657982
 20
-4101.3019587629369
 30
0.0
 41
60.0
 42
60.0
 43
60.0
 50
180.0
  0
INSERT
  5
8143
  8
3
 62
     0
  2
_OPEN
 10
3192.7532281657968
 20
-4101.3019587629369
 30
0.0
 41
60.0
 42
60.0
 43
60.0
  0
TEXT
  8
3
  40
90
  5
8169
  62
0
  72
0
  71
0
 10
2771.32
 20
-4110.60
 30
0.000000
  1
MAX
  0
TEXT
  8
3
  40
90
  5
816A
  62
0
  72
0
  71
0
 10
2771.32
 20
-4227.60
 30
0.000000
  1
510
  0
POINT
  5
8145
  8
DEFPOINTS
 62
     0
 10
2732.7532281657982
 20
-4736.120317718719
 30
0.0
  0
POINT
  5
8146
  8
DEFPOINTS
 62
     0
 10
3192.7532281657968
 20
-4177.0477905314983
 30
0.0
  0
POINT
  5
8147
  8
DEFPOINTS
 62
     0
 10
3192.7532281657968
 20
-4101.3019587629369
 30
0.0
  0
ENDBLK
  5
7FAE
  8
0
  0
BLOCK
  8
0
  2
*D17
 70
     1
 10
0.0
 20
0.0
 30
0.0
  3
*D17
  1

  0
LINE
  5
7F58
  8
0
  6
BYBLOCK
 62
     0
 10
3192.7532281657968
 20
-4162.0477905314983
 30
0.0
 11
3192.7532281657968
 21
-4071.3019587629378
 31
0.0
  0
LINE
  5
7F59
  8
0
  6
BYBLOCK
 62
     0
 10
3468.7532281657968
 20
-4575.4203177187192
 30
0.0
 11
3468.7532281657968
 21
-4071.3019587629378
 31
0.0
  0
LINE
  5
7F5A
  8
0
  6
BYBLOCK
 62
     0
 10
3252.7532281657968
 20
-4101.3019587629369
 30
0.0
 11
3408.7532281657968
 21
-4101.3019587629369
 31
0.0
  0
TEXT
  5
7F5B
  8
3
 62
     0
 10
3210.812638695038
 20
-4067.6516700319548
 30
0.0
 40
90.0
  1
276
  0
INSERT
  5
7F5C
  8
0
  6
BYBLOCK
 62
     0
  2
_OPEN
 10
3192.7532281657968
 20
-4101.3019587629369
 30
0.0
 41
60.0
 42
60.0
 43
60.0
 50
180.0
  0
INSERT
  5
7F5D
  8
0
  6
BYBLOCK
 62
     0
  2
_OPEN
 10
3468.7532281657968
 20
-4101.3019587629369
 30
0.0
 41
60.0
 42
60.0
 43
60.0
  0
POINT
  5
7F5E
  8
DEFPOINTS
  6
BYBLOCK
 62
     0
 10
3192.7532281657968
 20
-4177.0477905314983
 30
0.0
  0
POINT
  5
7F5F
  8
DEFPOINTS
  6
BYBLOCK
 62
     0
 10
3468.7532281657968
 20
-4590.4203177187192
 30
0.0
  0
POINT
  5
7F60
  8
DEFPOINTS
  6
BYBLOCK
 62
     0
 10
3468.7532281657968
 20
-4101.3019587629369
 30
0.0
  0
ENDBLK
  5
7F61
  8
0
  0
BLOCK
  8
0
  2
*D18
 70
     1
 10
0.0
 20
0.0
 30
0.0
  3
*D18
  1

  0
LINE
  5
8148
  8
3
 62
     0
 10
1115.8166941657969
 20
-5720.4203177187201
 30
0.0
 11
1763.702147687419
 21
-5720.4203177187201
 31
0.0
  0
LINE
  5
8149
  8
3
 62
     0
 10
1115.8166941657969
 20
-5785.4203177187201
 30
0.0
 11
1763.702147687419
 21
-5785.4203177187201
 31
0.0
  0
LINE
  5
814A
  8
3
 62
     0
 10
1733.702147687419
 20
-5660.4203177187201
 30
0.0
 11
1733.702147687419
 21
-5600.4203177187201
 31
0.0
  0
LINE
  5
814B
  8
3
 62
     0
 10
1733.702147687419
 20
-5845.4203177187201
 30
0.0
 11
1733.702147687419
 21
-6111.1346034330054
 31
0.0
  0
LINE
  5
814C
  8
3
 62
     0
 10
1733.702147687419
 20
-5720.4203177187201
 30
0.0
 11
1733.702147687419
 21
-5785.4203177187201
 31
0.0
  0
INSERT
  5
814D
  8
3
 62
     0
  2
_DOT
 10
1733.702147687419
 20
-5720.4203177187201
 30
0.0
 41
60.0
 42
60.0
 43
60.0
 50
270.0
  0
INSERT
  5
814E
  8
3
 62
     0
  2
_OPEN
 10
1733.702147687419
 20
-5785.4203177187201
 30
0.0
 41
60.0
 42
60.0
 43
60.0
 50
90.0
  0
TEXT
  8
3
  40
90
  5
816B
  62
0
  72
0
  71
0
 10
1478.70
 20
-6167.58
 30
0.000000
  1
65
  0
POINT
  5
8150
  8
DEFPOINTS
 62
     0
 10
1100.8166941657969
 20
-5720.4203177187201
 30
0.0
  0
POINT
  5
8151
  8
DEFPOINTS
 62
     0
 10
1100.8166941657969
 20
-5785.4203177187201
 30
0.0
  0
POINT
  5
8152
  8
DEFPOINTS
 62
     0
 10
1733.702147687419
 20
-5785.4203177187201
 30
0.0
  0
ENDBLK
  5
7FDE
  8
0
  0
BLOCK
  8
0
  2
_DOT
 70
     0
 10
0.0
 20
0.0
 30
0.0
  3
_DOT
  1

  0
LINE
  5
7F47
  8
0
  6
BYBLOCK
 62
     0
 10
0.0
 20
0.0
 30
0.0
 11
-1.0
 21
-0.0000000000000284
 31
0.0
  0
POLYLINE
  5
7F48
  8
0
  6
BYBLOCK
 62
     0
 66
     1
 10
0.0
 20
0.0
 30
0.0
 70
     1
 40
0.1666666666666666
 41
0.1666666666666666
  0
VERTEX
  5
8153
  8
0
  6
BYBLOCK
 62
     0
 10
-0.0833333333333286
 20
-0.0000000000000284
 30
0.0
 42
1.0
  0
VERTEX
  5
8154
  8
0
  6
BYBLOCK
 62
     0
 10
0.0833333333333286
 20
-0.0000000000000284
 30
0.0
 42
1.0
  0
SEQEND
  5
8155
  8
0
  6
BYBLOCK
 62
     0
  0
ENDBLK
  5
7D4B
  8
0
  0
BLOCK
  8
0
  2
*D20
 70
     1
 10
0.0
 20
0.0
 30
0.0
  3
*D20
  1

  0
LINE
  5
8156
  8
3
 62
     0
 10
1135.8166941657969
 20
-4875.4203177187192
 30
0.0
 11
1135.8166941657969
 21
-4126.8782120974975
 31
0.0
  0
LINE
  5
8157
  8
3
 62
     0
 10
-179.1833058342026
 20
-5530.420317718721
 30
0.0
 11
-179.18330583420251
 21
-4126.8782120974975
 31
0.0
  0
LINE
  5
8158
  8
3
 62
     0
 10
1075.8166941657969
 20
-4156.8782120974975
 30
0.0
 11
-119.1833058342025
 21
-4156.8782120974975
 31
0.0
  0
INSERT
  5
8159
  8
3
 62
     0
  2
_OPEN
 10
1135.8166941657969
 20
-4156.8782120974975
 30
0.0
 41
60.0
 42
60.0
 43
60.0
  0
INSERT
  5
815A
  8
3
 62
     0
  2
_OPEN
 10
-179.18330583420251
 20
-4156.8782120974975
 30
0.0
 41
60.0
 42
60.0
 43
60.0
 50
180.0
  0
TEXT
  8
3
  40
90
  5
816C
  62
0
  72
0
  71
0
 10
278.351
 20
-4241.18
 30
0.000000
  1
1315
  0
POINT
  5
815C
  8
DEFPOINTS
 62
     0
 10
1135.8166941657969
 20
-4890.4203177187192
 30
0.0
  0
POINT
  5
815D
  8
DEFPOINTS
 62
     0
 10
-179.1833058342026
 20
-5545.4203177187201
 30
0.0
  0
POINT
  5
815E
  8
DEFPOINTS
 62
     0
 10
-179.18330583420251
 20
-4156.8782120974975
 30
0.0
  0
ENDBLK
  5
7FBA
  8
0
  0
ENDSEC
  0
SECTION
  2
ENTITIES
  0
LINE
  5
7A92
  8
2
 10
45.816694165797337
 20
-5487.7203177187212
 30
0.0
 11
45.816694165797337
 21
-5249.1203177187199
 31
0.0
  0
CIRCLE
  5
7A93
  8
1
 10
45.816694165797337
 20
-5368.4203177187201
 30
0.0
 40
114.3
  0
ARC
  5
7A94
  8
1
 10
45.816694165797337
 20
-5368.4203177187201
 30
0.0
 40
143.0
 50
324.34590999999989
 51
215.65408999999991
  0
LINE
  5
7A95
  8
1
 10
1105.8166941657969
 20
-5497.8295877187193
 30
0.0
 11
1105.8166941657969
 21
-4920.4203177187192
 31
0.0
  0
LINE
  5
7A96
  8
1
 10
1135.8166941657969
 20
-5530.420317718721
 30
0.0
 11
1135.8166941657969
 21
-4890.4203177187192
 31
0.0
  0
ARC
  5
7A97
  8
1
 10
787.81669416579734
 20
-4942.4203177187201
 30
0.0
 40
526.0
 50
175.420176
 51
265.42017599999991
  0
ARC
  5
7A98
  8
1
 10
45.816694165797337
 20
-5368.4203177187201
 30
0.0
 40
164.30000000000001
 50
123.7655559999999
 51
303.765556
  0
LINE
  5
7A99
  8
1
 10
137.13397016579799
 20
-5505.0059867187201
 30
0.0
 11
837.13397016579802
 21
-5037.0059867187192
 31
0.0
  0
LINE
  5
7A9A
  8
1
 10
109.3441721657973
 20
-5463.4400497187189
 30
0.0
 11
809.3441721657972
 21
-4995.4400497187189
 31
0.0
  0
LINE
  5
7A9B
  8
1
 10
-179.1833058342026
 20
-5545.4203177187201
 30
0.0
 11
1100.8166941657969
 21
-5545.4203177187201
 31
0.0
  0
LINE
  5
7A9C
  8
1
 10
-179.1833058342026
 20
-5620.4203177187201
 30
0.0
 11
1100.8166941657969
 21
-5620.4203177187201
 31
0.0
  0
LINE
  5
7A9D
  8
1
 10
-179.1833058342026
 20
-5785.4203177187201
 30
0.0
 11
1100.8166941657969
 21
-5785.4203177187201
 31
0.0
  0
LINE
  5
7A9E
  8
1
 10
-179.1833058342026
 20
-5720.4203177187201
 30
0.0
 11
1100.8166941657969
 21
-5720.4203177187201
 31
0.0
  0
LINE
  5
7A9F
  8
2
 10
-73.483305834202838
 20
-5368.4203177187201
 30
0.0
 11
165.1166941657975
 21
-5368.4203177187201
 31
0.0
  0
LINE
  5
7AA0
  8
1
 10
-129.1833058342026
 20
-5545.4203177187201
 30
0.0
 11
220.81669416579729
 21
-5545.4203177187201
 31
0.0
  0
LINE
  5
7AA1
  8
1
 10
-119.1833058342026
 20
-5500.4203177187201
 30
0.0
 11
-129.1833058342026
 21
-5545.4203177187201
 31
0.0
  0
LINE
  5
7AA2
  8
1
 10
-84.183305834202656
 20
-5485.4203177187201
 30
0.0
 11
-70.15402783420268
 21
-5451.2275727187198
 31
0.0
  0
LINE
  5
7AA3
  8
1
 10
-84.183305834202656
 20
-5500.4203177187201
 30
0.0
 11
-84.183305834202656
 21
-5485.4203177187201
 31
0.0
  0
LINE
  5
7AA4
  8
1
 10
-119.1833058342026
 20
-5500.4203177187201
 30
0.0
 11
-84.183305834202656
 21
-5500.4203177187201
 31
0.0
  0
LINE
  5
7AA5
  8
1
 10
-179.1833058342026
 20
-5545.4203177187201
 30
0.0
 11
-179.1833058342026
 21
-5620.4203177187201
 31
0.0
  0
LINE
  5
7AA6
  8
1
 10
-179.1833058342026
 20
-5720.4203177187201
 30
0.0
 11
-179.1833058342026
 21
-5785.4203177187201
 31
0.0
  0
LINE
  5
7AA7
  8
1
 10
175.81669416579729
 20
-5500.4203177187201
 30
0.0
 11
210.81669416579729
 21
-5500.4203177187201
 31
0.0
  0
LINE
  5
7AA8
  8
1
 10
220.81669416579729
 20
-5545.4203177187201
 30
0.0
 11
210.81669416579729
 21
-5500.4203177187201
 31
0.0
  0
LINE
  5
7AA9
  8
1
 10
175.81669416579729
 20
-5500.4203177187201
 30
0.0
 11
175.81669416579729
 21
-5485.4203177187201
 31
0.0
  0
LINE
  5
7AAA
  8
1
 10
175.81669416579729
 20
-5485.4203177187201
 30
0.0
 11
161.78741716579771
 21
-5451.2275727187198
 31
0.0
  0
LINE
  5
7AAB
  8
1
 10
745.81669416579734
 20
-5466.7408307187197
 30
0.0
 11
1135.8166941657969
 21
-5500.4203177187201
 31
0.0
  0
LINE
  5
7AAC
  8
1
 10
1100.8166941657969
 20
-5545.4203177187201
 30
0.0
 11
1100.8166941657969
 21
-5620.4203177187201
 31
0.0
  0
LINE
  5
7AAD
  8
1
 10
1100.8166941657969
 20
-5720.4203177187201
 30
0.0
 11
1100.8166941657969
 21
-5785.4203177187201
 31
0.0
  0
CIRCLE
  5
7AAE
  8
1
 10
745.81669416579734
 20
-4900.4203177187192
 30
0.0
 40
310.0
  0
CIRCLE
  5
7AAF
  8
1
 10
745.81669416579734
 20
-4900.4203177187192
 30
0.0
 40
280.0
  0
ARC
  5
7AB0
  8
1
 10
703.81669416579734
 20
-4942.4203177187201
 30
0.0
 40
442.0
 50
84.547378000000009
 51
174.54737800000001
  0
LINE
  5
7AB1
  8
1
 10
-45.500581834202421
 20
-5231.8346487187191
 30
0.0
 11
654.49941816579747
 21
-4763.8346487187191
 31
0.0
  0
LINE
  5
7AB2
  8
1
 10
-17.710783834202619
 20
-5273.4005857187194
 30
0.0
 11
682.28921616579726
 21
-4805.4005857187194
 31
0.0
  0
ARC
  5
7AB3
  8
1
 10
712.81669416579734
 20
-4867.4203177187192
 30
0.0
 40
367.0
 50
354.84109599999999
 51
84.841095999999993
  0
ARC
  5
7AB4
  8
1
 10
745.81669416579734
 20
-4900.4203177187192
 30
0.0
 40
164.30000000000001
 50
303.765556
 51
123.7655559999999
  0
LINE
  5
7AB5
  8
1
 10
745.81669416579734
 20
-5842.1591587187186
 30
0.0
 11
745.81669416579734
 21
-5842.1591587187186
 31
0.0
  0
LINE
  5
7AB6
  8
2
 10
131.91637716579771
 20
-4900.4203177187192
 30
0.0
 11
1194.7420481657971
 21
-4900.4203177187192
 31
0.0
  0
LINE
  5
7AB7
  8
2
 10
745.81669416579734
 20
-2417.8265617187189
 30
0.0
 11
745.81669416579734
 21
-3262.2230497187188
 31
0.0
  0
CIRCLE
  5
7AB8
  8
1
 10
745.81669416579734
 20
-4900.4203177187192
 30
0.0
 40
114.3
  0
LINE
  5
7AB9
  8
1
 10
1075.113842165797
 20
-4920.4203177187192
 30
0.0
 11
1135.8166941657969
 21
-4920.4203177187192
 31
0.0
  0
ARC
  5
7ABA
  8
1
 10
778.81669416579734
 20
-4867.4203177187192
 30
0.0
 40
301.0
 50
349.85850199999999
 51
353.70575000000002
  0
LINE
  5
7ABB
  8
1
 10
2847.7532281657982
 20
-5225.4203177187201
 30
0.0
 11
2847.7532281657982
 21
-5545.4203177187201
 31
0.0
  0
LINE
  5
7ABC
  8
1
 10
2827.7532281657982
 20
-4736.120317718719
 30
0.0
 11
2827.7532281657982
 21
-5532.7203177187203
 31
0.0
  0
LINE
  5
7ABD
  8
1
 10
2732.7532281657982
 20
-4736.120317718719
 30
0.0
 11
2732.7532281657982
 21
-5532.7203177187203
 31
0.0
  0
LINE
  5
7ABE
  8
1
 10
2980.2532281657982
 20
-4500.4203177187192
 30
0.0
 11
2980.2532281657982
 21
-5545.4203177187201
 31
0.0
  0
LINE
  5
7ABF
  8
1
 10
3405.2532281657968
 20
-4500.4203177187192
 30
0.0
 11
3405.2532281657968
 21
-5545.4203177187201
 31
0.0
  0
LINE
  5
7AC0
  8
1
 10
3405.2532281657968
 20
-4920.4203177187192
 30
0.0
 11
2980.2532281657982
 21
-5500.4203177187201
 31
0.0
  0
LINE
  5
7AC1
  8
1
 10
2980.2532281657982
 20
-4920.4203177187192
 30
0.0
 11
3405.2532281657968
 21
-5500.4203177187201
 31
0.0
  0
LINE
  5
7AC2
  8
1
 10
2747.7532281657982
 20
-5254.1203177187199
 30
0.0
 11
2747.7532281657982
 21
-5482.7203177187203
 31
0.0
  0
LINE
  5
7AC3
  8
1
 10
2810.7532281657968
 20
-5254.1203177187199
 30
0.0
 11
2810.7532281657968
 21
-5482.7203177187203
 31
0.0
  0
LINE
  5
7AC4
  8
1
 10
2837.7532281657982
 20
-5785.4203177187201
 30
0.0
 11
3447.7532281657968
 21
-5785.4203177187201
 31
0.0
  0
LINE
  5
7AC5
  8
1
 10
2837.7532281657982
 20
-5720.4203177187201
 30
0.0
 11
3447.7532281657968
 21
-5720.4203177187201
 31
0.0
  0
LINE
  5
7AC6
  8
1
 10
2837.7532281657982
 20
-5545.4203177187201
 30
0.0
 11
3447.7532281657968
 21
-5545.4203177187201
 31
0.0
  0
LINE
  5
7AC7
  8
1
 10
2837.7532281657982
 20
-5620.4203177187201
 30
0.0
 11
3447.7532281657968
 21
-5620.4203177187201
 31
0.0
  0
LINE
  5
7AC8
  8
1
 10
2980.2532281657982
 20
-5500.4203177187201
 30
0.0
 11
3405.2532281657968
 21
-5500.4203177187201
 31
0.0
  0
LINE
  5
7ACA
  8
1
 10
2837.7532281657982
 20
-5720.4203177187201
 30
0.0
 11
2837.7532281657982
 21
-5785.4203177187201
 31
0.0
  0
LINE
  5
7ACB
  8
1
 10
2810.7532281657968
 20
-5387.420317718721
 30
0.0
 11
2847.7532281657982
 21
-5387.420317718721
 31
0.0
  0
LINE
  5
7ACC
  8
1
 10
2810.7532281657968
 20
-5349.4203177187201
 30
0.0
 11
2847.7532281657982
 21
-5349.4203177187201
 31
0.0
  0
LINE
  5
7ACD
  8
1
 10
2747.7532281657982
 20
-5482.7203177187203
 30
0.0
 11
2810.7532281657968
 21
-5482.7203177187203
 31
0.0
  0
LINE
  5
7ACE
  8
1
 10
2847.7532281657982
 20
-5500.4203177187201
 30
0.0
 11
2980.2532281657982
 21
-5500.4203177187201
 31
0.0
  0
LINE
  5
7ACF
  8
1
 10
2732.7532281657982
 20
-5532.7203177187203
 30
0.0
 11
2827.7532281657982
 21
-5532.7203177187203
 31
0.0
  0
LINE
  5
7AD0
  8
1
 10
2837.7532281657982
 20
-5545.4203177187201
 30
0.0
 11
2837.7532281657982
 21
-5620.4203177187201
 31
0.0
  0
LINE
  5
7AD1
  8
1
 10
3447.7532281657968
 20
-5720.4203177187201
 30
0.0
 11
3447.7532281657968
 21
-5785.4203177187201
 31
0.0
  0
LINE
  5
7AD2
  8
1
 10
3447.7532281657968
 20
-5545.4203177187201
 30
0.0
 11
3447.7532281657968
 21
-5620.4203177187201
 31
0.0
  0
LINE
  5
7AD3
  8
1
 10
2980.2532281657982
 20
-4500.4203177187192
 30
0.0
 11
3405.2532281657968
 21
-4500.4203177187192
 31
0.0
  0
LINE
  5
7AD4
  8
1
 10
2980.2532281657982
 20
-4920.4203177187192
 30
0.0
 11
3405.2532281657968
 21
-4920.4203177187192
 31
0.0
  0
LINE
  5
7AD5
  8
1
 10
2847.7532281657982
 20
-5225.4203177187201
 30
0.0
 11
2980.2532281657982
 21
-5225.4203177187201
 31
0.0
  0
LINE
  5
7AD6
  8
1
 10
2810.7532281657968
 20
-4786.120317718719
 30
0.0
 11
2810.7532281657968
 21
-5014.7203177187193
 31
0.0
  0
LINE
  5
7AD7
  8
1
 10
2747.7532281657982
 20
-5014.7203177187193
 30
0.0
 11
2810.7532281657968
 21
-5014.7203177187193
 31
0.0
  0
LINE
  5
7AD8
  8
1
 10
2747.7532281657982
 20
-4786.120317718719
 30
0.0
 11
2810.7532281657968
 21
-4786.120317718719
 31
0.0
  0
LINE
  5
7AD9
  8
1
 10
2747.7532281657982
 20
-4786.120317718719
 30
0.0
 11
2747.7532281657982
 21
-5014.7203177187193
 31
0.0
  0
LINE
  5
7ADA
  8
1
 10
2810.7532281657968
 20
-4920.4203177187192
 30
0.0
 11
2980.2532281657982
 21
-4920.4203177187192
 31
0.0
  0
LINE
  5
7ADB
  8
1
 10
2810.7532281657968
 20
-4880.4203177187192
 30
0.0
 11
2980.2532281657982
 21
-4880.4203177187192
 31
0.0
  0
LINE
  5
7ADC
  8
1
 10
2747.7532281657982
 20
-5254.1203177187199
 30
0.0
 11
2810.7532281657968
 21
-5254.1203177187199
 31
0.0
  0
LINE
  5
7ADD
  8
1
 10
2732.7532281657982
 20
-4736.120317718719
 30
0.0
 11
2827.7532281657982
 21
-4736.120317718719
 31
0.0
  0
LINE
  5
7ADE
  8
1
 10
3468.7532281657968
 20
-4590.4203177187192
 30
0.0
 11
3468.7532281657968
 21
-5210.4203177187192
 31
0.0
  0
LINE
  5
7ADF
  8
1
 10
3405.2532281657968
 20
-5180.4203177187192
 30
0.0
 11
3468.7532281657968
 21
-5180.4203177187192
 31
0.0
  0
LINE
  5
7AE0
  8
1
 10
3405.2532281657968
 20
-4620.4203177187192
 30
0.0
 11
3468.7532281657968
 21
-4620.4203177187192
 31
0.0
  0
LINE
  5
7AE1
  8
1
 10
-118.4833058342028
 20
-3101.8338807187188
 30
0.0
 11
910.11669416579753
 21
-3101.8338807187188
 31
0.0
  0
LINE
  5
7AE2
  8
1
 10
-118.4833058342028
 20
-3196.8338807187188
 30
0.0
 11
910.11669416579753
 21
-3196.8338807187188
 31
0.0
  0
LINE
  5
7AE3
  8
1
 10
64.816694165797344
 20
-3091.8338807187188
 30
0.0
 11
725.81669416579734
 21
-3091.8338807187188
 31
0.0
  0
LINE
  5
7AE4
  8
1
 10
435.81669416579729
 20
-2460.8338807187188
 30
0.0
 11
1055.8166941657969
 21
-2460.8338807187188
 31
0.0
  0
LINE
  5
7AE5
  8
1
 10
261.81669416579729
 20
-2949.3338807187188
 30
0.0
 11
1135.8166941657969
 21
-2949.3338807187188
 31
0.0
  0
LINE
  5
7AE6
  8
1
 10
261.81669416579729
 20
-2524.3338807187188
 30
0.0
 11
1135.8166941657969
 21
-2524.3338807187188
 31
0.0
  0
LINE
  5
7AE7
  8
1
 10
188.81669416579729
 20
-3081.8338807187188
 30
0.0
 11
188.81669416579729
 21
-2712.8338807187188
 31
0.0
  0
LINE
  5
7AE8
  8
1
 10
-97.183305834202656
 20
-3081.8338807187188
 30
0.0
 11
-97.183305834202656
 21
-2712.8338807187188
 31
0.0
  0
LINE
  5
7AE9
  8
1
 10
261.81669416579729
 20
-2949.3338807187188
 30
0.0
 11
261.81669416579729
 21
-2524.3338807187188
 31
0.0
  0
LINE
  5
7AEA
  8
1
 10
-179.1833058342026
 20
-3091.8338807187188
 30
0.0
 11
-179.1833058342026
 21
-2481.8338807187188
 31
0.0
  0
LINE
  5
7AEB
  8
1
 10
-68.483305834202838
 20
-3181.8338807187188
 30
0.0
 11
160.1166941657975
 21
-3181.8338807187188
 31
0.0
  0
LINE
  5
7AEC
  8
1
 10
-68.483305834202838
 20
-3118.8338807187188
 30
0.0
 11
160.1166941657975
 21
-3118.8338807187188
 31
0.0
  0
LINE
  5
7AED
  8
1
 10
188.81669416579729
 20
-3081.8338807187188
 30
0.0
 11
-97.183305834202656
 21
-3081.8338807187188
 31
0.0
  0
LINE
  5
7AEE
  8
1
 10
-118.4833058342028
 20
-3196.8338807187188
 30
0.0
 11
-118.4833058342028
 21
-3101.8338807187188
 31
0.0
  0
LINE
  5
7AEF
  8
1
 10
-68.483305834202838
 20
-3181.8338807187188
 30
0.0
 11
-68.483305834202838
 21
-3118.8338807187188
 31
0.0
  0
LINE
  5
7AF0
  8
1
 10
26.81669416579734
 20
-3118.8338807187188
 30
0.0
 11
26.81669416579734
 21
-3081.8338807187188
 31
0.0
  0
LINE
  5
7AF1
  8
1
 10
64.816694165797344
 20
-3118.8338807187188
 30
0.0
 11
64.816694165797344
 21
-3081.8338807187188
 31
0.0
  0
LINE
  5
7AF2
  8
1
 10
-179.1833058342026
 20
-3091.8338807187188
 30
0.0
 11
26.81669416579734
 21
-3091.8338807187188
 31
0.0
  0
LINE
  5
7AF3
  8
1
 10
160.1166941657975
 20
-3181.8338807187188
 30
0.0
 11
160.1166941657975
 21
-3118.8338807187188
 31
0.0
  0
LINE
  5
7AF4
  8
1
 10
-97.183305834202656
 20
-2712.8338807187188
 30
0.0
 11
188.81669416579729
 21
-2712.8338807187188
 31
0.0
  0
LINE
  5
7AF5
  8
1
 10
-179.1833058342026
 20
-2481.8338807187188
 30
0.0
 11
465.81669416579729
 21
-2481.8338807187188
 31
0.0
  0
LINE
  5
7AF6
  8
1
 10
465.81669416579729
 20
-2524.3338807187188
 30
0.0
 11
465.81669416579729
 21
-2460.8338807187188
 31
0.0
  0
LINE
  5
7AF7
  8
1
 10
1105.8166941657969
 20
-2949.3338807187188
 30
0.0
 11
1105.8166941657969
 21
-2524.3338807187188
 31
0.0
  0
LINE
  5
7AF8
  8
1
 10
1135.8166941657969
 20
-2979.3338807187188
 30
0.0
 11
1135.8166941657969
 21
-2494.3338807187188
 31
0.0
  0
LINE
  5
7AF9
  8
1
 10
765.81669416579734
 20
-3091.8338807187188
 30
0.0
 11
1100.8166941657969
 21
-3091.8338807187188
 31
0.0
  0
LINE
  5
7AFA
  8
1
 10
910.11669416579753
 20
-3196.8338807187188
 30
0.0
 11
910.11669416579753
 21
-3101.8338807187188
 31
0.0
  0
LINE
  5
7AFB
  8
1
 10
631.51669416579705
 20
-3181.8338807187188
 30
0.0
 11
631.51669416579705
 21
-3118.8338807187188
 31
0.0
  0
LINE
  5
7AFC
  8
1
 10
860.11669416579753
 20
-3181.8338807187188
 30
0.0
 11
860.11669416579753
 21
-3118.8338807187188
 31
0.0
  0
LINE
  5
7AFD
  8
1
 10
631.51669416579705
 20
-3181.8338807187188
 30
0.0
 11
860.11669416579753
 21
-3181.8338807187188
 31
0.0
  0
LINE
  5
7AFE
  8
1
 10
631.51669416579705
 20
-3118.8338807187188
 30
0.0
 11
860.11669416579753
 21
-3118.8338807187188
 31
0.0
  0
LINE
  5
7AFF
  8
1
 10
725.81669416579734
 20
-3118.8338807187188
 30
0.0
 11
725.81669416579734
 21
-2949.3338807187188
 31
0.0
  0
LINE
  5
7B00
  8
1
 10
765.81669416579734
 20
-3118.8338807187188
 30
0.0
 11
765.81669416579734
 21
-2949.3338807187188
 31
0.0
  0
LINE
  5
7B01
  8
1
 10
1100.8166941657969
 20
-3091.8338807187188
 30
0.0
 11
1100.8166941657969
 21
-2949.3338807187188
 31
0.0
  0
LINE
  5
7B02
  8
1
 10
1025.8166941657969
 20
-2481.8338807187188
 30
0.0
 11
1100.8166941657969
 21
-2481.8338807187188
 31
0.0
  0
LINE
  5
7B03
  8
1
 10
1025.8166941657969
 20
-2524.3338807187188
 30
0.0
 11
1025.8166941657969
 21
-2460.8338807187188
 31
0.0
  0
LINE
  5
7B04
  8
1
 10
1100.8166941657969
 20
-2524.3338807187188
 30
0.0
 11
1100.8166941657969
 21
-2481.8338807187188
 31
0.0
  0
LINE
  5
7B1C
  8
4
 10
3930.1926547499988
 20
-7038.9699847499996
 30
0.0
 11
3930.1926547499988
 21
-7638.9699847499996
 31
0.0
  0
LINE
  5
7B1D
  8
4
 10
1830.19265475
 20
-7038.9699847499996
 30
0.0
 11
1830.19265475
 21
-7638.9699847499996
 31
0.0
  0
LINE
  5
7B1E
  8
4
 10
330.19265474999997
 20
-7038.9699847499996
 30
0.0
 11
330.19265474999997
 21
-7638.9699847499996
 31
0.0
  0
LINE
  5
7B21
  8
4
 10
330.19265474999997
 20
-7638.9699847499996
 30
0.0
 11
3930.1926547499988
 21
-7638.9699847499996
 31
0.0
  0
LINE
  5
7B22
  8
4
 10
330.19265474999997
 20
-7338.9699847499996
 30
0.0
 11
3930.1926547499988
 21
-7338.9699847499996
 31
0.0
  0
TEXT
  5
7B23
  8
4
 10
445.69889775000001
 20
-7244.3409067500006
 30
0.0
 40
150.0
  1
機器名称
  0
TEXT
  5
7B24
  8
4
 10
438.96697349999999
 20
-7574.0345145000001
 30
0.0
 40
150.0
  1
機器型番
  0
TEXT
  5
7B25
  8
4
 10
1913.228891999999
 20
-7271.2546785000004
 30
0.0
 40
120.0
  1
ミツヤリミットロードファン
  0
TEXT
  5
7B26
  8
4
 10
1940.156142
 20
-7587.4912320000012
 30
0.0
 40
150.0
  1
LLE#3 1/2-4
  0
TEXT
  5
7B28
  8
4
 10
752.66420774999995
 20
-1388.6834602500001
 30
0.0
 40
162.0
  1
床置防振ベット
  0
TEXT
  5
7B29
  8
4
 10
-671.30456474999994
 20
-937.32705600000008
 30
0.0
 40
180.0
  1
ベルト駆動式片吸込両持排煙ファン
  0
LINE
  5
7B2A
  8
4
 10
-869.80734525000003
 20
-1130.7437219999999
 30
0.0
 11
3930.1926547499988
 21
-1130.7437219999999
 31
0.0
  0
LINE
  5
7B2B
  8
4
 10
-869.80734525000003
 20
-530.74372199999993
 30
0.0
 11
3930.1926547499988
 21
-530.74372199999993
 31
0.0
  0
LINE
  5
7B2C
  8
4
 10
330.19265474999997
 20
-7038.9699847499996
 30
0.0
 11
3930.1926547499988
 21
-7038.9699847499996
 31
0.0
  0
LINE
  5
7B2D
  8
4
 10
-869.80734525000003
 20
-530.74372199999993
 30
0.0
 11
-869.80734525000003
 21
-1130.7437219999999
 31
0.0
  0
TEXT
  5
7B2E
  8
4
 10
-554.91228975000001
 20
-1392.0115515
 30
0.0
 40
162.0
  1
左回転右横向
  0
TEXT
  5
7B2F
  8
4
 10
2787.1013332500002
 20
-420.78674024999992
 30
0.0
 40
168.0
  1
No.
  0
TEXT
  5
7B30
  8
4
 10
2314.0808437499991
 20
-1388.6834602500001
 30
0.0
 40
162.0
  1
縮尺：1/30
  0
LINE
  5
7B31
  8
4
 10
3930.1926547499988
 20
-530.74372199999993
 30
0.0
 11
3930.1926547499988
 21
-1130.7437219999999
 31
0.0
  0
LINE
  5
7B33
  8
4
 10
2702.0449222500001
 20
-495.17923574999992
 30
0.0
 11
2702.0449222500001
 21
-179.01319950000001
 31
0.0
  0
LINE
  5
7B34
  8
4
 10
2702.0449222500001
 20
-179.01319950000001
 30
0.0
 11
3930.1926547499988
 21
-179.01319950000001
 31
0.0
  0
LINE
  5
7B35
  8
4
 10
3930.1926547499988
 20
-179.01319950000001
 30
0.0
 11
3930.1926547499988
 21
-495.17923574999992
 31
0.0
  0
LINE
  5
7B36
  8
4
 10
3930.1926547499988
 20
-495.17923574999992
 30
0.0
 11
2702.0449222500001
 21
-495.17923574999992
 31
0.0
  0
DIMENSION
  5
7B4D
  8
3
  2
*D1
 10
745.81669416579734
 20
-6036.2073197187201
 30
0.0
 11
271.83319916579779
 21
-6036.2073197187201
 31
0.0
 70
   128
 13
-179.1833058342026
 23
-5785.4203177187201
 33
0.0
 14
745.81669416579734
 24
-5797.1591587187204
 34
0.0
1001
ACAD
1000
DSTYLE
1002
{
1070
   287
1070
     3
1070
   287
1070
     3
1070
    40
1040
30.0
1070
   143
1040
0.039
1070
   172
1070
     1
1070
   271
1070
     0
1070
   279
1070
     0
1070
   288
1070
     1
1002
}
  0
DIMENSION
  5
7B5B
  8
3
  2
*D2
 10
1100.8166941657969
 20
-6036.6478237187193
 30
0.0
 11
929.91416675730579
 21
-5962.3189385487349
 31
0.0
 12
0.0
 22
10.0
 32
0.0
 70
   128
 13
745.81669416579734
 23
-5797.1591587187204
 33
0.0
 14
1100.8166941657969
 24
-5785.4203177187201
 34
0.0
1001
ACAD
1000
DSTYLE
1002
{
1070
   288
1070
     1
1070
   172
1070
     1
1070
    40
1040
30.0
1070
   271
1070
     0
1070
   143
1040
0.039
1002
}
  0
DIMENSION
  5
7B7E
  8
3
  2
*D3
 10
1340.4373569589941
 20
-5500.4203177187201
 30
0.0
 11
1340.437356958995
 21
-5160.4203177187201
 31
0.0
 70
   128
 13
1135.8166941657969
 23
-4920.4203177187192
 33
0.0
 14
1135.8166941657969
 24
-5500.4203177187201
 34
0.0
 50
90.0
1001
ACAD
1000
DSTYLE
1002
{
1070
   287
1070
     3
1070
   287
1070
     3
1070
    40
1040
30.0
1070
   143
1040
0.039
1070
   172
1070
     1
1070
   271
1070
     0
1070
   279
1070
     0
1070
   288
1070
     1
1002
}
  0
DIMENSION
  5
7B8B
  8
3
  2
*D4
 10
1534.470228474215
 20
-5500.4203177187201
 30
0.0
 11
1534.4702284742159
 21
-5197.7239697187197
 31
0.0
 70
   128
 13
1078.0022551657969
 23
-4900.4203177187192
 33
0.0
 14
1135.8166941657969
 24
-5500.4203177187201
 34
0.0
 50
90.0
1001
ACAD
1000
DSTYLE
1002
{
1070
   287
1070
     3
1070
   287
1070
     3
1070
    40
1040
30.0
1070
   143
1040
0.039
1070
   172
1070
     1
1070
   271
1070
     0
1070
   279
1070
     0
1070
   288
1070
     1
1002
}
  0
DIMENSION
  5
7B9A
  8
3
  2
*D5
 10
1733.702147687419
 20
-4900.4203177187192
 30
0.0
 11
1655.588935780615
 21
-4705.342723706839
 31
0.0
 70
   128
  1
400
 13
745.81669416579734
 23
-4501.9069807187198
 33
0.0
 14
1078.0022551657969
 24
-4900.4203177187192
 34
0.0
 50
90.0
1001
ACAD
1000
DSTYLE
1002
{
1070
   288
1070
     1
1070
   172
1070
     1
1070
    40
1040
30.0
1070
   271
1070
     0
1070
   143
1040
0.039
1002
}
  0
DIMENSION
  5
7BA6
  8
3
  2
*D6
 10
1733.702147687419
 20
-5620.4203177187201
 30
0.0
 11
1658.7021476874199
 21
-5260.4203177187192
 31
0.0
 70
     0
 13
1078.0022551657969
 23
-4900.4203177187192
 33
0.0
 14
1100.8166941657969
 24
-5620.4203177187201
 34
0.0
 50
90.0
1001
ACAD
1000
DSTYLE
1002
{
1070
   287
1070
     3
1070
   287
1070
     3
1070
    40
1040
30.0
1070
   143
1040
0.039
1070
   172
1070
     1
1070
   271
1070
     0
1070
   279
1070
     0
1070
   288
1070
     1
1002
}
  0
DIMENSION
  5
7BDD
  8
3
  2
*D7
 10
2018.4290128409989
 20
-5785.4203177187201
 30
0.0
 11
2018.429012841
 21
-5177.2166829571943
 31
0.0
 70
   128
 13
745.81669416579734
 23
-4501.9069807187198
 33
0.0
 14
1100.8166941657969
 24
-5785.4203177187201
 34
0.0
 50
90.0
1001
ACAD
1000
DSTYLE
1002
{
1070
   287
1070
     3
1070
   287
1070
     3
1070
    40
1040
30.0
1070
   143
1040
0.039
1070
   172
1070
     1
1070
   271
1070
     0
1070
   279
1070
     0
1070
   288
1070
     1
1002
}
  0
DIMENSION
  5
7BEA
  8
3
  2
*D8
 10
745.81669416579734
 20
-4345.6980967187192
 30
0.0
 11
503.81669416579729
 21
-4345.6980967187192
 31
0.0
 70
   128
  1
484
 13
263.81669416579729
 23
-4900.4203177187192
 33
0.0
 14
745.81669416579734
 24
-4501.9069807187198
 34
0.0
1001
ACAD
1000
DSTYLE
1002
{
1070
   287
1070
     3
1070
   287
1070
     3
1070
    40
1040
30.0
1070
   143
1040
0.039
1070
   172
1070
     1
1070
   271
1070
     0
1070
   279
1070
     0
1070
   288
1070
     1
1002
}
  0
DIMENSION
  5
7BF8
  8
3
  2
*D9
 10
1135.8166941657969
 20
-4345.6980967187192
 30
0.0
 11
960.69143700375571
 21
-4268.6664686576869
 31
0.0
 70
   128
 13
745.81669416579734
 23
-4501.9069807187198
 33
0.0
 14
1135.8166941657969
 24
-4890.4203177187192
 34
0.0
1001
ACAD
1000
DSTYLE
1002
{
1070
   288
1070
     1
1070
   172
1070
     1
1070
    40
1040
30.0
1070
   271
1070
     0
1070
   143
1040
0.039
1002
}
  0
DIMENSION
  5
7C1B
  8
3
  2
*D10
 10
1100.8166941657969
 20
-3509.3981237187199
 30
0.0
 11
426.98034816579718
 21
-3509.3981237187199
 31
0.0
 70
   128
 13
-179.1833058342026
 23
-3091.8338807187188
 33
0.0
 14
1100.8166941657969
 24
-3091.8338807187188
 34
0.0
1001
ACAD
1000
DSTYLE
1002
{
1070
   287
1070
     3
1070
   287
1070
     3
1070
    40
1040
30.0
1070
   143
1040
0.039
1070
   172
1070
     1
1070
   271
1070
     0
1070
   279
1070
     0
1070
   288
1070
     1
1002
}
  0
DIMENSION
  5
7C28
  8
3
  2
*D11
 10
1459.8251071657969
 20
-3091.8338807187188
 30
0.0
 11
1459.8251071657969
 21
-2809.525686718719
 31
0.0
 70
   128
 13
1100.8166941657969
 23
-2481.8338807187188
 33
0.0
 14
1100.8166941657969
 24
-3091.8338807187188
 34
0.0
 50
90.0
1001
ACAD
1000
DSTYLE
1002
{
1070
   287
1070
     3
1070
   287
1070
     3
1070
    40
1040
30.0
1070
   143
1040
0.039
1070
   172
1070
     1
1070
   271
1070
     0
1070
   279
1070
     0
1070
   288
1070
     1
1002
}
  0
LINE
  5
7C29
  8
2
 10
66.773020165797789
 20
-2736.8338807187188
 30
0.0
 11
1205.292524165797
 21
-2736.8338807187188
 31
0.0
  0
LINE
  5
7C2B
  8
2
 10
745.81669416579734
 20
-4440.4893147187186
 30
0.0
 11
745.81669416579734
 21
-5797.1591587187204
 31
0.0
  0
DIMENSION
  5
7C3B
  8
3
  2
*D12
 10
3405.2532281657968
 20
-4323.5338187187181
 30
0.0
 11
3185.9675138800831
 21
-4323.5338187187181
 31
0.0
 70
   128
 13
2980.2532281657982
 23
-4500.4203177187192
 33
0.0
 14
3405.2532281657968
 24
-4500.4203177187192
 34
0.0
1001
ACAD
1000
DSTYLE
1002
{
1070
   287
1070
     3
1070
   287
1070
     3
1070
    40
1040
30.0
1070
   143
1040
0.039
1070
   172
1070
     1
1070
   271
1070
     0
1070
   279
1070
     0
1070
   288
1070
     1
1002
}
  0
DIMENSION
  5
7C4A
  8
3
  2
*D13
 10
3192.7532281657968
 20
-5970.1939117187203
 30
0.0
 11
3022.7670438075138
 21
-5906.9656111264203
 31
0.0
 12
0.0
 22
10.0
 32
0.0
 70
   128
 13
2837.7532281657982
 23
-5785.4203177187201
 33
0.0
 14
3192.7532281657968
 24
-5816.0398867187187
 34
0.0
1001
ACAD
1000
DSTYLE
1002
{
1070
   288
1070
     1
1070
   172
1070
     1
1070
    40
1040
30.0
1070
   271
1070
     0
1070
   143
1040
0.039
1002
}
  0
DIMENSION
  5
7C58
  8
3
  2
*D14
 10
3447.7532281657968
 20
-5970.1939117187203
 30
0.0
 11
3320.0922388108111
 21
-5894.664858238677
 31
0.0
 12
0.0
 22
10.0
 32
0.0
 70
   128
 13
3192.7532281657968
 23
-5816.0398867187187
 33
0.0
 14
3447.7532281657968
 24
-5785.4203177187201
 34
0.0
1001
ACAD
1000
DSTYLE
1002
{
1070
   288
1070
     1
1070
   172
1070
     1
1070
    40
1040
30.0
1070
   271
1070
     0
1070
   143
1040
0.039
1002
}
  0
DIMENSION
  5
7C7B
  8
3
  2
*D15
 10
3701.8950675922069
 20
-5180.4203177187192
 30
0.0
 11
3701.8950675922079
 21
-4920.706032004432
 31
0.0
 70
   128
 13
3468.7532281657968
 23
-4620.4203177187192
 33
0.0
 14
3468.7532281657968
 24
-5180.4203177187192
 34
0.0
 50
90.0
1001
ACAD
1000
DSTYLE
1002
{
1070
   287
1070
     3
1070
   287
1070
     3
1070
     3
1000
φ<>
1070
    40
1040
30.0
1070
   143
1040
0.039
1070
   172
1070
     1
1070
   271
1070
     0
1070
   279
1070
     0
1070
   288
1070
     1
1002
}
  0
DIMENSION
  5
7C8A
  8
3
  2
*D16
 10
3192.7532281657968
 20
-4101.3019587629369
 30
0.0
 11
2951.3246567372262
 21
-4101.3019587629369
 31
0.0
 70
   128
  1
MAX\P510
 13
2732.7532281657982
 23
-4736.120317718719
 33
0.0
 14
3192.7532281657968
 24
-4177.0477905314983
 34
0.0
1001
ACAD
1000
DSTYLE
1002
{
1070
   287
1070
     3
1070
   287
1070
     3
1070
    40
1040
30.0
1070
   143
1040
0.039
1070
   172
1070
     1
1070
   271
1070
     0
1070
   279
1070
     0
1070
   288
1070
     1
1002
}
  0
DIMENSION
  5
7C98
  8
3
  2
*D17
 10
3468.7532281657968
 20
-4101.3019587629369
 30
0.0
 11
3324.384067266466
 21
-4022.6516700319548
 31
0.0
 70
   128
 13
3192.7532281657968
 23
-4177.0477905314983
 33
0.0
 14
3468.7532281657968
 24
-4590.4203177187192
 34
0.0
1001
ACAD
1000
DSTYLE
1002
{
1070
   288
1070
     1
1070
   172
1070
     1
1070
    40
1040
30.0
1070
   271
1070
     0
1070
   143
1040
0.039
1002
}
  0
LINE
  5
7CAF
  8
2
 10
2648.7037911657981
 20
-4900.4203177187192
 30
0.0
 11
3504.5025981657982
 21
-4900.4203177187192
 31
0.0
  0
LINE
  5
7CB5
  8
2
 10
3192.7532281657968
 20
-4312.9256187187193
 30
0.0
 11
3192.7532281657968
 21
-5816.0398867187187
 31
0.0
  0
LINE
  5
7CBF
  8
1
 10
-179.1833058342026
 20
-5720.4203177187201
 30
0.0
 11
1100.8166941657969
 21
-5720.4203177187201
 31
0.0
  0
DIMENSION
  5
7D0B
  8
3
  2
*D18
 10
1733.702147687419
 20
-5785.4203177187201
 30
0.0
 11
1658.7021476874199
 21
-6008.2774605758632
 31
0.0
 70
     0
 13
1100.8166941657969
 23
-5720.4203177187201
 33
0.0
 14
1100.8166941657969
 24
-5785.4203177187201
 34
0.0
 50
90.0
1001
ACAD
1000
DSTYLE
1002
{
1070
   287
1070
     3
1070
   287
1070
     3
1070
    40
1040
30.0
1070
   143
1040
0.039
1070
   172
1070
     1
1070
   271
1070
     0
1070
   279
1070
     0
1070
   288
1070
     1
1070
     6
1000
DOT
1002
}
  0
LINE
  5
7D67
  8
3
 10
1118.3166941657969
 20
-5720.4203177187201
 30
0.0
 11
1768.702147687419
 21
-5720.4203177187201
 31
0.0
  0
TEXT
  5
7D6C
  8
3
 10
1902.1886747857859
 20
-5783.0887814027201
 30
0.0
 40
90.0
  1
100
 50
90.0
  0
POINT
  5
7D70
  8
DEFPOINTS
  6
BYBLOCK
 62
     0
 10
1100.8166941657969
 20
-5620.4203177187201
 30
0.0
  0
POINT
  5
7D71
  8
DEFPOINTS
  6
BYBLOCK
 62
     0
 10
1100.8166941657969
 20
-5720.4203177187201
 30
0.0
  0
LINE
  5
7D73
  8
1
 10
2837.7532281657982
 20
-5720.4203177187201
 30
0.0
 11
3447.7532281657968
 21
-5720.4203177187201
 31
0.0
  0
DIMENSION
  5
7FBB
  8
3
  2
*D20
 10
-179.18330583420251
 20
-4156.8782120974975
 30
0.0
 11
458.35057342517752
 21
-4156.8782120974975
 31
0.0
 70
   128
 13
1135.8166941657969
 23
-4890.4203177187192
 33
0.0
 14
-179.1833058342026
 24
-5545.4203177187201
 34
0.0
1001
ACAD
1000
DSTYLE
1002
{
1070
   287
1070
     3
1070
   287
1070
     3
1070
    40
1040
30.0
1070
   143
1040
0.039
1070
   172
1070
     1
1070
   271
1070
     0
1070
   279
1070
     0
1070
   288
1070
     1
1002
}
  0
ENDSEC
  0
EOF
