  0
SECTION
  2
HEADER
  9
$ACADVER
  1
AC1009
  9
$INSBASE
 10
0.0
 20
0.0
 30
0.0
  9
$EXTMIN
 10
750.0
 20
900.0
 30
0.0
  9
$EXTMAX
 10
5550.0
 20
8359.9567845000001
 30
0.0
  9
$LIMMIN
 10
0.0
 20
0.0
  9
$LIMMAX
 10
297.0
 20
210.0
  9
$ORTHOMODE
 70
     0
  9
$REGENMODE
 70
     1
  9
$FILLMODE
 70
     0
  9
$QTEXTMODE
 70
     0
  9
$MIRRTEXT
 70
     1
  9
$DRAGMODE
 70
     2
  9
$LTSCALE
 40
100.0
  9
$OSMODE
 70
    37
  9
$ATTMODE
 70
     1
  9
$TEXTSIZE
 40
180.0
  9
$TRACEWID
 40
0.05
  9
$TEXTSTYLE
  7
STANDARD
  9
$CLAYER
  8
3
  9
$CELTYPE
  6
BYLAYER
  9
$CECOLOR
 62
   256
  9
$DIMSCALE
 40
30.0
  9
$DIMASZ
 40
2.0
  9
$DIMEXO
 40
0.5
  9
$DIMDLI
 40
10.0
  9
$DIMRND
 40
0.0
  9
$DIMDLE
 40
0.0
  9
$DIMEXE
 40
1.0
  9
$DIMTP
 40
1.0
  9
$DIMTM
 40
1.0
  9
$DIMTXT
 40
3.0
  9
$DIMCEN
 40
0.0
  9
$DIMTSZ
 40
0.0
  9
$DIMTOL
 70
     0
  9
$DIMLIM
 70
     0
  9
$DIMTIH
 70
     0
  9
$DIMTOH
 70
     0
  9
$DIMSE1
 70
     0
  9
$DIMSE2
 70
     0
  9
$DIMTAD
 70
     1
  9
$DIMZIN
 70
     8
  9
$DIMBLK
  1

  9
$DIMASO
 70
     1
  9
$DIMSHO
 70
     1
  9
$DIMPOST
  1

  9
$DIMAPOST
  1

  9
$DIMALT
 70
     0
  9
$DIMALTD
 70
     2
  9
$DIMALTF
 40
0.039
  9
$DIMLFAC
 40
1.0
  9
$DIMTOFL
 70
     1
  9
$DIMTVP
 40
0.0
  9
$DIMTIX
 70
     0
  9
$DIMSOXD
 70
     0
  9
$DIMSAH
 70
     1
  9
$DIMBLK1
  1
OPEN
  9
$DIMBLK2
  1
OPEN
  9
$DIMSTYLE
  2
IGA
  9
$DIMCLRD
 70
     0
  9
$DIMCLRE
 70
     0
  9
$DIMCLRT
 70
     0
  9
$DIMTFAC
 40
10.0
  9
$DIMGAP
 40
1.0
  9
$LUNITS
 70
     2
  9
$LUPREC
 70
     3
  9
$SKETCHINC
 40
0.1
  9
$FILLETRAD
 40
50.0
  9
$AUNITS
 70
     0
  9
$AUPREC
 70
     0
  9
$MENU
  1
acad
  9
$ELEVATION
 40
0.0
  9
$PELEVATION
 40
0.0
  9
$THICKNESS
 40
0.0
  9
$LIMCHECK
 70
     0
  9
$BLIPMODE
 70
     0
  9
$CHAMFERA
 40
0.5
  9
$CHAMFERB
 40
0.5
  9
$SKPOLY
 70
     0
  9
$TDCREATE
 40
2450759.585339814
  9
$TDUPDATE
 40
2454953.6827359949
  9
$TDINDWG
 40
0.0126027315
  9
$TDUSRTIMER
 40
0.0126027315
  9
$USRTIMER
 70
     1
  9
$ANGBASE
 50
0.0
  9
$ANGDIR
 70
     0
  9
$PDMODE
 70
     0
  9
$PDSIZE
 40
0.0
  9
$PLINEWID
 40
0.0
  9
$COORDS
 70
     1
  9
$SPLFRAME
 70
     0
  9
$SPLINETYPE
 70
     6
  9
$SPLINESEGS
 70
     8
  9
$ATTDIA
 70
     0
  9
$ATTREQ
 70
     1
  9
$HANDLING
 70
 10241
  9
$HANDSEED
  5
80F8
  9
$SURFTAB1
 70
     6
  9
$SURFTAB2
 70
     6
  9
$SURFTYPE
 70
     6
  9
$SURFU
 70
     6
  9
$SURFV
 70
     6
  9
$UCSNAME
  2

  9
$UCSORG
 10
0.0
 20
0.0
 30
0.0
  9
$UCSXDIR
 10
1.0
 20
0.0
 30
0.0
  9
$UCSYDIR
 10
0.0
 20
1.0
 30
0.0
  9
$PUCSNAME
  2

  9
$PUCSORG
 10
0.0
 20
0.0
 30
0.0
  9
$PUCSXDIR
 10
1.0
 20
0.0
 30
0.0
  9
$PUCSYDIR
 10
0.0
 20
1.0
 30
0.0
  9
$USERI1
 70
     0
  9
$USERI2
 70
     0
  9
$USERI3
 70
     0
  9
$USERI4
 70
     0
  9
$USERI5
 70
     0
  9
$USERR1
 40
0.0
  9
$USERR2
 40
0.0
  9
$USERR3
 40
0.0
  9
$USERR4
 40
0.0
  9
$USERR5
 40
0.0
  9
$WORLDVIEW
 70
     1
  9
$SHADEDGE
 70
     3
  9
$SHADEDIF
 70
    70
  9
$TILEMODE
 70
     1
  9
$MAXACTVP
 70
    16
  9
$PLIMCHECK
 70
     0
  9
$PEXTMIN
 10
1.0000000000000000E+020
 20
1.0000000000000000E+020
 30
1.0000000000000000E+020
  9
$PEXTMAX
 10
-1.0000000000000000E+020
 20
-1.0000000000000000E+020
 30
-1.0000000000000000E+020
  9
$PLIMMIN
 10
0.0
 20
0.0
  9
$PLIMMAX
 10
12.0
 20
9.0
  9
$UNITMODE
 70
     0
  9
$VISRETAIN
 70
     0
  9
$PLINEGEN
 70
     0
  9
$PSLTSCALE
 70
     1
  0
ENDSEC
  0
SECTION
  2
TABLES
  0
TABLE
  2
VPORT
 70
     2
  0
VPORT
  2
*ACTIVE
 70
     0
 10
0.0
 20
0.0
 11
1.0
 21
1.0
 12
16059.15898621343
 22
3184.1120303881862
 13
0.0
 23
0.0
 14
10.0
 24
10.0
 15
10.0
 25
10.0
 16
0.0
 26
0.0
 36
1.0
 17
0.0
 27
0.0
 37
0.0
 40
11046.96167020814
 41
3.1666666666666661
 42
50.0
 43
0.0
 44
0.0
 50
0.0
 51
0.0
 71
     0
 72
   100
 73
     1
 74
     0
 75
     0
 76
     0
 77
     0
 78
     0
  0
ENDTAB
  0
TABLE
  2
LTYPE
 70
     2
  0
LTYPE
  2
CONTINUOUS
 70
     0
  3
Solid line
 72
    65
 73
     0
 40
0.0
  0
LTYPE
  2
CENTER
 70
     0
  3
____ _ ____ _ ____ _ ____ _ ____ _ ____ _ ____ 
 72
    65
 73
     4
 40
2.0
 49
1.25
 49
-0.25
 49
0.25
 49
-0.25
  0
ENDTAB
  0
TABLE
  2
LAYER
 70
     6
  0
LAYER
  2
0
 70
     0
 62
     7
  6
CONTINUOUS
  0
LAYER
  2
3
 70
     0
 62
     2
  6
CONTINUOUS
  0
LAYER
  2
2
 70
     0
 62
     3
  6
CENTER
  0
LAYER
  2
1
 70
     0
 62
     4
  6
CONTINUOUS
  0
LAYER
  2
4
 70
     0
 62
     7
  6
CONTINUOUS
  0
LAYER
  2
DEFPOINTS
 70
     0
 62
    -7
  6
CONTINUOUS
  0
ENDTAB
  0
TABLE
  2
STYLE
 70
     1
  0
STYLE
  2
STANDARD
 70
     0
 40
0.0
 41
1.0
 50
0.0
 71
     0
 42
180.0
  3
simplex.shx
  4
extfont.shx
  0
ENDTAB
  0
TABLE
  2
VIEW
 70
     0
  0
ENDTAB
  0
TABLE
  2
UCS
 70
     0
  0
ENDTAB
  0
TABLE
  2
APPID
 70
     1
  0
APPID
  2
ACAD
 70
     0
  0
ENDTAB
  0
TABLE
  2
DIMSTYLE
 70
     1
  0
DIMSTYLE
  2
IGA
 70
     0
  3

  4

  5

  6
OPEN
  7
OPEN
 40
2.0
 41
2.0
 42
0.5
 43
10.0
 44
1.0
 45
0.0
 46
0.0
 47
1.0
 48
1.0
140
3.0
141
0.0
142
0.0
143
0.03937
144
1.0
145
0.0
146
10.0
147
1.0
 71
     0
 72
     0
 73
     0
 74
     0
 75
     0
 76
     0
 77
     1
 78
     8
170
     0
171
     2
172
     0
173
     1
174
     0
175
     0
176
     0
177
     0
178
     0
  0
ENDTAB
  0
ENDSEC
  0
SECTION
  2
BLOCKS
  0
BLOCK
  8
0
  2
$MODEL_SPACE
 70
     0
 10
0.0
 20
0.0
 30
0.0
  3
$MODEL_SPACE
  1

  0
ENDBLK
  5
1B
  8
0
  0
BLOCK
 67
     1
  8
0
  2
$PAPER_SPACE
 70
     0
 10
0.0
 20
0.0
 30
0.0
  3
$PAPER_SPACE
  1

  0
ENDBLK
  5
18
 67
     1
  8
0
  0
BLOCK
  8
0
  2
_OPEN
 70
     0
 10
0.0
 20
0.0
 30
0.0
  3
_OPEN
  1

  0
LINE
  5
7B39
  8
0
  6
BYBLOCK
 62
     0
 10
-1.0
 20
0.166667
 30
0.0
 11
0.0
 21
0.0
 31
0.0
  0
LINE
  5
7B3A
  8
0
  6
BYBLOCK
 62
     0
 10
0.0
 20
0.0
 30
0.0
 11
-1.0
 21
-0.166667
 31
0.0
  0
LINE
  5
7B3B
  8
0
  6
BYBLOCK
 62
     0
 10
0.0
 20
0.0
 30
0.0
 11
-1.0
 21
0.0
 31
0.0
  0
ENDBLK
  5
7B3C
  8
0
  0
BLOCK
  8
0
  2
*D1
 70
     1
 10
0.0
 20
0.0
 30
0.0
  3
*D1
  1

  0
LINE
  5
7F7D
  8
0
  6
BYBLOCK
 62
     0
 10
1401.755963573685
 20
2657.5395538687799
 30
0.0
 11
1401.755963573685
 21
2433.49427786878
 31
0.0
  0
LINE
  5
7F7E
  8
0
  6
BYBLOCK
 62
     0
 10
1756.755963573685
 20
2610.8866097193759
 30
0.0
 11
1756.755963573685
 21
2433.49427786878
 31
0.0
  0
LINE
  5
7F7F
  8
0
  6
BYBLOCK
 62
     0
 10
1461.755963573685
 20
2463.49427786878
 30
0.0
 11
1696.755963573685
 21
2463.49427786878
 31
0.0
  0
TEXT
  5
7F80
  8
3
 62
     0
 10
1463.541677859399
 20
2496.3024164255112
 30
0.0
 40
90.0
  1
355
  0
INSERT
  5
7F81
  8
0
  6
BYBLOCK
 62
     0
  2
_OPEN
 10
1401.755963573685
 20
2463.49427786878
 30
0.0
 41
60.0
 42
60.0
 43
60.0
 50
180.0
  0
INSERT
  5
7F82
  8
0
  6
BYBLOCK
 62
     0
  2
_OPEN
 10
1756.755963573685
 20
2463.49427786878
 30
0.0
 41
60.0
 42
60.0
 43
60.0
  0
POINT
  5
7F83
  8
DEFPOINTS
  6
BYBLOCK
 62
     0
 10
1401.755963573685
 20
2672.5395538687808
 30
0.0
  0
POINT
  5
7F84
  8
DEFPOINTS
  6
BYBLOCK
 62
     0
 10
1756.755963573685
 20
2625.8866097193759
 30
0.0
  0
POINT
  5
7F85
  8
DEFPOINTS
  6
BYBLOCK
 62
     0
 10
1756.755963573685
 20
2463.49427786878
 30
0.0
  0
ENDBLK
  5
7F86
  8
0
  0
BLOCK
  8
0
  2
*D2
 70
     1
 10
0.0
 20
0.0
 30
0.0
  3
*D2
  1

  0
LINE
  5
807A
  8
3
 62
     0
 10
1756.755963573685
 20
2610.8866097193759
 30
0.0
 11
1756.755963573685
 21
2433.49427786878
 31
0.0
  0
LINE
  5
807B
  8
3
 62
     0
 10
2681.7559635736852
 20
2657.5395538687799
 30
0.0
 11
2681.7559635736852
 21
2433.49427786878
 31
0.0
  0
LINE
  5
807C
  8
3
 62
     0
 10
1816.755963573685
 20
2463.49427786878
 30
0.0
 11
2621.7559635736852
 21
2463.49427786878
 31
0.0
  0
INSERT
  5
807D
  8
3
 62
     0
  2
_OPEN
 10
1756.755963573685
 20
2463.49427786878
 30
0.0
 41
60.0
 42
60.0
 43
60.0
 50
180.0
  0
INSERT
  5
807E
  8
3
 62
     0
  2
_OPEN
 10
2681.7559635736852
 20
2463.49427786878
 30
0.0
 41
60.0
 42
60.0
 43
60.0
  0
TEXT
  8
3
  40
90
  5
80EB
  62
0
  72
0
  71
0
 10
2039.26
 20
2379.19
 30
0.000000
  1
925
  0
POINT
  5
8080
  8
DEFPOINTS
 62
     0
 10
1756.755963573685
 20
2625.8866097193759
 30
0.0
  0
POINT
  5
8081
  8
DEFPOINTS
 62
     0
 10
2681.7559635736852
 20
2672.5395538687808
 30
0.0
  0
POINT
  5
8082
  8
DEFPOINTS
 62
     0
 10
2681.7559635736852
 20
2463.49427786878
 30
0.0
  0
ENDBLK
  5
7F7B
  8
0
  0
BLOCK
  8
0
  2
*D3
 70
     1
 10
0.0
 20
0.0
 30
0.0
  3
*D3
  1

  0
LINE
  5
7F10
  8
0
  6
BYBLOCK
 62
     0
 10
2401.7559635736852
 20
3782.5395538687799
 30
0.0
 11
3010.1912605736852
 21
3782.5395538687799
 31
0.0
  0
LINE
  5
7F11
  8
0
  6
BYBLOCK
 62
     0
 10
2338.0764765736849
 20
3392.5395538687808
 30
0.0
 11
3010.1912605736852
 21
3392.5395538687808
 31
0.0
  0
LINE
  5
7F12
  8
0
  6
BYBLOCK
 62
     0
 10
2980.1912605736852
 20
3722.5395538687799
 30
0.0
 11
2980.1912605736852
 21
3452.5395538687808
 31
0.0
  0
TEXT
  5
7F13
  8
3
 62
     0
 10
2959.1218543809509
 20
3471.825268154495
 30
0.0
 40
90.0
  1
390
 50
90.0
  0
INSERT
  5
7F14
  8
0
  6
BYBLOCK
 62
     0
  2
_OPEN
 10
2980.1912605736852
 20
3782.5395538687799
 30
0.0
 41
60.0
 42
60.0
 43
60.0
 50
90.0
  0
INSERT
  5
7F15
  8
0
  6
BYBLOCK
 62
     0
  2
_OPEN
 10
2980.1912605736852
 20
3392.5395538687808
 30
0.0
 41
60.0
 42
60.0
 43
60.0
 50
270.0
  0
POINT
  5
7F16
  8
DEFPOINTS
  6
BYBLOCK
 62
     0
 10
2386.7559635736852
 20
3782.5395538687799
 30
0.0
  0
POINT
  5
7F17
  8
DEFPOINTS
  6
BYBLOCK
 62
     0
 10
2323.0764765736849
 20
3392.5395538687808
 30
0.0
  0
POINT
  5
7F18
  8
DEFPOINTS
  6
BYBLOCK
 62
     0
 10
2980.1912605736852
 20
3392.5395538687808
 30
0.0
  0
ENDBLK
  5
7F19
  8
0
  0
BLOCK
  8
0
  2
*D4
 70
     1
 10
0.0
 20
0.0
 30
0.0
  3
*D4
  1

  0
LINE
  5
8083
  8
3
 62
     0
 10
2338.0764765736849
 20
3392.5395538687808
 30
0.0
 11
3010.1912605736861
 21
3392.5395538687808
 31
0.0
  0
LINE
  5
8084
  8
3
 62
     0
 10
2696.7559635736852
 20
2837.5395538687808
 30
0.0
 11
3010.1912605736852
 21
2837.5395538687808
 31
0.0
  0
LINE
  5
8085
  8
3
 62
     0
 10
2980.1912605736852
 20
3332.5395538687799
 30
0.0
 11
2980.1912605736852
 21
2897.5395538687808
 31
0.0
  0
INSERT
  5
8086
  8
3
 62
     0
  2
_OPEN
 10
2980.1912605736852
 20
3392.5395538687808
 30
0.0
 41
60.0
 42
60.0
 43
60.0
 50
90.0
  0
INSERT
  5
8087
  8
3
 62
     0
  2
_OPEN
 10
2980.1912605736852
 20
2837.5395538687808
 30
0.0
 41
60.0
 42
60.0
 43
60.0
 50
270.0
  0
TEXT
  8
3
  40
90
  5
80EC
  62
0
  72
0
  71
0
 10
2725.19
 20
2955.74
 30
0.000000
  1
555
  0
POINT
  5
8089
  8
DEFPOINTS
 62
     0
 10
2323.0764765736849
 20
3392.5395538687808
 30
0.0
  0
POINT
  5
808A
  8
DEFPOINTS
 62
     0
 10
2681.7559635736852
 20
2837.5395538687808
 30
0.0
  0
POINT
  5
808B
  8
DEFPOINTS
 62
     0
 10
2980.1912605736852
 20
2837.5395538687808
 30
0.0
  0
ENDBLK
  5
7E39
  8
0
  0
BLOCK
  8
0
  2
*D5
 70
     1
 10
0.0
 20
0.0
 30
0.0
  3
*D5
  1

  0
LINE
  5
808C
  8
3
 62
     0
 10
2401.7559635736852
 20
3782.5395538687799
 30
0.0
 11
3284.831130573687
 21
3782.5395538687799
 31
0.0
  0
LINE
  5
808D
  8
3
 62
     0
 10
2696.7559635736852
 20
2672.5395538687808
 30
0.0
 11
3284.8311305736861
 21
2672.5395538687799
 31
0.0
  0
LINE
  5
808E
  8
3
 62
     0
 10
3254.831130573687
 20
3722.5395538687799
 30
0.0
 11
3254.8311305736861
 21
2732.5395538687799
 31
0.0
  0
INSERT
  5
808F
  8
3
 62
     0
  2
_OPEN
 10
3254.831130573687
 20
3782.5395538687799
 30
0.0
 41
60.0
 42
60.0
 43
60.0
 50
90.0
  0
INSERT
  5
8090
  8
3
 62
     0
  2
_OPEN
 10
3254.8311305736861
 20
2672.5395538687799
 30
0.0
 41
60.0
 42
60.0
 43
60.0
 50
270.0
  0
TEXT
  8
3
  40
90
  5
80ED
  62
0
  72
0
  71
0
 10
2999.83
 20
3127.14
 30
0.000000
  1
1110
  0
POINT
  5
8092
  8
DEFPOINTS
 62
     0
 10
2386.7559635736852
 20
3782.5395538687799
 30
0.0
  0
POINT
  5
8093
  8
DEFPOINTS
 62
     0
 10
2681.7559635736852
 20
2672.5395538687808
 30
0.0
  0
POINT
  5
8094
  8
DEFPOINTS
 62
     0
 10
3254.8311305736861
 20
2672.5395538687799
 30
0.0
  0
ENDBLK
  5
7F70
  8
0
  0
BLOCK
  8
0
  2
*D6
 70
     1
 10
0.0
 20
0.0
 30
0.0
  3
*D6
  1

  0
LINE
  5
8095
  8
3
 62
     0
 10
1776.755963573685
 20
3797.5395538687799
 30
0.0
 11
1776.755963573685
 21
3998.1172038687801
 31
0.0
  0
LINE
  5
8096
  8
3
 62
     0
 10
2356.7559635736852
 20
3797.5395538687799
 30
0.0
 11
2356.7559635736852
 21
3998.1172038687801
 31
0.0
  0
LINE
  5
8097
  8
3
 62
     0
 10
1836.755963573685
 20
3968.1172038687791
 30
0.0
 11
2296.7559635736852
 21
3968.1172038687791
 31
0.0
  0
INSERT
  5
8098
  8
3
 62
     0
  2
_OPEN
 10
1776.755963573685
 20
3968.1172038687791
 30
0.0
 41
60.0
 42
60.0
 43
60.0
 50
180.0
  0
INSERT
  5
8099
  8
3
 62
     0
  2
_OPEN
 10
2356.7559635736852
 20
3968.1172038687791
 30
0.0
 41
60.0
 42
60.0
 43
60.0
  0
TEXT
  8
3
  40
90
  5
80EE
  62
0
  72
0
  71
0
 10
1893.18
 20
3883.82
 30
0.000000
  1
580
  0
POINT
  5
809B
  8
DEFPOINTS
 62
     0
 10
1776.755963573685
 20
3782.5395538687799
 30
0.0
  0
POINT
  5
809C
  8
DEFPOINTS
 62
     0
 10
2356.7559635736852
 20
3782.5395538687799
 30
0.0
  0
POINT
  5
809D
  8
DEFPOINTS
 62
     0
 10
2356.7559635736852
 20
3968.1172038687791
 30
0.0
  0
ENDBLK
  5
7E23
  8
0
  0
BLOCK
  8
0
  2
*D7
 70
     1
 10
0.0
 20
0.0
 30
0.0
  3
*D7
  1

  0
LINE
  5
809E
  8
3
 62
     0
 10
2356.7559635736852
 20
3797.5395538687799
 30
0.0
 11
2356.7559635736852
 21
4198.5647698687799
 31
0.0
  0
LINE
  5
809F
  8
3
 62
     0
 10
1756.755963573685
 20
3739.7251148687801
 30
0.0
 11
1756.755963573685
 21
4198.5647698687799
 31
0.0
  0
LINE
  5
80A0
  8
3
 62
     0
 10
2296.7559635736852
 20
4168.5647698687799
 30
0.0
 11
1816.755963573685
 21
4168.5647698687799
 31
0.0
  0
INSERT
  5
80A1
  8
3
 62
     0
  2
_OPEN
 10
2356.7559635736852
 20
4168.5647698687799
 30
0.0
 41
60.0
 42
60.0
 43
60.0
  0
INSERT
  5
80A2
  8
3
 62
     0
  2
_OPEN
 10
1756.755963573685
 20
4168.5647698687799
 30
0.0
 41
60.0
 42
60.0
 43
60.0
 50
180.0
  0
TEXT
  8
3
  40
90
  5
80EF
  62
0
  72
0
  71
0
 10
1891.74
 20
4084.26
 30
0.000000
  1
600
  0
POINT
  5
80A4
  8
DEFPOINTS
 62
     0
 10
2356.7559635736852
 20
3782.5395538687799
 30
0.0
  0
POINT
  5
80A5
  8
DEFPOINTS
 62
     0
 10
1756.755963573685
 20
3724.7251148687801
 30
0.0
  0
POINT
  5
80A6
  8
DEFPOINTS
 62
     0
 10
1756.755963573685
 20
4168.5647698687799
 30
0.0
  0
ENDBLK
  5
7F58
  8
0
  0
BLOCK
  8
0
  2
*D8
 70
     1
 10
0.0
 20
0.0
 30
0.0
  3
*D8
  1

  0
LINE
  5
7F8C
  8
0
  6
BYBLOCK
 62
     0
 10
1756.755963573685
 20
3739.7251148687801
 30
0.0
 11
1756.755963573685
 21
4198.5647698687799
 31
0.0
  0
LINE
  5
7F8D
  8
0
  6
BYBLOCK
 62
     0
 10
1358.755963573685
 20
3407.5395538687799
 30
0.0
 11
1358.755963573685
 21
4198.5647698687799
 31
0.0
  0
LINE
  5
7F8E
  8
0
  6
BYBLOCK
 62
     0
 10
1696.755963573685
 20
4168.5647698687799
 30
0.0
 11
1418.755963573685
 21
4168.5647698687799
 31
0.0
  0
TEXT
  5
7F8F
  8
3
 62
     0
 10
1442.041677859399
 20
4188.9410883666351
 30
0.0
 40
90.0
  1
400
  0
INSERT
  5
7F90
  8
0
  6
BYBLOCK
 62
     0
  2
_OPEN
 10
1756.755963573685
 20
4168.5647698687799
 30
0.0
 41
60.0
 42
60.0
 43
60.0
  0
INSERT
  5
7F91
  8
0
  6
BYBLOCK
 62
     0
  2
_OPEN
 10
1358.755963573685
 20
4168.5647698687799
 30
0.0
 41
60.0
 42
60.0
 43
60.0
 50
180.0
  0
POINT
  5
7F92
  8
DEFPOINTS
  6
BYBLOCK
 62
     0
 10
1756.755963573685
 20
3724.7251148687801
 30
0.0
  0
POINT
  5
7F93
  8
DEFPOINTS
  6
BYBLOCK
 62
     0
 10
1358.755963573685
 20
3392.5395538687808
 30
0.0
  0
POINT
  5
7F94
  8
DEFPOINTS
  6
BYBLOCK
 62
     0
 10
1358.755963573685
 20
4168.5647698687799
 30
0.0
  0
ENDBLK
  5
7F95
  8
0
  0
BLOCK
  8
0
  2
*D9
 70
     1
 10
0.0
 20
0.0
 30
0.0
  3
*D9
  1

  0
LINE
  5
80A7
  8
3
 62
     0
 10
1401.755963573685
 20
5774.6790758687803
 30
0.0
 11
1401.755963573685
 21
5355.0351238687799
 31
0.0
  0
LINE
  5
80A8
  8
3
 62
     0
 10
2681.7559635736852
 20
5774.6790758687803
 30
0.0
 11
2681.7559635736852
 21
5355.0351238687799
 31
0.0
  0
LINE
  5
80A9
  8
3
 62
     0
 10
1461.755963573685
 20
5385.0351238687808
 30
0.0
 11
2621.7559635736852
 21
5385.0351238687808
 31
0.0
  0
INSERT
  5
80AA
  8
3
 62
     0
  2
_OPEN
 10
1401.755963573685
 20
5385.0351238687808
 30
0.0
 41
60.0
 42
60.0
 43
60.0
 50
180.0
  0
INSERT
  5
80AB
  8
3
 62
     0
  2
_OPEN
 10
2681.7559635736852
 20
5385.0351238687808
 30
0.0
 41
60.0
 42
60.0
 43
60.0
  0
TEXT
  8
3
  40
90
  5
80F0
  62
0
  72
0
  71
0
 10
1856.39
 20
5300.74
 30
0.000000
  1
1280
  0
POINT
  5
80AD
  8
DEFPOINTS
 62
     0
 10
1401.755963573685
 20
5789.6790758687812
 30
0.0
  0
POINT
  5
80AE
  8
DEFPOINTS
 62
     0
 10
2681.7559635736852
 20
5789.6790758687812
 30
0.0
  0
POINT
  5
80AF
  8
DEFPOINTS
 62
     0
 10
2681.7559635736852
 20
5385.0351238687808
 30
0.0
  0
ENDBLK
  5
7E00
  8
0
  0
BLOCK
  8
0
  2
*D10
 70
     1
 10
0.0
 20
0.0
 30
0.0
  3
*D10
  1

  0
LINE
  5
80B0
  8
3
 62
     0
 10
2696.7559635736852
 20
6399.6790758687803
 30
0.0
 11
2991.773666573687
 21
6399.6790758687803
 31
0.0
  0
LINE
  5
80B1
  8
3
 62
     0
 10
2696.7559635736852
 20
5789.6790758687812
 30
0.0
 11
2991.773666573687
 21
5789.6790758687812
 31
0.0
  0
LINE
  5
80B2
  8
3
 62
     0
 10
2961.7736665736861
 20
6339.6790758687803
 30
0.0
 11
2961.7736665736861
 21
5849.6790758687803
 31
0.0
  0
INSERT
  5
80B3
  8
3
 62
     0
  2
_OPEN
 10
2961.7736665736861
 20
6399.6790758687803
 30
0.0
 41
60.0
 42
60.0
 43
60.0
 50
90.0
  0
INSERT
  5
80B4
  8
3
 62
     0
  2
_OPEN
 10
2961.7736665736861
 20
5789.6790758687812
 30
0.0
 41
60.0
 42
60.0
 43
60.0
 50
270.0
  0
TEXT
  8
3
  40
90
  5
80F1
  62
0
  72
0
  71
0
 10
2706.77
 20
5955.16
 30
0.000000
  1
610
  0
POINT
  5
80B6
  8
DEFPOINTS
 62
     0
 10
2681.7559635736852
 20
6399.6790758687803
 30
0.0
  0
POINT
  5
80B7
  8
DEFPOINTS
 62
     0
 10
2681.7559635736852
 20
5789.6790758687812
 30
0.0
  0
POINT
  5
80B8
  8
DEFPOINTS
 62
     0
 10
2961.7736665736861
 20
5789.6790758687812
 30
0.0
  0
ENDBLK
  5
7DF5
  8
0
  0
BLOCK
  8
0
  2
*D11
 70
     1
 10
0.0
 20
0.0
 30
0.0
  3
*D11
  1

  0
LINE
  5
7EFA
  8
0
  6
BYBLOCK
 62
     0
 10
4300.0202469993819
 20
2647.5395538687808
 30
0.0
 11
4300.0202469993819
 21
2426.5909099193268
 31
0.0
  0
LINE
  5
7EFB
  8
0
  6
BYBLOCK
 62
     0
 10
4655.0202469993819
 20
2624.09995886878
 30
0.0
 11
4655.0202469993819
 21
2426.5909099193268
 31
0.0
  0
LINE
  5
7EFC
  8
0
  6
BYBLOCK
 62
     0
 10
4360.0202469993819
 20
2456.5909099193268
 30
0.0
 11
4595.020246999381
 21
2456.5909099193268
 31
0.0
  0
TEXT
  5
7EFD
  8
3
 62
     0
 10
4377.4891814704288
 20
2487.041224907141
 30
0.0
 40
90.0
  1
355
  0
INSERT
  5
7EFE
  8
0
  6
BYBLOCK
 62
     0
  2
_OPEN
 10
4300.0202469993819
 20
2456.5909099193268
 30
0.0
 41
60.0
 42
60.0
 43
60.0
 50
180.0
  0
INSERT
  5
7EFF
  8
0
  6
BYBLOCK
 62
     0
  2
_OPEN
 10
4655.0202469993819
 20
2456.5909099193268
 30
0.0
 41
60.0
 42
60.0
 43
60.0
  0
POINT
  5
7F00
  8
DEFPOINTS
  6
BYBLOCK
 62
     0
 10
4300.0202469993819
 20
2662.5395538687799
 30
0.0
  0
POINT
  5
7F01
  8
DEFPOINTS
  6
BYBLOCK
 62
     0
 10
4655.0202469993819
 20
2639.09995886878
 30
0.0
  0
POINT
  5
7F02
  8
DEFPOINTS
  6
BYBLOCK
 62
     0
 10
4655.0202469993819
 20
2456.5909099193268
 30
0.0
  0
ENDBLK
  5
7F03
  8
0
  0
BLOCK
  8
0
  2
*D12
 70
     1
 10
0.0
 20
0.0
 30
0.0
  3
*D12
  1

  0
LINE
  5
7ED9
  8
0
  6
BYBLOCK
 62
     0
 10
4655.0202469993819
 20
2624.09995886878
 30
0.0
 11
4655.0202469993819
 21
2426.5909099193268
 31
0.0
  0
LINE
  5
7EDA
  8
0
  6
BYBLOCK
 62
     0
 10
4910.0202469993819
 20
2647.5395538687808
 30
0.0
 11
4910.0202469993819
 21
2426.5909099193268
 31
0.0
  0
LINE
  5
7EDB
  8
0
  6
BYBLOCK
 62
     0
 10
4715.0202469993819
 20
2456.5909099193268
 30
0.0
 11
4850.0202469993819
 21
2456.5909099193268
 31
0.0
  0
TEXT
  5
7EDC
  8
3
 62
     0
 10
4667.1768220044796
 20
2481.365755464321
 30
0.0
 40
90.0
  1
255
  0
INSERT
  5
7EDD
  8
0
  6
BYBLOCK
 62
     0
  2
_OPEN
 10
4655.0202469993819
 20
2456.5909099193268
 30
0.0
 41
60.0
 42
60.0
 43
60.0
 50
180.0
  0
INSERT
  5
7EDE
  8
0
  6
BYBLOCK
 62
     0
  2
_OPEN
 10
4910.0202469993819
 20
2456.5909099193268
 30
0.0
 41
60.0
 42
60.0
 43
60.0
  0
POINT
  5
7EDF
  8
DEFPOINTS
  6
BYBLOCK
 62
     0
 10
4655.0202469993819
 20
2639.09995886878
 30
0.0
  0
POINT
  5
7EE0
  8
DEFPOINTS
  6
BYBLOCK
 62
     0
 10
4910.0202469993819
 20
2662.5395538687799
 30
0.0
  0
POINT
  5
7EE1
  8
DEFPOINTS
  6
BYBLOCK
 62
     0
 10
4910.0202469993819
 20
2456.5909099193268
 30
0.0
  0
ENDBLK
  5
7EE2
  8
0
  0
BLOCK
  8
0
  2
*D13
 70
     1
 10
0.0
 20
0.0
 30
0.0
  3
*D13
  1

  0
LINE
  5
80B9
  8
3
 62
     0
 10
4442.520246999381
 20
3797.5395538687799
 30
0.0
 11
4442.520246999381
 21
3949.9018268687801
 31
0.0
  0
LINE
  5
80BA
  8
3
 62
     0
 10
4867.5202469993819
 20
3797.5395538687799
 30
0.0
 11
4867.5202469993819
 21
3949.9018268687801
 31
0.0
  0
LINE
  5
80BB
  8
3
 62
     0
 10
4502.5202469993819
 20
3919.9018268687792
 30
0.0
 11
4807.5202469993819
 21
3919.9018268687792
 31
0.0
  0
INSERT
  5
80BC
  8
3
 62
     0
  2
_OPEN
 10
4442.520246999381
 20
3919.9018268687792
 30
0.0
 41
60.0
 42
60.0
 43
60.0
 50
180.0
  0
INSERT
  5
80BD
  8
3
 62
     0
  2
_OPEN
 10
4867.5202469993819
 20
3919.9018268687792
 30
0.0
 41
60.0
 42
60.0
 43
60.0
  0
TEXT
  8
3
  40
90
  5
80F2
  62
0
  72
0
  71
0
 10
4468.23
 20
3835.60
 30
0.000000
  1
425
  0
POINT
  5
80BF
  8
DEFPOINTS
 62
     0
 10
4442.520246999381
 20
3782.5395538687799
 30
0.0
  0
POINT
  5
80C0
  8
DEFPOINTS
 62
     0
 10
4867.5202469993819
 20
3782.5395538687799
 30
0.0
  0
POINT
  5
80C1
  8
DEFPOINTS
 62
     0
 10
4867.5202469993819
 20
3919.9018268687792
 30
0.0
  0
ENDBLK
  5
7DD1
  8
0
  0
BLOCK
  8
0
  2
*D14
 70
     1
 10
0.0
 20
0.0
 30
0.0
  3
*D14
  1

  0
LINE
  5
80C2
  8
3
 62
     0
 10
4195.0202469993819
 20
3571.8395538687801
 30
0.0
 11
4195.0202469993819
 21
4202.6161198687787
 31
0.0
  0
LINE
  5
80C3
  8
3
 62
     0
 10
4655.0202469993819
 20
4078.4421294504682
 30
0.0
 11
4655.0202469993819
 21
4202.6161198687787
 31
0.0
  0
LINE
  5
80C4
  8
3
 62
     0
 10
4255.020246999381
 20
4172.6161198687796
 30
0.0
 11
4595.020246999381
 21
4172.6161198687796
 31
0.0
  0
INSERT
  5
80C5
  8
3
 62
     0
  2
_OPEN
 10
4195.0202469993819
 20
4172.6161198687796
 30
0.0
 41
60.0
 42
60.0
 43
60.0
 50
180.0
  0
INSERT
  5
80C6
  8
3
 62
     0
  2
_OPEN
 10
4655.0202469993819
 20
4172.6161198687796
 30
0.0
 41
60.0
 42
60.0
 43
60.0
  0
TEXT
  8
3
  40
90
  5
80F3
  62
0
  72
0
  71
0
 10
4233.59
 20
4163.32
 30
0.000000
  1
MAX
  0
TEXT
  8
3
  40
90
  5
80F4
  62
0
  72
0
  71
0
 10
4233.59
 20
4046.32
 30
0.000000
  1
510
  0
POINT
  5
80C8
  8
DEFPOINTS
 62
     0
 10
4195.0202469993819
 20
3556.8395538687801
 30
0.0
  0
POINT
  5
80C9
  8
DEFPOINTS
 62
     0
 10
4655.0202469993819
 20
4063.4421294504682
 30
0.0
  0
POINT
  5
80CA
  8
DEFPOINTS
 62
     0
 10
4655.0202469993819
 20
4172.6161198687796
 30
0.0
  0
ENDBLK
  5
7FB1
  8
0
  0
BLOCK
  8
0
  2
*D15
 70
     1
 10
0.0
 20
0.0
 30
0.0
  3
*D15
  1

  0
LINE
  5
7F27
  8
0
  6
BYBLOCK
 62
     0
 10
4655.0202469993819
 20
4078.4421294504682
 30
0.0
 11
4655.0202469993819
 21
4202.6161198687787
 31
0.0
  0
LINE
  5
7F28
  8
0
  6
BYBLOCK
 62
     0
 10
4931.0202469993819
 20
3717.5395538687799
 30
0.0
 11
4931.0202469993819
 21
4202.6161198687787
 31
0.0
  0
LINE
  5
7F29
  8
0
  6
BYBLOCK
 62
     0
 10
4715.0202469993819
 20
4172.6161198687796
 30
0.0
 11
4871.0202469993819
 21
4172.6161198687796
 31
0.0
  0
TEXT
  5
7F2A
  8
3
 62
     0
 10
4686.3601037550243
 20
4205.9674721393567
 30
0.0
 40
90.0
  1
276
  0
INSERT
  5
7F2B
  8
0
  6
BYBLOCK
 62
     0
  2
_OPEN
 10
4655.0202469993819
 20
4172.6161198687796
 30
0.0
 41
60.0
 42
60.0
 43
60.0
 50
180.0
  0
INSERT
  5
7F2C
  8
0
  6
BYBLOCK
 62
     0
  2
_OPEN
 10
4931.0202469993819
 20
4172.6161198687796
 30
0.0
 41
60.0
 42
60.0
 43
60.0
  0
POINT
  5
7F2D
  8
DEFPOINTS
  6
BYBLOCK
 62
     0
 10
4655.0202469993819
 20
4063.4421294504682
 30
0.0
  0
POINT
  5
7F2E
  8
DEFPOINTS
  6
BYBLOCK
 62
     0
 10
4931.0202469993819
 20
3702.5395538687808
 30
0.0
  0
POINT
  5
7F2F
  8
DEFPOINTS
  6
BYBLOCK
 62
     0
 10
4931.0202469993819
 20
4172.6161198687796
 30
0.0
  0
ENDBLK
  5
7F30
  8
0
  0
BLOCK
  8
0
  2
*D16
 70
     1
 10
0.0
 20
0.0
 30
0.0
  3
*D16
  1

  0
LINE
  5
80CB
  8
3
 62
     0
 10
4946.020246999381
 20
3672.5395538687799
 30
0.0
 11
5223.6404259993824
 21
3672.5395538687799
 31
0.0
  0
LINE
  5
80CC
  8
3
 62
     0
 10
4946.020246999381
 20
3112.5395538687808
 30
0.0
 11
5223.6404259993824
 21
3112.5395538687799
 31
0.0
  0
LINE
  5
80CD
  8
3
 62
     0
 10
5193.6404259993824
 20
3612.5395538687799
 30
0.0
 11
5193.6404259993824
 21
3172.5395538687799
 31
0.0
  0
INSERT
  5
80CE
  8
3
 62
     0
  2
_OPEN
 10
5193.6404259993824
 20
3672.5395538687799
 30
0.0
 41
60.0
 42
60.0
 43
60.0
 50
90.0
  0
INSERT
  5
80CF
  8
3
 62
     0
  2
_OPEN
 10
5193.6404259993824
 20
3112.5395538687799
 30
0.0
 41
60.0
 42
60.0
 43
60.0
 50
270.0
  0
TEXT
  8
3
  40
90
  5
80F5
  62
0
  72
0
  71
0
 10
4938.64
 20
3253.53
 30
0.000000
  1
φ560
  0
POINT
  5
80D1
  8
DEFPOINTS
 62
     0
 10
4931.0202469993819
 20
3672.5395538687799
 30
0.0
  0
POINT
  5
80D2
  8
DEFPOINTS
 62
     0
 10
4931.0202469993819
 20
3112.5395538687808
 30
0.0
  0
POINT
  5
80D3
  8
DEFPOINTS
 62
     0
 10
5193.6404259993824
 20
3112.5395538687799
 30
0.0
  0
ENDBLK
  5
7F24
  8
0
  0
BLOCK
  8
0
  2
*D17
 70
     1
 10
0.0
 20
0.0
 30
0.0
  3
*D17
  1

  0
LINE
  5
80D4
  8
3
 62
     0
 10
2696.7559635736852
 20
2737.5395538687808
 30
0.0
 11
3010.1912605736852
 21
2737.5395538687808
 31
0.0
  0
LINE
  5
80D5
  8
3
 62
     0
 10
2696.7559635736852
 20
2672.5395538687808
 30
0.0
 11
3010.1912605736852
 21
2672.5395538687808
 31
0.0
  0
LINE
  5
80D6
  8
3
 62
     0
 10
2980.1912605736852
 20
2797.5395538687808
 30
0.0
 11
2980.1912605736852
 21
2857.5395538687808
 31
0.0
  0
LINE
  5
80D7
  8
3
 62
     0
 10
2980.1912605736852
 20
2612.5395538687808
 30
0.0
 11
2980.1912605736852
 21
2346.8252681544941
 31
0.0
  0
LINE
  5
80D8
  8
3
 62
     0
 10
2980.1912605736852
 20
2737.5395538687808
 30
0.0
 11
2980.1912605736852
 21
2672.5395538687808
 31
0.0
  0
INSERT
  5
80D9
  8
3
 62
     0
  2
_DOT
 10
2980.1912605736852
 20
2737.5395538687808
 30
0.0
 41
60.0
 42
60.0
 43
60.0
 50
270.0
  0
INSERT
  5
80DA
  8
3
 62
     0
  2
_OPEN
 10
2980.1912605736852
 20
2672.5395538687808
 30
0.0
 41
60.0
 42
60.0
 43
60.0
 50
90.0
  0
TEXT
  8
3
  40
90
  5
80F6
  62
0
  72
0
  71
0
 10
2725.19
 20
2290.38
 30
0.000000
  1
65
  0
POINT
  5
80DC
  8
DEFPOINTS
 62
     0
 10
2681.7559635736852
 20
2737.5395538687808
 30
0.0
  0
POINT
  5
80DD
  8
DEFPOINTS
 62
     0
 10
2681.7559635736852
 20
2672.5395538687808
 30
0.0
  0
POINT
  5
80DE
  8
DEFPOINTS
 62
     0
 10
2980.1912605736852
 20
2672.5395538687808
 30
0.0
  0
ENDBLK
  5
7F65
  8
0
  0
BLOCK
  8
0
  2
_DOT
 70
     0
 10
0.0
 20
0.0
 30
0.0
  3
_DOT
  1

  0
LINE
  5
7F49
  8
0
  6
BYBLOCK
 62
     0
 10
0.0
 20
0.0
 30
0.0
 11
-1.0
 21
-0.0000000000000284
 31
0.0
  0
POLYLINE
  5
7F4A
  8
0
  6
BYBLOCK
 62
     0
 66
     1
 10
0.0
 20
0.0
 30
0.0
 70
     1
 40
0.1666666666666666
 41
0.1666666666666666
  0
VERTEX
  5
80DF
  8
0
  6
BYBLOCK
 62
     0
 10
-0.0833333333333286
 20
-0.0000000000000284
 30
0.0
 42
1.0
  0
VERTEX
  5
80E0
  8
0
  6
BYBLOCK
 62
     0
 10
0.0833333333333286
 20
-0.0000000000000284
 30
0.0
 42
1.0
  0
SEQEND
  5
80E1
  8
0
  6
BYBLOCK
 62
     0
  0
ENDBLK
  5
7D07
  8
0
  0
BLOCK
  8
0
  2
*D19
 70
     1
 10
0.0
 20
0.0
 30
0.0
  3
*D19
  1

  0
LINE
  5
80E2
  8
3
 62
     0
 10
1356.755963573685
 20
3365.5395538687799
 30
0.0
 11
1356.755963573685
 21
4377.1182569929333
 31
0.0
  0
LINE
  5
80E3
  8
3
 62
     0
 10
2681.7559635736852
 20
2927.5395538687808
 30
0.0
 11
2681.7559635736852
 21
4377.1182569929333
 31
0.0
  0
LINE
  5
80E4
  8
3
 62
     0
 10
1416.755963573685
 20
4347.1182569929333
 30
0.0
 11
2621.7559635736852
 21
4347.1182569929333
 31
0.0
  0
INSERT
  5
80E5
  8
3
 62
     0
  2
_OPEN
 10
1356.755963573685
 20
4347.1182569929333
 30
0.0
 41
60.0
 42
60.0
 43
60.0
 50
180.0
  0
INSERT
  5
80E6
  8
3
 62
     0
  2
_OPEN
 10
2681.7559635736852
 20
4347.1182569929333
 30
0.0
 41
60.0
 42
60.0
 43
60.0
  0
TEXT
  8
3
  40
90
  5
80F7
  62
0
  72
0
  71
0
 10
1875.91
 20
4262.82
 30
0.000000
  1
1325
  0
POINT
  5
80E8
  8
DEFPOINTS
 62
     0
 10
1356.755963573685
 20
3350.5395538687799
 30
0.0
  0
POINT
  5
80E9
  8
DEFPOINTS
 62
     0
 10
2681.7559635736852
 20
2912.5395538687799
 30
0.0
  0
POINT
  5
80EA
  8
DEFPOINTS
 62
     0
 10
2681.7559635736852
 20
4347.1182569929333
 30
0.0
  0
ENDBLK
  5
7FA5
  8
0
  0
ENDSEC
  0
SECTION
  2
ENTITIES
  0
LINE
  5
7A90
  8
1
 10
2681.7559635736852
 20
2737.5395538687808
 30
0.0
 11
1401.755963573685
 21
2737.5395538687808
 31
0.0
  0
LINE
  5
7A91
  8
1
 10
2681.7559635736852
 20
2672.5395538687808
 30
0.0
 11
1401.755963573685
 21
2672.5395538687808
 31
0.0
  0
LINE
  5
7A92
  8
1
 10
2502.1604375736852
 20
3194.43437686878
 30
0.0
 11
1802.1604375736849
 21
3497.43437686878
 31
0.0
  0
LINE
  5
7A93
  8
1
 10
2522.0224115736851
 20
3240.32012586878
 30
0.0
 11
1822.0224115736851
 21
3543.32012586878
 31
0.0
  0
ARC
  5
7A94
  8
1
 10
2456.7559635736852
 20
3089.5395538687799
 30
0.0
 40
164.30000000000001
 50
246.59428199999999
 51
66.594281999999993
  0
LINE
  5
7A95
  8
1
 10
2681.7559635736852
 20
2837.5395538687808
 30
0.0
 11
1401.755963573685
 21
2837.5395538687808
 31
0.0
  0
ARC
  5
7A96
  8
1
 10
2456.7559635736852
 20
3089.5395538687799
 30
0.0
 40
143.0
 50
324.34590999999989
 51
215.65408999999991
  0
LINE
  5
7A97
  8
1
 10
2681.7559635736852
 20
2912.5395538687799
 30
0.0
 11
1401.755963573685
 21
2912.5395538687799
 31
0.0
  0
CIRCLE
  5
7A98
  8
1
 10
2456.7559635736852
 20
3089.5395538687799
 30
0.0
 40
114.3
  0
LINE
  5
7A99
  8
2
 10
2576.0559635736849
 20
3089.5395538687799
 30
0.0
 11
2337.4559635736859
 21
3089.5395538687799
 31
0.0
  0
LINE
  5
7A9A
  8
1
 10
2411.3514905736852
 20
2984.6447308687798
 30
0.0
 11
1711.351490573684
 21
3287.6447308687798
 31
0.0
  0
LINE
  5
7A9B
  8
1
 10
2391.4895165736848
 20
2938.7589818687802
 30
0.0
 11
1691.489516573685
 21
3241.7589818687802
 31
0.0
  0
ARC
  5
7A9C
  8
1
 10
1798.755963573685
 20
3434.5395538687808
 30
0.0
 40
526.0
 50
277.07050400000003
 51
355.42017599999991
  0
ARC
  5
7A9D
  8
1
 10
1798.755963573685
 20
3350.5395538687799
 30
0.0
 40
442.0
 50
174.54737800000001
 51
262.28591299999999
  0
CIRCLE
  5
7A9E
  8
1
 10
1756.755963573685
 20
3392.5395538687808
 30
0.0
 40
280.0
  0
CIRCLE
  5
7A9F
  8
1
 10
1756.755963573685
 20
3392.5395538687808
 30
0.0
 40
310.0
  0
LINE
  5
7AA0
  8
2
 10
2456.7559635736852
 20
2970.2395538687811
 30
0.0
 11
2456.7559635736852
 21
3208.8395538687791
 31
0.0
  0
LINE
  5
7AA1
  8
1
 10
1401.755963573685
 20
2737.5395538687808
 30
0.0
 11
1401.755963573685
 21
2672.5395538687808
 31
0.0
  0
LINE
  5
7AA2
  8
1
 10
1401.755963573685
 20
2912.5395538687799
 30
0.0
 11
1401.755963573685
 21
2837.5395538687808
 31
0.0
  0
LINE
  5
7AA3
  8
1
 10
2326.7559635736852
 20
2972.5395538687808
 30
0.0
 11
2340.7852415736852
 21
3006.7322988687811
 31
0.0
  0
LINE
  5
7AA4
  8
1
 10
2326.7559635736852
 20
2957.5395538687799
 30
0.0
 11
2326.7559635736852
 21
2972.5395538687808
 31
0.0
  0
LINE
  5
7AA5
  8
1
 10
2281.7559635736852
 20
2912.5395538687799
 30
0.0
 11
2291.7559635736852
 21
2957.5395538687799
 31
0.0
  0
LINE
  5
7AA6
  8
1
 10
2326.7559635736852
 20
2957.5395538687799
 30
0.0
 11
2291.7559635736852
 21
2957.5395538687799
 31
0.0
  0
ARC
  5
7AA7
  8
1
 10
1756.755963573685
 20
3392.5395538687808
 30
0.0
 40
164.30000000000001
 50
66.594281999999993
 51
246.59428199999999
  0
ARC
  5
7AA8
  8
1
 10
1723.755963573685
 20
3359.5395538687808
 30
0.0
 40
367.0
 50
84.841095999999993
 51
174.84109599999999
  0
CIRCLE
  5
7AA9
  8
1
 10
1756.755963573685
 20
3392.5395538687808
 30
0.0
 40
114.3
  0
LINE
  5
7AAA
  8
2
 10
1180.4012965736849
 20
3392.5395538687808
 30
0.0
 11
2420.6391625736851
 21
3392.5395538687808
 31
0.0
  0
LINE
  5
7AAB
  8
1
 10
2323.0764765736849
 20
3392.5395538687808
 30
0.0
 11
2356.7559635736852
 21
3782.5395538687799
 31
0.0
  0
LINE
  5
7AAC
  8
2
 10
1756.755963573685
 20
2629.6496847379999
 30
0.0
 11
1756.755963573685
 21
3881.3565898687798
 31
0.0
  0
LINE
  5
7AAD
  8
1
 10
1921.0559635736849
 20
3392.5395538687808
 30
0.0
 11
1921.0559635736849
 21
3392.5395538687808
 31
0.0
  0
LINE
  5
7AAE
  8
1
 10
2386.7559635736852
 20
3782.5395538687799
 30
0.0
 11
1746.755963573685
 21
3782.5395538687799
 31
0.0
  0
LINE
  5
7AAF
  8
1
 10
2354.1652345736852
 20
3752.5395538687808
 30
0.0
 11
1776.755963573685
 21
3752.5395538687808
 31
0.0
  0
ARC
  5
7AB0
  8
1
 10
1723.755963573685
 20
3425.5395538687799
 30
0.0
 40
301.0
 50
79.858502000000001
 51
83.705749999999995
  0
LINE
  5
7AB1
  8
1
 10
1776.755963573685
 20
3721.8367018687809
 30
0.0
 11
1776.755963573685
 21
3782.5395538687799
 31
0.0
  0
LINE
  5
7AB2
  8
1
 10
2681.7559635736852
 20
2737.5395538687808
 30
0.0
 11
2681.7559635736852
 21
2672.5395538687808
 31
0.0
  0
LINE
  5
7AB3
  8
1
 10
2681.7559635736852
 20
2912.5395538687799
 30
0.0
 11
2681.7559635736852
 21
2837.5395538687808
 31
0.0
  0
LINE
  5
7AB4
  8
1
 10
2621.7559635736852
 20
2957.5395538687799
 30
0.0
 11
2586.7559635736852
 21
2957.5395538687799
 31
0.0
  0
LINE
  5
7AB5
  8
1
 10
2586.7559635736852
 20
2957.5395538687799
 30
0.0
 11
2586.7559635736852
 21
2972.5395538687808
 31
0.0
  0
LINE
  5
7AB6
  8
1
 10
2586.7559635736852
 20
2972.5395538687808
 30
0.0
 11
2572.7266865736851
 21
3006.7322988687811
 31
0.0
  0
LINE
  5
7AB7
  8
1
 10
2621.7559635736852
 20
2957.5395538687799
 30
0.0
 11
2631.7559635736852
 21
2912.5395538687799
 31
0.0
  0
LINE
  5
7AB8
  8
1
 10
2681.7559635736852
 20
5789.6790758687812
 30
0.0
 11
2475.7559635736852
 21
5789.6790758687812
 31
0.0
  0
LINE
  5
7AB9
  8
1
 10
2681.7559635736852
 20
6399.6790758687803
 30
0.0
 11
2036.755963573685
 21
6399.6790758687803
 31
0.0
  0
LINE
  5
7ABA
  8
1
 10
2599.7559635736852
 20
6168.6790758687803
 30
0.0
 11
2356.7559635736852
 21
6168.6790758687803
 31
0.0
  0
LINE
  5
7ABB
  8
1
 10
2313.7559635736852
 20
5799.6790758687803
 30
0.0
 11
2599.7559635736852
 21
5799.6790758687803
 31
0.0
  0
LINE
  5
7ABC
  8
1
 10
2571.0559635736849
 20
5762.6790758687803
 30
0.0
 11
2342.455963573685
 21
5762.6790758687803
 31
0.0
  0
LINE
  5
7ABD
  8
1
 10
2571.0559635736849
 20
5699.6790758687803
 30
0.0
 11
2342.455963573685
 21
5699.6790758687803
 31
0.0
  0
LINE
  5
7ABE
  8
1
 10
2621.0559635736849
 20
5684.6790758687803
 30
0.0
 11
1592.455963573685
 21
5684.6790758687803
 31
0.0
  0
LINE
  5
7ABF
  8
1
 10
2621.0559635736849
 20
5779.6790758687812
 30
0.0
 11
1592.455963573685
 21
5779.6790758687812
 31
0.0
  0
LINE
  5
7AC0
  8
1
 10
2356.7559635736852
 20
6357.1790758687803
 30
0.0
 11
1356.755963573685
 21
6357.1790758687803
 31
0.0
  0
LINE
  5
7AC1
  8
1
 10
2356.7559635736852
 20
5932.1790758687812
 30
0.0
 11
1356.755963573685
 21
5932.1790758687812
 31
0.0
  0
LINE
  5
7AC2
  8
1
 10
2066.7559635736852
 20
6420.6790758687803
 30
0.0
 11
1446.755963573685
 21
6420.6790758687803
 31
0.0
  0
LINE
  5
7AC3
  8
1
 10
1736.755963573685
 20
5789.6790758687812
 30
0.0
 11
1401.755963573685
 21
5789.6790758687812
 31
0.0
  0
LINE
  5
7AC4
  8
1
 10
1871.0559635736849
 20
5762.6790758687803
 30
0.0
 11
1642.455963573685
 21
5762.6790758687803
 31
0.0
  0
LINE
  5
7AC5
  8
1
 10
1871.0559635736849
 20
5699.6790758687803
 30
0.0
 11
1642.455963573685
 21
5699.6790758687803
 31
0.0
  0
LINE
  5
7AC6
  8
1
 10
1356.755963573685
 20
5932.1790758687812
 30
0.0
 11
1356.755963573685
 21
6357.1790758687803
 31
0.0
  0
LINE
  5
7AC7
  8
1
 10
1401.755963573685
 20
5789.6790758687812
 30
0.0
 11
1401.755963573685
 21
5932.1790758687812
 31
0.0
  0
LINE
  5
7AC8
  8
1
 10
1642.455963573685
 20
5699.6790758687803
 30
0.0
 11
1642.455963573685
 21
5762.6790758687803
 31
0.0
  0
LINE
  5
7AC9
  8
1
 10
1592.455963573685
 20
5684.6790758687803
 30
0.0
 11
1592.455963573685
 21
5779.6790758687812
 31
0.0
  0
LINE
  5
7ACA
  8
1
 10
1401.755963573685
 20
6357.1790758687803
 30
0.0
 11
1401.755963573685
 21
6399.6790758687803
 31
0.0
  0
LINE
  5
7ACB
  8
1
 10
1476.755963573685
 20
6357.1790758687803
 30
0.0
 11
1476.755963573685
 21
6420.6790758687803
 31
0.0
  0
LINE
  5
7ACC
  8
1
 10
1476.755963573685
 20
6399.6790758687803
 30
0.0
 11
1401.755963573685
 21
6399.6790758687803
 31
0.0
  0
LINE
  5
7ACD
  8
1
 10
2356.7559635736852
 20
5932.1790758687812
 30
0.0
 11
1776.755963573685
 21
6357.1790758687803
 31
0.0
  0
LINE
  5
7ACE
  8
1
 10
2356.7559635736852
 20
6357.1790758687803
 30
0.0
 11
1776.755963573685
 21
5932.1790758687812
 31
0.0
  0
LINE
  5
7ACF
  8
1
 10
1776.755963573685
 20
5932.1790758687812
 30
0.0
 11
1776.755963573685
 21
6357.1790758687803
 31
0.0
  0
LINE
  5
7AD0
  8
1
 10
2356.7559635736852
 20
5932.1790758687812
 30
0.0
 11
2356.7559635736852
 21
6357.1790758687803
 31
0.0
  0
LINE
  5
7AD1
  8
1
 10
2437.7559635736852
 20
5789.6790758687812
 30
0.0
 11
1776.755963573685
 21
5789.6790758687812
 31
0.0
  0
LINE
  5
7AD2
  8
1
 10
1736.755963573685
 20
5762.6790758687803
 30
0.0
 11
1736.755963573685
 21
5932.1790758687812
 31
0.0
  0
LINE
  5
7AD3
  8
1
 10
1776.755963573685
 20
5762.6790758687803
 30
0.0
 11
1776.755963573685
 21
5932.1790758687812
 31
0.0
  0
LINE
  5
7AD4
  8
1
 10
1871.0559635736849
 20
5699.6790758687803
 30
0.0
 11
1871.0559635736849
 21
5762.6790758687803
 31
0.0
  0
LINE
  5
7AD5
  8
1
 10
2437.7559635736852
 20
5762.6790758687803
 30
0.0
 11
2437.7559635736852
 21
5799.6790758687803
 31
0.0
  0
LINE
  5
7AD6
  8
1
 10
2475.7559635736852
 20
5762.6790758687803
 30
0.0
 11
2475.7559635736852
 21
5799.6790758687803
 31
0.0
  0
LINE
  5
7AD7
  8
1
 10
2313.7559635736852
 20
5799.6790758687803
 30
0.0
 11
2313.7559635736852
 21
5932.1790758687812
 31
0.0
  0
LINE
  5
7AD8
  8
1
 10
2342.455963573685
 20
5699.6790758687803
 30
0.0
 11
2342.455963573685
 21
5762.6790758687803
 31
0.0
  0
LINE
  5
7AD9
  8
1
 10
2036.755963573685
 20
6357.1790758687803
 30
0.0
 11
2036.755963573685
 21
6420.6790758687803
 31
0.0
  0
LINE
  5
7ADA
  8
1
 10
2681.7559635736852
 20
5789.6790758687812
 30
0.0
 11
2681.7559635736852
 21
6399.6790758687803
 31
0.0
  0
LINE
  5
7ADB
  8
1
 10
2599.7559635736852
 20
5799.6790758687803
 30
0.0
 11
2599.7559635736852
 21
6168.6790758687803
 31
0.0
  0
LINE
  5
7ADC
  8
1
 10
2571.0559635736849
 20
5699.6790758687803
 30
0.0
 11
2571.0559635736849
 21
5762.6790758687803
 31
0.0
  0
LINE
  5
7ADD
  8
1
 10
2621.0559635736849
 20
5684.6790758687803
 30
0.0
 11
2621.0559635736849
 21
5779.6790758687812
 31
0.0
  0
LINE
  5
7ADE
  8
1
 10
4310.020246999381
 20
3232.5395538687808
 30
0.0
 11
4310.020246999381
 21
2912.5395538687799
 31
0.0
  0
LINE
  5
7ADF
  8
1
 10
4290.0202469993819
 20
3556.8395538687801
 30
0.0
 11
4290.0202469993819
 21
2925.2395538687811
 31
0.0
  0
LINE
  5
7AE0
  8
1
 10
4195.0202469993819
 20
3556.8395538687801
 30
0.0
 11
4195.0202469993819
 21
2925.2395538687811
 31
0.0
  0
LINE
  5
7AE1
  8
1
 10
4931.0202469993819
 20
3702.5395538687808
 30
0.0
 11
4931.0202469993819
 21
3082.5395538687799
 31
0.0
  0
LINE
  5
7AE2
  8
1
 10
4442.520246999381
 20
3782.5395538687799
 30
0.0
 11
4442.520246999381
 21
2912.5395538687799
 31
0.0
  0
LINE
  5
7AE3
  8
1
 10
4867.5202469993819
 20
3782.5395538687799
 30
0.0
 11
4867.5202469993819
 21
2912.5395538687799
 31
0.0
  0
LINE
  5
7AE4
  8
1
 10
4273.0202469993819
 20
3203.8395538687801
 30
0.0
 11
4273.0202469993819
 21
2975.2395538687801
 31
0.0
  0
LINE
  5
7AE5
  8
1
 10
4210.020246999381
 20
3203.8395538687801
 30
0.0
 11
4210.020246999381
 21
2975.2395538687801
 31
0.0
  0
LINE
  5
7AE6
  8
1
 10
4300.0202469993819
 20
2737.5395538687808
 30
0.0
 11
4910.0202469993819
 21
2737.5395538687808
 31
0.0
  0
LINE
  5
7AE7
  8
1
 10
4300.0202469993819
 20
2672.5395538687808
 30
0.0
 11
4910.0202469993819
 21
2672.5395538687808
 31
0.0
  0
LINE
  5
7AE8
  8
1
 10
4300.0202469993819
 20
2912.5395538687799
 30
0.0
 11
4910.0202469993819
 21
2912.5395538687799
 31
0.0
  0
LINE
  5
7AE9
  8
1
 10
4300.0202469993819
 20
2837.5395538687808
 30
0.0
 11
4910.0202469993819
 21
2837.5395538687808
 31
0.0
  0
LINE
  5
7AEB
  8
1
 10
4300.0202469993819
 20
2737.5395538687808
 30
0.0
 11
4300.0202469993819
 21
2672.5395538687808
 31
0.0
  0
LINE
  5
7AEC
  8
1
 10
4273.0202469993819
 20
3070.5395538687808
 30
0.0
 11
4310.020246999381
 21
3070.5395538687808
 31
0.0
  0
LINE
  5
7AED
  8
1
 10
4273.0202469993819
 20
3108.5395538687808
 30
0.0
 11
4310.020246999381
 21
3108.5395538687808
 31
0.0
  0
LINE
  5
7AEE
  8
1
 10
4210.020246999381
 20
2975.2395538687801
 30
0.0
 11
4273.0202469993819
 21
2975.2395538687801
 31
0.0
  0
LINE
  5
7AEF
  8
1
 10
4310.020246999381
 20
2957.5395538687799
 30
0.0
 11
4442.520246999381
 21
2957.5395538687799
 31
0.0
  0
LINE
  5
7AF0
  8
1
 10
4195.0202469993819
 20
2925.2395538687811
 30
0.0
 11
4290.0202469993819
 21
2925.2395538687811
 31
0.0
  0
LINE
  5
7AF1
  8
1
 10
4300.0202469993819
 20
2912.5395538687799
 30
0.0
 11
4300.0202469993819
 21
2837.5395538687808
 31
0.0
  0
LINE
  5
7AF2
  8
1
 10
4867.5202469993819
 20
3112.5395538687808
 30
0.0
 11
4931.0202469993819
 21
3112.5395538687808
 31
0.0
  0
LINE
  5
7AF3
  8
1
 10
4910.0202469993819
 20
2737.5395538687808
 30
0.0
 11
4910.0202469993819
 21
2672.5395538687808
 31
0.0
  0
LINE
  5
7AF4
  8
1
 10
4910.0202469993819
 20
2912.5395538687799
 30
0.0
 11
4910.0202469993819
 21
2837.5395538687808
 31
0.0
  0
LINE
  5
7AF5
  8
1
 10
4412.5202469993819
 20
3782.5395538687799
 30
0.0
 11
4897.520246999381
 21
3782.5395538687799
 31
0.0
  0
LINE
  5
7AF6
  8
1
 10
4442.520246999381
 20
3752.5395538687808
 30
0.0
 11
4867.5202469993819
 21
3752.5395538687808
 31
0.0
  0
LINE
  5
7AF7
  8
1
 10
4310.020246999381
 20
3232.5395538687808
 30
0.0
 11
4442.520246999381
 21
3232.5395538687808
 31
0.0
  0
LINE
  5
7AF8
  8
1
 10
4195.0202469993819
 20
3556.8395538687801
 30
0.0
 11
4290.0202469993819
 21
3556.8395538687801
 31
0.0
  0
LINE
  5
7AF9
  8
1
 10
4273.0202469993819
 20
3506.8395538687801
 30
0.0
 11
4273.0202469993819
 21
3278.2395538687811
 31
0.0
  0
LINE
  5
7AFA
  8
1
 10
4210.020246999381
 20
3278.2395538687811
 30
0.0
 11
4273.0202469993819
 21
3278.2395538687811
 31
0.0
  0
LINE
  5
7AFB
  8
1
 10
4210.020246999381
 20
3506.8395538687801
 30
0.0
 11
4273.0202469993819
 21
3506.8395538687801
 31
0.0
  0
LINE
  5
7AFC
  8
1
 10
4210.020246999381
 20
3506.8395538687801
 30
0.0
 11
4210.020246999381
 21
3278.2395538687811
 31
0.0
  0
LINE
  5
7AFD
  8
1
 10
4273.0202469993819
 20
3372.5395538687799
 30
0.0
 11
4442.520246999381
 21
3372.5395538687799
 31
0.0
  0
LINE
  5
7AFE
  8
1
 10
4273.0202469993819
 20
3412.5395538687808
 30
0.0
 11
4442.520246999381
 21
3412.5395538687808
 31
0.0
  0
LINE
  5
7AFF
  8
1
 10
4210.020246999381
 20
3203.8395538687801
 30
0.0
 11
4273.0202469993819
 21
3203.8395538687801
 31
0.0
  0
LINE
  5
7B00
  8
1
 10
4867.5202469993819
 20
3672.5395538687799
 30
0.0
 11
4931.0202469993819
 21
3672.5395538687799
 31
0.0
  0
LINE
  5
7B18
  8
4
 10
5550.0
 20
1500.0
 30
0.0
 11
5550.0
 21
900.0
 31
0.0
  0
LINE
  5
7B19
  8
4
 10
3450.0
 20
1500.0
 30
0.0
 11
3450.0
 21
900.0
 31
0.0
  0
LINE
  5
7B1A
  8
4
 10
1950.0
 20
1500.0
 30
0.0
 11
1950.0
 21
900.0
 31
0.0
  0
LINE
  5
7B1D
  8
4
 10
1950.0
 20
900.0
 30
0.0
 11
5550.0
 21
900.0
 31
0.0
  0
LINE
  5
7B1E
  8
4
 10
1950.0
 20
1200.0
 30
0.0
 11
5550.0
 21
1200.0
 31
0.0
  0
TEXT
  5
7B1F
  8
4
 10
2065.50624225
 20
1294.6290779999999
 30
0.0
 40
150.0
  1
機器名称
  0
TEXT
  5
7B20
  8
4
 10
2058.7743179999989
 20
964.93547024999998
 30
0.0
 40
150.0
  1
機器型番
  0
TEXT
  5
7B21
  8
4
 10
3533.0362365000001
 20
1267.715306249999
 30
0.0
 40
120.0
  1
ミツヤリミットロードファン
  0
TEXT
  5
7B22
  8
4
 10
3559.9634872500001
 20
951.4787527499999
 30
0.0
 40
150.0
  1
LLE#3 1/2-4
  0
TEXT
  5
7B24
  8
4
 10
2356.1912805000002
 20
7150.2865245000012
 30
0.0
 40
162.0
  1
床置防振ベット
  0
TEXT
  5
7B25
  8
4
 10
948.50278049999986
 20
7601.6429287499996
 30
0.0
 40
180.0
  1
ベルト駆動式片吸込両持排煙ファン
  0
LINE
  5
7B26
  8
4
 10
750.0
 20
7408.2262627500004
 30
0.0
 11
5550.0
 21
7408.2262627500004
 31
0.0
  0
LINE
  5
7B27
  8
4
 10
750.0
 20
8008.2262627500004
 30
0.0
 11
5550.0
 21
8008.2262627500004
 31
0.0
  0
LINE
  5
7B28
  8
4
 10
1950.0
 20
1500.0
 30
0.0
 11
5550.0
 21
1500.0
 31
0.0
  0
LINE
  5
7B29
  8
4
 10
750.0
 20
8008.2262627500004
 30
0.0
 11
750.0
 21
7408.2262627500004
 31
0.0
  0
TEXT
  5
7B2A
  8
4
 10
1048.61478375
 20
7146.9584324999987
 30
0.0
 40
162.0
  1
左回転上向
  0
TEXT
  5
7B2B
  8
4
 10
4406.9086777499988
 20
8118.1832445
 30
0.0
 40
168.0
  1
No.
  0
TEXT
  5
7B2C
  8
4
 10
4096.690903499999
 20
7150.2865245000012
 30
0.0
 40
162.0
  1
縮尺：1/30
  0
LINE
  5
7B2D
  8
4
 10
5550.0
 20
8008.2262627500004
 30
0.0
 11
5550.0
 21
7408.2262627500004
 31
0.0
  0
LINE
  5
7B2E
  8
4
 10
5512.5
 20
7743.75
 30
0.0
 11
5512.5
 21
7743.75
 31
0.0
  0
LINE
  5
7B2F
  8
4
 10
4321.8522667500001
 20
8043.79074975
 30
0.0
 11
4321.8522667500001
 21
8359.9567845000001
 31
0.0
  0
LINE
  5
7B30
  8
4
 10
4321.8522667500001
 20
8359.9567845000001
 30
0.0
 11
5550.0
 21
8359.9567845000001
 31
0.0
  0
LINE
  5
7B31
  8
4
 10
5550.0
 20
8359.9567845000001
 30
0.0
 11
5550.0
 21
8043.79074975
 31
0.0
  0
LINE
  5
7B32
  8
4
 10
5550.0
 20
8043.79074975
 30
0.0
 11
4321.8522667500001
 21
8043.79074975
 31
0.0
  0
DIMENSION
  5
7B4B
  8
3
  2
*D1
 10
1756.755963573685
 20
2463.49427786878
 30
0.0
 11
1579.255963573685
 21
2541.3024164255112
 31
0.0
 70
   128
 13
1401.755963573685
 23
2672.5395538687808
 33
0.0
 14
1756.755963573685
 24
2625.8866097193759
 34
0.0
1001
ACAD
1000
DSTYLE
1002
{
1070
   288
1070
     1
1070
   172
1070
     1
1070
    40
1040
30.0
1070
   271
1070
     0
1070
   143
1040
0.039
1002
}
  0
DIMENSION
  5
7B57
  8
3
  2
*D2
 10
2681.7559635736852
 20
2463.49427786878
 30
0.0
 11
2219.2559635736852
 21
2538.49427786878
 31
0.0
 70
     0
 13
1756.755963573685
 23
2625.8866097193759
 33
0.0
 14
2681.7559635736852
 24
2672.5395538687808
 34
0.0
1001
ACAD
1000
DSTYLE
1002
{
1070
   287
1070
     3
1070
   287
1070
     3
1070
    40
1040
30.0
1070
   143
1040
0.039
1070
   172
1070
     1
1070
   271
1070
     0
1070
   279
1070
     0
1070
   288
1070
     1
1002
}
  0
DIMENSION
  5
7B66
  8
3
  2
*D3
 10
2980.1912605736852
 20
3392.5395538687808
 30
0.0
 11
2914.1218543809509
 21
3587.5395538687808
 31
0.0
 70
   128
 13
2386.7559635736852
 23
3782.5395538687799
 33
0.0
 14
2323.0764765736849
 24
3392.5395538687808
 34
0.0
 50
90.0
1001
ACAD
1000
DSTYLE
1002
{
1070
   288
1070
     1
1070
   172
1070
     1
1070
    40
1040
30.0
1070
   271
1070
     0
1070
   143
1040
0.039
1002
}
  0
DIMENSION
  5
7B7E
  8
3
  2
*D4
 10
2980.1912605736852
 20
2837.5395538687808
 30
0.0
 11
2905.1912605736852
 21
3115.0395538687808
 31
0.0
 70
     0
 13
2323.0764765736849
 23
3392.5395538687808
 33
0.0
 14
2681.7559635736852
 24
2837.5395538687808
 34
0.0
 50
90.0
1001
ACAD
1000
DSTYLE
1002
{
1070
   287
1070
     3
1070
   287
1070
     3
1070
    40
1040
30.0
1070
   143
1040
0.039
1070
   172
1070
     1
1070
   271
1070
     0
1070
   279
1070
     0
1070
   288
1070
     1
1002
}
  0
DIMENSION
  5
7BB5
  8
3
  2
*D5
 10
3254.8311305736861
 20
2672.5395538687799
 30
0.0
 11
3254.8311305736861
 21
3286.4414728687798
 31
0.0
 70
   128
 13
2386.7559635736852
 23
3782.5395538687799
 33
0.0
 14
2681.7559635736852
 24
2672.5395538687808
 34
0.0
 50
90.0
1001
ACAD
1000
DSTYLE
1002
{
1070
   287
1070
     3
1070
   287
1070
     3
1070
    40
1040
30.0
1070
   143
1040
0.039
1070
   172
1070
     1
1070
   271
1070
     0
1070
   279
1070
     0
1070
   288
1070
     1
1002
}
  0
DIMENSION
  5
7BC2
  8
3
  2
*D6
 10
2356.7559635736852
 20
3968.1172038687791
 30
0.0
 11
2073.1784515736849
 21
3968.1172038687791
 31
0.0
 70
   128
 13
1776.755963573685
 23
3782.5395538687799
 33
0.0
 14
2356.7559635736852
 24
3782.5395538687799
 34
0.0
1001
ACAD
1000
DSTYLE
1002
{
1070
   287
1070
     3
1070
   287
1070
     3
1070
    40
1040
30.0
1070
   143
1040
0.039
1070
   172
1070
     1
1070
   271
1070
     0
1070
   279
1070
     0
1070
   288
1070
     1
1002
}
  0
DIMENSION
  5
7BCF
  8
3
  2
*D7
 10
1756.755963573685
 20
4168.5647698687799
 30
0.0
 11
2071.7415235736862
 21
4168.5647698687799
 31
0.0
 70
   128
 13
2356.7559635736852
 23
3782.5395538687799
 33
0.0
 14
1756.755963573685
 24
3724.7251148687801
 34
0.0
1001
ACAD
1000
DSTYLE
1002
{
1070
   287
1070
     3
1070
   287
1070
     3
1070
    40
1040
30.0
1070
   143
1040
0.039
1070
   172
1070
     1
1070
   271
1070
     0
1070
   279
1070
     0
1070
   288
1070
     1
1002
}
  0
DIMENSION
  5
7BDD
  8
3
  2
*D8
 10
1358.755963573685
 20
4168.5647698687799
 30
0.0
 11
1557.755963573685
 21
4233.9410883666351
 31
0.0
 70
   128
  1
400
 13
1756.755963573685
 23
3724.7251148687801
 33
0.0
 14
1358.755963573685
 24
3392.5395538687808
 34
0.0
1001
ACAD
1000
DSTYLE
1002
{
1070
   288
1070
     1
1070
   172
1070
     1
1070
    40
1040
30.0
1070
   271
1070
     0
1070
   143
1040
0.039
1002
}
  0
DIMENSION
  5
7C00
  8
3
  2
*D9
 10
2681.7559635736852
 20
5385.0351238687808
 30
0.0
 11
2036.393283573685
 21
5385.0351238687808
 31
0.0
 70
   128
 13
1401.755963573685
 23
5789.6790758687812
 33
0.0
 14
2681.7559635736852
 24
5789.6790758687812
 34
0.0
1001
ACAD
1000
DSTYLE
1002
{
1070
   287
1070
     3
1070
   287
1070
     3
1070
    40
1040
30.0
1070
   143
1040
0.039
1070
   172
1070
     1
1070
   271
1070
     0
1070
   279
1070
     0
1070
   288
1070
     1
1002
}
  0
DIMENSION
  5
7C0D
  8
3
  2
*D10
 10
2961.7736665736861
 20
5789.6790758687812
 30
0.0
 11
2961.7736665736861
 21
6114.4604128687806
 31
0.0
 70
   128
 13
2681.7559635736852
 23
6399.6790758687803
 33
0.0
 14
2681.7559635736852
 24
5789.6790758687812
 34
0.0
 50
90.0
1001
ACAD
1000
DSTYLE
1002
{
1070
   287
1070
     3
1070
   287
1070
     3
1070
    40
1040
30.0
1070
   143
1040
0.039
1070
   172
1070
     1
1070
   271
1070
     0
1070
   279
1070
     0
1070
   288
1070
     1
1002
}
  0
LINE
  5
7C0E
  8
2
 10
1314.490592573685
 20
6144.6790758687803
 30
0.0
 11
2438.7325545736849
 21
6144.6790758687803
 31
0.0
  0
DIMENSION
  5
7C1E
  8
3
  2
*D11
 10
4655.0202469993819
 20
2466.5909099193268
 30
0.0
 11
4493.2034671847141
 21
2542.041224907141
 31
0.0
 12
0.0
 22
10.0
 32
0.0
 70
   128
 13
4300.0202469993819
 23
2672.5395538687808
 33
0.0
 14
4655.0202469993819
 24
2649.09995886878
 34
0.0
1001
ACAD
1000
DSTYLE
1002
{
1070
   288
1070
     1
1070
   172
1070
     1
1070
    40
1040
30.0
1070
   271
1070
     0
1070
   143
1040
0.039
1002
}
  0
DIMENSION
  5
7C2C
  8
3
  2
*D12
 10
4910.0202469993819
 20
2466.5909099193268
 30
0.0
 11
4782.8911077187659
 21
2536.365755464321
 31
0.0
 12
0.0
 22
10.0
 32
0.0
 70
   128
 13
4655.0202469993819
 23
2649.09995886878
 33
0.0
 14
4910.0202469993819
 24
2672.5395538687808
 34
0.0
1001
ACAD
1000
DSTYLE
1002
{
1070
   288
1070
     1
1070
   172
1070
     1
1070
    40
1040
30.0
1070
   271
1070
     0
1070
   143
1040
0.039
1002
}
  0
DIMENSION
  5
7C51
  8
3
  2
*D13
 10
4867.5202469993819
 20
3919.9018268687792
 30
0.0
 11
4648.2345327136672
 21
3919.9018268687792
 31
0.0
 70
   128
 13
4442.520246999381
 23
3782.5395538687799
 33
0.0
 14
4867.5202469993819
 24
3782.5395538687799
 34
0.0
1001
ACAD
1000
DSTYLE
1002
{
1070
   287
1070
     3
1070
   287
1070
     3
1070
    40
1040
30.0
1070
   143
1040
0.039
1070
   172
1070
     1
1070
   271
1070
     0
1070
   279
1070
     0
1070
   288
1070
     1
1002
}
  0
DIMENSION
  5
7C60
  8
3
  2
*D14
 10
4655.0202469993819
 20
4172.6161198687796
 30
0.0
 11
4413.5916755708104
 21
4172.6161198687796
 31
0.0
 70
   128
  1
MAX\P510
 13
4195.0202469993819
 23
3556.8395538687801
 33
0.0
 14
4655.0202469993819
 24
4063.4421294504682
 34
0.0
1001
ACAD
1000
DSTYLE
1002
{
1070
   287
1070
     3
1070
   287
1070
     3
1070
    40
1040
30.0
1070
   143
1040
0.039
1070
   172
1070
     1
1070
   271
1070
     0
1070
   279
1070
     0
1070
   288
1070
     1
1002
}
  0
DIMENSION
  5
7C6E
  8
3
  2
*D15
 10
4931.0202469993819
 20
4172.6161198687796
 30
0.0
 11
4799.9315323264527
 21
4250.9674721393567
 31
0.0
 70
   128
 13
4655.0202469993819
 23
4063.4421294504682
 33
0.0
 14
4931.0202469993819
 24
3702.5395538687808
 34
0.0
1001
ACAD
1000
DSTYLE
1002
{
1070
   288
1070
     1
1070
   172
1070
     1
1070
    40
1040
30.0
1070
   271
1070
     0
1070
   143
1040
0.039
1002
}
  0
DIMENSION
  5
7C91
  8
3
  2
*D16
 10
5193.6404259993824
 20
3112.5395538687799
 30
0.0
 11
5193.6404259993806
 21
3412.825268154495
 31
0.0
 70
   128
 13
4931.0202469993819
 23
3672.5395538687799
 33
0.0
 14
4931.0202469993819
 24
3112.5395538687808
 34
0.0
 50
90.0
1001
ACAD
1000
DSTYLE
1002
{
1070
   287
1070
     3
1070
   287
1070
     3
1070
     3
1000
φ<>
1070
    40
1040
30.0
1070
   143
1040
0.039
1070
   172
1070
     1
1070
   271
1070
     0
1070
   279
1070
     0
1070
   288
1070
     1
1002
}
  0
LINE
  5
7C92
  8
2
 10
4129.3579549993819
 20
3392.5395538687808
 30
0.0
 11
4938.313951999382
 21
3392.5395538687808
 31
0.0
  0
LINE
  5
7C93
  8
2
 10
1756.755963573685
 20
5626.9402148687795
 30
0.0
 11
1756.755963573685
 21
6442.1786518687813
 31
0.0
  0
LINE
  5
7C9A
  8
2
 10
4655.0202469993819
 20
3937.9259018687799
 30
0.0
 11
4655.0202469993819
 21
2649.09995886878
 31
0.0
  0
LINE
  5
7CA4
  8
1
 10
2681.7559635736852
 20
2737.5395538687808
 30
0.0
 11
1401.755963573685
 21
2737.5395538687808
 31
0.0
  0
DIMENSION
  5
7CF2
  8
3
  2
*D17
 10
2980.1912605736852
 20
2672.5395538687808
 30
0.0
 11
2905.1912605736852
 21
2449.6824110116381
 31
0.0
 70
     0
 13
2681.7559635736852
 23
2737.5395538687808
 33
0.0
 14
2681.7559635736852
 24
2672.5395538687808
 34
0.0
 50
90.0
1001
ACAD
1000
DSTYLE
1002
{
1070
   287
1070
     3
1070
   287
1070
     3
1070
    40
1040
30.0
1070
   143
1040
0.039
1070
   172
1070
     1
1070
   271
1070
     0
1070
   279
1070
     0
1070
   288
1070
     1
1070
     6
1000
DOT
1002
}
  0
LINE
  5
7D31
  8
3
 10
2699.2559635736852
 20
2737.5395538687808
 30
0.0
 11
3015.1912605736852
 21
2737.5395538687808
 31
0.0
  0
TEXT
  5
7D36
  8
3
 10
3156.6686918725441
 20
2683.980072227645
 30
0.0
 40
90.0
  1
100
 50
90.0
  0
POINT
  5
7D3A
  8
DEFPOINTS
  6
BYBLOCK
 62
     0
 10
2681.7559635736852
 20
2837.5395538687808
 30
0.0
  0
POINT
  5
7D3B
  8
DEFPOINTS
  6
BYBLOCK
 62
     0
 10
2681.7559635736852
 20
2737.5395538687808
 30
0.0
  0
LINE
  5
7D3D
  8
1
 10
4300.0202469993819
 20
2737.5395538687808
 30
0.0
 11
4910.0202469993819
 21
2737.5395538687808
 31
0.0
  0
DIMENSION
  5
7FA6
  8
3
  2
*D19
 10
2681.7559635736852
 20
4347.1182569929333
 30
0.0
 11
2055.9056628313219
 21
4347.1182569929333
 31
0.0
 70
   128
 13
1356.755963573685
 23
3350.5395538687799
 33
0.0
 14
2681.7559635736852
 24
2912.5395538687799
 34
0.0
1001
ACAD
1000
DSTYLE
1002
{
1070
   287
1070
     3
1070
   287
1070
     3
1070
    40
1040
30.0
1070
   143
1040
0.039
1070
   172
1070
     1
1070
   271
1070
     0
1070
   279
1070
     0
1070
   288
1070
     1
1002
}
  0
ENDSEC
  0
EOF
