  0
SECTION
  2
HEADER
  9
$ACADVER
  1
AC1009
  9
$INSBASE
 10
0.0
 20
0.0
 30
0.0
  9
$EXTMIN
 10
1452.7462297500001
 20
1332.9675397499991
 30
0.0
  9
$EXTMAX
 10
6252.7462297500006
 20
8792.9243242499997
 30
0.0
  9
$LIMMIN
 10
0.0
 20
0.0
  9
$LIMMAX
 10
297.0
 20
210.0
  9
$ORTHOMODE
 70
     0
  9
$REGENMODE
 70
     1
  9
$FILLMODE
 70
     0
  9
$QTEXTMODE
 70
     0
  9
$MIRRTEXT
 70
     1
  9
$DRAGMODE
 70
     2
  9
$LTSCALE
 40
100.0
  9
$OSMODE
 70
    37
  9
$ATTMODE
 70
     1
  9
$TEXTSIZE
 40
180.0
  9
$TRACEWID
 40
0.05
  9
$TEXTSTYLE
  7
STANDARD
  9
$CLAYER
  8
3
  9
$CELTYPE
  6
BYLAYER
  9
$CECOLOR
 62
   256
  9
$DIMSCALE
 40
30.0
  9
$DIMASZ
 40
2.0
  9
$DIMEXO
 40
0.5
  9
$DIMDLI
 40
10.0
  9
$DIMRND
 40
0.0
  9
$DIMDLE
 40
0.0
  9
$DIMEXE
 40
1.0
  9
$DIMTP
 40
1.0
  9
$DIMTM
 40
1.0
  9
$DIMTXT
 40
3.0
  9
$DIMCEN
 40
0.0
  9
$DIMTSZ
 40
0.0
  9
$DIMTOL
 70
     0
  9
$DIMLIM
 70
     0
  9
$DIMTIH
 70
     0
  9
$DIMTOH
 70
     0
  9
$DIMSE1
 70
     0
  9
$DIMSE2
 70
     0
  9
$DIMTAD
 70
     1
  9
$DIMZIN
 70
     8
  9
$DIMBLK
  1

  9
$DIMASO
 70
     1
  9
$DIMSHO
 70
     1
  9
$DIMPOST
  1

  9
$DIMAPOST
  1

  9
$DIMALT
 70
     0
  9
$DIMALTD
 70
     2
  9
$DIMALTF
 40
0.039
  9
$DIMLFAC
 40
1.0
  9
$DIMTOFL
 70
     1
  9
$DIMTVP
 40
0.0
  9
$DIMTIX
 70
     0
  9
$DIMSOXD
 70
     0
  9
$DIMSAH
 70
     1
  9
$DIMBLK1
  1
OPEN
  9
$DIMBLK2
  1
OPEN
  9
$DIMSTYLE
  2
IGA
  9
$DIMCLRD
 70
     0
  9
$DIMCLRE
 70
     0
  9
$DIMCLRT
 70
     0
  9
$DIMTFAC
 40
10.0
  9
$DIMGAP
 40
1.0
  9
$LUNITS
 70
     2
  9
$LUPREC
 70
     3
  9
$SKETCHINC
 40
0.1
  9
$FILLETRAD
 40
50.0
  9
$AUNITS
 70
     0
  9
$AUPREC
 70
     0
  9
$MENU
  1
acad
  9
$ELEVATION
 40
0.0
  9
$PELEVATION
 40
0.0
  9
$THICKNESS
 40
0.0
  9
$LIMCHECK
 70
     0
  9
$BLIPMODE
 70
     0
  9
$CHAMFERA
 40
0.5
  9
$CHAMFERB
 40
0.5
  9
$SKPOLY
 70
     0
  9
$TDCREATE
 40
2450759.5402131942
  9
$TDUPDATE
 40
2454953.6826815619
  9
$TDINDWG
 40
0.0113803704
  9
$TDUSRTIMER
 40
0.0113803704
  9
$USRTIMER
 70
     1
  9
$ANGBASE
 50
0.0
  9
$ANGDIR
 70
     0
  9
$PDMODE
 70
     0
  9
$PDSIZE
 40
0.0
  9
$PLINEWID
 40
0.0
  9
$COORDS
 70
     1
  9
$SPLFRAME
 70
     0
  9
$SPLINETYPE
 70
     6
  9
$SPLINESEGS
 70
     8
  9
$ATTDIA
 70
     0
  9
$ATTREQ
 70
     1
  9
$HANDLING
 70
 10241
  9
$HANDSEED
  5
8109
  9
$SURFTAB1
 70
     6
  9
$SURFTAB2
 70
     6
  9
$SURFTYPE
 70
     6
  9
$SURFU
 70
     6
  9
$SURFV
 70
     6
  9
$UCSNAME
  2

  9
$UCSORG
 10
0.0
 20
0.0
 30
0.0
  9
$UCSXDIR
 10
1.0
 20
0.0
 30
0.0
  9
$UCSYDIR
 10
0.0
 20
1.0
 30
0.0
  9
$PUCSNAME
  2

  9
$PUCSORG
 10
0.0
 20
0.0
 30
0.0
  9
$PUCSXDIR
 10
1.0
 20
0.0
 30
0.0
  9
$PUCSYDIR
 10
0.0
 20
1.0
 30
0.0
  9
$USERI1
 70
     0
  9
$USERI2
 70
     0
  9
$USERI3
 70
     0
  9
$USERI4
 70
     0
  9
$USERI5
 70
     0
  9
$USERR1
 40
0.0
  9
$USERR2
 40
0.0
  9
$USERR3
 40
0.0
  9
$USERR4
 40
0.0
  9
$USERR5
 40
0.0
  9
$WORLDVIEW
 70
     1
  9
$SHADEDGE
 70
     3
  9
$SHADEDIF
 70
    70
  9
$TILEMODE
 70
     1
  9
$MAXACTVP
 70
    16
  9
$PLIMCHECK
 70
     0
  9
$PEXTMIN
 10
1.0000000000000000E+020
 20
1.0000000000000000E+020
 30
1.0000000000000000E+020
  9
$PEXTMAX
 10
-1.0000000000000000E+020
 20
-1.0000000000000000E+020
 30
-1.0000000000000000E+020
  9
$PLIMMIN
 10
0.0
 20
0.0
  9
$PLIMMAX
 10
12.0
 20
9.0
  9
$UNITMODE
 70
     0
  9
$VISRETAIN
 70
     0
  9
$PLINEGEN
 70
     0
  9
$PSLTSCALE
 70
     1
  0
ENDSEC
  0
SECTION
  2
TABLES
  0
TABLE
  2
VPORT
 70
     2
  0
VPORT
  2
*ACTIVE
 70
     0
 10
0.0
 20
0.0
 11
1.0
 21
1.0
 12
13762.057675998711
 22
3636.0050752680909
 13
0.0
 23
0.0
 14
10.0
 24
10.0
 15
10.0
 25
10.0
 16
0.0
 26
0.0
 36
1.0
 17
0.0
 27
0.0
 37
0.0
 40
9930.6810686747722
 41
3.1666666666666661
 42
50.0
 43
0.0
 44
0.0
 50
0.0
 51
0.0
 71
     0
 72
   100
 73
     1
 74
     0
 75
     0
 76
     0
 77
     0
 78
     0
  0
ENDTAB
  0
TABLE
  2
LTYPE
 70
     2
  0
LTYPE
  2
CONTINUOUS
 70
     0
  3
Solid line
 72
    65
 73
     0
 40
0.0
  0
LTYPE
  2
CENTER
 70
     0
  3
____ _ ____ _ ____ _ ____ _ ____ _ ____ _ ____ 
 72
    65
 73
     4
 40
2.0
 49
1.25
 49
-0.25
 49
0.25
 49
-0.25
  0
ENDTAB
  0
TABLE
  2
LAYER
 70
     6
  0
LAYER
  2
0
 70
     0
 62
     7
  6
CONTINUOUS
  0
LAYER
  2
3
 70
     0
 62
     2
  6
CONTINUOUS
  0
LAYER
  2
2
 70
     0
 62
     3
  6
CENTER
  0
LAYER
  2
1
 70
     0
 62
     4
  6
CONTINUOUS
  0
LAYER
  2
4
 70
     0
 62
     7
  6
CONTINUOUS
  0
LAYER
  2
DEFPOINTS
 70
     0
 62
     7
  6
CONTINUOUS
  0
ENDTAB
  0
TABLE
  2
STYLE
 70
     1
  0
STYLE
  2
STANDARD
 70
     0
 40
0.0
 41
1.0
 50
0.0
 71
     0
 42
180.0
  3
simplex.shx
  4
extfont.shx
  0
ENDTAB
  0
TABLE
  2
VIEW
 70
     0
  0
ENDTAB
  0
TABLE
  2
UCS
 70
     0
  0
ENDTAB
  0
TABLE
  2
APPID
 70
     1
  0
APPID
  2
ACAD
 70
     0
  0
ENDTAB
  0
TABLE
  2
DIMSTYLE
 70
     1
  0
DIMSTYLE
  2
IGA
 70
     0
  3

  4

  5

  6
OPEN
  7
OPEN
 40
2.0
 41
2.0
 42
0.5
 43
10.0
 44
1.0
 45
0.0
 46
0.0
 47
1.0
 48
1.0
140
3.0
141
0.0
142
0.0
143
0.03937
144
1.0
145
0.0
146
10.0
147
1.0
 71
     0
 72
     0
 73
     0
 74
     0
 75
     0
 76
     0
 77
     1
 78
     8
170
     0
171
     2
172
     0
173
     1
174
     0
175
     0
176
     0
177
     0
178
     0
  0
ENDTAB
  0
ENDSEC
  0
SECTION
  2
BLOCKS
  0
BLOCK
  8
0
  2
$MODEL_SPACE
 70
     0
 10
0.0
 20
0.0
 30
0.0
  3
$MODEL_SPACE
  1

  0
ENDBLK
  5
1B
  8
0
  0
BLOCK
 67
     1
  8
0
  2
$PAPER_SPACE
 70
     0
 10
0.0
 20
0.0
 30
0.0
  3
$PAPER_SPACE
  1

  0
ENDBLK
  5
18
 67
     1
  8
0
  0
BLOCK
  8
0
  2
_OPEN
 70
     0
 10
0.0
 20
0.0
 30
0.0
  3
_OPEN
  1

  0
LINE
  5
7AE7
  8
0
  6
BYBLOCK
 62
     0
 10
-1.0
 20
0.166667
 30
0.0
 11
0.0
 21
0.0
 31
0.0
  0
LINE
  5
7AE8
  8
0
  6
BYBLOCK
 62
     0
 10
0.0
 20
0.0
 30
0.0
 11
-1.0
 21
-0.166667
 31
0.0
  0
LINE
  5
7AE9
  8
0
  6
BYBLOCK
 62
     0
 10
0.0
 20
0.0
 30
0.0
 11
-1.0
 21
0.0
 31
0.0
  0
ENDBLK
  5
7AEA
  8
0
  0
BLOCK
  8
0
  2
*D1
 70
     1
 10
0.0
 20
0.0
 30
0.0
  3
*D1
  1

  0
LINE
  5
8081
  8
3
 62
     0
 10
3937.4972035315509
 20
3246.1541556495922
 30
0.0
 11
3937.4972035315509
 21
3034.3995366495919
 31
0.0
  0
LINE
  5
8082
  8
3
 62
     0
 10
3012.4972035315509
 20
3199.5898816495919
 30
0.0
 11
3012.4972035315509
 21
3034.3995366495919
 31
0.0
  0
LINE
  5
8083
  8
3
 62
     0
 10
3877.4972035315509
 20
3064.3995366495919
 30
0.0
 11
3072.4972035315509
 21
3064.3995366495919
 31
0.0
  0
INSERT
  5
8084
  8
3
 62
     0
  2
_OPEN
 10
3937.4972035315509
 20
3064.3995366495919
 30
0.0
 41
60.0
 42
60.0
 43
60.0
  0
INSERT
  5
8085
  8
3
 62
     0
  2
_OPEN
 10
3012.4972035315509
 20
3064.3995366495919
 30
0.0
 41
60.0
 42
60.0
 43
60.0
 50
180.0
  0
TEXT
  8
3
  40
90
  5
80FB
  62
0
  72
0
  71
0
 10
3306.08
 20
2980.10
 30
0.000000
  1
925
  0
POINT
  5
8087
  8
DEFPOINTS
 62
     0
 10
3937.4972035315509
 20
3261.1541556495922
 30
0.0
  0
POINT
  5
8088
  8
DEFPOINTS
 62
     0
 10
3012.4972035315509
 20
3214.5898816495919
 30
0.0
  0
POINT
  5
8089
  8
DEFPOINTS
 62
     0
 10
3012.4972035315509
 20
3064.3995366495919
 30
0.0
  0
ENDBLK
  5
7E7F
  8
0
  0
BLOCK
  8
0
  2
*D2
 70
     1
 10
0.0
 20
0.0
 30
0.0
  3
*D2
  1

  0
LINE
  5
7EE4
  8
0
  6
BYBLOCK
 62
     0
 10
3012.4972035315509
 20
3189.5898816495919
 30
0.0
 11
3012.4972035315509
 21
3024.3995366495919
 31
0.0
  0
LINE
  5
7EE5
  8
0
  6
BYBLOCK
 62
     0
 10
2657.4972035315509
 20
3236.1541556495922
 30
0.0
 11
2657.4972035315509
 21
3024.3995366495919
 31
0.0
  0
LINE
  5
7EE6
  8
0
  6
BYBLOCK
 62
     0
 10
2952.4972035315509
 20
3054.3995366495919
 30
0.0
 11
2717.4972035315509
 21
3054.3995366495919
 31
0.0
  0
TEXT
  5
7EE7
  8
3
 62
     0
 10
2718.169355371389
 20
3075.6470484921228
 30
0.0
 40
90.0
  1
355
  0
INSERT
  5
7EE8
  8
0
  6
BYBLOCK
 62
     0
  2
_OPEN
 10
3012.4972035315509
 20
3054.3995366495919
 30
0.0
 41
60.0
 42
60.0
 43
60.0
  0
INSERT
  5
7EE9
  8
0
  6
BYBLOCK
 62
     0
  2
_OPEN
 10
2657.4972035315509
 20
3054.3995366495919
 30
0.0
 41
60.0
 42
60.0
 43
60.0
 50
180.0
  0
POINT
  5
7EEA
  8
DEFPOINTS
  6
BYBLOCK
 62
     0
 10
3012.4972035315509
 20
3204.5898816495919
 30
0.0
  0
POINT
  5
7EEB
  8
DEFPOINTS
  6
BYBLOCK
 62
     0
 10
2657.4972035315509
 20
3251.1541556495922
 30
0.0
  0
POINT
  5
7EEC
  8
DEFPOINTS
  6
BYBLOCK
 62
     0
 10
2657.4972035315509
 20
3054.3995366495919
 30
0.0
  0
ENDBLK
  5
7EED
  8
0
  0
BLOCK
  8
0
  2
*D3
 70
     1
 10
0.0
 20
0.0
 30
0.0
  3
*D3
  1

  0
LINE
  5
808A
  8
3
 62
     0
 10
2607.4972035315509
 20
4496.1541556495922
 30
0.0
 11
2413.4193515315519
 21
4496.1541556495922
 31
0.0
  0
LINE
  5
808B
  8
3
 62
     0
 10
2607.4972035315509
 20
3916.1541556495922
 30
0.0
 11
2413.4193515315519
 21
3916.1541556495922
 31
0.0
  0
LINE
  5
808C
  8
3
 62
     0
 10
2443.4193515315519
 20
4436.1541556495922
 30
0.0
 11
2443.4193515315519
 21
3976.1541556495922
 31
0.0
  0
INSERT
  5
808D
  8
3
 62
     0
  2
_OPEN
 10
2443.4193515315519
 20
4496.1541556495922
 30
0.0
 41
60.0
 42
60.0
 43
60.0
 50
90.0
  0
INSERT
  5
808E
  8
3
 62
     0
  2
_OPEN
 10
2443.4193515315519
 20
3916.1541556495922
 30
0.0
 41
60.0
 42
60.0
 43
60.0
 50
270.0
  0
TEXT
  8
3
  40
90
  5
80FC
  62
0
  72
0
  71
0
 10
2188.42
 20
4062.57
 30
0.000000
  1
580
  0
POINT
  5
8090
  8
DEFPOINTS
 62
     0
 10
2622.4972035315509
 20
4496.1541556495922
 30
0.0
  0
POINT
  5
8091
  8
DEFPOINTS
 62
     0
 10
2622.4972035315509
 20
3916.1541556495922
 30
0.0
  0
POINT
  5
8092
  8
DEFPOINTS
 62
     0
 10
2443.4193515315519
 20
3916.1541556495922
 30
0.0
  0
ENDBLK
  5
7E67
  8
0
  0
BLOCK
  8
0
  2
*D4
 70
     1
 10
0.0
 20
0.0
 30
0.0
  3
*D4
  1

  0
LINE
  5
8093
  8
3
 62
     0
 10
2607.4972035315509
 20
4496.1541556495922
 30
0.0
 11
2195.551006531552
 21
4496.1541556495922
 31
0.0
  0
LINE
  5
8094
  8
3
 62
     0
 10
2665.3116415315508
 20
3896.1541556495922
 30
0.0
 11
2195.551006531552
 21
3896.1541556495922
 31
0.0
  0
LINE
  5
8095
  8
3
 62
     0
 10
2225.551006531552
 20
4436.1541556495922
 30
0.0
 11
2225.551006531552
 21
3956.1541556495922
 31
0.0
  0
INSERT
  5
8096
  8
3
 62
     0
  2
_OPEN
 10
2225.551006531552
 20
4496.1541556495922
 30
0.0
 41
60.0
 42
60.0
 43
60.0
 50
90.0
  0
INSERT
  5
8097
  8
3
 62
     0
  2
_OPEN
 10
2225.551006531552
 20
3896.1541556495922
 30
0.0
 41
60.0
 42
60.0
 43
60.0
 50
270.0
  0
TEXT
  8
3
  40
90
  5
80FD
  62
0
  72
0
  71
0
 10
1970.55
 20
4062.57
 30
0.000000
  1
600
  0
POINT
  5
8099
  8
DEFPOINTS
 62
     0
 10
2622.4972035315509
 20
4496.1541556495922
 30
0.0
  0
POINT
  5
809A
  8
DEFPOINTS
 62
     0
 10
2680.3116415315508
 20
3896.1541556495922
 30
0.0
  0
POINT
  5
809B
  8
DEFPOINTS
 62
     0
 10
2225.551006531552
 20
3896.1541556495922
 30
0.0
  0
ENDBLK
  5
7E5C
  8
0
  0
BLOCK
  8
0
  2
*D5
 70
     1
 10
0.0
 20
0.0
 30
0.0
  3
*D5
  1

  0
LINE
  5
809C
  8
3
 62
     0
 10
2665.3116415315508
 20
3896.1541556495922
 30
0.0
 11
2195.240099531552
 21
3896.1541556495922
 31
0.0
  0
LINE
  5
809D
  8
3
 62
     0
 10
2642.4972035315509
 20
3426.1541556495922
 30
0.0
 11
2195.240099531552
 21
3426.1541556495922
 31
0.0
  0
LINE
  5
809E
  8
3
 62
     0
 10
2225.240099531552
 20
3836.1541556495922
 30
0.0
 11
2225.240099531552
 21
3486.1541556495922
 31
0.0
  0
INSERT
  5
809F
  8
3
 62
     0
  2
_OPEN
 10
2225.240099531552
 20
3896.1541556495922
 30
0.0
 41
60.0
 42
60.0
 43
60.0
 50
90.0
  0
INSERT
  5
80A0
  8
3
 62
     0
  2
_OPEN
 10
2225.240099531552
 20
3426.1541556495922
 30
0.0
 41
60.0
 42
60.0
 43
60.0
 50
270.0
  0
TEXT
  8
3
  40
90
  5
80FE
  62
0
  72
0
  71
0
 10
1970.24
 20
3531.14
 30
0.000000
  1
470
  0
POINT
  5
80A2
  8
DEFPOINTS
 62
     0
 10
2680.3116415315508
 20
3896.1541556495922
 30
0.0
  0
POINT
  5
80A3
  8
DEFPOINTS
 62
     0
 10
2657.4972035315509
 20
3426.1541556495922
 30
0.0
  0
POINT
  5
80A4
  8
DEFPOINTS
 62
     0
 10
2225.240099531552
 20
3426.1541556495922
 30
0.0
  0
ENDBLK
  5
7E51
  8
0
  0
BLOCK
  8
0
  2
*D6
 70
     1
 10
0.0
 20
0.0
 30
0.0
  3
*D6
  1

  0
LINE
  5
80A5
  8
3
 62
     0
 10
2607.4972035315509
 20
4526.1541556495913
 30
0.0
 11
1896.194028752187
 21
4526.1541556495931
 31
0.0
  0
LINE
  5
80A6
  8
3
 62
     0
 10
2642.4972035315509
 20
3261.1541556495922
 30
0.0
 11
1896.1940287521859
 21
3261.1541556495922
 31
0.0
  0
LINE
  5
80A7
  8
3
 62
     0
 10
1926.194028752187
 20
4466.1541556495931
 30
0.0
 11
1926.194028752187
 21
3321.1541556495922
 31
0.0
  0
INSERT
  5
80A8
  8
3
 62
     0
  2
_OPEN
 10
1926.194028752187
 20
4526.1541556495931
 30
0.0
 41
60.0
 42
60.0
 43
60.0
 50
90.0
  0
INSERT
  5
80A9
  8
3
 62
     0
  2
_OPEN
 10
1926.194028752187
 20
3261.1541556495922
 30
0.0
 41
60.0
 42
60.0
 43
60.0
 50
270.0
  0
TEXT
  8
3
  40
90
  5
80FF
  62
0
  72
0
  71
0
 10
1671.19
 20
3668.61
 30
0.000000
  1
1265
  0
POINT
  5
80AB
  8
DEFPOINTS
 62
     0
 10
2622.4972035315509
 20
4526.1541556495913
 30
0.0
  0
POINT
  5
80AC
  8
DEFPOINTS
 62
     0
 10
2657.4972035315509
 20
3261.1541556495922
 30
0.0
  0
POINT
  5
80AD
  8
DEFPOINTS
 62
     0
 10
1926.194028752187
 20
3261.1541556495922
 30
0.0
  0
ENDBLK
  5
7F6D
  8
0
  0
BLOCK
  8
0
  2
*D7
 70
     1
 10
0.0
 20
0.0
 30
0.0
  3
*D7
  1

  0
LINE
  5
7F3C
  8
0
  6
BYBLOCK
 62
     0
 10
2622.4972035315509
 20
4541.1541556495922
 30
0.0
 11
2622.4972035315509
 21
4779.9136816627233
 31
0.0
  0
LINE
  5
7F3D
  8
0
  6
BYBLOCK
 62
     0
 10
3012.4972035315509
 20
4477.4746676495924
 30
0.0
 11
3012.4972035315509
 21
4779.9136816627233
 31
0.0
  0
LINE
  5
7F3E
  8
0
  6
BYBLOCK
 62
     0
 10
2682.4972035315509
 20
4749.9136816627233
 30
0.0
 11
2952.4972035315509
 21
4749.9136816627233
 31
0.0
  0
TEXT
  5
7F3F
  8
3
 62
     0
 10
2724.5142155461249
 20
4787.342322121458
 30
0.0
 40
90.0
  1
390
  0
INSERT
  5
7F40
  8
0
  6
BYBLOCK
 62
     0
  2
_OPEN
 10
2622.4972035315509
 20
4749.9136816627233
 30
0.0
 41
60.0
 42
60.0
 43
60.0
 50
180.0
  0
INSERT
  5
7F41
  8
0
  6
BYBLOCK
 62
     0
  2
_OPEN
 10
3012.4972035315509
 20
4749.9136816627233
 30
0.0
 41
60.0
 42
60.0
 43
60.0
  0
POINT
  5
7F42
  8
DEFPOINTS
  6
BYBLOCK
 62
     0
 10
2622.4972035315509
 20
4526.1541556495913
 30
0.0
  0
POINT
  5
7F43
  8
DEFPOINTS
  6
BYBLOCK
 62
     0
 10
3012.4972035315509
 20
4462.4746676495924
 30
0.0
  0
POINT
  5
7F44
  8
DEFPOINTS
  6
BYBLOCK
 62
     0
 10
3012.4972035315509
 20
4749.9136816627233
 30
0.0
  0
ENDBLK
  5
7F45
  8
0
  0
BLOCK
  8
0
  2
*D8
 70
     1
 10
0.0
 20
0.0
 30
0.0
  3
*D8
  1

  0
LINE
  5
80AE
  8
3
 62
     0
 10
3012.4972035315509
 20
4477.4746676495924
 30
0.0
 11
3012.4972035315509
 21
4780.2229846627233
 31
0.0
  0
LINE
  5
80AF
  8
3
 62
     0
 10
3494.4972035315509
 20
3911.1541556495922
 30
0.0
 11
3494.4972035315509
 21
4780.2229846627233
 31
0.0
  0
LINE
  5
80B0
  8
3
 62
     0
 10
3072.4972035315509
 20
4750.2229846627224
 30
0.0
 11
3434.4972035315509
 21
4750.2229846627224
 31
0.0
  0
INSERT
  5
80B1
  8
3
 62
     0
  2
_OPEN
 10
3012.4972035315509
 20
4750.2229846627224
 30
0.0
 41
60.0
 42
60.0
 43
60.0
 50
180.0
  0
INSERT
  5
80B2
  8
3
 62
     0
  2
_OPEN
 10
3494.4972035315509
 20
4750.2229846627224
 30
0.0
 41
60.0
 42
60.0
 43
60.0
  0
TEXT
  8
3
  40
90
  5
8100
  62
0
  72
0
  71
0
 10
3040.35
 20
4665.92
 30
0.000000
  1
484
  0
POINT
  5
80B4
  8
DEFPOINTS
 62
     0
 10
3012.4972035315509
 20
4462.4746676495924
 30
0.0
  0
POINT
  5
80B5
  8
DEFPOINTS
 62
     0
 10
3494.4972035315509
 20
3896.1541556495922
 30
0.0
  0
POINT
  5
80B6
  8
DEFPOINTS
 62
     0
 10
3494.4972035315509
 20
4750.2229846627224
 30
0.0
  0
ENDBLK
  5
7F95
  8
0
  0
BLOCK
  8
0
  2
*D9
 70
     1
 10
0.0
 20
0.0
 30
0.0
  3
*D9
  1

  0
LINE
  5
80B7
  8
3
 62
     0
 10
2657.4972035315509
 20
6260.2605786495906
 30
0.0
 11
2657.4972035315509
 21
5834.7102846495918
 31
0.0
  0
LINE
  5
80B8
  8
3
 62
     0
 10
3937.4972035315509
 20
6260.2605786495906
 30
0.0
 11
3937.4972035315509
 21
5834.7102846495918
 31
0.0
  0
LINE
  5
80B9
  8
3
 62
     0
 10
2717.4972035315509
 20
5864.7102846495918
 30
0.0
 11
3877.4972035315509
 21
5864.7102846495918
 31
0.0
  0
INSERT
  5
80BA
  8
3
 62
     0
  2
_OPEN
 10
2657.4972035315509
 20
5864.7102846495918
 30
0.0
 41
60.0
 42
60.0
 43
60.0
 50
180.0
  0
INSERT
  5
80BB
  8
3
 62
     0
  2
_OPEN
 10
3937.4972035315509
 20
5864.7102846495918
 30
0.0
 41
60.0
 42
60.0
 43
60.0
  0
TEXT
  8
3
  40
90
  5
8101
  62
0
  72
0
  71
0
 10
3091.01
 20
5780.41
 30
0.000000
  1
1280
  0
POINT
  5
80BD
  8
DEFPOINTS
 62
     0
 10
2657.4972035315509
 20
6275.2605786495906
 30
0.0
  0
POINT
  5
80BE
  8
DEFPOINTS
 62
     0
 10
3937.4972035315509
 20
6275.2605786495906
 30
0.0
  0
POINT
  5
80BF
  8
DEFPOINTS
 62
     0
 10
3937.4972035315509
 20
5864.7102846495918
 30
0.0
  0
ENDBLK
  5
7E23
  8
0
  0
BLOCK
  8
0
  2
*D10
 70
     1
 10
0.0
 20
0.0
 30
0.0
  3
*D10
  1

  0
LINE
  5
80C0
  8
3
 62
     0
 10
3952.4972035315509
 20
6885.2605786495906
 30
0.0
 11
4234.7298625315543
 21
6885.2605786495906
 31
0.0
  0
LINE
  5
80C1
  8
3
 62
     0
 10
3952.4972035315509
 20
6275.2605786495906
 30
0.0
 11
4234.7298625315543
 21
6275.2605786495906
 31
0.0
  0
LINE
  5
80C2
  8
3
 62
     0
 10
4204.7298625315534
 20
6825.2605786495924
 30
0.0
 11
4204.7298625315534
 21
6335.2605786495924
 31
0.0
  0
INSERT
  5
80C3
  8
3
 62
     0
  2
_OPEN
 10
4204.7298625315534
 20
6885.2605786495906
 30
0.0
 41
60.0
 42
60.0
 43
60.0
 50
90.0
  0
INSERT
  5
80C4
  8
3
 62
     0
  2
_OPEN
 10
4204.7298625315534
 20
6275.2605786495906
 30
0.0
 41
60.0
 42
60.0
 43
60.0
 50
270.0
  0
TEXT
  8
3
  40
90
  5
8102
  62
0
  72
0
  71
0
 10
3949.73
 20
6378.82
 30
0.000000
  1
610
  0
POINT
  5
80C6
  8
DEFPOINTS
 62
     0
 10
3937.4972035315509
 20
6885.2605786495906
 30
0.0
  0
POINT
  5
80C7
  8
DEFPOINTS
 62
     0
 10
3937.4972035315509
 20
6275.2605786495906
 30
0.0
  0
POINT
  5
80C8
  8
DEFPOINTS
 62
     0
 10
4204.7298625315534
 20
6275.2605786495906
 30
0.0
  0
ENDBLK
  5
7E18
  8
0
  0
BLOCK
  8
0
  2
*D11
 70
     1
 10
0.0
 20
0.0
 30
0.0
  3
*D11
  1

  0
LINE
  5
80C9
  8
3
 62
     0
 10
5739.8871147499049
 20
4176.1541556495922
 30
0.0
 11
6008.4861487499074
 21
4176.1541556495922
 31
0.0
  0
LINE
  5
80CA
  8
3
 62
     0
 10
5739.8871147499049
 20
3616.1541556495922
 30
0.0
 11
6008.4861487499074
 21
3616.1541556495922
 31
0.0
  0
LINE
  5
80CB
  8
3
 62
     0
 10
5978.4861487499056
 20
4116.1541556495922
 30
0.0
 11
5978.4861487499056
 21
3676.1541556495922
 31
0.0
  0
INSERT
  5
80CC
  8
3
 62
     0
  2
_OPEN
 10
5978.4861487499056
 20
4176.1541556495922
 30
0.0
 41
60.0
 42
60.0
 43
60.0
 50
90.0
  0
INSERT
  5
80CD
  8
3
 62
     0
  2
_OPEN
 10
5978.4861487499056
 20
3616.1541556495922
 30
0.0
 41
60.0
 42
60.0
 43
60.0
 50
270.0
  0
TEXT
  8
3
  40
90
  5
8103
  62
0
  72
0
  71
0
 10
5723.49
 20
3716.57
 30
0.000000
  1
φ560
  0
POINT
  5
80CF
  8
DEFPOINTS
 62
     0
 10
5724.8871147499049
 20
4176.1541556495922
 30
0.0
  0
POINT
  5
80D0
  8
DEFPOINTS
 62
     0
 10
5724.8871147499049
 20
3616.1541556495922
 30
0.0
  0
POINT
  5
80D1
  8
DEFPOINTS
 62
     0
 10
5978.4861487499056
 20
3616.1541556495922
 30
0.0
  0
ENDBLK
  5
7F0E
  8
0
  0
BLOCK
  8
0
  2
*D12
 70
     1
 10
0.0
 20
0.0
 30
0.0
  3
*D12
  1

  0
LINE
  5
80D2
  8
3
 62
     0
 10
5236.3871147499049
 20
4511.1541556495922
 30
0.0
 11
5236.3871147499049
 21
4692.9680876495922
 31
0.0
  0
LINE
  5
80D3
  8
3
 62
     0
 10
5661.3871147499049
 20
4511.1541556495922
 30
0.0
 11
5661.3871147499049
 21
4692.9680876495922
 31
0.0
  0
LINE
  5
80D4
  8
3
 62
     0
 10
5296.387114749904
 20
4662.9680876495904
 30
0.0
 11
5601.3871147499049
 21
4662.9680876495904
 31
0.0
  0
INSERT
  5
80D5
  8
3
 62
     0
  2
_OPEN
 10
5236.3871147499049
 20
4662.9680876495904
 30
0.0
 41
60.0
 42
60.0
 43
60.0
 50
180.0
  0
INSERT
  5
80D6
  8
3
 62
     0
  2
_OPEN
 10
5661.3871147499049
 20
4662.9680876495904
 30
0.0
 41
60.0
 42
60.0
 43
60.0
  0
TEXT
  8
3
  40
90
  5
8104
  62
0
  72
0
  71
0
 10
5262.10
 20
4578.67
 30
0.000000
  1
425
  0
POINT
  5
80D8
  8
DEFPOINTS
 62
     0
 10
5236.3871147499049
 20
4496.1541556495922
 30
0.0
  0
POINT
  5
80D9
  8
DEFPOINTS
 62
     0
 10
5661.3871147499049
 20
4496.1541556495922
 30
0.0
  0
POINT
  5
80DA
  8
DEFPOINTS
 62
     0
 10
5661.3871147499049
 20
4662.9680876495904
 30
0.0
  0
ENDBLK
  5
7E02
  8
0
  0
BLOCK
  8
0
  2
*D13
 70
     1
 10
0.0
 20
0.0
 30
0.0
  3
*D13
  1

  0
LINE
  5
80DB
  8
3
 62
     0
 10
4988.8871147499049
 20
4075.4541556495919
 30
0.0
 11
4988.8871147499049
 21
4913.8798984729292
 31
0.0
  0
LINE
  5
80DC
  8
3
 62
     0
 10
5448.887114749904
 20
4834.2627700727317
 30
0.0
 11
5448.887114749904
 21
4913.8798984729292
 31
0.0
  0
LINE
  5
80DD
  8
3
 62
     0
 10
5048.8871147499049
 20
4883.8798984729301
 30
0.0
 11
5388.8871147499058
 21
4883.8798984729301
 31
0.0
  0
INSERT
  5
80DE
  8
3
 62
     0
  2
_OPEN
 10
4988.8871147499049
 20
4883.8798984729301
 30
0.0
 41
60.0
 42
60.0
 43
60.0
 50
180.0
  0
INSERT
  5
80DF
  8
3
 62
     0
  2
_OPEN
 10
5448.887114749904
 20
4883.8798984729301
 30
0.0
 41
60.0
 42
60.0
 43
60.0
  0
TEXT
  8
3
  40
90
  5
8105
  62
0
  72
0
  71
0
 10
5027.46
 20
4874.58
 30
0.000000
  1
MAX
  0
TEXT
  8
3
  40
90
  5
8106
  62
0
  72
0
  71
0
 10
5027.46
 20
4757.58
 30
0.000000
  1
510
  0
POINT
  5
80E1
  8
DEFPOINTS
 62
     0
 10
4988.8871147499049
 20
4060.4541556495919
 30
0.0
  0
POINT
  5
80E2
  8
DEFPOINTS
 62
     0
 10
5448.887114749904
 20
4819.2627700727307
 30
0.0
  0
POINT
  5
80E3
  8
DEFPOINTS
 62
     0
 10
5448.887114749904
 20
4883.8798984729301
 30
0.0
  0
ENDBLK
  5
7FB1
  8
0
  0
BLOCK
  8
0
  2
*D14
 70
     1
 10
0.0
 20
0.0
 30
0.0
  3
*D14
  1

  0
LINE
  5
7F26
  8
0
  6
BYBLOCK
 62
     0
 10
5448.887114749904
 20
4826.984218915426
 30
0.0
 11
5448.887114749904
 21
4913.8798984729292
 31
0.0
  0
LINE
  5
7F27
  8
0
  6
BYBLOCK
 62
     0
 10
5724.8871147499049
 20
4191.1541556495922
 30
0.0
 11
5724.8871147499049
 21
4913.8798984729292
 31
0.0
  0
LINE
  5
7F28
  8
0
  6
BYBLOCK
 62
     0
 10
5508.8871147499049
 20
4883.8798984729301
 30
0.0
 11
5664.8871147499049
 21
4883.8798984729301
 31
0.0
  0
TEXT
  5
7F29
  8
3
 62
     0
 10
5480.3210815602433
 20
4926.8137676575307
 30
0.0
 40
90.0
  1
276
  0
INSERT
  5
7F2A
  8
0
  6
BYBLOCK
 62
     0
  2
_OPEN
 10
5448.887114749904
 20
4883.8798984729301
 30
0.0
 41
60.0
 42
60.0
 43
60.0
 50
180.0
  0
INSERT
  5
7F2B
  8
0
  6
BYBLOCK
 62
     0
  2
_OPEN
 10
5724.8871147499049
 20
4883.8798984729301
 30
0.0
 41
60.0
 42
60.0
 43
60.0
  0
POINT
  5
7F2C
  8
DEFPOINTS
  6
BYBLOCK
 62
     0
 10
5448.887114749904
 20
4811.984218915426
 30
0.0
  0
POINT
  5
7F2D
  8
DEFPOINTS
  6
BYBLOCK
 62
     0
 10
5724.8871147499049
 20
4176.1541556495922
 30
0.0
  0
POINT
  5
7F2E
  8
DEFPOINTS
  6
BYBLOCK
 62
     0
 10
5724.8871147499049
 20
4883.8798984729301
 30
0.0
  0
ENDBLK
  5
7F2F
  8
0
  0
BLOCK
  8
0
  2
*D15
 70
     1
 10
0.0
 20
0.0
 30
0.0
  3
*D15
  1

  0
LINE
  5
7ED9
  8
0
  6
BYBLOCK
 62
     0
 10
5093.8871147499049
 20
3236.1541556495922
 30
0.0
 11
5093.8871147499049
 21
3030.4457381585562
 31
0.0
  0
LINE
  5
7EDA
  8
0
  6
BYBLOCK
 62
     0
 10
5448.887114749904
 20
3136.8690756495912
 30
0.0
 11
5448.887114749904
 21
3030.4457381585562
 31
0.0
  0
LINE
  5
7EDB
  8
0
  6
BYBLOCK
 62
     0
 10
5153.8871147499049
 20
3060.4457381585562
 30
0.0
 11
5388.8871147499058
 21
3060.4457381585562
 31
0.0
  0
TEXT
  5
7EDC
  8
3
 62
     0
 10
5160.9358576520499
 20
3088.326266287811
 30
0.0
 40
90.0
  1
355
  0
INSERT
  5
7EDD
  8
0
  6
BYBLOCK
 62
     0
  2
_OPEN
 10
5093.8871147499049
 20
3060.4457381585562
 30
0.0
 41
60.0
 42
60.0
 43
60.0
 50
180.0
  0
INSERT
  5
7EDE
  8
0
  6
BYBLOCK
 62
     0
  2
_OPEN
 10
5448.887114749904
 20
3060.4457381585562
 30
0.0
 41
60.0
 42
60.0
 43
60.0
  0
POINT
  5
7EDF
  8
DEFPOINTS
  6
BYBLOCK
 62
     0
 10
5093.8871147499049
 20
3251.1541556495922
 30
0.0
  0
POINT
  5
7EE0
  8
DEFPOINTS
  6
BYBLOCK
 62
     0
 10
5448.887114749904
 20
3151.8690756495912
 30
0.0
  0
POINT
  5
7EE1
  8
DEFPOINTS
  6
BYBLOCK
 62
     0
 10
5448.887114749904
 20
3060.4457381585562
 30
0.0
  0
ENDBLK
  5
7EE2
  8
0
  0
BLOCK
  8
0
  2
*D16
 70
     1
 10
0.0
 20
0.0
 30
0.0
  3
*D16
  1

  0
LINE
  5
7F7C
  8
0
  6
BYBLOCK
 62
     0
 10
5448.887114749904
 20
3146.8690756495921
 30
0.0
 11
5448.887114749904
 21
3039.3641209933699
 31
0.0
  0
LINE
  5
7F7D
  8
0
  6
BYBLOCK
 62
     0
 10
5703.8871147499049
 20
3246.1541556495922
 30
0.0
 11
5703.8871147499049
 21
3039.3641209933699
 31
0.0
  0
LINE
  5
7F7E
  8
0
  6
BYBLOCK
 62
     0
 10
5508.8871147499049
 20
3069.3641209933699
 30
0.0
 11
5643.8871147499049
 21
3069.3641209933699
 31
0.0
  0
TEXT
  5
7F7F
  8
3
 62
     0
 10
5462.9230579430696
 20
3090.94588349265
 30
0.0
 40
90.0
  1
255
  0
INSERT
  5
7F80
  8
0
  6
BYBLOCK
 62
     0
  2
_OPEN
 10
5448.887114749904
 20
3069.3641209933699
 30
0.0
 41
60.0
 42
60.0
 43
60.0
 50
180.0
  0
INSERT
  5
7F81
  8
0
  6
BYBLOCK
 62
     0
  2
_OPEN
 10
5703.8871147499049
 20
3069.3641209933699
 30
0.0
 41
60.0
 42
60.0
 43
60.0
  0
POINT
  5
7F82
  8
DEFPOINTS
  6
BYBLOCK
 62
     0
 10
5448.887114749904
 20
3161.8690756495912
 30
0.0
  0
POINT
  5
7F83
  8
DEFPOINTS
  6
BYBLOCK
 62
     0
 10
5703.8871147499049
 20
3261.1541556495922
 30
0.0
  0
POINT
  5
7F84
  8
DEFPOINTS
  6
BYBLOCK
 62
     0
 10
5703.8871147499049
 20
3069.3641209933699
 30
0.0
  0
ENDBLK
  5
7F85
  8
0
  0
BLOCK
  8
0
  2
*D17
 70
     1
 10
0.0
 20
0.0
 30
0.0
  3
*D17
  1

  0
LINE
  5
80E4
  8
3
 62
     0
 10
2642.4972035315509
 20
3326.1541556495922
 30
0.0
 11
2195.551006531552
 21
3326.1541556495922
 31
0.0
  0
LINE
  5
80E5
  8
3
 62
     0
 10
2642.4972035315509
 20
3261.1541556495922
 30
0.0
 11
2195.551006531552
 21
3261.1541556495922
 31
0.0
  0
LINE
  5
80E6
  8
3
 62
     0
 10
2225.551006531552
 20
3386.1541556495922
 30
0.0
 11
2225.551006531552
 21
3446.1541556495922
 31
0.0
  0
LINE
  5
80E7
  8
3
 62
     0
 10
2225.551006531552
 20
3201.1541556495922
 30
0.0
 11
2225.5510065315511
 21
2935.439869935306
 31
0.0
  0
LINE
  5
80E8
  8
3
 62
     0
 10
2225.551006531552
 20
3326.1541556495922
 30
0.0
 11
2225.551006531552
 21
3261.1541556495922
 31
0.0
  0
INSERT
  5
80E9
  8
3
 62
     0
  2
_DOT
 10
2225.551006531552
 20
3326.1541556495922
 30
0.0
 41
60.0
 42
60.0
 43
60.0
 50
270.0
  0
INSERT
  5
80EA
  8
3
 62
     0
  2
_OPEN
 10
2225.551006531552
 20
3261.1541556495922
 30
0.0
 41
60.0
 42
60.0
 43
60.0
 50
90.0
  0
TEXT
  8
3
  40
90
  5
8107
  62
0
  72
0
  71
0
 10
1970.55
 20
2879.00
 30
0.000000
  1
65
  0
POINT
  5
80EC
  8
DEFPOINTS
 62
     0
 10
2657.4972035315509
 20
3326.1541556495922
 30
0.0
  0
POINT
  5
80ED
  8
DEFPOINTS
 62
     0
 10
2657.4972035315509
 20
3261.1541556495922
 30
0.0
  0
POINT
  5
80EE
  8
DEFPOINTS
 62
     0
 10
2225.551006531552
 20
3261.1541556495922
 30
0.0
  0
ENDBLK
  5
7F7A
  8
0
  0
BLOCK
  8
0
  2
_DOT
 70
     0
 10
0.0
 20
0.0
 30
0.0
  3
_DOT
  1

  0
LINE
  5
7F5E
  8
0
  6
BYBLOCK
 62
     0
 10
0.0
 20
0.0
 30
0.0
 11
-1.0
 21
-0.0000000000000284
 31
0.0
  0
POLYLINE
  5
7F5F
  8
0
  6
BYBLOCK
 62
     0
 66
     1
 10
0.0
 20
0.0
 30
0.0
 70
     1
 40
0.1666666666666666
 41
0.1666666666666666
  0
VERTEX
  5
80EF
  8
0
  6
BYBLOCK
 62
     0
 10
-0.0833333333333286
 20
-0.0000000000000284
 30
0.0
 42
1.0
  0
VERTEX
  5
80F0
  8
0
  6
BYBLOCK
 62
     0
 10
0.0833333333333286
 20
-0.0000000000000284
 30
0.0
 42
1.0
  0
SEQEND
  5
80F1
  8
0
  6
BYBLOCK
 62
     0
  0
ENDBLK
  5
7D0B
  8
0
  0
BLOCK
  8
0
  2
*D19
 70
     1
 10
0.0
 20
0.0
 30
0.0
  3
*D19
  1

  0
LINE
  5
80F2
  8
3
 62
     0
 10
2622.4972035315509
 20
4541.1541556495922
 30
0.0
 11
2622.4972035315509
 21
4961.2855235226107
 31
0.0
  0
LINE
  5
80F3
  8
3
 62
     0
 10
3937.4972035315509
 20
3516.1541556495922
 30
0.0
 11
3937.4972035315509
 21
4961.2855235226107
 31
0.0
  0
LINE
  5
80F4
  8
3
 62
     0
 10
2682.4972035315509
 20
4931.2855235226098
 30
0.0
 11
3877.4972035315509
 21
4931.2855235226098
 31
0.0
  0
INSERT
  5
80F5
  8
3
 62
     0
  2
_OPEN
 10
2622.4972035315509
 20
4931.2855235226098
 30
0.0
 41
60.0
 42
60.0
 43
60.0
 50
180.0
  0
INSERT
  5
80F6
  8
3
 62
     0
  2
_OPEN
 10
3937.4972035315509
 20
4931.2855235226098
 30
0.0
 41
60.0
 42
60.0
 43
60.0
  0
TEXT
  8
3
  40
90
  5
8108
  62
0
  72
0
  71
0
 10
3086.01
 20
4846.99
 30
0.000000
  1
1315
  0
POINT
  5
80F8
  8
DEFPOINTS
 62
     0
 10
2622.4972035315509
 20
4526.1541556495913
 30
0.0
  0
POINT
  5
80F9
  8
DEFPOINTS
 62
     0
 10
3937.4972035315509
 20
3501.1541556495922
 30
0.0
  0
POINT
  5
80FA
  8
DEFPOINTS
 62
     0
 10
3937.4972035315509
 20
4931.2855235226098
 30
0.0
  0
ENDBLK
  5
7FA5
  8
0
  0
ENDSEC
  0
SECTION
  2
ENTITIES
  0
LINE
  5
7A76
  8
1
 10
3937.4972035315509
 20
3326.1541556495922
 30
0.0
 11
2657.4972035315509
 21
3326.1541556495922
 31
0.0
  0
LINE
  5
7A77
  8
1
 10
3937.4972035315509
 20
3261.1541556495922
 30
0.0
 11
2657.4972035315509
 21
3261.1541556495922
 31
0.0
  0
LINE
  5
7A78
  8
1
 10
3678.510910531551
 20
3569.0238576495922
 30
0.0
 11
2978.510910531551
 21
3787.0238576495922
 31
0.0
  0
LINE
  5
7A79
  8
1
 10
3746.4834955315509
 20
3787.2844536495918
 30
0.0
 11
3046.4834955315519
 21
4005.2844536495932
 31
0.0
  0
LINE
  5
7A7A
  8
1
 10
3663.6437655315522
 20
3521.2853196495921
 30
0.0
 11
2963.6437655315522
 21
3739.2853196495921
 31
0.0
  0
LINE
  5
7A7B
  8
1
 10
3761.3506405315511
 20
3835.0229916495919
 30
0.0
 11
3061.350640531552
 21
4053.0229916495919
 31
0.0
  0
CIRCLE
  5
7A7C
  8
1
 10
3012.4972035315509
 20
3896.1541556495922
 30
0.0
 40
310.0
  0
LINE
  5
7A7D
  8
1
 10
3937.4972035315509
 20
3501.1541556495922
 30
0.0
 11
2657.4972035315509
 21
3501.1541556495922
 31
0.0
  0
LINE
  5
7A7E
  8
1
 10
3937.4972035315509
 20
3426.1541556495922
 30
0.0
 11
2657.4972035315509
 21
3426.1541556495922
 31
0.0
  0
ARC
  5
7A7F
  8
1
 10
3054.4972035315509
 20
3938.1541556495922
 30
0.0
 40
442.0
 50
278.62624399999987
 51
354.54737799999998
  0
ARC
  5
7A80
  8
1
 10
2970.4972035315509
 20
3938.1541556495922
 30
0.0
 40
526.0
 50
355.42017599999991
 51
85.420175999999984
  0
CIRCLE
  5
7A81
  8
1
 10
3012.4972035315509
 20
3896.1541556495922
 30
0.0
 40
280.0
  0
ARC
  5
7A82
  8
1
 10
3045.4972035315509
 20
3863.1541556495922
 30
0.0
 40
367.0
 50
174.84109599999999
 51
260.53144099999997
  0
LINE
  5
7A83
  8
1
 10
2657.4972035315509
 20
3326.1541556495922
 30
0.0
 11
2657.4972035315509
 21
3261.1541556495922
 31
0.0
  0
LINE
  5
7A84
  8
1
 10
2657.4972035315509
 20
3501.1541556495922
 30
0.0
 11
2657.4972035315509
 21
3426.1541556495922
 31
0.0
  0
LINE
  5
7A85
  8
1
 10
2652.4972035315509
 20
4493.5634256495923
 30
0.0
 11
2652.4972035315509
 21
3916.1541556495922
 31
0.0
  0
LINE
  5
7A86
  8
1
 10
2622.4972035315509
 20
4526.1541556495913
 30
0.0
 11
2622.4972035315509
 21
3886.1541556495922
 31
0.0
  0
LINE
  5
7A87
  8
2
 10
5744.861485749906
 20
3896.1541556495922
 30
0.0
 11
4889.8693661268153
 21
3896.1541556495922
 31
0.0
  0
ARC
  5
7A88
  8
1
 10
3012.4972035315509
 20
3896.1541556495922
 30
0.0
 40
164.30000000000001
 50
72.70191899999999
 51
252.70191899999989
  0
CIRCLE
  5
7A89
  8
1
 10
3012.4972035315509
 20
3896.1541556495922
 30
0.0
 40
114.3
  0
LINE
  5
7A8A
  8
1
 10
2683.2000545315509
 20
3916.1541556495922
 30
0.0
 11
2622.4972035315509
 21
3916.1541556495922
 31
0.0
  0
ARC
  5
7A8B
  8
1
 10
2979.4972035315509
 20
3863.1541556495922
 30
0.0
 40
301.0
 50
169.85850199999999
 51
173.70574999999991
  0
LINE
  5
7A8C
  8
1
 10
3012.4972035315509
 20
4060.4541556495919
 30
0.0
 11
3012.4972035315509
 21
4060.4541556495919
 31
0.0
  0
LINE
  5
7A8D
  8
2
 10
3012.4972035315509
 20
3214.5898816495919
 30
0.0
 11
3012.4972035315509
 21
4509.2409175933462
 31
0.0
  0
LINE
  5
7A8E
  8
1
 10
3012.4972035315509
 20
4462.474668649591
 30
0.0
 11
2622.4972035315509
 21
4496.1541556495922
 31
0.0
  0
LINE
  5
7A8F
  8
2
 10
3712.4972035315509
 20
3558.854155649592
 30
0.0
 11
3712.4972035315509
 21
3797.4541556495919
 31
0.0
  0
ARC
  5
7A90
  8
1
 10
3712.4972035315509
 20
3678.1541556495922
 30
0.0
 40
164.30000000000001
 50
252.70191899999989
 51
72.70191899999999
  0
CIRCLE
  5
7A91
  8
1
 10
3712.4972035315509
 20
3678.1541556495922
 30
0.0
 40
114.3
  0
ARC
  5
7A92
  8
1
 10
3712.4972035315509
 20
3678.1541556495922
 30
0.0
 40
143.0
 50
324.34590999999989
 51
215.65408999999991
  0
LINE
  5
7A93
  8
2
 10
3831.7972035315511
 20
3678.1541556495922
 30
0.0
 11
3593.1972035315512
 21
3678.1541556495922
 31
0.0
  0
LINE
  5
7A94
  8
1
 10
3887.4972035315509
 20
3501.1541556495922
 30
0.0
 11
3537.4972035315509
 21
3501.1541556495922
 31
0.0
  0
LINE
  5
7A95
  8
1
 10
3582.4972035315509
 20
3546.1541556495922
 30
0.0
 11
3547.4972035315509
 21
3546.1541556495922
 31
0.0
  0
LINE
  5
7A96
  8
1
 10
3537.4972035315509
 20
3501.1541556495922
 30
0.0
 11
3547.4972035315509
 21
3546.1541556495922
 31
0.0
  0
LINE
  5
7A97
  8
1
 10
3582.4972035315509
 20
3546.1541556495922
 30
0.0
 11
3582.4972035315509
 21
3561.1541556495922
 31
0.0
  0
LINE
  5
7A98
  8
1
 10
3582.4972035315509
 20
3561.1541556495922
 30
0.0
 11
3596.5264805315519
 21
3595.3469006495911
 31
0.0
  0
LINE
  5
7A99
  8
1
 10
3937.4972035315509
 20
3326.1541556495922
 30
0.0
 11
3937.4972035315509
 21
3261.1541556495922
 31
0.0
  0
LINE
  5
7A9A
  8
1
 10
3877.4972035315509
 20
3546.1541556495922
 30
0.0
 11
3887.4972035315509
 21
3501.1541556495922
 31
0.0
  0
LINE
  5
7A9B
  8
1
 10
3842.4972035315509
 20
3561.1541556495922
 30
0.0
 11
3828.4679255315518
 21
3595.3469006495911
 31
0.0
  0
LINE
  5
7A9C
  8
1
 10
3842.4972035315509
 20
3546.1541556495922
 30
0.0
 11
3842.4972035315509
 21
3561.1541556495922
 31
0.0
  0
LINE
  5
7A9D
  8
1
 10
3877.4972035315509
 20
3546.1541556495922
 30
0.0
 11
3842.4972035315509
 21
3546.1541556495922
 31
0.0
  0
LINE
  5
7A9E
  8
1
 10
3937.4972035315509
 20
3501.1541556495922
 30
0.0
 11
3937.4972035315509
 21
3426.1541556495922
 31
0.0
  0
LINE
  5
7A9F
  8
1
 10
3876.7972035315511
 20
6265.2605786495906
 30
0.0
 11
2848.1972035315521
 21
6265.2605786495906
 31
0.0
  0
LINE
  5
7AA0
  8
1
 10
3876.7972035315511
 20
6170.2605786495924
 30
0.0
 11
2848.1972035315521
 21
6170.2605786495924
 31
0.0
  0
LINE
  5
7AA1
  8
1
 10
3693.4972035315509
 20
6275.2605786495906
 30
0.0
 11
3032.4972035315509
 21
6275.2605786495906
 31
0.0
  0
LINE
  5
7AA2
  8
1
 10
3322.4972035315509
 20
6906.2605786495924
 30
0.0
 11
2702.4972035315509
 21
6906.2605786495924
 31
0.0
  0
LINE
  5
7AA3
  8
1
 10
3496.4972035315509
 20
6417.7605786495906
 30
0.0
 11
2622.4972035315509
 21
6417.7605786495906
 31
0.0
  0
LINE
  5
7AA4
  8
1
 10
3496.4972035315509
 20
6842.7605786495924
 30
0.0
 11
2622.4972035315509
 21
6842.7605786495924
 31
0.0
  0
LINE
  5
7AA5
  8
1
 10
3937.4972035315509
 20
6885.2605786495906
 30
0.0
 11
3292.4972035315509
 21
6885.2605786495906
 31
0.0
  0
LINE
  5
7AA6
  8
1
 10
2652.4972035315509
 20
6417.7605786495906
 30
0.0
 11
2652.4972035315509
 21
6842.7605786495924
 31
0.0
  0
LINE
  5
7AA7
  8
1
 10
2622.4972035315509
 20
6387.7605786495906
 30
0.0
 11
2622.4972035315509
 21
6872.7605786495906
 31
0.0
  0
LINE
  5
7AA8
  8
1
 10
3126.7972035315511
 20
6185.2605786495906
 30
0.0
 11
2898.1972035315521
 21
6185.2605786495906
 31
0.0
  0
LINE
  5
7AA9
  8
1
 10
3126.7972035315511
 20
6248.2605786495924
 30
0.0
 11
2898.1972035315521
 21
6248.2605786495924
 31
0.0
  0
LINE
  5
7AAA
  8
1
 10
2992.4972035315509
 20
6275.2605786495906
 30
0.0
 11
2657.4972035315509
 21
6275.2605786495906
 31
0.0
  0
LINE
  5
7AAB
  8
1
 10
2848.1972035315521
 20
6170.2605786495924
 30
0.0
 11
2848.1972035315521
 21
6265.2605786495906
 31
0.0
  0
LINE
  5
7AAC
  8
1
 10
2898.1972035315521
 20
6185.2605786495906
 30
0.0
 11
2898.1972035315521
 21
6248.2605786495924
 31
0.0
  0
LINE
  5
7AAD
  8
1
 10
2657.4972035315509
 20
6275.2605786495906
 30
0.0
 11
2657.4972035315509
 21
6417.7605786495906
 31
0.0
  0
LINE
  5
7AAE
  8
1
 10
3126.7972035315511
 20
6185.2605786495906
 30
0.0
 11
3126.7972035315511
 21
6248.2605786495924
 31
0.0
  0
LINE
  5
7AAF
  8
1
 10
3032.4972035315509
 20
6248.2605786495924
 30
0.0
 11
3032.4972035315509
 21
6417.7605786495906
 31
0.0
  0
LINE
  5
7AB0
  8
1
 10
2992.4972035315509
 20
6248.2605786495924
 30
0.0
 11
2992.4972035315509
 21
6417.7605786495906
 31
0.0
  0
LINE
  5
7AB1
  8
1
 10
2732.4972035315509
 20
6885.2605786495906
 30
0.0
 11
2657.4972035315509
 21
6885.2605786495906
 31
0.0
  0
LINE
  5
7AB2
  8
1
 10
2732.4972035315509
 20
6842.7605786495924
 30
0.0
 11
2732.4972035315509
 21
6906.2605786495924
 31
0.0
  0
LINE
  5
7AB3
  8
1
 10
2657.4972035315509
 20
6842.7605786495924
 30
0.0
 11
2657.4972035315509
 21
6885.2605786495906
 31
0.0
  0
LINE
  5
7AB4
  8
1
 10
3292.4972035315509
 20
6842.7605786495924
 30
0.0
 11
3292.4972035315509
 21
6906.2605786495924
 31
0.0
  0
LINE
  5
7AB5
  8
1
 10
3569.4972035315509
 20
6285.2605786495906
 30
0.0
 11
3569.4972035315509
 21
6654.2605786495906
 31
0.0
  0
LINE
  5
7AB6
  8
1
 10
3855.4972035315509
 20
6285.2605786495906
 30
0.0
 11
3855.4972035315509
 21
6654.2605786495906
 31
0.0
  0
LINE
  5
7AB7
  8
1
 10
3496.4972035315509
 20
6417.7605786495906
 30
0.0
 11
3496.4972035315509
 21
6842.7605786495924
 31
0.0
  0
LINE
  5
7AB8
  8
1
 10
3937.4972035315509
 20
6275.2605786495906
 30
0.0
 11
3937.4972035315509
 21
6885.2605786495906
 31
0.0
  0
LINE
  5
7AB9
  8
1
 10
3826.7972035315511
 20
6185.2605786495906
 30
0.0
 11
3598.1972035315512
 21
6185.2605786495906
 31
0.0
  0
LINE
  5
7ABA
  8
1
 10
3826.7972035315511
 20
6248.2605786495924
 30
0.0
 11
3598.1972035315512
 21
6248.2605786495924
 31
0.0
  0
LINE
  5
7ABB
  8
1
 10
3569.4972035315509
 20
6285.2605786495906
 30
0.0
 11
3855.4972035315509
 21
6285.2605786495906
 31
0.0
  0
LINE
  5
7ABC
  8
1
 10
3598.1972035315512
 20
6185.2605786495906
 30
0.0
 11
3598.1972035315512
 21
6248.2605786495924
 31
0.0
  0
LINE
  5
7ABD
  8
1
 10
3693.4972035315509
 20
6248.2605786495924
 30
0.0
 11
3693.4972035315509
 21
6285.2605786495906
 31
0.0
  0
LINE
  5
7ABE
  8
1
 10
3876.7972035315511
 20
6170.2605786495924
 30
0.0
 11
3876.7972035315511
 21
6265.2605786495906
 31
0.0
  0
LINE
  5
7ABF
  8
1
 10
3826.7972035315511
 20
6185.2605786495906
 30
0.0
 11
3826.7972035315511
 21
6248.2605786495924
 31
0.0
  0
LINE
  5
7AC0
  8
1
 10
3731.4972035315509
 20
6248.2605786495924
 30
0.0
 11
3731.4972035315509
 21
6285.2605786495906
 31
0.0
  0
LINE
  5
7AC1
  8
1
 10
3937.4972035315509
 20
6275.2605786495906
 30
0.0
 11
3731.4972035315509
 21
6275.2605786495906
 31
0.0
  0
LINE
  5
7AC2
  8
1
 10
3855.4972035315509
 20
6654.2605786495906
 30
0.0
 11
3569.4972035315509
 21
6654.2605786495906
 31
0.0
  0
LINE
  5
7AC3
  8
1
 10
5093.8871147499049
 20
3326.1541556495922
 30
0.0
 11
5703.8871147499049
 21
3326.1541556495922
 31
0.0
  0
LINE
  5
7AC4
  8
1
 10
5093.8871147499049
 20
3261.1541556495922
 30
0.0
 11
5703.8871147499049
 21
3261.1541556495922
 31
0.0
  0
LINE
  5
7AC5
  8
1
 10
5093.8871147499049
 20
3426.1541556495922
 30
0.0
 11
5703.8871147499049
 21
3426.1541556495922
 31
0.0
  0
LINE
  5
7AC6
  8
1
 10
5093.8871147499049
 20
3501.1541556495922
 30
0.0
 11
5703.8871147499049
 21
3501.1541556495922
 31
0.0
  0
LINE
  5
7AC7
  8
1
 10
5661.3871147499049
 20
4176.1541556495922
 30
0.0
 11
5724.8871147499049
 21
4176.1541556495922
 31
0.0
  0
LINE
  5
7AC8
  8
1
 10
5661.3871147499049
 20
3616.1541556495922
 30
0.0
 11
5724.8871147499049
 21
3616.1541556495922
 31
0.0
  0
LINE
  5
7AC9
  8
1
 10
5661.3871147499049
 20
4496.1541556495922
 30
0.0
 11
5661.3871147499049
 21
3501.1541556495922
 31
0.0
  0
LINE
  5
7ACA
  8
1
 10
5236.3871147499049
 20
4496.1541556495922
 30
0.0
 11
5236.3871147499049
 21
3501.1541556495922
 31
0.0
  0
LINE
  5
7ACB
  8
1
 10
4988.8871147499049
 20
4060.4541556495919
 30
0.0
 11
4988.8871147499049
 21
3513.854155649592
 31
0.0
  0
LINE
  5
7ACC
  8
1
 10
5083.8871147499049
 20
4060.4541556495919
 30
0.0
 11
5083.8871147499049
 21
3513.854155649592
 31
0.0
  0
LINE
  5
7ACD
  8
1
 10
5003.8871147499049
 20
4010.4541556495919
 30
0.0
 11
5003.8871147499049
 21
3563.854155649592
 31
0.0
  0
LINE
  5
7ACE
  8
1
 10
5066.8871147499049
 20
4010.4541556495919
 30
0.0
 11
5066.8871147499049
 21
3563.854155649592
 31
0.0
  0
LINE
  5
7ACF
  8
1
 10
5103.8871147499049
 20
3821.1541556495922
 30
0.0
 11
5103.8871147499049
 21
3501.1541556495922
 31
0.0
  0
LINE
  5
7AD0
  8
1
 10
5093.8871147499049
 20
3326.1541556495922
 30
0.0
 11
5093.8871147499049
 21
3261.1541556495922
 31
0.0
  0
LINE
  5
7AD1
  8
1
 10
5093.8871147499049
 20
3501.1541556495922
 30
0.0
 11
5093.8871147499049
 21
3426.1541556495922
 31
0.0
  0
LINE
  5
7AD2
  8
1
 10
4988.8871147499049
 20
3513.854155649592
 30
0.0
 11
5083.8871147499049
 21
3513.854155649592
 31
0.0
  0
LINE
  5
7AD3
  8
1
 10
5103.8871147499049
 20
3546.1541556495922
 30
0.0
 11
5236.3871147499049
 21
3546.1541556495922
 31
0.0
  0
LINE
  5
7AD4
  8
1
 10
5003.8871147499049
 20
3563.854155649592
 30
0.0
 11
5066.8871147499049
 21
3563.854155649592
 31
0.0
  0
LINE
  5
7AD5
  8
1
 10
5066.8871147499049
 20
3697.1541556495922
 30
0.0
 11
5103.8871147499049
 21
3697.1541556495922
 31
0.0
  0
LINE
  5
7AD6
  8
1
 10
5066.8871147499049
 20
3659.1541556495922
 30
0.0
 11
5103.8871147499049
 21
3659.1541556495922
 31
0.0
  0
LINE
  5
7AD7
  8
1
 10
5236.3871147499049
 20
4496.1541556495922
 30
0.0
 11
5661.3871147499049
 21
3916.1541556495922
 31
0.0
  0
LINE
  5
7AD8
  8
1
 10
5661.3871147499049
 20
4496.1541556495922
 30
0.0
 11
5236.3871147499049
 21
3916.1541556495922
 31
0.0
  0
LINE
  5
7AD9
  8
1
 10
5236.3871147499049
 20
3916.1541556495922
 30
0.0
 11
5661.3871147499049
 21
3916.1541556495922
 31
0.0
  0
LINE
  5
7ADA
  8
1
 10
5066.8871147499049
 20
3916.1541556495922
 30
0.0
 11
5236.3871147499049
 21
3916.1541556495922
 31
0.0
  0
LINE
  5
7ADB
  8
1
 10
5066.8871147499049
 20
3876.1541556495922
 30
0.0
 11
5236.3871147499049
 21
3876.1541556495922
 31
0.0
  0
LINE
  5
7ADC
  8
1
 10
5003.8871147499049
 20
4010.4541556495919
 30
0.0
 11
5066.8871147499049
 21
4010.4541556495919
 31
0.0
  0
LINE
  5
7ADD
  8
1
 10
5003.8871147499049
 20
3781.854155649592
 30
0.0
 11
5066.8871147499049
 21
3781.854155649592
 31
0.0
  0
LINE
  5
7ADE
  8
1
 10
4988.8871147499049
 20
4060.4541556495919
 30
0.0
 11
5083.8871147499049
 21
4060.4541556495919
 31
0.0
  0
LINE
  5
7ADF
  8
1
 10
5103.8871147499049
 20
3821.1541556495922
 30
0.0
 11
5236.3871147499049
 21
3821.1541556495922
 31
0.0
  0
LINE
  5
7AE0
  8
1
 10
5236.3871147499049
 20
4496.1541556495922
 30
0.0
 11
5661.3871147499049
 21
4496.1541556495922
 31
0.0
  0
LINE
  5
7AE1
  8
1
 10
5724.8871147499049
 20
4206.1541556495922
 30
0.0
 11
5724.8871147499049
 21
3586.1541556495922
 31
0.0
  0
LINE
  5
7AE2
  8
1
 10
5703.8871147499049
 20
3326.1541556495922
 30
0.0
 11
5703.8871147499049
 21
3261.1541556495922
 31
0.0
  0
LINE
  5
7AE3
  8
1
 10
5703.8871147499049
 20
3501.1541556495922
 30
0.0
 11
5703.8871147499049
 21
3426.1541556495922
 31
0.0
  0
DIMENSION
  5
7AF8
  8
3
  2
*D1
 10
3012.4972035315509
 20
3064.3995366495919
 30
0.0
 11
3486.0751405315518
 21
3064.3995366495919
 31
0.0
 70
   128
 13
3937.4972035315509
 23
3261.1541556495922
 33
0.0
 14
3012.4972035315509
 24
3214.5898816495919
 34
0.0
1001
ACAD
1000
DSTYLE
1002
{
1070
   287
1070
     3
1070
   287
1070
     3
1070
    40
1040
30.0
1070
   143
1040
0.039
1070
   172
1070
     1
1070
   271
1070
     0
1070
   279
1070
     0
1070
   288
1070
     1
1002
}
  0
DIMENSION
  5
7B06
  8
3
  2
*D2
 10
2657.4972035315509
 20
3064.3995366495919
 30
0.0
 11
2833.8836410856752
 21
3130.6470484921219
 31
0.0
 12
0.0
 22
10.0
 32
0.0
 70
   128
 13
3012.4972035315509
 23
3214.5898816495919
 33
0.0
 14
2657.4972035315509
 24
3261.1541556495922
 34
0.0
1001
ACAD
1000
DSTYLE
1002
{
1070
   288
1070
     1
1070
   172
1070
     1
1070
    40
1040
30.0
1070
   271
1070
     0
1070
   143
1040
0.039
1002
}
  0
DIMENSION
  5
7B29
  8
3
  2
*D3
 10
2443.4193515315519
 20
3916.1541556495922
 30
0.0
 11
2443.4193515315519
 21
4221.8684406495922
 31
0.0
 70
   128
 13
2622.4972035315509
 23
4496.1541556495922
 33
0.0
 14
2622.4972035315509
 24
3916.1541556495922
 34
0.0
 50
90.0
1001
ACAD
1000
DSTYLE
1002
{
1070
   287
1070
     3
1070
   287
1070
     3
1070
    40
1040
30.0
1070
   143
1040
0.039
1070
   172
1070
     1
1070
   271
1070
     0
1070
   279
1070
     0
1070
   288
1070
     1
1002
}
  0
DIMENSION
  5
7B36
  8
3
  2
*D4
 10
2225.551006531552
 20
3896.1541556495922
 30
0.0
 11
2225.551006531552
 21
4221.8684406495922
 31
0.0
 70
   128
 13
2622.4972035315509
 23
4496.1541556495922
 33
0.0
 14
2680.3116415315508
 24
3896.1541556495922
 34
0.0
 50
90.0
1001
ACAD
1000
DSTYLE
1002
{
1070
   287
1070
     3
1070
   287
1070
     3
1070
    40
1040
30.0
1070
   143
1040
0.039
1070
   172
1070
     1
1070
   271
1070
     0
1070
   279
1070
     0
1070
   288
1070
     1
1002
}
  0
DIMENSION
  5
7B44
  8
3
  2
*D5
 10
2225.240099531552
 20
3426.1541556495922
 30
0.0
 11
2225.2400995315511
 21
3690.439869935306
 31
0.0
 70
   128
 13
2680.3116415315508
 23
3896.1541556495922
 33
0.0
 14
2657.4972035315509
 24
3426.1541556495922
 34
0.0
 50
90.0
1001
ACAD
1000
DSTYLE
1002
{
1070
   287
1070
     3
1070
   287
1070
     3
1070
    40
1040
30.0
1070
   143
1040
0.039
1070
   172
1070
     1
1070
   271
1070
     0
1070
   279
1070
     0
1070
   288
1070
     1
1002
}
  0
DIMENSION
  5
7B91
  8
3
  2
*D6
 10
1926.194028752187
 20
3261.1541556495922
 30
0.0
 11
1926.1940287521859
 21
3827.9089496508859
 31
0.0
 70
   128
 13
2622.4972035315509
 23
4526.1541556495913
 33
0.0
 14
2657.4972035315509
 24
3261.1541556495922
 34
0.0
 50
90.0
1001
ACAD
1000
DSTYLE
1002
{
1070
   287
1070
     3
1070
   287
1070
     3
1070
    40
1040
30.0
1070
   143
1040
0.039
1070
   172
1070
     1
1070
   271
1070
     0
1070
   279
1070
     0
1070
   288
1070
     1
1002
}
  0
DIMENSION
  5
7BA0
  8
3
  2
*D7
 10
3012.4972035315509
 20
4749.9136816627233
 30
0.0
 11
2840.228501260412
 21
4832.342322121458
 31
0.0
 70
   128
 13
2622.4972035315509
 23
4526.1541556495913
 33
0.0
 14
3012.4972035315509
 24
4462.4746676495924
 34
0.0
1001
ACAD
1000
DSTYLE
1002
{
1070
   288
1070
     1
1070
   172
1070
     1
1070
    40
1040
30.0
1070
   271
1070
     0
1070
   143
1040
0.039
1002
}
  0
DIMENSION
  5
7BAE
  8
3
  2
*D8
 10
3494.4972035315509
 20
4750.2229846627224
 30
0.0
 11
3220.354346388694
 21
4750.2229846627224
 31
0.0
 70
   128
  1
484
 13
3012.4972035315509
 23
4462.4746676495924
 33
0.0
 14
3494.4972035315509
 24
3896.1541556495922
 34
0.0
1001
ACAD
1000
DSTYLE
1002
{
1070
   287
1070
     3
1070
   287
1070
     3
1070
    40
1040
30.0
1070
   143
1040
0.039
1070
   172
1070
     1
1070
   271
1070
     0
1070
   279
1070
     0
1070
   288
1070
     1
1002
}
  0
DIMENSION
  5
7BD1
  8
3
  2
*D9
 10
3937.4972035315509
 20
5864.7102846495918
 30
0.0
 11
3271.0082925315519
 21
5864.7102846495918
 31
0.0
 70
   128
 13
2657.4972035315509
 23
6275.2605786495906
 33
0.0
 14
3937.4972035315509
 24
6275.2605786495906
 34
0.0
1001
ACAD
1000
DSTYLE
1002
{
1070
   287
1070
     3
1070
   287
1070
     3
1070
    40
1040
30.0
1070
   143
1040
0.039
1070
   172
1070
     1
1070
   271
1070
     0
1070
   279
1070
     0
1070
   288
1070
     1
1002
}
  0
DIMENSION
  5
7BDE
  8
3
  2
*D10
 10
4204.7298625315534
 20
6275.2605786495906
 30
0.0
 11
4204.7298625315516
 21
6538.1177216495907
 31
0.0
 70
   128
 13
3937.4972035315509
 23
6885.2605786495906
 33
0.0
 14
3937.4972035315509
 24
6275.2605786495906
 34
0.0
 50
90.0
1001
ACAD
1000
DSTYLE
1002
{
1070
   287
1070
     3
1070
   287
1070
     3
1070
    40
1040
30.0
1070
   143
1040
0.039
1070
   172
1070
     1
1070
   271
1070
     0
1070
   279
1070
     0
1070
   288
1070
     1
1002
}
  0
LINE
  5
7BDF
  8
2
 10
3661.4546645315509
 20
6630.2605786495924
 30
0.0
 11
2418.2092045315512
 21
6630.2605786495924
 31
0.0
  0
DIMENSION
  5
7BEC
  8
3
  2
*D11
 10
5978.4861487499056
 20
3616.1541556495922
 30
0.0
 11
5978.4861487499047
 21
3875.868441363878
 31
0.0
 70
   128
 13
5724.8871147499049
 23
4176.1541556495922
 33
0.0
 14
5724.8871147499049
 24
3616.1541556495922
 34
0.0
 50
90.0
1001
ACAD
1000
DSTYLE
1002
{
1070
   287
1070
     3
1070
   287
1070
     3
1070
     3
1000
φ<>
1070
    40
1040
30.0
1070
   143
1040
0.039
1070
   172
1070
     1
1070
   271
1070
     0
1070
   279
1070
     0
1070
   288
1070
     1
1002
}
  0
DIMENSION
  5
7BFB
  8
3
  2
*D12
 10
5661.3871147499049
 20
4662.9680876495904
 30
0.0
 11
5442.1014004641902
 21
4662.9680876495904
 31
0.0
 70
   128
 13
5236.3871147499049
 23
4496.1541556495922
 33
0.0
 14
5661.3871147499049
 24
4496.1541556495922
 34
0.0
1001
ACAD
1000
DSTYLE
1002
{
1070
   287
1070
     3
1070
   287
1070
     3
1070
    40
1040
30.0
1070
   143
1040
0.039
1070
   172
1070
     1
1070
   271
1070
     0
1070
   279
1070
     0
1070
   288
1070
     1
1002
}
  0
DIMENSION
  5
7C0A
  8
3
  2
*D13
 10
5448.887114749904
 20
4883.8798984729301
 30
0.0
 11
5207.4585433213333
 21
4883.8798984729301
 31
0.0
 70
   128
  1
MAX\P510
 13
4988.8871147499049
 23
4060.4541556495919
 33
0.0
 14
5448.887114749904
 24
4819.2627700727307
 34
0.0
1001
ACAD
1000
DSTYLE
1002
{
1070
   287
1070
     3
1070
   287
1070
     3
1070
    40
1040
30.0
1070
   143
1040
0.039
1070
   172
1070
     1
1070
   271
1070
     0
1070
   279
1070
     0
1070
   288
1070
     1
1002
}
  0
DIMENSION
  5
7C18
  8
3
  2
*D14
 10
5724.8871147499049
 20
4883.8798984729301
 30
0.0
 11
5593.8925101316709
 21
4971.8137676575316
 31
0.0
 70
   128
 13
5448.887114749904
 23
4811.984218915426
 33
0.0
 14
5724.8871147499049
 24
4176.1541556495922
 34
0.0
1001
ACAD
1000
DSTYLE
1002
{
1070
   288
1070
     1
1070
   172
1070
     1
1070
    40
1040
30.0
1070
   271
1070
     0
1070
   143
1040
0.039
1002
}
  0
LINE
  5
7C3B
  8
2
 10
3701.5628715315511
 20
3896.1541556495922
 30
0.0
 11
2609.9683085315519
 21
3896.1541556495922
 31
0.0
  0
LINE
  5
7C3C
  8
2
 10
3012.4972035315509
 20
6144.9231136495919
 30
0.0
 11
3012.4972035315509
 21
6971.6088486495919
 31
0.0
  0
DIMENSION
  5
7C4A
  8
3
  2
*D15
 10
5448.887114749904
 20
3070.4457381585562
 30
0.0
 11
5276.6501433663361
 21
3143.326266287811
 31
0.0
 12
0.0
 22
10.0
 32
0.0
 70
   128
 13
5093.8871147499049
 23
3261.1541556495922
 33
0.0
 14
5448.887114749904
 24
3161.8690756495912
 34
0.0
1001
ACAD
1000
DSTYLE
1002
{
1070
   288
1070
     1
1070
   172
1070
     1
1070
    40
1040
30.0
1070
   271
1070
     0
1070
   143
1040
0.039
1002
}
  0
DIMENSION
  5
7C58
  8
3
  2
*D16
 10
5703.8871147499049
 20
3069.3641209933699
 30
0.0
 11
5578.6373436573558
 21
3135.94588349265
 31
0.0
 70
   128
 13
5448.887114749904
 23
3161.8690756495912
 33
0.0
 14
5703.8871147499049
 24
3261.1541556495922
 34
0.0
1001
ACAD
1000
DSTYLE
1002
{
1070
   288
1070
     1
1070
   172
1070
     1
1070
    40
1040
30.0
1070
   271
1070
     0
1070
   143
1040
0.039
1002
}
  0
LINE
  5
7C7C
  8
4
 10
6252.7462297500006
 20
1932.96753975
 30
0.0
 11
6252.7462297500006
 21
1332.9675397499991
 31
0.0
  0
LINE
  5
7C7D
  8
4
 10
4152.7462297499987
 20
1932.96753975
 30
0.0
 11
4152.7462297499987
 21
1332.9675397499991
 31
0.0
  0
LINE
  5
7C7E
  8
4
 10
2652.7462297499992
 20
1932.96753975
 30
0.0
 11
2652.7462297499992
 21
1332.9675397499991
 31
0.0
  0
LINE
  5
7C81
  8
4
 10
2652.7462297499992
 20
1332.96753975
 30
0.0
 11
6252.7462297500006
 21
1332.96753975
 31
0.0
  0
LINE
  5
7C82
  8
4
 10
2652.7462297499992
 20
1632.96753975
 30
0.0
 11
6252.7462297500006
 21
1632.96753975
 31
0.0
  0
TEXT
  5
7C83
  8
4
 10
2768.2524720000001
 20
1727.596617749999
 30
0.0
 40
150.0
  1
機器名称
  0
TEXT
  5
7C84
  8
4
 10
2761.520547749999
 20
1397.90301
 30
0.0
 40
150.0
  1
機器型番
  0
TEXT
  5
7C85
  8
4
 10
4235.7824655000004
 20
1700.6828459999999
 30
0.0
 40
120.0
  1
ミツヤリミットロードファン
  0
TEXT
  5
7C86
  8
4
 10
4262.7097162499986
 20
1384.4462924999989
 30
0.0
 40
150.0
  1
LLE#3 1/2-4
  0
TEXT
  5
7C88
  8
4
 10
3022.5138615000001
 20
7583.2540634999996
 30
0.0
 40
162.0
  1
床置防振ベット
  0
TEXT
  5
7C89
  8
4
 10
1651.2490095000001
 20
8034.6104685000018
 30
0.0
 40
180.0
  1
ベルト駆動式片吸込両持排煙ファン
  0
LINE
  5
7C8A
  8
4
 10
1452.7462297500001
 20
7841.1938025000009
 30
0.0
 11
6252.7462297500006
 21
7841.1938025000009
 31
0.0
  0
LINE
  5
7C8B
  8
4
 10
1452.7462297500001
 20
8441.1938025000018
 30
0.0
 11
6252.7462297500006
 21
8441.1938025000018
 31
0.0
  0
LINE
  5
7C8C
  8
4
 10
2652.7462297499992
 20
1932.96753975
 30
0.0
 11
6252.7462297500006
 21
1932.96753975
 31
0.0
  0
LINE
  5
7C8D
  8
4
 10
1452.7462297500001
 20
8441.1938025000018
 30
0.0
 11
1452.7462297500001
 21
7841.1938025000009
 31
0.0
  0
TEXT
  5
7C8E
  8
4
 10
1714.9373647499999
 20
7579.9259722499992
 30
0.0
 40
162.0
  1
左回転左横向
  0
TEXT
  5
7C8F
  8
4
 10
5109.6549075000012
 20
8551.1507835000011
 30
0.0
 40
168.0
  1
No.
  0
TEXT
  5
7C90
  8
4
 10
4636.6344172500003
 20
7583.2540634999996
 30
0.0
 40
162.0
  1
縮尺：1/30
  0
LINE
  5
7C91
  8
4
 10
6252.7462297500006
 20
8441.1938025000018
 30
0.0
 11
6252.7462297500006
 21
7841.1938025000009
 31
0.0
  0
LINE
  5
7C92
  8
4
 10
6127.4029507499999
 20
8122.5965970000007
 30
0.0
 11
6127.4029507499999
 21
8122.5965970000007
 31
0.0
  0
LINE
  5
7C93
  8
4
 10
5024.5984964999998
 20
8476.7582887499993
 30
0.0
 11
5024.5984964999998
 21
8792.9243242499997
 31
0.0
  0
LINE
  5
7C94
  8
4
 10
5024.5984964999998
 20
8792.9243242499997
 30
0.0
 11
6252.7462297500006
 21
8792.9243242499997
 31
0.0
  0
LINE
  5
7C95
  8
4
 10
6252.7462297500006
 20
8792.9243242499997
 30
0.0
 11
6252.7462297500006
 21
8476.7582887499993
 31
0.0
  0
LINE
  5
7C96
  8
4
 10
6252.7462297500006
 20
8476.7582887499993
 30
0.0
 11
5024.5984964999998
 21
8476.7582887499993
 31
0.0
  0
LINE
  5
7CA0
  8
2
 10
5448.887114749904
 20
4674.1681236495924
 30
0.0
 11
5448.887114749904
 21
3161.8690756495912
 31
0.0
  0
LINE
  5
7CAA
  8
1
 10
3937.4972035315509
 20
3326.1541556495922
 30
0.0
 11
2657.4972035315509
 21
3326.1541556495922
 31
0.0
  0
DIMENSION
  5
7CF6
  8
3
  2
*D17
 10
2225.551006531552
 20
3261.1541556495922
 30
0.0
 11
2150.5510065315511
 21
3038.29701279245
 31
0.0
 70
     0
 13
2657.4972035315509
 23
3326.1541556495922
 33
0.0
 14
2657.4972035315509
 24
3261.1541556495922
 34
0.0
 50
90.0
1001
ACAD
1000
DSTYLE
1002
{
1070
   287
1070
     3
1070
   287
1070
     3
1070
    40
1040
30.0
1070
   143
1040
0.039
1070
   172
1070
     1
1070
   271
1070
     0
1070
   279
1070
     0
1070
   288
1070
     1
1070
     6
1000
DOT
1002
}
  0
LINE
  5
7D27
  8
3
 10
2637.4972035315509
 20
3326.1541556495922
 30
0.0
 11
2185.5510065315511
 21
3326.1541556495922
 31
0.0
  0
TEXT
  5
7D2C
  8
3
 10
2141.6735965482512
 20
3280.284509573064
 30
0.0
 40
90.0
  1
100
 50
90.0
  0
POINT
  5
7D30
  8
DEFPOINTS
  6
BYBLOCK
 62
     0
 10
2657.4972035315509
 20
3426.1541556495922
 30
0.0
  0
POINT
  5
7D31
  8
DEFPOINTS
  6
BYBLOCK
 62
     0
 10
2657.4972035315509
 20
3326.1541556495922
 30
0.0
  0
LINE
  5
7D49
  8
1
 10
5093.8871147499049
 20
3326.1541556495922
 30
0.0
 11
5703.8871147499049
 21
3326.1541556495922
 31
0.0
  0
DIMENSION
  5
7FA6
  8
3
  2
*D19
 10
3937.4972035315509
 20
4931.2855235226098
 30
0.0
 11
3266.0131269366539
 21
4931.2855235226098
 31
0.0
 70
   128
 13
2622.4972035315509
 23
4526.1541556495913
 33
0.0
 14
3937.4972035315509
 24
3501.1541556495922
 34
0.0
1001
ACAD
1000
DSTYLE
1002
{
1070
   287
1070
     3
1070
   287
1070
     3
1070
    40
1040
30.0
1070
   143
1040
0.039
1070
   172
1070
     1
1070
   271
1070
     0
1070
   279
1070
     0
1070
   288
1070
     1
1002
}
  0
ENDSEC
  0
EOF
