  0
SECTION
  2
HEADER
  9
$ACADVER
  1
AC1009
  9
$INSBASE
 10
0.0
 20
0.0
 30
0.0
  9
$EXTMIN
 10
750.0
 20
900.0
 30
0.0
  9
$EXTMAX
 10
5550.0
 20
8359.9567845000001
 30
0.0
  9
$LIMMIN
 10
0.0
 20
0.0
  9
$LIMMAX
 10
297.0
 20
210.0
  9
$ORTHOMODE
 70
     0
  9
$REGENMODE
 70
     1
  9
$FILLMODE
 70
     0
  9
$QTEXTMODE
 70
     0
  9
$MIRRTEXT
 70
     1
  9
$DRAGMODE
 70
     2
  9
$LTSCALE
 40
100.0
  9
$OSMODE
 70
    37
  9
$ATTMODE
 70
     1
  9
$TEXTSIZE
 40
180.0
  9
$TRACEWID
 40
0.05
  9
$TEXTSTYLE
  7
STANDARD
  9
$CLAYER
  8
3
  9
$CELTYPE
  6
BYLAYER
  9
$CECOLOR
 62
   256
  9
$DIMSCALE
 40
30.0
  9
$DIMASZ
 40
2.0
  9
$DIMEXO
 40
0.5
  9
$DIMDLI
 40
10.0
  9
$DIMRND
 40
0.0
  9
$DIMDLE
 40
0.0
  9
$DIMEXE
 40
1.0
  9
$DIMTP
 40
1.0
  9
$DIMTM
 40
1.0
  9
$DIMTXT
 40
3.0
  9
$DIMCEN
 40
0.0
  9
$DIMTSZ
 40
0.0
  9
$DIMTOL
 70
     0
  9
$DIMLIM
 70
     0
  9
$DIMTIH
 70
     0
  9
$DIMTOH
 70
     0
  9
$DIMSE1
 70
     0
  9
$DIMSE2
 70
     0
  9
$DIMTAD
 70
     1
  9
$DIMZIN
 70
     8
  9
$DIMBLK
  1

  9
$DIMASO
 70
     1
  9
$DIMSHO
 70
     1
  9
$DIMPOST
  1

  9
$DIMAPOST
  1

  9
$DIMALT
 70
     0
  9
$DIMALTD
 70
     2
  9
$DIMALTF
 40
0.039
  9
$DIMLFAC
 40
1.0
  9
$DIMTOFL
 70
     1
  9
$DIMTVP
 40
0.0
  9
$DIMTIX
 70
     0
  9
$DIMSOXD
 70
     0
  9
$DIMSAH
 70
     1
  9
$DIMBLK1
  1
OPEN
  9
$DIMBLK2
  1
OPEN
  9
$DIMSTYLE
  2
IGA
  9
$DIMCLRD
 70
     0
  9
$DIMCLRE
 70
     0
  9
$DIMCLRT
 70
     0
  9
$DIMTFAC
 40
10.0
  9
$DIMGAP
 40
1.0
  9
$LUNITS
 70
     2
  9
$LUPREC
 70
     3
  9
$SKETCHINC
 40
0.1
  9
$FILLETRAD
 40
50.0
  9
$AUNITS
 70
     0
  9
$AUPREC
 70
     0
  9
$MENU
  1
acad
  9
$ELEVATION
 40
0.0
  9
$PELEVATION
 40
0.0
  9
$THICKNESS
 40
0.0
  9
$LIMCHECK
 70
     0
  9
$BLIPMODE
 70
     0
  9
$CHAMFERA
 40
0.5
  9
$CHAMFERB
 40
0.5
  9
$SKPOLY
 70
     0
  9
$TDCREATE
 40
2450759.669207986
  9
$TDUPDATE
 40
2454953.6826321869
  9
$TDINDWG
 40
0.0106871412
  9
$TDUSRTIMER
 40
0.0106871412
  9
$USRTIMER
 70
     1
  9
$ANGBASE
 50
0.0
  9
$ANGDIR
 70
     0
  9
$PDMODE
 70
     0
  9
$PDSIZE
 40
0.0
  9
$PLINEWID
 40
0.0
  9
$COORDS
 70
     1
  9
$SPLFRAME
 70
     0
  9
$SPLINETYPE
 70
     6
  9
$SPLINESEGS
 70
     8
  9
$ATTDIA
 70
     0
  9
$ATTREQ
 70
     1
  9
$HANDLING
 70
 10241
  9
$HANDSEED
  5
8119
  9
$SURFTAB1
 70
     6
  9
$SURFTAB2
 70
     6
  9
$SURFTYPE
 70
     6
  9
$SURFU
 70
     6
  9
$SURFV
 70
     6
  9
$UCSNAME
  2

  9
$UCSORG
 10
0.0
 20
0.0
 30
0.0
  9
$UCSXDIR
 10
1.0
 20
0.0
 30
0.0
  9
$UCSYDIR
 10
0.0
 20
1.0
 30
0.0
  9
$PUCSNAME
  2

  9
$PUCSORG
 10
0.0
 20
0.0
 30
0.0
  9
$PUCSXDIR
 10
1.0
 20
0.0
 30
0.0
  9
$PUCSYDIR
 10
0.0
 20
1.0
 30
0.0
  9
$USERI1
 70
     0
  9
$USERI2
 70
     0
  9
$USERI3
 70
     0
  9
$USERI4
 70
     0
  9
$USERI5
 70
     0
  9
$USERR1
 40
0.0
  9
$USERR2
 40
0.0
  9
$USERR3
 40
0.0
  9
$USERR4
 40
0.0
  9
$USERR5
 40
0.0
  9
$WORLDVIEW
 70
     1
  9
$SHADEDGE
 70
     3
  9
$SHADEDIF
 70
    70
  9
$TILEMODE
 70
     1
  9
$MAXACTVP
 70
    16
  9
$PLIMCHECK
 70
     0
  9
$PEXTMIN
 10
1.0000000000000000E+020
 20
1.0000000000000000E+020
 30
1.0000000000000000E+020
  9
$PEXTMAX
 10
-1.0000000000000000E+020
 20
-1.0000000000000000E+020
 30
-1.0000000000000000E+020
  9
$PLIMMIN
 10
0.0
 20
0.0
  9
$PLIMMAX
 10
12.0
 20
9.0
  9
$UNITMODE
 70
     0
  9
$VISRETAIN
 70
     0
  9
$PLINEGEN
 70
     0
  9
$PSLTSCALE
 70
     1
  0
ENDSEC
  0
SECTION
  2
TABLES
  0
TABLE
  2
VPORT
 70
     2
  0
VPORT
  2
*ACTIVE
 70
     0
 10
0.0
 20
0.0
 11
1.0
 21
1.0
 12
15231.459490787311
 22
4468.5262360261404
 13
0.0
 23
0.0
 14
10.0
 24
10.0
 15
10.0
 25
10.0
 16
0.0
 26
0.0
 36
1.0
 17
0.0
 27
0.0
 37
0.0
 40
12035.57660223283
 41
3.1666666666666661
 42
50.0
 43
0.0
 44
0.0
 50
0.0
 51
0.0
 71
     0
 72
   100
 73
     1
 74
     0
 75
     0
 76
     0
 77
     0
 78
     0
  0
ENDTAB
  0
TABLE
  2
LTYPE
 70
     2
  0
LTYPE
  2
CONTINUOUS
 70
     0
  3
Solid line
 72
    65
 73
     0
 40
0.0
  0
LTYPE
  2
CENTER
 70
     0
  3
____ _ ____ _ ____ _ ____ _ ____ _ ____ _ ____ 
 72
    65
 73
     4
 40
2.0
 49
1.25
 49
-0.25
 49
0.25
 49
-0.25
  0
ENDTAB
  0
TABLE
  2
LAYER
 70
     6
  0
LAYER
  2
0
 70
     0
 62
     7
  6
CONTINUOUS
  0
LAYER
  2
3
 70
     0
 62
     2
  6
CONTINUOUS
  0
LAYER
  2
2
 70
     0
 62
     3
  6
CENTER
  0
LAYER
  2
1
 70
     0
 62
     4
  6
CONTINUOUS
  0
LAYER
  2
4
 70
     0
 62
     7
  6
CONTINUOUS
  0
LAYER
  2
DEFPOINTS
 70
     0
 62
    -7
  6
CONTINUOUS
  0
ENDTAB
  0
TABLE
  2
STYLE
 70
     1
  0
STYLE
  2
STANDARD
 70
     0
 40
0.0
 41
1.0
 50
0.0
 71
     0
 42
180.0
  3
simplex.shx
  4
extfont.shx
  0
ENDTAB
  0
TABLE
  2
VIEW
 70
     0
  0
ENDTAB
  0
TABLE
  2
UCS
 70
     0
  0
ENDTAB
  0
TABLE
  2
APPID
 70
     1
  0
APPID
  2
ACAD
 70
     0
  0
ENDTAB
  0
TABLE
  2
DIMSTYLE
 70
     1
  0
DIMSTYLE
  2
IGA
 70
     0
  3

  4

  5

  6
OPEN
  7
OPEN
 40
2.0
 41
2.0
 42
0.5
 43
10.0
 44
1.0
 45
0.0
 46
0.0
 47
1.0
 48
1.0
140
3.0
141
0.0
142
0.0
143
0.03937
144
1.0
145
0.0
146
10.0
147
1.0
 71
     0
 72
     0
 73
     0
 74
     0
 75
     0
 76
     0
 77
     1
 78
     8
170
     0
171
     2
172
     0
173
     1
174
     0
175
     0
176
     0
177
     0
178
     0
  0
ENDTAB
  0
ENDSEC
  0
SECTION
  2
BLOCKS
  0
BLOCK
  8
0
  2
$MODEL_SPACE
 70
     0
 10
0.0
 20
0.0
 30
0.0
  3
$MODEL_SPACE
  1

  0
ENDBLK
  5
1B
  8
0
  0
BLOCK
 67
     1
  8
0
  2
$PAPER_SPACE
 70
     0
 10
0.0
 20
0.0
 30
0.0
  3
$PAPER_SPACE
  1

  0
ENDBLK
  5
18
 67
     1
  8
0
  0
BLOCK
  8
0
  2
_OPEN
 70
     0
 10
0.0
 20
0.0
 30
0.0
  3
_OPEN
  1

  0
LINE
  5
7B1E
  8
0
  6
BYBLOCK
 62
     0
 10
-1.0
 20
0.166667
 30
0.0
 11
0.0
 21
0.0
 31
0.0
  0
LINE
  5
7B1F
  8
0
  6
BYBLOCK
 62
     0
 10
0.0
 20
0.0
 30
0.0
 11
-1.0
 21
-0.166667
 31
0.0
  0
LINE
  5
7B20
  8
0
  6
BYBLOCK
 62
     0
 10
0.0
 20
0.0
 30
0.0
 11
-1.0
 21
0.0
 31
0.0
  0
ENDBLK
  5
7B21
  8
0
  0
BLOCK
  8
0
  2
*D1
 70
     1
 10
0.0
 20
0.0
 30
0.0
  3
*D1
  1

  0
LINE
  5
7EDA
  8
0
  6
BYBLOCK
 62
     0
 10
1816.416606436818
 20
2626.3579506667561
 30
0.0
 11
1816.416606436818
 21
2376.287215645486
 31
0.0
  0
LINE
  5
7EDB
  8
0
  6
BYBLOCK
 62
     0
 10
2171.4166064368178
 20
2555.8511366667572
 30
0.0
 11
2171.4166064368178
 21
2376.287215645486
 31
0.0
  0
LINE
  5
7EDC
  8
0
  6
BYBLOCK
 62
     0
 10
1876.416606436818
 20
2406.2872156454869
 30
0.0
 11
2111.4166064368178
 21
2406.2872156454869
 31
0.0
  0
TEXT
  5
7EDD
  8
3
 62
     0
 10
1878.202320722532
 20
2438.180621397405
 30
0.0
 40
90.0
  1
355
  0
INSERT
  5
7EDE
  8
0
  6
BYBLOCK
 62
     0
  2
_OPEN
 10
1816.416606436818
 20
2406.2872156454869
 30
0.0
 41
60.0
 42
60.0
 43
60.0
 50
180.0
  0
INSERT
  5
7EDF
  8
0
  6
BYBLOCK
 62
     0
  2
_OPEN
 10
2171.4166064368178
 20
2406.2872156454869
 30
0.0
 41
60.0
 42
60.0
 43
60.0
  0
POINT
  5
7EE0
  8
DEFPOINTS
  6
BYBLOCK
 62
     0
 10
1816.416606436818
 20
2641.357950666757
 30
0.0
  0
POINT
  5
7EE1
  8
DEFPOINTS
  6
BYBLOCK
 62
     0
 10
2171.4166064368178
 20
2570.8511366667572
 30
0.0
  0
POINT
  5
7EE2
  8
DEFPOINTS
  6
BYBLOCK
 62
     0
 10
2171.4166064368178
 20
2406.2872156454869
 30
0.0
  0
ENDBLK
  5
7EE3
  8
0
  0
BLOCK
  8
0
  2
*D2
 70
     1
 10
0.0
 20
0.0
 30
0.0
  3
*D2
  1

  0
LINE
  5
8094
  8
3
 62
     0
 10
2171.4166064368178
 20
2555.8511366667572
 30
0.0
 11
2171.4166064368178
 21
2375.512040666757
 31
0.0
  0
LINE
  5
8095
  8
3
 62
     0
 10
3096.4166064368178
 20
2626.3579506667561
 30
0.0
 11
3096.4166064368178
 21
2375.512040666757
 31
0.0
  0
LINE
  5
8096
  8
3
 62
     0
 10
2231.4166064368178
 20
2405.512040666757
 30
0.0
 11
3036.4166064368178
 21
2405.512040666757
 31
0.0
  0
INSERT
  5
8097
  8
3
 62
     0
  2
_OPEN
 10
2171.4166064368178
 20
2405.512040666757
 30
0.0
 41
60.0
 42
60.0
 43
60.0
 50
180.0
  0
INSERT
  5
8098
  8
3
 62
     0
  2
_OPEN
 10
3096.4166064368178
 20
2405.512040666757
 30
0.0
 41
60.0
 42
60.0
 43
60.0
  0
TEXT
  8
3
  40
90
  5
810B
  62
0
  72
0
  71
0
 10
2453.92
 20
2321.21
 30
0.000000
  1
925
  0
POINT
  5
809A
  8
DEFPOINTS
 62
     0
 10
2171.4166064368178
 20
2570.8511366667572
 30
0.0
  0
POINT
  5
809B
  8
DEFPOINTS
 62
     0
 10
3096.4166064368178
 20
2641.357950666757
 30
0.0
  0
POINT
  5
809C
  8
DEFPOINTS
 62
     0
 10
3096.4166064368178
 20
2405.512040666757
 30
0.0
  0
ENDBLK
  5
7E7E
  8
0
  0
BLOCK
  8
0
  2
*D3
 70
     1
 10
0.0
 20
0.0
 30
0.0
  3
*D3
  1

  0
LINE
  5
809D
  8
3
 62
     0
 10
1766.416606436818
 20
3444.3579506667561
 30
0.0
 11
1578.1343654368179
 21
3444.3579506667561
 31
0.0
  0
LINE
  5
809E
  8
3
 62
     0
 10
1766.416606436818
 20
2864.3579506667561
 30
0.0
 11
1578.1343654368179
 21
2864.3579506667561
 31
0.0
  0
LINE
  5
809F
  8
3
 62
     0
 10
1608.1343654368179
 20
3384.3579506667561
 30
0.0
 11
1608.1343654368179
 21
2924.3579506667561
 31
0.0
  0
INSERT
  5
80A0
  8
3
 62
     0
  2
_OPEN
 10
1608.1343654368179
 20
3444.3579506667561
 30
0.0
 41
60.0
 42
60.0
 43
60.0
 50
90.0
  0
INSERT
  5
80A1
  8
3
 62
     0
  2
_OPEN
 10
1608.1343654368179
 20
2864.3579506667561
 30
0.0
 41
60.0
 42
60.0
 43
60.0
 50
270.0
  0
TEXT
  8
3
  40
90
  5
810C
  62
0
  72
0
  71
0
 10
1353.13
 20
3045.06
 30
0.000000
  1
580
  0
POINT
  5
80A3
  8
DEFPOINTS
 62
     0
 10
1781.416606436818
 20
3444.3579506667561
 30
0.0
  0
POINT
  5
80A4
  8
DEFPOINTS
 62
     0
 10
1781.416606436818
 20
2864.3579506667561
 30
0.0
  0
POINT
  5
80A5
  8
DEFPOINTS
 62
     0
 10
1608.1343654368179
 20
2864.3579506667561
 30
0.0
  0
ENDBLK
  5
7E73
  8
0
  0
BLOCK
  8
0
  2
*D4
 70
     1
 10
0.0
 20
0.0
 30
0.0
  3
*D4
  1

  0
LINE
  5
80A6
  8
3
 62
     0
 10
1766.416606436818
 20
2864.3579506667561
 30
0.0
 11
1387.7788274368179
 21
2864.3579506667561
 31
0.0
  0
LINE
  5
80A7
  8
3
 62
     0
 10
1823.9032684368169
 20
3464.3579506667561
 30
0.0
 11
1387.7788274368179
 21
3464.3579506667561
 31
0.0
  0
LINE
  5
80A8
  8
3
 62
     0
 10
1417.7788274368179
 20
2924.3579506667561
 30
0.0
 11
1417.7788274368179
 21
3404.3579506667561
 31
0.0
  0
INSERT
  5
80A9
  8
3
 62
     0
  2
_OPEN
 10
1417.7788274368179
 20
2864.3579506667561
 30
0.0
 41
60.0
 42
60.0
 43
60.0
 50
270.0
  0
INSERT
  5
80AA
  8
3
 62
     0
  2
_OPEN
 10
1417.7788274368179
 20
3464.3579506667561
 30
0.0
 41
60.0
 42
60.0
 43
60.0
 50
90.0
  0
TEXT
  8
3
  40
90
  5
810D
  62
0
  72
0
  71
0
 10
1162.78
 20
3065.06
 30
0.000000
  1
600
  0
POINT
  5
80AC
  8
DEFPOINTS
 62
     0
 10
1781.416606436818
 20
2864.3579506667561
 30
0.0
  0
POINT
  5
80AD
  8
DEFPOINTS
 62
     0
 10
1838.9032684368169
 20
3464.3579506667561
 30
0.0
  0
POINT
  5
80AE
  8
DEFPOINTS
 62
     0
 10
1417.7788274368179
 20
3464.3579506667561
 30
0.0
  0
ENDBLK
  5
7E68
  8
0
  0
BLOCK
  8
0
  2
*D5
 70
     1
 10
0.0
 20
0.0
 30
0.0
  3
*D5
  1

  0
LINE
  5
7F94
  8
0
  6
BYBLOCK
 62
     0
 10
2156.4166064368178
 20
3862.357950666757
 30
0.0
 11
1183.9675904368171
 21
3862.357950666757
 31
0.0
  0
LINE
  5
7F95
  8
0
  6
BYBLOCK
 62
     0
 10
1823.9032684368169
 20
3464.3579506667561
 30
0.0
 11
1183.9675904368171
 21
3464.3579506667561
 31
0.0
  0
LINE
  5
7F96
  8
0
  6
BYBLOCK
 62
     0
 10
1213.9675904368171
 20
3802.3579506667561
 30
0.0
 11
1213.9675904368171
 21
3524.3579506667561
 31
0.0
  0
TEXT
  5
7F97
  8
3
 62
     0
 10
1190.5791696933661
 20
3547.6436649524699
 30
0.0
 40
90.0
  1
400
 50
90.0
  0
INSERT
  5
7F98
  8
0
  6
BYBLOCK
 62
     0
  2
_OPEN
 10
1213.9675904368171
 20
3862.357950666757
 30
0.0
 41
60.0
 42
60.0
 43
60.0
 50
90.0
  0
INSERT
  5
7F99
  8
0
  6
BYBLOCK
 62
     0
  2
_OPEN
 10
1213.9675904368171
 20
3464.3579506667561
 30
0.0
 41
60.0
 42
60.0
 43
60.0
 50
270.0
  0
POINT
  5
7F9A
  8
DEFPOINTS
  6
BYBLOCK
 62
     0
 10
2171.4166064368178
 20
3862.357950666757
 30
0.0
  0
POINT
  5
7F9B
  8
DEFPOINTS
  6
BYBLOCK
 62
     0
 10
1838.9032684368169
 20
3464.3579506667561
 30
0.0
  0
POINT
  5
7F9C
  8
DEFPOINTS
  6
BYBLOCK
 62
     0
 10
1213.9675904368171
 20
3464.3579506667561
 30
0.0
  0
ENDBLK
  5
7F9D
  8
0
  0
BLOCK
  8
0
  2
*D6
 70
     1
 10
0.0
 20
0.0
 30
0.0
  3
*D6
  1

  0
LINE
  5
80AF
  8
3
 62
     0
 10
1823.9032684368169
 20
3464.3579506667561
 30
0.0
 11
1183.9675904368171
 21
3464.3579506667561
 31
0.0
  0
LINE
  5
80B0
  8
3
 62
     0
 10
1801.416606436818
 20
2744.3579506667561
 30
0.0
 11
1183.9675904368171
 21
2744.3579506667561
 31
0.0
  0
LINE
  5
80B1
  8
3
 62
     0
 10
1213.9675904368171
 20
3404.3579506667561
 30
0.0
 11
1213.9675904368171
 21
2804.3579506667561
 31
0.0
  0
INSERT
  5
80B2
  8
3
 62
     0
  2
_OPEN
 10
1213.9675904368171
 20
3464.3579506667561
 30
0.0
 41
60.0
 42
60.0
 43
60.0
 50
90.0
  0
INSERT
  5
80B3
  8
3
 62
     0
  2
_OPEN
 10
1213.9675904368171
 20
2744.3579506667561
 30
0.0
 41
60.0
 42
60.0
 43
60.0
 50
270.0
  0
TEXT
  8
3
  40
90
  5
810E
  62
0
  72
0
  71
0
 10
958.968
 20
2945.06
 30
0.000000
  1
720
  0
POINT
  5
80B5
  8
DEFPOINTS
 62
     0
 10
1838.9032684368169
 20
3464.3579506667561
 30
0.0
  0
POINT
  5
80B6
  8
DEFPOINTS
 62
     0
 10
1816.416606436818
 20
2744.3579506667561
 30
0.0
  0
POINT
  5
80B7
  8
DEFPOINTS
 62
     0
 10
1213.9675904368171
 20
2744.3579506667561
 30
0.0
  0
ENDBLK
  5
7E50
  8
0
  0
BLOCK
  8
0
  2
*D7
 70
     1
 10
0.0
 20
0.0
 30
0.0
  3
*D7
  1

  0
LINE
  5
7EC4
  8
0
  6
BYBLOCK
 62
     0
 10
1781.416606436818
 20
3489.3579506667561
 30
0.0
 11
1781.416606436818
 21
4111.2655974482614
 31
0.0
  0
LINE
  5
7EC5
  8
0
  6
BYBLOCK
 62
     0
 10
2171.4166064368178
 20
3877.3579506667561
 30
0.0
 11
2171.4166064368178
 21
4111.2655974482614
 31
0.0
  0
LINE
  5
7EC6
  8
0
  6
BYBLOCK
 62
     0
 10
1841.416606436818
 20
4081.2655974482618
 30
0.0
 11
2111.4166064368178
 21
4081.2655974482618
 31
0.0
  0
TEXT
  5
7EC7
  8
3
 62
     0
 10
1860.702320722532
 20
4113.8509437863468
 30
0.0
 40
90.0
  1
390
  0
INSERT
  5
7EC8
  8
0
  6
BYBLOCK
 62
     0
  2
_OPEN
 10
1781.416606436818
 20
4081.2655974482618
 30
0.0
 41
60.0
 42
60.0
 43
60.0
 50
180.0
  0
INSERT
  5
7EC9
  8
0
  6
BYBLOCK
 62
     0
  2
_OPEN
 10
2171.4166064368178
 20
4081.2655974482618
 30
0.0
 41
60.0
 42
60.0
 43
60.0
  0
POINT
  5
7ECA
  8
DEFPOINTS
  6
BYBLOCK
 62
     0
 10
1781.416606436818
 20
3474.3579506667561
 30
0.0
  0
POINT
  5
7ECB
  8
DEFPOINTS
  6
BYBLOCK
 62
     0
 10
2171.4166064368178
 20
3862.357950666757
 30
0.0
  0
POINT
  5
7ECC
  8
DEFPOINTS
  6
BYBLOCK
 62
     0
 10
2171.4166064368178
 20
4081.2655974482618
 30
0.0
  0
ENDBLK
  5
7ECD
  8
0
  0
BLOCK
  8
0
  2
*D8
 70
     1
 10
0.0
 20
0.0
 30
0.0
  3
*D8
  1

  0
LINE
  5
80B8
  8
3
 62
     0
 10
2171.4166064368178
 20
3877.3579506667561
 30
0.0
 11
2171.4166064368178
 21
4111.2655974482614
 31
0.0
  0
LINE
  5
80B9
  8
3
 62
     0
 10
2653.4166064368178
 20
3479.357950666757
 30
0.0
 11
2653.4166064368178
 21
4111.2655974482614
 31
0.0
  0
LINE
  5
80BA
  8
3
 62
     0
 10
2231.4166064368178
 20
4081.2655974482618
 30
0.0
 11
2593.4166064368178
 21
4081.2655974482618
 31
0.0
  0
INSERT
  5
80BB
  8
3
 62
     0
  2
_OPEN
 10
2171.4166064368178
 20
4081.2655974482618
 30
0.0
 41
60.0
 42
60.0
 43
60.0
 50
180.0
  0
INSERT
  5
80BC
  8
3
 62
     0
  2
_OPEN
 10
2653.4166064368178
 20
4081.2655974482618
 30
0.0
 41
60.0
 42
60.0
 43
60.0
  0
TEXT
  8
3
  40
90
  5
810F
  62
0
  72
0
  71
0
 10
2232.42
 20
3996.97
 30
0.000000
  1
484
  0
POINT
  5
80BE
  8
DEFPOINTS
 62
     0
 10
2171.4166064368178
 20
3862.357950666757
 30
0.0
  0
POINT
  5
80BF
  8
DEFPOINTS
 62
     0
 10
2653.4166064368178
 20
3464.3579506667561
 30
0.0
  0
POINT
  5
80C0
  8
DEFPOINTS
 62
     0
 10
2653.4166064368178
 20
4081.2655974482618
 30
0.0
  0
ENDBLK
  5
7F92
  8
0
  0
BLOCK
  8
0
  2
*D9
 70
     1
 10
0.0
 20
0.0
 30
0.0
  3
*D9
  1

  0
LINE
  5
80C1
  8
3
 62
     0
 10
1816.416606436818
 20
5244.962547666757
 30
0.0
 11
1816.416606436818
 21
4815.6890666667568
 31
0.0
  0
LINE
  5
80C2
  8
3
 62
     0
 10
3096.4166064368178
 20
5244.962547666757
 30
0.0
 11
3096.4166064368178
 21
4815.6890666667568
 31
0.0
  0
LINE
  5
80C3
  8
3
 62
     0
 10
1876.416606436818
 20
4845.6890666667568
 30
0.0
 11
3036.4166064368178
 21
4845.6890666667568
 31
0.0
  0
INSERT
  5
80C4
  8
3
 62
     0
  2
_OPEN
 10
1816.416606436818
 20
4845.6890666667568
 30
0.0
 41
60.0
 42
60.0
 43
60.0
 50
180.0
  0
INSERT
  5
80C5
  8
3
 62
     0
  2
_OPEN
 10
3096.4166064368178
 20
4845.6890666667568
 30
0.0
 41
60.0
 42
60.0
 43
60.0
  0
TEXT
  8
3
  40
90
  5
8110
  62
0
  72
0
  71
0
 10
2300.82
 20
4761.39
 30
0.000000
  1
1280
  0
POINT
  5
80C7
  8
DEFPOINTS
 62
     0
 10
1816.416606436818
 20
5259.962547666757
 30
0.0
  0
POINT
  5
80C8
  8
DEFPOINTS
 62
     0
 10
3096.4166064368178
 20
5259.962547666757
 30
0.0
  0
POINT
  5
80C9
  8
DEFPOINTS
 62
     0
 10
3096.4166064368178
 20
4845.6890666667568
 30
0.0
  0
ENDBLK
  5
7E2D
  8
0
  0
BLOCK
  8
0
  2
*D10
 70
     1
 10
0.0
 20
0.0
 30
0.0
  3
*D10
  1

  0
LINE
  5
80CA
  8
3
 62
     0
 10
3111.4166064368178
 20
5869.962547666757
 30
0.0
 11
3452.7478704368191
 21
5869.962547666757
 31
0.0
  0
LINE
  5
80CB
  8
3
 62
     0
 10
3111.4166064368178
 20
5259.962547666757
 30
0.0
 11
3452.7478704368191
 21
5259.962547666757
 31
0.0
  0
LINE
  5
80CC
  8
3
 62
     0
 10
3422.7478704368191
 20
5809.9625476667561
 30
0.0
 11
3422.7478704368191
 21
5319.962547666757
 31
0.0
  0
INSERT
  5
80CD
  8
3
 62
     0
  2
_OPEN
 10
3422.7478704368191
 20
5869.962547666757
 30
0.0
 41
60.0
 42
60.0
 43
60.0
 50
90.0
  0
INSERT
  5
80CE
  8
3
 62
     0
  2
_OPEN
 10
3422.7478704368191
 20
5259.962547666757
 30
0.0
 41
60.0
 42
60.0
 43
60.0
 50
270.0
  0
TEXT
  8
3
  40
90
  5
8111
  62
0
  72
0
  71
0
 10
3167.75
 20
5427.58
 30
0.000000
  1
610
  0
POINT
  5
80D0
  8
DEFPOINTS
 62
     0
 10
3096.4166064368178
 20
5869.962547666757
 30
0.0
  0
POINT
  5
80D1
  8
DEFPOINTS
 62
     0
 10
3096.4166064368178
 20
5259.962547666757
 30
0.0
  0
POINT
  5
80D2
  8
DEFPOINTS
 62
     0
 10
3422.7478704368191
 20
5259.962547666757
 30
0.0
  0
ENDBLK
  5
7E22
  8
0
  0
BLOCK
  8
0
  2
*D11
 70
     1
 10
0.0
 20
0.0
 30
0.0
  3
*D11
  1

  0
LINE
  5
80D3
  8
3
 62
     0
 10
4383.2099403486018
 20
3879.3579506667561
 30
0.0
 11
4383.2099403486018
 21
4074.2869302820181
 31
0.0
  0
LINE
  5
80D4
  8
3
 62
     0
 10
4808.2099403486027
 20
3879.3579506667561
 30
0.0
 11
4808.2099403486027
 21
4074.2869302820181
 31
0.0
  0
LINE
  5
80D5
  8
3
 62
     0
 10
4443.2099403486018
 20
4044.2869302820191
 30
0.0
 11
4748.2099403486018
 21
4044.2869302820191
 31
0.0
  0
INSERT
  5
80D6
  8
3
 62
     0
  2
_OPEN
 10
4383.2099403486018
 20
4044.2869302820191
 30
0.0
 41
60.0
 42
60.0
 43
60.0
 50
180.0
  0
INSERT
  5
80D7
  8
3
 62
     0
  2
_OPEN
 10
4808.2099403486027
 20
4044.2869302820191
 30
0.0
 41
60.0
 42
60.0
 43
60.0
  0
TEXT
  8
3
  40
90
  5
8112
  62
0
  72
0
  71
0
 10
4408.92
 20
3959.99
 30
0.000000
  1
425
  0
POINT
  5
80D9
  8
DEFPOINTS
 62
     0
 10
4383.2099403486018
 20
3864.3579506667561
 30
0.0
  0
POINT
  5
80DA
  8
DEFPOINTS
 62
     0
 10
4808.2099403486027
 20
3864.3579506667561
 30
0.0
  0
POINT
  5
80DB
  8
DEFPOINTS
 62
     0
 10
4808.2099403486027
 20
4044.2869302820191
 30
0.0
  0
ENDBLK
  5
7F6B
  8
0
  0
BLOCK
  8
0
  2
*D12
 70
     1
 10
0.0
 20
0.0
 30
0.0
  3
*D12
  1

  0
LINE
  5
80DC
  8
3
 62
     0
 10
4135.7099403486018
 20
3643.6579506667572
 30
0.0
 11
4135.7099403486018
 21
4277.5161424243561
 31
0.0
  0
LINE
  5
80DD
  8
3
 62
     0
 10
4595.7099403486018
 20
4200.2711033538399
 30
0.0
 11
4595.7099403486018
 21
4277.5161424243561
 31
0.0
  0
LINE
  5
80DE
  8
3
 62
     0
 10
4195.7099403486018
 20
4247.5161424243552
 30
0.0
 11
4535.7099403486018
 21
4247.5161424243552
 31
0.0
  0
INSERT
  5
80DF
  8
3
 62
     0
  2
_OPEN
 10
4135.7099403486018
 20
4247.5161424243552
 30
0.0
 41
60.0
 42
60.0
 43
60.0
 50
180.0
  0
INSERT
  5
80E0
  8
3
 62
     0
  2
_OPEN
 10
4595.7099403486018
 20
4247.5161424243552
 30
0.0
 41
60.0
 42
60.0
 43
60.0
  0
TEXT
  8
3
  40
90
  5
8113
  62
0
  72
0
  71
0
 10
4174.28
 20
4238.22
 30
0.000000
  1
MAX
  0
TEXT
  8
3
  40
90
  5
8114
  62
0
  72
0
  71
0
 10
4174.28
 20
4121.22
 30
0.000000
  1
510
  0
POINT
  5
80E2
  8
DEFPOINTS
 62
     0
 10
4135.7099403486018
 20
3628.6579506667572
 30
0.0
  0
POINT
  5
80E3
  8
DEFPOINTS
 62
     0
 10
4595.7099403486018
 20
4185.2711033538399
 30
0.0
  0
POINT
  5
80E4
  8
DEFPOINTS
 62
     0
 10
4595.7099403486018
 20
4247.5161424243552
 30
0.0
  0
ENDBLK
  5
7FBB
  8
0
  0
BLOCK
  8
0
  2
*D13
 70
     1
 10
0.0
 20
0.0
 30
0.0
  3
*D13
  1

  0
LINE
  5
7F6D
  8
0
  6
BYBLOCK
 62
     0
 10
4595.7099403486018
 20
4200.2711033538399
 30
0.0
 11
4595.7099403486018
 21
4277.8591331879616
 31
0.0
  0
LINE
  5
7F6E
  8
0
  6
BYBLOCK
 62
     0
 10
4871.7099403486027
 20
3789.3579506667561
 30
0.0
 11
4871.7099403486027
 21
4277.8591331879616
 31
0.0
  0
LINE
  5
7F6F
  8
0
  6
BYBLOCK
 62
     0
 10
4655.7099403486027
 20
4247.8591331879607
 30
0.0
 11
4811.7099403486018
 21
4247.8591331879607
 31
0.0
  0
TEXT
  5
7F70
  8
3
 62
     0
 10
4629.2119186734326
 20
4270.4066145827846
 30
0.0
 40
90.0
  1
276
  0
INSERT
  5
7F71
  8
0
  6
BYBLOCK
 62
     0
  2
_OPEN
 10
4595.7099403486018
 20
4247.8591331879607
 30
0.0
 41
60.0
 42
60.0
 43
60.0
 50
180.0
  0
INSERT
  5
7F72
  8
0
  6
BYBLOCK
 62
     0
  2
_OPEN
 10
4871.7099403486027
 20
4247.8591331879607
 30
0.0
 41
60.0
 42
60.0
 43
60.0
  0
POINT
  5
7F73
  8
DEFPOINTS
  6
BYBLOCK
 62
     0
 10
4595.7099403486018
 20
4185.2711033538399
 30
0.0
  0
POINT
  5
7F74
  8
DEFPOINTS
  6
BYBLOCK
 62
     0
 10
4871.7099403486027
 20
3774.3579506667561
 30
0.0
  0
POINT
  5
7F75
  8
DEFPOINTS
  6
BYBLOCK
 62
     0
 10
4871.7099403486027
 20
4247.8591331879607
 30
0.0
  0
ENDBLK
  5
7F76
  8
0
  0
BLOCK
  8
0
  2
*D14
 70
     1
 10
0.0
 20
0.0
 30
0.0
  3
*D14
  1

  0
LINE
  5
80E5
  8
3
 62
     0
 10
4886.7099403486027
 20
3744.3579506667561
 30
0.0
 11
5131.5910018212244
 21
3744.3579506667561
 31
0.0
  0
LINE
  5
80E6
  8
3
 62
     0
 10
4886.7099403486027
 20
3184.3579506667561
 30
0.0
 11
5131.5910018212244
 21
3184.3579506667561
 31
0.0
  0
LINE
  5
80E7
  8
3
 62
     0
 10
5101.5910018212244
 20
3684.3579506667561
 30
0.0
 11
5101.5910018212244
 21
3244.3579506667561
 31
0.0
  0
INSERT
  5
80E8
  8
3
 62
     0
  2
_OPEN
 10
5101.5910018212244
 20
3744.3579506667561
 30
0.0
 41
60.0
 42
60.0
 43
60.0
 50
90.0
  0
INSERT
  5
80E9
  8
3
 62
     0
  2
_OPEN
 10
5101.5910018212244
 20
3184.3579506667561
 30
0.0
 41
60.0
 42
60.0
 43
60.0
 50
270.0
  0
TEXT
  8
3
  40
90
  5
8115
  62
0
  72
0
  71
0
 10
4846.59
 20
3325.34
 30
0.000000
  1
φ560
  0
POINT
  5
80EB
  8
DEFPOINTS
 62
     0
 10
4871.7099403486027
 20
3744.3579506667561
 30
0.0
  0
POINT
  5
80EC
  8
DEFPOINTS
 62
     0
 10
4871.7099403486027
 20
3184.3579506667561
 30
0.0
  0
POINT
  5
80ED
  8
DEFPOINTS
 62
     0
 10
5101.5910018212244
 20
3184.3579506667561
 30
0.0
  0
ENDBLK
  5
7F34
  8
0
  0
BLOCK
  8
0
  2
*D15
 70
     1
 10
0.0
 20
0.0
 30
0.0
  3
*D15
  1

  0
LINE
  5
7F20
  8
0
  6
BYBLOCK
 62
     0
 10
4240.7099403486027
 20
2626.3579506667561
 30
0.0
 11
4240.7099403486027
 21
2378.4776576667559
 31
0.0
  0
LINE
  5
7F21
  8
0
  6
BYBLOCK
 62
     0
 10
4595.7099403486018
 20
2584.0202646667558
 30
0.0
 11
4595.7099403486018
 21
2378.4776576667559
 31
0.0
  0
LINE
  5
7F22
  8
0
  6
BYBLOCK
 62
     0
 10
4300.7099403486018
 20
2408.4776576667559
 30
0.0
 11
4535.7099403486018
 21
2408.4776576667559
 31
0.0
  0
TEXT
  5
7F23
  8
3
 62
     0
 10
4302.4956546343174
 20
2439.6874623668919
 30
0.0
 40
90.0
  1
355
  0
INSERT
  5
7F24
  8
0
  6
BYBLOCK
 62
     0
  2
_OPEN
 10
4240.7099403486027
 20
2408.4776576667559
 30
0.0
 41
60.0
 42
60.0
 43
60.0
 50
180.0
  0
INSERT
  5
7F25
  8
0
  6
BYBLOCK
 62
     0
  2
_OPEN
 10
4595.7099403486018
 20
2408.4776576667559
 30
0.0
 41
60.0
 42
60.0
 43
60.0
  0
POINT
  5
7F26
  8
DEFPOINTS
  6
BYBLOCK
 62
     0
 10
4240.7099403486027
 20
2641.357950666757
 30
0.0
  0
POINT
  5
7F27
  8
DEFPOINTS
  6
BYBLOCK
 62
     0
 10
4595.7099403486018
 20
2599.0202646667572
 30
0.0
  0
POINT
  5
7F28
  8
DEFPOINTS
  6
BYBLOCK
 62
     0
 10
4595.7099403486018
 20
2408.4776576667559
 30
0.0
  0
ENDBLK
  5
7F29
  8
0
  0
BLOCK
  8
0
  2
*D16
 70
     1
 10
0.0
 20
0.0
 30
0.0
  3
*D16
  1

  0
LINE
  5
7F0A
  8
0
  6
BYBLOCK
 62
     0
 10
4595.7099403486018
 20
2584.0202646667558
 30
0.0
 11
4595.7099403486018
 21
2378.4776576667559
 31
0.0
  0
LINE
  5
7F0B
  8
0
  6
BYBLOCK
 62
     0
 10
4850.7099403486027
 20
2626.3579506667561
 30
0.0
 11
4850.7099403486027
 21
2378.4776576667559
 31
0.0
  0
LINE
  5
7F0C
  8
0
  6
BYBLOCK
 62
     0
 10
4655.7099403486027
 20
2408.4776576667559
 30
0.0
 11
4790.7099403486027
 21
2408.4776576667559
 31
0.0
  0
TEXT
  5
7F0D
  8
3
 62
     0
 10
4609.5233016781394
 20
2437.3213564520329
 30
0.0
 40
90.0
  1
255
  0
INSERT
  5
7F0E
  8
0
  6
BYBLOCK
 62
     0
  2
_OPEN
 10
4595.7099403486018
 20
2408.4776576667559
 30
0.0
 41
60.0
 42
60.0
 43
60.0
 50
180.0
  0
INSERT
  5
7F0F
  8
0
  6
BYBLOCK
 62
     0
  2
_OPEN
 10
4850.7099403486027
 20
2408.4776576667559
 30
0.0
 41
60.0
 42
60.0
 43
60.0
  0
POINT
  5
7F10
  8
DEFPOINTS
  6
BYBLOCK
 62
     0
 10
4595.7099403486018
 20
2599.0202646667572
 30
0.0
  0
POINT
  5
7F11
  8
DEFPOINTS
  6
BYBLOCK
 62
     0
 10
4850.7099403486027
 20
2641.357950666757
 30
0.0
  0
POINT
  5
7F12
  8
DEFPOINTS
  6
BYBLOCK
 62
     0
 10
4850.7099403486027
 20
2408.4776576667559
 30
0.0
  0
ENDBLK
  5
7F13
  8
0
  0
BLOCK
  8
0
  2
*D17
 70
     1
 10
0.0
 20
0.0
 30
0.0
  3
*D17
  1

  0
LINE
  5
80EE
  8
3
 62
     0
 10
1801.416606436818
 20
2744.3579506667561
 30
0.0
 11
1183.967590436818
 21
2744.3579506667561
 31
0.0
  0
LINE
  5
80EF
  8
3
 62
     0
 10
1801.416606436818
 20
2641.357950666757
 30
0.0
 11
1183.967590436818
 21
2641.357950666757
 31
0.0
  0
LINE
  5
80F0
  8
3
 62
     0
 10
1213.967590436818
 20
2804.3579506667561
 30
0.0
 11
1213.967590436818
 21
2864.3579506667561
 31
0.0
  0
LINE
  5
80F1
  8
3
 62
     0
 10
1213.967590436818
 20
2581.3579506667561
 30
0.0
 11
1213.967590436818
 21
2239.2150935238992
 31
0.0
  0
LINE
  5
80F2
  8
3
 62
     0
 10
1213.967590436818
 20
2744.3579506667561
 30
0.0
 11
1213.967590436818
 21
2641.357950666757
 31
0.0
  0
INSERT
  5
80F3
  8
3
 62
     0
  2
_OPEN
 10
1213.967590436818
 20
2744.3579506667561
 30
0.0
 41
60.0
 42
60.0
 43
60.0
 50
270.0
  0
INSERT
  5
80F4
  8
3
 62
     0
  2
_OPEN
 10
1213.967590436818
 20
2641.357950666757
 30
0.0
 41
60.0
 42
60.0
 43
60.0
 50
90.0
  0
TEXT
  8
3
  40
90
  5
8116
  62
0
  72
0
  71
0
 10
958.968
 20
2217.06
 30
0.000000
  1
103
  0
POINT
  5
80F6
  8
DEFPOINTS
 62
     0
 10
1816.416606436818
 20
2744.3579506667561
 30
0.0
  0
POINT
  5
80F7
  8
DEFPOINTS
 62
     0
 10
1816.416606436818
 20
2641.357950666757
 30
0.0
  0
POINT
  5
80F8
  8
DEFPOINTS
 62
     0
 10
1213.967590436818
 20
2641.357950666757
 30
0.0
  0
ENDBLK
  5
7EFD
  8
0
  0
BLOCK
  8
0
  2
*D18
 70
     1
 10
0.0
 20
0.0
 30
0.0
  3
*D18
  1

  0
LINE
  5
80F9
  8
3
 62
     0
 10
2156.4166064368178
 20
3862.357950666757
 30
0.0
 11
986.34204943681902
 21
3862.357950666757
 31
0.0
  0
LINE
  5
80FA
  8
3
 62
     0
 10
1801.416606436818
 20
2641.357950666757
 30
0.0
 11
986.34204943681857
 21
2641.357950666757
 31
0.0
  0
LINE
  5
80FB
  8
3
 62
     0
 10
1016.342049436818
 20
3802.357950666757
 30
0.0
 11
1016.342049436818
 21
2701.357950666757
 31
0.0
  0
INSERT
  5
80FC
  8
3
 62
     0
  2
_OPEN
 10
1016.342049436819
 20
3862.357950666757
 30
0.0
 41
60.0
 42
60.0
 43
60.0
 50
90.0
  0
INSERT
  5
80FD
  8
3
 62
     0
  2
_OPEN
 10
1016.342049436818
 20
2641.357950666757
 30
0.0
 41
60.0
 42
60.0
 43
60.0
 50
270.0
  0
TEXT
  8
3
  40
90
  5
8117
  62
0
  72
0
  71
0
 10
761.342
 20
3026.54
 30
0.000000
  1
1223
  0
POINT
  5
80FF
  8
DEFPOINTS
 62
     0
 10
2171.4166064368178
 20
3862.357950666757
 30
0.0
  0
POINT
  5
8100
  8
DEFPOINTS
 62
     0
 10
1816.416606436818
 20
2641.357950666757
 30
0.0
  0
POINT
  5
8101
  8
DEFPOINTS
 62
     0
 10
1016.342049436818
 20
2641.357950666757
 30
0.0
  0
ENDBLK
  5
7FAC
  8
0
  0
BLOCK
  8
0
  2
*D19
 70
     1
 10
0.0
 20
0.0
 30
0.0
  3
*D19
  1

  0
LINE
  5
8102
  8
3
 62
     0
 10
1781.416606436818
 20
3489.3579506667561
 30
0.0
 11
1781.416606436818
 21
4279.5504119779207
 31
0.0
  0
LINE
  5
8103
  8
3
 62
     0
 10
3096.4166064368178
 20
2834.3579506667561
 30
0.0
 11
3096.4166064368178
 21
4279.5504119779207
 31
0.0
  0
LINE
  5
8104
  8
3
 62
     0
 10
1841.416606436818
 20
4249.5504119779216
 30
0.0
 11
3036.4166064368178
 21
4249.5504119779216
 31
0.0
  0
INSERT
  5
8105
  8
3
 62
     0
  2
_OPEN
 10
1781.416606436818
 20
4249.5504119779216
 30
0.0
 41
60.0
 42
60.0
 43
60.0
 50
180.0
  0
INSERT
  5
8106
  8
3
 62
     0
  2
_OPEN
 10
3096.4166064368178
 20
4249.5504119779216
 30
0.0
 41
60.0
 42
60.0
 43
60.0
  0
TEXT
  8
3
  40
90
  5
8118
  62
0
  72
0
  71
0
 10
2261.30
 20
4165.25
 30
0.000000
  1
1315
  0
POINT
  5
8108
  8
DEFPOINTS
 62
     0
 10
1781.416606436818
 20
3474.3579506667561
 30
0.0
  0
POINT
  5
8109
  8
DEFPOINTS
 62
     0
 10
3096.4166064368178
 20
2819.3579506667561
 30
0.0
  0
POINT
  5
810A
  8
DEFPOINTS
 62
     0
 10
3096.4166064368178
 20
4249.5504119779216
 30
0.0
  0
ENDBLK
  5
7FC7
  8
0
  0
ENDSEC
  0
SECTION
  2
ENTITIES
  0
LINE
  5
7A92
  8
1
 10
2807.8891284368178
 20
2901.3382186667568
 30
0.0
 11
2107.8891284368178
 21
3369.3382186667568
 31
0.0
  0
LINE
  5
7A93
  8
1
 10
2780.099330436818
 20
2859.772281666757
 30
0.0
 11
2080.099330436818
 21
3327.772281666757
 31
0.0
  0
ARC
  5
7A94
  8
1
 10
2871.4166064368178
 20
2996.357950666757
 30
0.0
 40
164.30000000000001
 50
236.23444399999991
 51
56.234444000000003
  0
ARC
  5
7A95
  8
1
 10
2129.4166064368178
 20
3422.357950666757
 30
0.0
 40
526.0
 50
274.57982399999997
 51
4.5798239999999986
  0
LINE
  5
7A96
  8
1
 10
1781.416606436818
 20
2834.3579506667561
 30
0.0
 11
1781.416606436818
 21
3474.3579506667561
 31
0.0
  0
LINE
  5
7A97
  8
1
 10
1811.416606436818
 20
2866.9486806667569
 30
0.0
 11
1811.416606436818
 21
3444.3579506667561
 31
0.0
  0
ARC
  5
7A98
  8
1
 10
2871.4166064368178
 20
2996.357950666757
 30
0.0
 40
143.0
 50
324.34590999999989
 51
215.65408999999991
  0
CIRCLE
  5
7A99
  8
1
 10
2871.4166064368178
 20
2996.357950666757
 30
0.0
 40
114.3
  0
LINE
  5
7A9A
  8
2
 10
2871.4166064368178
 20
2877.0579506667559
 30
0.0
 11
2871.4166064368178
 21
3115.6579506667558
 31
0.0
  0
LINE
  5
7A9B
  8
1
 10
3096.4166064368178
 20
2706.3579506667561
 30
0.0
 11
1816.416606436818
 21
2706.3579506667561
 31
0.0
  0
LINE
  5
7A9C
  8
1
 10
3096.4166064368178
 20
2641.357950666757
 30
0.0
 11
1816.416606436818
 21
2641.357950666757
 31
0.0
  0
LINE
  5
7A9D
  8
1
 10
3096.4166064368178
 20
2744.3579506667561
 30
0.0
 11
1816.416606436818
 21
2744.3579506667561
 31
0.0
  0
LINE
  5
7A9E
  8
1
 10
3096.4166064368178
 20
2819.3579506667561
 30
0.0
 11
1816.416606436818
 21
2819.3579506667561
 31
0.0
  0
LINE
  5
7A9F
  8
1
 10
2171.4166064368178
 20
2898.037437666756
 30
0.0
 11
1781.416606436818
 21
2864.3579506667561
 31
0.0
  0
LINE
  5
7AA0
  8
1
 10
1816.416606436818
 20
2706.3579506667561
 30
0.0
 11
1816.416606436818
 21
2641.357950666757
 31
0.0
  0
LINE
  5
7AA1
  8
1
 10
1816.416606436818
 20
2819.3579506667561
 30
0.0
 11
1816.416606436818
 21
2744.3579506667561
 31
0.0
  0
LINE
  5
7AA2
  8
1
 10
3046.4166064368178
 20
2819.3579506667561
 30
0.0
 11
2696.4166064368178
 21
2819.3579506667561
 31
0.0
  0
LINE
  5
7AA3
  8
2
 10
2990.716606436818
 20
2996.357950666757
 30
0.0
 11
2752.116606436819
 21
2996.357950666757
 31
0.0
  0
LINE
  5
7AA4
  8
1
 10
2741.4166064368178
 20
2879.3579506667561
 30
0.0
 11
2755.4458834368179
 21
2913.5506956667559
 31
0.0
  0
LINE
  5
7AA5
  8
1
 10
2741.4166064368178
 20
2864.3579506667561
 30
0.0
 11
2741.4166064368178
 21
2879.3579506667561
 31
0.0
  0
LINE
  5
7AA6
  8
1
 10
2696.4166064368178
 20
2819.3579506667561
 30
0.0
 11
2706.4166064368178
 21
2864.3579506667561
 31
0.0
  0
LINE
  5
7AA7
  8
1
 10
2741.4166064368178
 20
2864.3579506667561
 30
0.0
 11
2706.4166064368178
 21
2864.3579506667561
 31
0.0
  0
LINE
  5
7AA8
  8
1
 10
3096.4166064368178
 20
2706.3579506667561
 30
0.0
 11
3096.4166064368178
 21
2641.357950666757
 31
0.0
  0
LINE
  5
7AA9
  8
1
 10
3096.4166064368178
 20
2819.3579506667561
 30
0.0
 11
3096.4166064368178
 21
2744.3579506667561
 31
0.0
  0
LINE
  5
7AAA
  8
1
 10
3036.4166064368178
 20
2864.3579506667561
 30
0.0
 11
3001.4166064368178
 21
2864.3579506667561
 31
0.0
  0
LINE
  5
7AAB
  8
1
 10
3001.4166064368178
 20
2864.3579506667561
 30
0.0
 11
3001.4166064368178
 21
2879.3579506667561
 31
0.0
  0
LINE
  5
7AAC
  8
1
 10
3001.4166064368178
 20
2879.3579506667561
 30
0.0
 11
2987.3873284368178
 21
2913.5506956667559
 31
0.0
  0
LINE
  5
7AAD
  8
1
 10
3036.4166064368178
 20
2864.3579506667561
 30
0.0
 11
3046.4166064368178
 21
2819.3579506667561
 31
0.0
  0
LINE
  5
7AAE
  8
1
 10
2934.9440844368178
 20
3091.3776826667572
 30
0.0
 11
2234.9440844368178
 21
3559.3776826667572
 31
0.0
  0
LINE
  5
7AAF
  8
1
 10
2962.733882436818
 20
3132.9436196667571
 30
0.0
 11
2262.733882436818
 21
3600.9436196667571
 31
0.0
  0
ARC
  5
7AB0
  8
1
 10
2213.4166064368178
 20
3422.357950666757
 30
0.0
 40
442.0
 50
5.452621999999999
 51
95.452621999999991
  0
ARC
  5
7AB1
  8
1
 10
2171.4166064368178
 20
3464.3579506667561
 30
0.0
 40
164.30000000000001
 50
56.234444000000003
 51
236.23444399999991
  0
ARC
  5
7AB2
  8
1
 10
2204.4166064368178
 20
3497.3579506667561
 30
0.0
 40
367.0
 50
95.158904000000007
 51
185.15890400000001
  0
CIRCLE
  5
7AB3
  8
1
 10
2171.4166064368178
 20
3464.3579506667561
 30
0.0
 40
280.0
  0
CIRCLE
  5
7AB4
  8
1
 10
2171.4166064368178
 20
3464.3579506667561
 30
0.0
 40
310.0
  0
CIRCLE
  5
7AB5
  8
1
 10
2171.4166064368178
 20
3464.3579506667561
 30
0.0
 40
114.3
  0
LINE
  5
7AB6
  8
2
 10
4945.0392703486032
 20
3464.3579506667561
 30
0.0
 11
4089.2891323486042
 21
3464.3579506667561
 31
0.0
  0
ARC
  5
7AB7
  8
1
 10
2138.4166064368178
 20
3497.3579506667561
 30
0.0
 40
301.0
 50
186.29425000000001
 51
190.14149800000001
  0
LINE
  5
7AB8
  8
1
 10
1842.1194584368179
 20
3444.3579506667561
 30
0.0
 11
1781.416606436818
 21
3444.3579506667561
 31
0.0
  0
LINE
  5
7AB9
  8
2
 10
2171.4166064368178
 20
5949.276404666758
 30
0.0
 11
2171.4166064368178
 21
5080.841445666757
 31
0.0
  0
LINE
  5
7ABA
  8
1
 10
2171.4166064368178
 20
2525.8511366667572
 30
0.0
 11
2171.4166064368178
 21
2525.8511366667572
 31
0.0
  0
LINE
  5
7ABB
  8
1
 10
3096.4166064368178
 20
5869.962547666757
 30
0.0
 11
2451.4166064368178
 21
5869.962547666757
 31
0.0
  0
LINE
  5
7ABC
  8
1
 10
2655.4166064368178
 20
5827.462547666757
 30
0.0
 11
1781.416606436818
 21
5827.462547666757
 31
0.0
  0
LINE
  5
7ABD
  8
1
 10
2655.4166064368178
 20
5402.4625476667579
 30
0.0
 11
1781.416606436818
 21
5402.4625476667579
 31
0.0
  0
LINE
  5
7ABE
  8
1
 10
2852.4166064368178
 20
5259.962547666757
 30
0.0
 11
2191.4166064368178
 21
5259.962547666757
 31
0.0
  0
LINE
  5
7ABF
  8
1
 10
3035.716606436818
 20
5154.962547666757
 30
0.0
 11
2007.1166064368181
 21
5154.962547666757
 31
0.0
  0
LINE
  5
7AC0
  8
1
 10
3035.716606436818
 20
5249.9625476667579
 30
0.0
 11
2007.1166064368181
 21
5249.9625476667579
 31
0.0
  0
LINE
  5
7AC1
  8
1
 10
1781.416606436818
 20
5372.4625476667561
 30
0.0
 11
1781.416606436818
 21
5857.462547666757
 31
0.0
  0
LINE
  5
7AC2
  8
1
 10
1811.416606436818
 20
5402.4625476667579
 30
0.0
 11
1811.416606436818
 21
5827.462547666757
 31
0.0
  0
LINE
  5
7AC3
  8
1
 10
2285.716606436818
 20
5232.962547666757
 30
0.0
 11
2057.116606436819
 21
5232.962547666757
 31
0.0
  0
LINE
  5
7AC4
  8
1
 10
2285.716606436818
 20
5169.962547666757
 30
0.0
 11
2057.116606436819
 21
5169.962547666757
 31
0.0
  0
LINE
  5
7AC5
  8
1
 10
1816.416606436818
 20
5259.962547666757
 30
0.0
 11
1816.416606436818
 21
5402.4625476667579
 31
0.0
  0
LINE
  5
7AC6
  8
1
 10
2151.4166064368178
 20
5232.962547666757
 30
0.0
 11
2151.4166064368178
 21
5402.4625476667579
 31
0.0
  0
LINE
  5
7AC7
  8
1
 10
2151.4166064368178
 20
5259.962547666757
 30
0.0
 11
1816.416606436818
 21
5259.962547666757
 31
0.0
  0
LINE
  5
7AC8
  8
1
 10
2057.116606436819
 20
5169.962547666757
 30
0.0
 11
2057.116606436819
 21
5232.962547666757
 31
0.0
  0
LINE
  5
7AC9
  8
1
 10
2007.1166064368181
 20
5154.962547666757
 30
0.0
 11
2007.1166064368181
 21
5249.9625476667579
 31
0.0
  0
LINE
  5
7ACA
  8
1
 10
2191.4166064368178
 20
5232.962547666757
 30
0.0
 11
2191.4166064368178
 21
5402.4625476667579
 31
0.0
  0
LINE
  5
7ACB
  8
1
 10
2285.716606436818
 20
5169.962547666757
 30
0.0
 11
2285.716606436818
 21
5232.962547666757
 31
0.0
  0
LINE
  5
7ACC
  8
1
 10
2481.4166064368178
 20
5890.962547666757
 30
0.0
 11
1861.416606436818
 21
5890.962547666757
 31
0.0
  0
LINE
  5
7ACD
  8
1
 10
1816.416606436818
 20
5827.462547666757
 30
0.0
 11
1816.416606436818
 21
5869.962547666757
 31
0.0
  0
LINE
  5
7ACE
  8
1
 10
1891.416606436818
 20
5827.462547666757
 30
0.0
 11
1891.416606436818
 21
5890.962547666757
 31
0.0
  0
LINE
  5
7ACF
  8
1
 10
1891.416606436818
 20
5869.962547666757
 30
0.0
 11
1816.416606436818
 21
5869.962547666757
 31
0.0
  0
LINE
  5
7AD0
  8
1
 10
2451.4166064368178
 20
5827.462547666757
 30
0.0
 11
2451.4166064368178
 21
5890.962547666757
 31
0.0
  0
LINE
  5
7AD1
  8
1
 10
3096.4166064368178
 20
5259.962547666757
 30
0.0
 11
3096.4166064368178
 21
5869.962547666757
 31
0.0
  0
LINE
  5
7AD2
  8
1
 10
2655.4166064368178
 20
5402.4625476667579
 30
0.0
 11
2655.4166064368178
 21
5827.462547666757
 31
0.0
  0
LINE
  5
7AD3
  8
1
 10
3014.4166064368178
 20
5269.962547666757
 30
0.0
 11
3014.4166064368178
 21
5638.962547666757
 31
0.0
  0
LINE
  5
7AD4
  8
1
 10
2728.4166064368178
 20
5269.962547666757
 30
0.0
 11
2728.4166064368178
 21
5638.962547666757
 31
0.0
  0
LINE
  5
7AD5
  8
1
 10
3096.4166064368178
 20
5259.962547666757
 30
0.0
 11
2890.4166064368178
 21
5259.962547666757
 31
0.0
  0
LINE
  5
7AD6
  8
1
 10
2728.4166064368178
 20
5269.962547666757
 30
0.0
 11
3014.4166064368178
 21
5269.962547666757
 31
0.0
  0
LINE
  5
7AD7
  8
1
 10
2985.7166064368189
 20
5232.962547666757
 30
0.0
 11
2757.1166064368181
 21
5232.962547666757
 31
0.0
  0
LINE
  5
7AD8
  8
1
 10
2985.7166064368189
 20
5169.962547666757
 30
0.0
 11
2757.1166064368181
 21
5169.962547666757
 31
0.0
  0
LINE
  5
7AD9
  8
1
 10
2852.4166064368178
 20
5232.962547666757
 30
0.0
 11
2852.4166064368178
 21
5269.962547666757
 31
0.0
  0
LINE
  5
7ADA
  8
1
 10
2890.4166064368178
 20
5232.962547666757
 30
0.0
 11
2890.4166064368178
 21
5269.962547666757
 31
0.0
  0
LINE
  5
7ADB
  8
1
 10
2757.1166064368181
 20
5169.962547666757
 30
0.0
 11
2757.1166064368181
 21
5232.962547666757
 31
0.0
  0
LINE
  5
7ADC
  8
1
 10
2985.7166064368189
 20
5169.962547666757
 30
0.0
 11
2985.7166064368189
 21
5232.962547666757
 31
0.0
  0
LINE
  5
7ADD
  8
1
 10
3035.716606436818
 20
5154.962547666757
 30
0.0
 11
3035.716606436818
 21
5249.9625476667579
 31
0.0
  0
LINE
  5
7ADE
  8
1
 10
3014.4166064368178
 20
5638.962547666757
 30
0.0
 11
2728.4166064368178
 21
5638.962547666757
 31
0.0
  0
LINE
  5
7ADF
  8
1
 10
4250.7099403486027
 20
3139.3579506667561
 30
0.0
 11
4250.7099403486027
 21
2819.3579506667561
 31
0.0
  0
LINE
  5
7AE0
  8
1
 10
4230.7099403486018
 20
3628.6579506667572
 30
0.0
 11
4230.7099403486018
 21
2832.0579506667559
 31
0.0
  0
LINE
  5
7AE1
  8
1
 10
4135.7099403486018
 20
3628.6579506667572
 30
0.0
 11
4135.7099403486018
 21
2832.0579506667559
 31
0.0
  0
LINE
  5
7AE2
  8
1
 10
4383.2099403486018
 20
3864.3579506667561
 30
0.0
 11
4383.2099403486018
 21
2819.3579506667561
 31
0.0
  0
LINE
  5
7AE3
  8
1
 10
4808.2099403486027
 20
3864.3579506667561
 30
0.0
 11
4808.2099403486027
 21
2819.3579506667561
 31
0.0
  0
LINE
  5
7AE4
  8
1
 10
4808.2099403486027
 20
3444.3579506667561
 30
0.0
 11
4383.2099403486018
 21
2864.3579506667561
 31
0.0
  0
LINE
  5
7AE5
  8
1
 10
4383.2099403486018
 20
3444.3579506667561
 30
0.0
 11
4808.2099403486027
 21
2864.3579506667561
 31
0.0
  0
LINE
  5
7AE6
  8
1
 10
4150.7099403486027
 20
3110.6579506667572
 30
0.0
 11
4150.7099403486027
 21
2882.0579506667559
 31
0.0
  0
LINE
  5
7AE7
  8
1
 10
4213.7099403486027
 20
3110.6579506667572
 30
0.0
 11
4213.7099403486027
 21
2882.0579506667559
 31
0.0
  0
LINE
  5
7AE8
  8
1
 10
4240.7099403486027
 20
2641.357950666757
 30
0.0
 11
4850.7099403486027
 21
2641.357950666757
 31
0.0
  0
LINE
  5
7AE9
  8
1
 10
4240.7099403486027
 20
2706.3579506667561
 30
0.0
 11
4850.7099403486027
 21
2706.3579506667561
 31
0.0
  0
LINE
  5
7AEA
  8
1
 10
4240.7099403486027
 20
2819.3579506667561
 30
0.0
 11
4850.7099403486027
 21
2819.3579506667561
 31
0.0
  0
LINE
  5
7AEB
  8
1
 10
4240.7099403486027
 20
2744.3579506667561
 30
0.0
 11
4850.7099403486027
 21
2744.3579506667561
 31
0.0
  0
LINE
  5
7AEC
  8
1
 10
4383.2099403486018
 20
2864.3579506667561
 30
0.0
 11
4808.2099403486027
 21
2864.3579506667561
 31
0.0
  0
LINE
  5
7AEE
  8
1
 10
4240.7099403486027
 20
2706.3579506667561
 30
0.0
 11
4240.7099403486027
 21
2641.357950666757
 31
0.0
  0
LINE
  5
7AEF
  8
1
 10
4213.7099403486027
 20
2977.3579506667561
 30
0.0
 11
4250.7099403486027
 21
2977.3579506667561
 31
0.0
  0
LINE
  5
7AF0
  8
1
 10
4213.7099403486027
 20
3015.3579506667561
 30
0.0
 11
4250.7099403486027
 21
3015.3579506667561
 31
0.0
  0
LINE
  5
7AF1
  8
1
 10
4150.7099403486027
 20
2882.0579506667559
 30
0.0
 11
4213.7099403486027
 21
2882.0579506667559
 31
0.0
  0
LINE
  5
7AF2
  8
1
 10
4250.7099403486027
 20
2864.3579506667561
 30
0.0
 11
4383.2099403486018
 21
2864.3579506667561
 31
0.0
  0
LINE
  5
7AF3
  8
1
 10
4135.7099403486018
 20
2832.0579506667559
 30
0.0
 11
4230.7099403486018
 21
2832.0579506667559
 31
0.0
  0
LINE
  5
7AF4
  8
1
 10
4240.7099403486027
 20
2819.3579506667561
 30
0.0
 11
4240.7099403486027
 21
2744.3579506667561
 31
0.0
  0
LINE
  5
7AF5
  8
1
 10
4850.7099403486027
 20
2706.3579506667561
 30
0.0
 11
4850.7099403486027
 21
2641.357950666757
 31
0.0
  0
LINE
  5
7AF6
  8
1
 10
4850.7099403486027
 20
2819.3579506667561
 30
0.0
 11
4850.7099403486027
 21
2744.3579506667561
 31
0.0
  0
LINE
  5
7AF7
  8
1
 10
4383.2099403486018
 20
3864.3579506667561
 30
0.0
 11
4808.2099403486027
 21
3864.3579506667561
 31
0.0
  0
LINE
  5
7AF8
  8
1
 10
4383.2099403486018
 20
3444.3579506667561
 30
0.0
 11
4808.2099403486027
 21
3444.3579506667561
 31
0.0
  0
LINE
  5
7AF9
  8
1
 10
4250.7099403486027
 20
3139.3579506667561
 30
0.0
 11
4383.2099403486018
 21
3139.3579506667561
 31
0.0
  0
LINE
  5
7AFA
  8
1
 10
4213.7099403486027
 20
3578.6579506667572
 30
0.0
 11
4213.7099403486027
 21
3350.0579506667559
 31
0.0
  0
LINE
  5
7AFB
  8
1
 10
4150.7099403486027
 20
3350.0579506667559
 30
0.0
 11
4213.7099403486027
 21
3350.0579506667559
 31
0.0
  0
LINE
  5
7AFC
  8
1
 10
4150.7099403486027
 20
3578.6579506667572
 30
0.0
 11
4213.7099403486027
 21
3578.6579506667572
 31
0.0
  0
LINE
  5
7AFD
  8
1
 10
4150.7099403486027
 20
3578.6579506667572
 30
0.0
 11
4150.7099403486027
 21
3350.0579506667559
 31
0.0
  0
LINE
  5
7AFE
  8
1
 10
4213.7099403486027
 20
3444.3579506667561
 30
0.0
 11
4383.2099403486018
 21
3444.3579506667561
 31
0.0
  0
LINE
  5
7AFF
  8
1
 10
4213.7099403486027
 20
3484.357950666757
 30
0.0
 11
4383.2099403486018
 21
3484.357950666757
 31
0.0
  0
LINE
  5
7B00
  8
1
 10
4150.7099403486027
 20
3110.6579506667572
 30
0.0
 11
4213.7099403486027
 21
3110.6579506667572
 31
0.0
  0
LINE
  5
7B01
  8
1
 10
4135.7099403486018
 20
3628.6579506667572
 30
0.0
 11
4230.7099403486018
 21
3628.6579506667572
 31
0.0
  0
LINE
  5
7B02
  8
1
 10
4871.7099403486027
 20
3774.3579506667561
 30
0.0
 11
4871.7099403486027
 21
3154.3579506667561
 31
0.0
  0
LINE
  5
7B03
  8
1
 10
4808.2099403486027
 20
3184.3579506667561
 30
0.0
 11
4871.7099403486027
 21
3184.3579506667561
 31
0.0
  0
LINE
  5
7B04
  8
1
 10
4808.2099403486027
 20
3744.3579506667561
 30
0.0
 11
4871.7099403486027
 21
3744.3579506667561
 31
0.0
  0
LINE
  5
7B22
  8
4
 10
5550.0
 20
1500.0
 30
0.0
 11
5550.0
 21
900.0
 31
0.0
  0
LINE
  5
7B23
  8
4
 10
3450.0
 20
1500.0
 30
0.0
 11
3450.0
 21
900.0
 31
0.0
  0
LINE
  5
7B24
  8
4
 10
1950.0
 20
1500.0
 30
0.0
 11
1950.0
 21
900.0
 31
0.0
  0
LINE
  5
7B27
  8
4
 10
1950.0
 20
900.0
 30
0.0
 11
5550.0
 21
900.0
 31
0.0
  0
LINE
  5
7B28
  8
4
 10
1950.0
 20
1200.0
 30
0.0
 11
5550.0
 21
1200.0
 31
0.0
  0
TEXT
  5
7B29
  8
4
 10
2065.50624225
 20
1294.6290779999999
 30
0.0
 40
150.0
  1
機器名称
  0
TEXT
  5
7B2A
  8
4
 10
2058.7743179999989
 20
964.93547024999998
 30
0.0
 40
150.0
  1
機器型番
  0
TEXT
  5
7B2B
  8
4
 10
3533.0362365000001
 20
1267.715306249999
 30
0.0
 40
120.0
  1
ミツヤリミットロードファン
  0
TEXT
  5
7B2C
  8
4
 10
3559.9634872500001
 20
951.4787527499999
 30
0.0
 40
150.0
  1
LLE#3 1/2-4
  0
TEXT
  5
7B2E
  8
4
 10
2242.229372249999
 20
7150.2865245000012
 30
0.0
 40
162.0
  1
床置防振ベット
  0
TEXT
  5
7B2F
  8
4
 10
948.50278049999986
 20
7601.6429287499996
 30
0.0
 40
180.0
  1
ベルト駆動式片吸込両持排煙ファン
  0
LINE
  5
7B30
  8
4
 10
750.0
 20
7408.2262627500004
 30
0.0
 11
5550.0
 21
7408.2262627500004
 31
0.0
  0
LINE
  5
7B31
  8
4
 10
750.0
 20
8008.2262627500004
 30
0.0
 11
5550.0
 21
8008.2262627500004
 31
0.0
  0
LINE
  5
7B32
  8
4
 10
1950.0
 20
1500.0
 30
0.0
 11
5550.0
 21
1500.0
 31
0.0
  0
LINE
  5
7B33
  8
4
 10
750.0
 20
8008.2262627500004
 30
0.0
 11
750.0
 21
7408.2262627500004
 31
0.0
  0
TEXT
  5
7B34
  8
4
 10
934.65287549999994
 20
7146.9584324999987
 30
0.0
 40
162.0
  1
右回転左横向
  0
TEXT
  5
7B35
  8
4
 10
4406.9086777499988
 20
8118.1832445
 30
0.0
 40
168.0
  1
No.
  0
TEXT
  5
7B36
  8
4
 10
3933.8881875000002
 20
7150.2865245000012
 30
0.0
 40
162.0
  1
縮尺：1/30
  0
LINE
  5
7B37
  8
4
 10
5550.0
 20
8008.2262627500004
 30
0.0
 11
5550.0
 21
7408.2262627500004
 31
0.0
  0
LINE
  5
7B38
  8
4
 10
5512.5
 20
7743.75
 30
0.0
 11
5512.5
 21
7743.75
 31
0.0
  0
LINE
  5
7B39
  8
4
 10
4321.8522667500001
 20
8043.79074975
 30
0.0
 11
4321.8522667500001
 21
8359.9567845000001
 31
0.0
  0
LINE
  5
7B3A
  8
4
 10
4321.8522667500001
 20
8359.9567845000001
 30
0.0
 11
5550.0
 21
8359.9567845000001
 31
0.0
  0
LINE
  5
7B3B
  8
4
 10
5550.0
 20
8359.9567845000001
 30
0.0
 11
5550.0
 21
8043.79074975
 31
0.0
  0
LINE
  5
7B3C
  8
4
 10
5550.0
 20
8043.79074975
 30
0.0
 11
4321.8522667500001
 21
8043.79074975
 31
0.0
  0
DIMENSION
  5
7B4F
  8
3
  2
*D1
 10
2171.4166064368178
 20
2406.2872156454869
 30
0.0
 11
1993.916606436818
 21
2483.180621397405
 31
0.0
 70
   128
 13
1816.416606436818
 23
2641.357950666757
 33
0.0
 14
2171.4166064368178
 24
2570.8511366667572
 34
0.0
1001
ACAD
1000
DSTYLE
1002
{
1070
   288
1070
     1
1070
   172
1070
     1
1070
    40
1040
30.0
1070
   271
1070
     0
1070
   143
1040
0.039
1002
}
  0
DIMENSION
  5
7B5B
  8
3
  2
*D2
 10
3096.4166064368178
 20
2405.512040666757
 30
0.0
 11
2633.9166064368178
 21
2480.5120406667579
 31
0.0
 70
     0
 13
2171.4166064368178
 23
2570.8511366667572
 33
0.0
 14
3096.4166064368178
 24
2641.357950666757
 34
0.0
1001
ACAD
1000
DSTYLE
1002
{
1070
   287
1070
     3
1070
   287
1070
     3
1070
    40
1040
30.0
1070
   143
1040
0.039
1070
   172
1070
     1
1070
   271
1070
     0
1070
   279
1070
     0
1070
   288
1070
     1
1002
}
  0
DIMENSION
  5
7B6A
  8
3
  2
*D3
 10
1608.1343654368179
 20
2864.3579506667561
 30
0.0
 11
1608.134365436817
 21
3204.357950666757
 31
0.0
 70
   128
 13
1781.416606436818
 23
3444.3579506667561
 33
0.0
 14
1781.416606436818
 24
2864.3579506667561
 34
0.0
 50
90.0
1001
ACAD
1000
DSTYLE
1002
{
1070
   287
1070
     3
1070
   287
1070
     3
1070
    40
1040
30.0
1070
   143
1040
0.039
1070
   172
1070
     1
1070
   271
1070
     0
1070
   279
1070
     0
1070
   288
1070
     1
1002
}
  0
DIMENSION
  5
7B77
  8
3
  2
*D4
 10
1417.7788274368179
 20
3464.3579506667561
 30
0.0
 11
1417.778827436817
 21
3224.3579506667561
 31
0.0
 70
   128
 13
1781.416606436818
 23
2864.3579506667561
 33
0.0
 14
1838.9032684368169
 24
3464.3579506667561
 34
0.0
 50
90.0
1001
ACAD
1000
DSTYLE
1002
{
1070
   287
1070
     3
1070
   287
1070
     3
1070
    40
1040
30.0
1070
   143
1040
0.039
1070
   172
1070
     1
1070
   271
1070
     0
1070
   279
1070
     0
1070
   288
1070
     1
1002
}
  0
DIMENSION
  5
7B86
  8
3
  2
*D5
 10
1213.9675904368171
 20
3464.3579506667561
 30
0.0
 11
1145.5791696933661
 21
3663.3579506667561
 31
0.0
 70
   128
  1
400
 13
2171.4166064368178
 23
3862.357950666757
 33
0.0
 14
1838.9032684368169
 24
3464.3579506667561
 34
0.0
 50
90.0
1001
ACAD
1000
DSTYLE
1002
{
1070
   288
1070
     1
1070
   172
1070
     1
1070
    40
1040
30.0
1070
   271
1070
     0
1070
   143
1040
0.039
1002
}
  0
DIMENSION
  5
7B92
  8
3
  2
*D6
 10
1213.9675904368171
 20
2744.3579506667561
 30
0.0
 11
1138.9675904368171
 21
3104.357950666757
 31
0.0
 70
     0
 13
1838.9032684368169
 23
3464.3579506667561
 33
0.0
 14
1816.416606436818
 24
2744.3579506667561
 34
0.0
 50
90.0
1001
ACAD
1000
DSTYLE
1002
{
1070
   287
1070
     3
1070
   287
1070
     3
1070
    40
1040
30.0
1070
   143
1040
0.039
1070
   172
1070
     1
1070
   271
1070
     0
1070
   279
1070
     0
1070
   288
1070
     1
1002
}
  0
DIMENSION
  5
7BA1
  8
3
  2
*D7
 10
2171.4166064368178
 20
4081.2655974482618
 30
0.0
 11
1976.416606436818
 21
4158.8509437863468
 31
0.0
 70
   128
 13
1781.416606436818
 23
3474.3579506667561
 33
0.0
 14
2171.4166064368178
 24
3862.357950666757
 34
0.0
1001
ACAD
1000
DSTYLE
1002
{
1070
   288
1070
     1
1070
   172
1070
     1
1070
    40
1040
30.0
1070
   271
1070
     0
1070
   143
1040
0.039
1002
}
  0
DIMENSION
  5
7BAD
  8
3
  2
*D8
 10
2653.4166064368178
 20
4081.2655974482618
 30
0.0
 11
2412.4166064368178
 21
4156.2655974482623
 31
0.0
 70
     0
  1
484
 13
2171.4166064368178
 23
3862.357950666757
 33
0.0
 14
2653.4166064368178
 24
3464.3579506667561
 34
0.0
1001
ACAD
1000
DSTYLE
1002
{
1070
   287
1070
     3
1070
   287
1070
     3
1070
    40
1040
30.0
1070
   143
1040
0.039
1070
   172
1070
     1
1070
   271
1070
     0
1070
   279
1070
     0
1070
   288
1070
     1
1002
}
  0
DIMENSION
  5
7BBA
  8
3
  2
*D9
 10
3096.4166064368178
 20
4845.6890666667568
 30
0.0
 11
2480.8163084368189
 21
4845.6890666667568
 31
0.0
 70
   128
 13
1816.416606436818
 23
5259.962547666757
 33
0.0
 14
3096.4166064368178
 24
5259.962547666757
 34
0.0
1001
ACAD
1000
DSTYLE
1002
{
1070
   287
1070
     3
1070
   287
1070
     3
1070
    40
1040
30.0
1070
   143
1040
0.039
1070
   172
1070
     1
1070
   271
1070
     0
1070
   279
1070
     0
1070
   288
1070
     1
1002
}
  0
DIMENSION
  5
7BC7
  8
3
  2
*D10
 10
3422.7478704368191
 20
5259.962547666757
 30
0.0
 11
3422.7478704368182
 21
5586.8773716667583
 31
0.0
 70
   128
 13
3096.4166064368178
 23
5869.962547666757
 33
0.0
 14
3096.4166064368178
 24
5259.962547666757
 34
0.0
 50
90.0
1001
ACAD
1000
DSTYLE
1002
{
1070
   287
1070
     3
1070
   287
1070
     3
1070
    40
1040
30.0
1070
   143
1040
0.039
1070
   172
1070
     1
1070
   271
1070
     0
1070
   279
1070
     0
1070
   288
1070
     1
1002
}
  0
LINE
  5
7BC8
  8
2
 10
2809.6701984368178
 20
5614.962547666757
 30
0.0
 11
1624.2165274368181
 21
5614.962547666757
 31
0.0
  0
LINE
  5
7BC9
  8
2
 10
2171.4166064368178
 20
3903.4670806667568
 30
0.0
 11
2171.4166064368178
 21
2570.8511366667572
 31
0.0
  0
DIMENSION
  5
7BD9
  8
3
  2
*D11
 10
4808.2099403486027
 20
4044.2869302820191
 30
0.0
 11
4588.924226062888
 21
4044.2869302820191
 31
0.0
 70
   128
 13
4383.2099403486018
 23
3864.3579506667561
 33
0.0
 14
4808.2099403486027
 24
3864.3579506667561
 34
0.0
1001
ACAD
1000
DSTYLE
1002
{
1070
   287
1070
     3
1070
   287
1070
     3
1070
    40
1040
30.0
1070
   143
1040
0.039
1070
   172
1070
     1
1070
   271
1070
     0
1070
   279
1070
     0
1070
   288
1070
     1
1002
}
  0
DIMENSION
  5
7BE8
  8
3
  2
*D12
 10
4595.7099403486018
 20
4247.5161424243552
 30
0.0
 11
4354.2813689200311
 21
4247.5161424243552
 31
0.0
 70
   128
  1
MAX\P510
 13
4135.7099403486018
 23
3628.6579506667572
 33
0.0
 14
4595.7099403486018
 24
4185.2711033538399
 34
0.0
1001
ACAD
1000
DSTYLE
1002
{
1070
   287
1070
     3
1070
   287
1070
     3
1070
    40
1040
30.0
1070
   143
1040
0.039
1070
   172
1070
     1
1070
   271
1070
     0
1070
   279
1070
     0
1070
   288
1070
     1
1002
}
  0
DIMENSION
  5
7BF6
  8
3
  2
*D13
 10
4871.7099403486027
 20
4247.8591331879607
 30
0.0
 11
4742.7833472448619
 21
4315.4066145827846
 31
0.0
 70
   128
 13
4595.7099403486018
 23
4185.2711033538399
 33
0.0
 14
4871.7099403486027
 24
3774.3579506667561
 34
0.0
1001
ACAD
1000
DSTYLE
1002
{
1070
   288
1070
     1
1070
   172
1070
     1
1070
    40
1040
30.0
1070
   271
1070
     0
1070
   143
1040
0.039
1002
}
  0
DIMENSION
  5
7C19
  8
3
  2
*D14
 10
5101.5910018212244
 20
3184.3579506667561
 30
0.0
 11
5101.5910018212244
 21
3484.6436649524712
 31
0.0
 70
   128
 13
4871.7099403486027
 23
3744.3579506667561
 33
0.0
 14
4871.7099403486027
 24
3184.3579506667561
 34
0.0
 50
90.0
1001
ACAD
1000
DSTYLE
1002
{
1070
   287
1070
     3
1070
   287
1070
     3
1070
     3
1000
φ<>
1070
    40
1040
30.0
1070
   143
1040
0.039
1070
   172
1070
     1
1070
   271
1070
     0
1070
   279
1070
     0
1070
   288
1070
     1
1002
}
  0
DIMENSION
  5
7C28
  8
3
  2
*D15
 10
4595.7099403486018
 20
2408.4776576667559
 30
0.0
 11
4418.2099403486018
 21
2484.6874623668919
 31
0.0
 70
   128
 13
4240.7099403486027
 23
2641.357950666757
 33
0.0
 14
4595.7099403486018
 24
2599.0202646667572
 34
0.0
1001
ACAD
1000
DSTYLE
1002
{
1070
   288
1070
     1
1070
   172
1070
     1
1070
    40
1040
30.0
1070
   271
1070
     0
1070
   143
1040
0.039
1002
}
  0
DIMENSION
  5
7C36
  8
3
  2
*D16
 10
4850.7099403486027
 20
2408.4776576667559
 30
0.0
 11
4725.2375873924248
 21
2482.3213564520329
 31
0.0
 70
   128
 13
4595.7099403486018
 23
2599.0202646667572
 33
0.0
 14
4850.7099403486027
 24
2641.357950666757
 34
0.0
1001
ACAD
1000
DSTYLE
1002
{
1070
   288
1070
     1
1070
   172
1070
     1
1070
    40
1040
30.0
1070
   271
1070
     0
1070
   143
1040
0.039
1002
}
  0
LINE
  5
7C4D
  8
2
 10
2788.6872994368182
 20
3464.3579506667561
 30
0.0
 11
1737.569123436818
 21
3464.3579506667561
 31
0.0
  0
DIMENSION
  5
7C5E
  8
3
  2
*D17
 10
1213.967590436818
 20
2641.357950666757
 30
0.0
 11
1213.9675904368171
 21
2376.3579506667561
 31
0.0
 70
   128
 13
1816.416606436818
 23
2744.3579506667561
 33
0.0
 14
1816.416606436818
 24
2641.357950666757
 34
0.0
 50
90.0
1001
ACAD
1000
DSTYLE
1002
{
1070
   287
1070
     3
1070
   287
1070
     3
1070
    40
1040
30.0
1070
   143
1040
0.039
1070
   172
1070
     1
1070
   271
1070
     0
1070
   279
1070
     0
1070
   288
1070
     1
1002
}
  0
DIMENSION
  5
7C85
  8
3
  2
*D18
 10
1016.342049436818
 20
2641.357950666757
 30
0.0
 11
1016.342049436818
 21
3185.8366136667569
 31
0.0
 70
   128
  1
1223
 13
2171.4166064368178
 23
3862.357950666757
 33
0.0
 14
1816.416606436818
 24
2641.357950666757
 34
0.0
 50
90.0
1001
ACAD
1000
DSTYLE
1002
{
1070
   287
1070
     3
1070
   287
1070
     3
1070
    40
1040
30.0
1070
   143
1040
0.039
1070
   172
1070
     1
1070
   271
1070
     0
1070
   279
1070
     0
1070
   288
1070
     1
1002
}
  0
LINE
  5
7C8B
  8
2
 10
4595.7099403486018
 20
4045.3267686667568
 30
0.0
 11
4595.7099403486018
 21
2599.0202646667572
 31
0.0
  0
DIMENSION
  5
7FC8
  8
3
  2
*D19
 10
3096.4166064368178
 20
4249.5504119779216
 30
0.0
 11
2441.2976536542369
 21
4249.5504119779216
 31
0.0
 70
   128
 13
1781.416606436818
 23
3474.3579506667561
 33
0.0
 14
3096.4166064368178
 24
2819.3579506667561
 34
0.0
1001
ACAD
1000
DSTYLE
1002
{
1070
   287
1070
     3
1070
   287
1070
     3
1070
    40
1040
30.0
1070
   143
1040
0.039
1070
   172
1070
     1
1070
   271
1070
     0
1070
   279
1070
     0
1070
   288
1070
     1
1002
}
  0
ENDSEC
  0
EOF
