  0
SECTION
  2
HEADER
  9
$ACADVER
  1
AC1009
  9
$INSBASE
 10
0.0
 20
0.0
 30
0.0
  9
$EXTMIN
 10
750.0
 20
900.0
 30
0.0
  9
$EXTMAX
 10
5550.0
 20
8359.9567845000001
 30
0.0
  9
$LIMMIN
 10
0.0
 20
0.0
  9
$LIMMAX
 10
297.0
 20
210.0
  9
$ORTHOMODE
 70
     0
  9
$REGENMODE
 70
     1
  9
$FILLMODE
 70
     0
  9
$QTEXTMODE
 70
     0
  9
$MIRRTEXT
 70
     1
  9
$DRAGMODE
 70
     2
  9
$LTSCALE
 40
100.0
  9
$OSMODE
 70
    37
  9
$ATTMODE
 70
     1
  9
$TEXTSIZE
 40
180.0
  9
$TRACEWID
 40
0.05
  9
$TEXTSTYLE
  7
STANDARD
  9
$CLAYER
  8
3
  9
$CELTYPE
  6
BYLAYER
  9
$CECOLOR
 62
   256
  9
$DIMSCALE
 40
30.0
  9
$DIMASZ
 40
2.0
  9
$DIMEXO
 40
0.5
  9
$DIMDLI
 40
10.0
  9
$DIMRND
 40
0.0
  9
$DIMDLE
 40
0.0
  9
$DIMEXE
 40
1.0
  9
$DIMTP
 40
1.0
  9
$DIMTM
 40
1.0
  9
$DIMTXT
 40
3.0
  9
$DIMCEN
 40
0.0
  9
$DIMTSZ
 40
0.0
  9
$DIMTOL
 70
     0
  9
$DIMLIM
 70
     0
  9
$DIMTIH
 70
     0
  9
$DIMTOH
 70
     0
  9
$DIMSE1
 70
     0
  9
$DIMSE2
 70
     0
  9
$DIMTAD
 70
     1
  9
$DIMZIN
 70
     8
  9
$DIMBLK
  1

  9
$DIMASO
 70
     1
  9
$DIMSHO
 70
     1
  9
$DIMPOST
  1

  9
$DIMAPOST
  1

  9
$DIMALT
 70
     0
  9
$DIMALTD
 70
     2
  9
$DIMALTF
 40
0.039
  9
$DIMLFAC
 40
1.0
  9
$DIMTOFL
 70
     1
  9
$DIMTVP
 40
0.0
  9
$DIMTIX
 70
     0
  9
$DIMSOXD
 70
     0
  9
$DIMSAH
 70
     1
  9
$DIMBLK1
  1
OPEN
  9
$DIMBLK2
  1
OPEN
  9
$DIMSTYLE
  2
IGA
  9
$DIMCLRD
 70
     0
  9
$DIMCLRE
 70
     0
  9
$DIMCLRT
 70
     0
  9
$DIMTFAC
 40
10.0
  9
$DIMGAP
 40
1.0
  9
$LUNITS
 70
     2
  9
$LUPREC
 70
     3
  9
$SKETCHINC
 40
0.1
  9
$FILLETRAD
 40
50.0
  9
$AUNITS
 70
     0
  9
$AUPREC
 70
     0
  9
$MENU
  1
acad
  9
$ELEVATION
 40
0.0
  9
$PELEVATION
 40
0.0
  9
$THICKNESS
 40
0.0
  9
$LIMCHECK
 70
     0
  9
$BLIPMODE
 70
     0
  9
$CHAMFERA
 40
0.5
  9
$CHAMFERB
 40
0.5
  9
$SKPOLY
 70
     0
  9
$TDCREATE
 40
2450759.6544600688
  9
$TDUPDATE
 40
2454953.6825829968
  9
$TDINDWG
 40
0.0471851042
  9
$TDUSRTIMER
 40
0.0471851042
  9
$USRTIMER
 70
     1
  9
$ANGBASE
 50
0.0
  9
$ANGDIR
 70
     0
  9
$PDMODE
 70
     0
  9
$PDSIZE
 40
0.0
  9
$PLINEWID
 40
0.0
  9
$COORDS
 70
     1
  9
$SPLFRAME
 70
     0
  9
$SPLINETYPE
 70
     6
  9
$SPLINESEGS
 70
     8
  9
$ATTDIA
 70
     0
  9
$ATTREQ
 70
     1
  9
$HANDLING
 70
 10241
  9
$HANDSEED
  5
8066
  9
$SURFTAB1
 70
     6
  9
$SURFTAB2
 70
     6
  9
$SURFTYPE
 70
     6
  9
$SURFU
 70
     6
  9
$SURFV
 70
     6
  9
$UCSNAME
  2

  9
$UCSORG
 10
0.0
 20
0.0
 30
0.0
  9
$UCSXDIR
 10
1.0
 20
0.0
 30
0.0
  9
$UCSYDIR
 10
0.0
 20
1.0
 30
0.0
  9
$PUCSNAME
  2

  9
$PUCSORG
 10
0.0
 20
0.0
 30
0.0
  9
$PUCSXDIR
 10
1.0
 20
0.0
 30
0.0
  9
$PUCSYDIR
 10
0.0
 20
1.0
 30
0.0
  9
$USERI1
 70
     0
  9
$USERI2
 70
     0
  9
$USERI3
 70
     0
  9
$USERI4
 70
     0
  9
$USERI5
 70
     0
  9
$USERR1
 40
0.0
  9
$USERR2
 40
0.0
  9
$USERR3
 40
0.0
  9
$USERR4
 40
0.0
  9
$USERR5
 40
0.0
  9
$WORLDVIEW
 70
     1
  9
$SHADEDGE
 70
     3
  9
$SHADEDIF
 70
    70
  9
$TILEMODE
 70
     1
  9
$MAXACTVP
 70
    16
  9
$PLIMCHECK
 70
     0
  9
$PEXTMIN
 10
1.0000000000000000E+020
 20
1.0000000000000000E+020
 30
1.0000000000000000E+020
  9
$PEXTMAX
 10
-1.0000000000000000E+020
 20
-1.0000000000000000E+020
 30
-1.0000000000000000E+020
  9
$PLIMMIN
 10
0.0
 20
0.0
  9
$PLIMMAX
 10
12.0
 20
9.0
  9
$UNITMODE
 70
     0
  9
$VISRETAIN
 70
     0
  9
$PLINEGEN
 70
     0
  9
$PSLTSCALE
 70
     1
  0
ENDSEC
  0
SECTION
  2
TABLES
  0
TABLE
  2
VPORT
 70
     2
  0
VPORT
  2
*ACTIVE
 70
     0
 10
0.0
 20
0.0
 11
1.0
 21
1.0
 12
13810.03795635634
 22
3917.1639297301699
 13
0.0
 23
0.0
 14
10.0
 24
10.0
 15
10.0
 25
10.0
 16
0.0
 26
0.0
 36
1.0
 17
0.0
 27
0.0
 37
0.0
 40
10473.7286840259
 41
3.1666666666666661
 42
50.0
 43
0.0
 44
0.0
 50
0.0
 51
0.0
 71
     0
 72
   100
 73
     1
 74
     0
 75
     0
 76
     0
 77
     0
 78
     0
  0
ENDTAB
  0
TABLE
  2
LTYPE
 70
     2
  0
LTYPE
  2
CONTINUOUS
 70
     0
  3
Solid line
 72
    65
 73
     0
 40
0.0
  0
LTYPE
  2
CENTER
 70
     0
  3
____ _ ____ _ ____ _ ____ _ ____ _ ____ _ ____ 
 72
    65
 73
     4
 40
2.0
 49
1.25
 49
-0.25
 49
0.25
 49
-0.25
  0
ENDTAB
  0
TABLE
  2
LAYER
 70
     6
  0
LAYER
  2
0
 70
     0
 62
     7
  6
CONTINUOUS
  0
LAYER
  2
3
 70
     0
 62
     2
  6
CONTINUOUS
  0
LAYER
  2
2
 70
     0
 62
     3
  6
CENTER
  0
LAYER
  2
1
 70
     0
 62
     4
  6
CONTINUOUS
  0
LAYER
  2
4
 70
     0
 62
     7
  6
CONTINUOUS
  0
LAYER
  2
DEFPOINTS
 70
     0
 62
     7
  6
CONTINUOUS
  0
ENDTAB
  0
TABLE
  2
STYLE
 70
     1
  0
STYLE
  2
STANDARD
 70
     0
 40
0.0
 41
1.0
 50
0.0
 71
     0
 42
180.0
  3
simplex.shx
  4
extfont.shx
  0
ENDTAB
  0
TABLE
  2
VIEW
 70
     0
  0
ENDTAB
  0
TABLE
  2
UCS
 70
     0
  0
ENDTAB
  0
TABLE
  2
APPID
 70
     1
  0
APPID
  2
ACAD
 70
     0
  0
ENDTAB
  0
TABLE
  2
DIMSTYLE
 70
     1
  0
DIMSTYLE
  2
IGA
 70
     0
  3

  4

  5

  6
OPEN
  7
OPEN
 40
2.0
 41
2.0
 42
0.5
 43
10.0
 44
1.0
 45
0.0
 46
0.0
 47
1.0
 48
1.0
140
3.0
141
0.0
142
0.0
143
0.03937
144
1.0
145
0.0
146
10.0
147
1.0
 71
     0
 72
     0
 73
     0
 74
     0
 75
     0
 76
     0
 77
     1
 78
     8
170
     0
171
     2
172
     0
173
     1
174
     0
175
     0
176
     0
177
     0
178
     0
  0
ENDTAB
  0
ENDSEC
  0
SECTION
  2
BLOCKS
  0
BLOCK
  8
0
  2
$MODEL_SPACE
 70
     0
 10
0.0
 20
0.0
 30
0.0
  3
$MODEL_SPACE
  1

  0
ENDBLK
  5
1B
  8
0
  0
BLOCK
 67
     1
  8
0
  2
$PAPER_SPACE
 70
     0
 10
0.0
 20
0.0
 30
0.0
  3
$PAPER_SPACE
  1

  0
ENDBLK
  5
18
 67
     1
  8
0
  0
BLOCK
  8
0
  2
_OPEN
 70
     0
 10
0.0
 20
0.0
 30
0.0
  3
_OPEN
  1

  0
LINE
  5
7AEA
  8
0
  6
BYBLOCK
 62
     0
 10
-1.0
 20
0.166667
 30
0.0
 11
0.0
 21
0.0
 31
0.0
  0
LINE
  5
7AEB
  8
0
  6
BYBLOCK
 62
     0
 10
0.0
 20
0.0
 30
0.0
 11
-1.0
 21
-0.166667
 31
0.0
  0
LINE
  5
7AEC
  8
0
  6
BYBLOCK
 62
     0
 10
0.0
 20
0.0
 30
0.0
 11
-1.0
 21
0.0
 31
0.0
  0
ENDBLK
  5
7AED
  8
0
  0
BLOCK
  8
0
  2
*D1
 70
     1
 10
0.0
 20
0.0
 30
0.0
  3
*D1
  1

  0
LINE
  5
7FEB
  8
3
 62
     0
 10
1253.740353466208
 20
2596.4078234391209
 30
0.0
 11
1253.740353466208
 21
2302.3126024391199
 31
0.0
  0
LINE
  5
7FEC
  8
3
 62
     0
 10
2178.740353466208
 20
2477.4661704391201
 30
0.0
 11
2178.740353466208
 21
2302.3126024391199
 31
0.0
  0
LINE
  5
7FED
  8
3
 62
     0
 10
1313.740353466208
 20
2332.3126024391199
 30
0.0
 11
2118.740353466208
 21
2332.3126024391199
 31
0.0
  0
INSERT
  5
7FEE
  8
3
 62
     0
  2
_OPEN
 10
1253.740353466208
 20
2332.3126024391199
 30
0.0
 41
60.0
 42
60.0
 43
60.0
 50
180.0
  0
INSERT
  5
7FEF
  8
3
 62
     0
  2
_OPEN
 10
2178.740353466208
 20
2332.3126024391199
 30
0.0
 41
60.0
 42
60.0
 43
60.0
  0
TEXT
  8
3
  40
90
  5
8059
  62
0
  72
0
  71
0
 10
1539.71
 20
2248.01
 30
0.000000
  1
925
  0
POINT
  5
7FF1
  8
DEFPOINTS
 62
     0
 10
1253.740353466208
 20
2611.4078234391209
 30
0.0
  0
POINT
  5
7FF2
  8
DEFPOINTS
 62
     0
 10
2178.740353466208
 20
2492.4661704391201
 30
0.0
  0
POINT
  5
7FF3
  8
DEFPOINTS
 62
     0
 10
2178.740353466208
 20
2332.3126024391199
 30
0.0
  0
ENDBLK
  5
7E0B
  8
0
  0
BLOCK
  8
0
  2
*D2
 70
     1
 10
0.0
 20
0.0
 30
0.0
  3
*D2
  1

  0
LINE
  5
7E4F
  8
0
  6
BYBLOCK
 62
     0
 10
2178.740353466208
 20
2477.4661704391201
 30
0.0
 11
2178.740353466208
 21
2299.1027884391201
 31
0.0
  0
LINE
  5
7E50
  8
0
  6
BYBLOCK
 62
     0
 10
2533.740353466208
 20
2596.4078234391209
 30
0.0
 11
2533.740353466208
 21
2299.1027884391201
 31
0.0
  0
LINE
  5
7E51
  8
0
  6
BYBLOCK
 62
     0
 10
2238.740353466208
 20
2329.1027884391201
 30
0.0
 11
2473.740353466208
 21
2329.1027884391201
 31
0.0
  0
TEXT
  5
7E52
  8
3
 62
     0
 10
2245.8468917196478
 20
2357.2912890264301
 30
0.0
 40
90.0
  1
355
  0
INSERT
  5
7E53
  8
0
  6
BYBLOCK
 62
     0
  2
_OPEN
 10
2178.740353466208
 20
2329.1027884391201
 30
0.0
 41
60.0
 42
60.0
 43
60.0
 50
180.0
  0
INSERT
  5
7E54
  8
0
  6
BYBLOCK
 62
     0
  2
_OPEN
 10
2533.740353466208
 20
2329.1027884391201
 30
0.0
 41
60.0
 42
60.0
 43
60.0
  0
POINT
  5
7E55
  8
DEFPOINTS
  6
BYBLOCK
 62
     0
 10
2178.740353466208
 20
2492.4661704391201
 30
0.0
  0
POINT
  5
7E56
  8
DEFPOINTS
  6
BYBLOCK
 62
     0
 10
2533.740353466208
 20
2611.4078234391209
 30
0.0
  0
POINT
  5
7E57
  8
DEFPOINTS
  6
BYBLOCK
 62
     0
 10
2533.740353466208
 20
2329.1027884391201
 30
0.0
  0
ENDBLK
  5
7E58
  8
0
  0
BLOCK
  8
0
  2
*D3
 70
     1
 10
0.0
 20
0.0
 30
0.0
  3
*D3
  1

  0
LINE
  5
7FF4
  8
3
 62
     0
 10
1578.740353466208
 20
3674.4078234391209
 30
0.0
 11
1578.740353466208
 21
3871.5130834391198
 31
0.0
  0
LINE
  5
7FF5
  8
3
 62
     0
 10
2158.740353466208
 20
3674.4078234391209
 30
0.0
 11
2158.740353466208
 21
3871.5130834391198
 31
0.0
  0
LINE
  5
7FF6
  8
3
 62
     0
 10
1638.740353466208
 20
3841.5130834391198
 30
0.0
 11
2098.740353466208
 21
3841.5130834391198
 31
0.0
  0
INSERT
  5
7FF7
  8
3
 62
     0
  2
_OPEN
 10
1578.740353466208
 20
3841.5130834391198
 30
0.0
 41
60.0
 42
60.0
 43
60.0
 50
180.0
  0
INSERT
  5
7FF8
  8
3
 62
     0
  2
_OPEN
 10
2158.740353466208
 20
3841.5130834391198
 30
0.0
 41
60.0
 42
60.0
 43
60.0
  0
TEXT
  8
3
  40
90
  5
805A
  62
0
  72
0
  71
0
 10
1703.53
 20
3757.21
 30
0.000000
  1
580
  0
POINT
  5
7FFA
  8
DEFPOINTS
 62
     0
 10
1578.740353466208
 20
3659.4078234391209
 30
0.0
  0
POINT
  5
7FFB
  8
DEFPOINTS
 62
     0
 10
2158.740353466208
 20
3659.4078234391209
 30
0.0
  0
POINT
  5
7FFC
  8
DEFPOINTS
 62
     0
 10
2158.740353466208
 20
3841.5130834391198
 30
0.0
  0
ENDBLK
  5
7DF3
  8
0
  0
BLOCK
  8
0
  2
*D4
 70
     1
 10
0.0
 20
0.0
 30
0.0
  3
*D4
  1

  0
LINE
  5
7FFD
  8
3
 62
     0
 10
1578.740353466208
 20
3674.4078234391209
 30
0.0
 11
1578.740353466208
 21
4060.892189439121
 31
0.0
  0
LINE
  5
7FFE
  8
3
 62
     0
 10
2178.740353466208
 20
3616.5933844391202
 30
0.0
 11
2178.740353466208
 21
4060.892189439121
 31
0.0
  0
LINE
  5
7FFF
  8
3
 62
     0
 10
1638.740353466208
 20
4030.8921894391201
 30
0.0
 11
2118.740353466208
 21
4030.8921894391201
 31
0.0
  0
INSERT
  5
8000
  8
3
 62
     0
  2
_OPEN
 10
1578.740353466208
 20
4030.8921894391201
 30
0.0
 41
60.0
 42
60.0
 43
60.0
 50
180.0
  0
INSERT
  5
8001
  8
3
 62
     0
  2
_OPEN
 10
2178.740353466208
 20
4030.8921894391201
 30
0.0
 41
60.0
 42
60.0
 43
60.0
  0
TEXT
  8
3
  40
90
  5
805B
  62
0
  72
0
  71
0
 10
1681.05
 20
3946.59
 30
0.000000
  1
600
  0
POINT
  5
8003
  8
DEFPOINTS
 62
     0
 10
1578.740353466208
 20
3659.4078234391209
 30
0.0
  0
POINT
  5
8004
  8
DEFPOINTS
 62
     0
 10
2178.740353466208
 20
3601.5933844391202
 30
0.0
  0
POINT
  5
8005
  8
DEFPOINTS
 62
     0
 10
2178.740353466208
 20
4030.8921894391201
 30
0.0
  0
ENDBLK
  5
7DE8
  8
0
  0
BLOCK
  8
0
  2
*D5
 70
     1
 10
0.0
 20
0.0
 30
0.0
  3
*D5
  1

  0
LINE
  5
7F03
  8
0
  6
BYBLOCK
 62
     0
 10
2178.740353466208
 20
3616.5933844391202
 30
0.0
 11
2178.740353466208
 21
4058.0016004391209
 31
0.0
  0
LINE
  5
7F04
  8
0
  6
BYBLOCK
 62
     0
 10
2576.740353466208
 20
3284.4078234391209
 30
0.0
 11
2576.740353466208
 21
4058.0016004391209
 31
0.0
  0
LINE
  5
7F05
  8
0
  6
BYBLOCK
 62
     0
 10
2238.740353466208
 20
4028.0016004391209
 30
0.0
 11
2516.740353466208
 21
4028.0016004391209
 31
0.0
  0
TEXT
  5
7F06
  8
3
 62
     0
 10
2267.3391189369981
 20
4049.140395045898
 30
0.0
 40
90.0
  1
400
  0
INSERT
  5
7F07
  8
0
  6
BYBLOCK
 62
     0
  2
_OPEN
 10
2178.740353466208
 20
4028.0016004391209
 30
0.0
 41
60.0
 42
60.0
 43
60.0
 50
180.0
  0
INSERT
  5
7F08
  8
0
  6
BYBLOCK
 62
     0
  2
_OPEN
 10
2576.740353466208
 20
4028.0016004391209
 30
0.0
 41
60.0
 42
60.0
 43
60.0
  0
POINT
  5
7F09
  8
DEFPOINTS
  6
BYBLOCK
 62
     0
 10
2178.740353466208
 20
3601.5933844391202
 30
0.0
  0
POINT
  5
7F0A
  8
DEFPOINTS
  6
BYBLOCK
 62
     0
 10
2576.740353466208
 20
3269.40782343912
 30
0.0
  0
POINT
  5
7F0B
  8
DEFPOINTS
  6
BYBLOCK
 62
     0
 10
2576.740353466208
 20
4028.0016004391209
 30
0.0
  0
ENDBLK
  5
7F0C
  8
0
  0
BLOCK
  8
0
  2
*D6
 70
     1
 10
0.0
 20
0.0
 30
0.0
  3
*D6
  1

  0
LINE
  5
7E7B
  8
0
  6
BYBLOCK
 62
     0
 10
2203.740353466208
 20
3659.4078234391209
 30
0.0
 11
2982.670706610646
 21
3659.4078234391209
 31
0.0
  0
LINE
  5
7E7C
  8
0
  6
BYBLOCK
 62
     0
 10
2592.2536904662079
 20
3269.40782343912
 30
0.0
 11
2982.670706610646
 21
3269.40782343912
 31
0.0
  0
LINE
  5
7E7D
  8
0
  6
BYBLOCK
 62
     0
 10
2952.670706610646
 20
3599.4078234391209
 30
0.0
 11
2952.670706610646
 21
3329.4078234391209
 31
0.0
  0
TEXT
  5
7E7E
  8
3
 62
     0
 10
2913.5377082904888
 20
3348.6935377248351
 30
0.0
 40
90.0
  1
390
 50
90.0
  0
INSERT
  5
7E7F
  8
0
  6
BYBLOCK
 62
     0
  2
_OPEN
 10
2952.670706610646
 20
3659.4078234391209
 30
0.0
 41
60.0
 42
60.0
 43
60.0
 50
90.0
  0
INSERT
  5
7E80
  8
0
  6
BYBLOCK
 62
     0
  2
_OPEN
 10
2952.670706610646
 20
3269.40782343912
 30
0.0
 41
60.0
 42
60.0
 43
60.0
 50
270.0
  0
POINT
  5
7E81
  8
DEFPOINTS
  6
BYBLOCK
 62
     0
 10
2188.7403534662071
 20
3659.4078234391209
 30
0.0
  0
POINT
  5
7E82
  8
DEFPOINTS
  6
BYBLOCK
 62
     0
 10
2577.2536904662079
 20
3269.40782343912
 30
0.0
  0
POINT
  5
7E83
  8
DEFPOINTS
  6
BYBLOCK
 62
     0
 10
2952.670706610646
 20
3269.40782343912
 30
0.0
  0
ENDBLK
  5
7E84
  8
0
  0
BLOCK
  8
0
  2
*D7
 70
     1
 10
0.0
 20
0.0
 30
0.0
  3
*D7
  1

  0
LINE
  5
8006
  8
3
 62
     0
 10
2592.2536904662079
 20
3269.40782343912
 30
0.0
 11
2983.8244524662082
 21
3269.40782343912
 31
0.0
  0
LINE
  5
8007
  8
3
 62
     0
 10
2548.740353466208
 20
2714.40782343912
 30
0.0
 11
2983.8244524662068
 21
2714.40782343912
 31
0.0
  0
LINE
  5
8008
  8
3
 62
     0
 10
2953.8244524662082
 20
3209.4078234391209
 30
0.0
 11
2953.8244524662068
 21
2774.4078234391209
 31
0.0
  0
INSERT
  5
8009
  8
3
 62
     0
  2
_OPEN
 10
2953.8244524662082
 20
3269.40782343912
 30
0.0
 41
60.0
 42
60.0
 43
60.0
 50
90.0
  0
INSERT
  5
800A
  8
3
 62
     0
  2
_OPEN
 10
2953.8244524662068
 20
2714.40782343912
 30
0.0
 41
60.0
 42
60.0
 43
60.0
 50
270.0
  0
TEXT
  8
3
  40
90
  5
805C
  62
0
  72
0
  71
0
 10
2698.82
 20
2832.61
 30
0.000000
  1
555
  0
POINT
  5
800C
  8
DEFPOINTS
 62
     0
 10
2577.2536904662079
 20
3269.40782343912
 30
0.0
  0
POINT
  5
800D
  8
DEFPOINTS
 62
     0
 10
2533.740353466208
 20
2714.40782343912
 30
0.0
  0
POINT
  5
800E
  8
DEFPOINTS
 62
     0
 10
2953.8244524662068
 20
2714.40782343912
 30
0.0
  0
ENDBLK
  5
7DC3
  8
0
  0
BLOCK
  8
0
  2
*D8
 70
     1
 10
0.0
 20
0.0
 30
0.0
  3
*D8
  1

  0
LINE
  5
800F
  8
3
 62
     0
 10
2548.740353466208
 20
2714.40782343912
 30
0.0
 11
2983.8244524662082
 21
2714.40782343912
 31
0.0
  0
LINE
  5
8010
  8
3
 62
     0
 10
2548.740353466208
 20
2611.4078234391209
 30
0.0
 11
2983.8244524662082
 21
2611.4078234391209
 31
0.0
  0
LINE
  5
8011
  8
3
 62
     0
 10
2953.8244524662082
 20
2774.4078234391209
 30
0.0
 11
2953.8244524662082
 21
2834.4078234391209
 31
0.0
  0
LINE
  5
8012
  8
3
 62
     0
 10
2953.8244524662082
 20
2551.4078234391209
 30
0.0
 11
2953.8244524662082
 21
2209.2649662962631
 31
0.0
  0
LINE
  5
8013
  8
3
 62
     0
 10
2953.8244524662082
 20
2714.40782343912
 30
0.0
 11
2953.8244524662082
 21
2611.4078234391209
 31
0.0
  0
INSERT
  5
8014
  8
3
 62
     0
  2
_OPEN
 10
2953.8244524662082
 20
2714.40782343912
 30
0.0
 41
60.0
 42
60.0
 43
60.0
 50
270.0
  0
INSERT
  5
8015
  8
3
 62
     0
  2
_OPEN
 10
2953.8244524662082
 20
2611.4078234391209
 30
0.0
 41
60.0
 42
60.0
 43
60.0
 50
90.0
  0
TEXT
  8
3
  40
90
  5
805D
  62
0
  72
0
  71
0
 10
2698.82
 20
2187.11
 30
0.000000
  1
103
  0
POINT
  5
8017
  8
DEFPOINTS
 62
     0
 10
2533.740353466208
 20
2714.40782343912
 30
0.0
  0
POINT
  5
8018
  8
DEFPOINTS
 62
     0
 10
2533.740353466208
 20
2611.4078234391209
 30
0.0
  0
POINT
  5
8019
  8
DEFPOINTS
 62
     0
 10
2953.8244524662082
 20
2611.4078234391209
 30
0.0
  0
ENDBLK
  5
7DB8
  8
0
  0
BLOCK
  8
0
  2
*D9
 70
     1
 10
0.0
 20
0.0
 30
0.0
  3
*D9
  1

  0
LINE
  5
801A
  8
3
 62
     0
 10
2203.740353466208
 20
3659.4078234391209
 30
0.0
 11
3218.3122674662091
 21
3659.40782343912
 31
0.0
  0
LINE
  5
801B
  8
3
 62
     0
 10
2548.740353466208
 20
2611.4078234391209
 30
0.0
 11
3218.3122674662081
 21
2611.40782343912
 31
0.0
  0
LINE
  5
801C
  8
3
 62
     0
 10
3188.3122674662081
 20
3599.40782343912
 30
0.0
 11
3188.3122674662081
 21
2671.40782343912
 31
0.0
  0
INSERT
  5
801D
  8
3
 62
     0
  2
_OPEN
 10
3188.3122674662081
 20
3659.40782343912
 30
0.0
 41
60.0
 42
60.0
 43
60.0
 50
90.0
  0
INSERT
  5
801E
  8
3
 62
     0
  2
_OPEN
 10
3188.3122674662081
 20
2611.40782343912
 30
0.0
 41
60.0
 42
60.0
 43
60.0
 50
270.0
  0
TEXT
  8
3
  40
90
  5
805E
  62
0
  72
0
  71
0
 10
2933.31
 20
2978.94
 30
0.000000
  1
1048
  0
POINT
  5
8020
  8
DEFPOINTS
 62
     0
 10
2188.7403534662071
 20
3659.4078234391209
 30
0.0
  0
POINT
  5
8021
  8
DEFPOINTS
 62
     0
 10
2533.740353466208
 20
2611.4078234391209
 30
0.0
  0
POINT
  5
8022
  8
DEFPOINTS
 62
     0
 10
3188.3122674662081
 20
2611.40782343912
 30
0.0
  0
ENDBLK
  5
7DAB
  8
0
  0
BLOCK
  8
0
  2
*D10
 70
     1
 10
0.0
 20
0.0
 30
0.0
  3
*D10
  1

  0
LINE
  5
8023
  8
3
 62
     0
 10
1253.740353466208
 20
5632.5675674391214
 30
0.0
 11
1253.740353466208
 21
5222.2241054391206
 31
0.0
  0
LINE
  5
8024
  8
3
 62
     0
 10
2533.740353466208
 20
5632.5675674391214
 30
0.0
 11
2533.740353466208
 21
5222.2241054391206
 31
0.0
  0
LINE
  5
8025
  8
3
 62
     0
 10
1313.740353466208
 20
5252.2241054391206
 30
0.0
 11
2473.740353466208
 21
5252.2241054391206
 31
0.0
  0
INSERT
  5
8026
  8
3
 62
     0
  2
_OPEN
 10
1253.740353466208
 20
5252.2241054391206
 30
0.0
 41
60.0
 42
60.0
 43
60.0
 50
180.0
  0
INSERT
  5
8027
  8
3
 62
     0
  2
_OPEN
 10
2533.740353466208
 20
5252.2241054391206
 30
0.0
 41
60.0
 42
60.0
 43
60.0
  0
TEXT
  8
3
  40
90
  5
805F
  62
0
  72
0
  71
0
 10
1752.36
 20
5167.92
 30
0.000000
  1
1280
  0
POINT
  5
8029
  8
DEFPOINTS
 62
     0
 10
1253.740353466208
 20
5647.5675674391214
 30
0.0
  0
POINT
  5
802A
  8
DEFPOINTS
 62
     0
 10
2533.740353466208
 20
5647.5675674391214
 30
0.0
  0
POINT
  5
802B
  8
DEFPOINTS
 62
     0
 10
2533.740353466208
 20
5252.2241054391206
 30
0.0
  0
ENDBLK
  5
7DA0
  8
0
  0
BLOCK
  8
0
  2
*D11
 70
     1
 10
0.0
 20
0.0
 30
0.0
  3
*D11
  1

  0
LINE
  5
802C
  8
3
 62
     0
 10
2548.740353466208
 20
6257.5675674391214
 30
0.0
 11
2861.7623104662089
 21
6257.5675674391214
 31
0.0
  0
LINE
  5
802D
  8
3
 62
     0
 10
2548.740353466208
 20
5647.5675674391214
 30
0.0
 11
2861.7623104662089
 21
5647.5675674391214
 31
0.0
  0
LINE
  5
802E
  8
3
 62
     0
 10
2831.7623104662098
 20
6197.5675674391214
 30
0.0
 11
2831.7623104662098
 21
5707.5675674391214
 31
0.0
  0
INSERT
  5
802F
  8
3
 62
     0
  2
_OPEN
 10
2831.7623104662098
 20
6257.5675674391214
 30
0.0
 41
60.0
 42
60.0
 43
60.0
 50
90.0
  0
INSERT
  5
8030
  8
3
 62
     0
  2
_OPEN
 10
2831.7623104662098
 20
5647.5675674391214
 30
0.0
 41
60.0
 42
60.0
 43
60.0
 50
270.0
  0
TEXT
  8
3
  40
90
  5
8060
  62
0
  72
0
  71
0
 10
2576.76
 20
5831.18
 30
0.000000
  1
610
  0
POINT
  5
8032
  8
DEFPOINTS
 62
     0
 10
2533.740353466208
 20
6257.5675674391214
 30
0.0
  0
POINT
  5
8033
  8
DEFPOINTS
 62
     0
 10
2533.740353466208
 20
5647.5675674391214
 30
0.0
  0
POINT
  5
8034
  8
DEFPOINTS
 62
     0
 10
2831.7623104662098
 20
5647.5675674391214
 30
0.0
  0
ENDBLK
  5
7D95
  8
0
  0
BLOCK
  8
0
  2
*D12
 70
     1
 10
0.0
 20
0.0
 30
0.0
  3
*D12
  1

  0
LINE
  5
7E9C
  8
0
  6
BYBLOCK
 62
     0
 10
4429.734300466208
 20
2596.4078234391209
 30
0.0
 11
4429.734300466208
 21
2349.2121065287902
 31
0.0
  0
LINE
  5
7E9D
  8
0
  6
BYBLOCK
 62
     0
 10
4784.7343004662071
 20
2533.0085914391202
 30
0.0
 11
4784.7343004662071
 21
2349.2121065287902
 31
0.0
  0
LINE
  5
7E9E
  8
0
  6
BYBLOCK
 62
     0
 10
4489.734300466208
 20
2379.2121065287902
 30
0.0
 11
4724.734300466208
 21
2379.2121065287902
 31
0.0
  0
TEXT
  5
7E9F
  8
3
 62
     0
 10
4491.349194210773
 20
2399.6940474673929
 30
0.0
 40
90.0
  1
355
  0
INSERT
  5
7EA0
  8
0
  6
BYBLOCK
 62
     0
  2
_OPEN
 10
4429.734300466208
 20
2379.2121065287902
 30
0.0
 41
60.0
 42
60.0
 43
60.0
 50
180.0
  0
INSERT
  5
7EA1
  8
0
  6
BYBLOCK
 62
     0
  2
_OPEN
 10
4784.7343004662071
 20
2379.2121065287902
 30
0.0
 41
60.0
 42
60.0
 43
60.0
  0
POINT
  5
7EA2
  8
DEFPOINTS
  6
BYBLOCK
 62
     0
 10
4429.734300466208
 20
2611.4078234391209
 30
0.0
  0
POINT
  5
7EA3
  8
DEFPOINTS
  6
BYBLOCK
 62
     0
 10
4784.7343004662071
 20
2548.0085914391202
 30
0.0
  0
POINT
  5
7EA4
  8
DEFPOINTS
  6
BYBLOCK
 62
     0
 10
4784.7343004662071
 20
2379.2121065287902
 30
0.0
  0
ENDBLK
  5
7EA5
  8
0
  0
BLOCK
  8
0
  2
*D13
 70
     1
 10
0.0
 20
0.0
 30
0.0
  3
*D13
  1

  0
LINE
  5
7EA7
  8
0
  6
BYBLOCK
 62
     0
 10
4784.7343004662071
 20
2533.0085914391202
 30
0.0
 11
4784.7343004662071
 21
2349.4903024391201
 31
0.0
  0
LINE
  5
7EA8
  8
0
  6
BYBLOCK
 62
     0
 10
5039.734300466208
 20
2596.4078234391209
 30
0.0
 11
5039.734300466208
 21
2349.4903024391201
 31
0.0
  0
LINE
  5
7EA9
  8
0
  6
BYBLOCK
 62
     0
 10
4844.734300466208
 20
2379.4903024391201
 30
0.0
 11
4979.734300466208
 21
2379.4903024391201
 31
0.0
  0
TEXT
  5
7EAA
  8
3
 62
     0
 10
4798.5867839177336
 20
2404.1110774143049
 30
0.0
 40
90.0
  1
255
  0
INSERT
  5
7EAB
  8
0
  6
BYBLOCK
 62
     0
  2
_OPEN
 10
4784.7343004662071
 20
2379.4903024391201
 30
0.0
 41
60.0
 42
60.0
 43
60.0
 50
180.0
  0
INSERT
  5
7EAC
  8
0
  6
BYBLOCK
 62
     0
  2
_OPEN
 10
5039.734300466208
 20
2379.4903024391201
 30
0.0
 41
60.0
 42
60.0
 43
60.0
  0
POINT
  5
7EAD
  8
DEFPOINTS
  6
BYBLOCK
 62
     0
 10
4784.7343004662071
 20
2548.0085914391202
 30
0.0
  0
POINT
  5
7EAE
  8
DEFPOINTS
  6
BYBLOCK
 62
     0
 10
5039.734300466208
 20
2611.4078234391209
 30
0.0
  0
POINT
  5
7EAF
  8
DEFPOINTS
  6
BYBLOCK
 62
     0
 10
5039.734300466208
 20
2379.4903024391201
 30
0.0
  0
ENDBLK
  5
7EB0
  8
0
  0
BLOCK
  8
0
  2
*D14
 70
     1
 10
0.0
 20
0.0
 30
0.0
  3
*D14
  1

  0
LINE
  5
8035
  8
3
 62
     0
 10
5075.734300466208
 20
3549.4078234391209
 30
0.0
 11
5288.315485488115
 21
3549.40782343912
 31
0.0
  0
LINE
  5
8036
  8
3
 62
     0
 10
5075.734300466208
 20
2989.4078234391209
 30
0.0
 11
5288.315485488115
 21
2989.40782343912
 31
0.0
  0
LINE
  5
8037
  8
3
 62
     0
 10
5258.315485488115
 20
3489.40782343912
 30
0.0
 11
5258.315485488115
 21
3049.40782343912
 31
0.0
  0
INSERT
  5
8038
  8
3
 62
     0
  2
_OPEN
 10
5258.315485488115
 20
3549.40782343912
 30
0.0
 41
60.0
 42
60.0
 43
60.0
 50
90.0
  0
INSERT
  5
8039
  8
3
 62
     0
  2
_OPEN
 10
5258.315485488115
 20
2989.40782343912
 30
0.0
 41
60.0
 42
60.0
 43
60.0
 50
270.0
  0
TEXT
  8
3
  40
90
  5
8061
  62
0
  72
0
  71
0
 10
5003.32
 20
3130.39
 30
0.000000
  1
φ560
  0
POINT
  5
803B
  8
DEFPOINTS
 62
     0
 10
5060.734300466208
 20
3549.4078234391209
 30
0.0
  0
POINT
  5
803C
  8
DEFPOINTS
 62
     0
 10
5060.734300466208
 20
2989.4078234391209
 30
0.0
  0
POINT
  5
803D
  8
DEFPOINTS
 62
     0
 10
5258.315485488115
 20
2989.40782343912
 30
0.0
  0
ENDBLK
  5
7EC6
  8
0
  0
BLOCK
  8
0
  2
*D15
 70
     1
 10
0.0
 20
0.0
 30
0.0
  3
*D15
  1

  0
LINE
  5
803E
  8
3
 62
     0
 10
4572.234300466208
 20
3674.4078234391209
 30
0.0
 11
4572.234300466208
 21
3793.2617902930069
 31
0.0
  0
LINE
  5
803F
  8
3
 62
     0
 10
4997.234300466208
 20
3674.4078234391209
 30
0.0
 11
4997.234300466208
 21
3793.2617902930069
 31
0.0
  0
LINE
  5
8040
  8
3
 62
     0
 10
4632.2343004662071
 20
3763.2617902930069
 30
0.0
 11
4937.234300466208
 21
3763.2617902930069
 31
0.0
  0
INSERT
  5
8041
  8
3
 62
     0
  2
_OPEN
 10
4572.234300466208
 20
3763.2617902930069
 30
0.0
 41
60.0
 42
60.0
 43
60.0
 50
180.0
  0
INSERT
  5
8042
  8
3
 62
     0
  2
_OPEN
 10
4997.234300466208
 20
3763.2617902930069
 30
0.0
 41
60.0
 42
60.0
 43
60.0
  0
TEXT
  8
3
  40
90
  5
8062
  62
0
  72
0
  71
0
 10
4597.95
 20
3678.96
 30
0.000000
  1
425
  0
POINT
  5
8044
  8
DEFPOINTS
 62
     0
 10
4572.234300466208
 20
3659.4078234391209
 30
0.0
  0
POINT
  5
8045
  8
DEFPOINTS
 62
     0
 10
4997.234300466208
 20
3659.4078234391209
 30
0.0
  0
POINT
  5
8046
  8
DEFPOINTS
 62
     0
 10
4997.234300466208
 20
3763.2617902930069
 30
0.0
  0
ENDBLK
  5
7EDC
  8
0
  0
BLOCK
  8
0
  2
*D16
 70
     1
 10
0.0
 20
0.0
 30
0.0
  3
*D16
  1

  0
LINE
  5
8047
  8
3
 62
     0
 10
4324.7343004662071
 20
3448.7078234391201
 30
0.0
 11
4324.7343004662071
 21
4010.074260563058
 31
0.0
  0
LINE
  5
8048
  8
3
 62
     0
 10
4784.7343004662071
 20
3915.1440144391208
 30
0.0
 11
4784.7343004662071
 21
4010.074260563058
 31
0.0
  0
LINE
  5
8049
  8
3
 62
     0
 10
4384.734300466208
 20
3980.0742605630589
 30
0.0
 11
4724.734300466208
 21
3980.0742605630589
 31
0.0
  0
INSERT
  5
804A
  8
3
 62
     0
  2
_OPEN
 10
4324.7343004662071
 20
3980.0742605630589
 30
0.0
 41
60.0
 42
60.0
 43
60.0
 50
180.0
  0
INSERT
  5
804B
  8
3
 62
     0
  2
_OPEN
 10
4784.7343004662071
 20
3980.0742605630589
 30
0.0
 41
60.0
 42
60.0
 43
60.0
  0
TEXT
  8
3
  40
90
  5
8063
  62
0
  72
0
  71
0
 10
4363.31
 20
3970.77
 30
0.000000
  1
MAX
  0
TEXT
  8
3
  40
90
  5
8064
  62
0
  72
0
  71
0
 10
4363.31
 20
3853.77
 30
0.000000
  1
510
  0
POINT
  5
804D
  8
DEFPOINTS
 62
     0
 10
4324.7343004662071
 20
3433.7078234391201
 30
0.0
  0
POINT
  5
804E
  8
DEFPOINTS
 62
     0
 10
4784.7343004662071
 20
3900.1440144391208
 30
0.0
  0
POINT
  5
804F
  8
DEFPOINTS
 62
     0
 10
4784.7343004662071
 20
3980.0742605630589
 30
0.0
  0
ENDBLK
  5
7F1B
  8
0
  0
BLOCK
  8
0
  2
*D17
 70
     1
 10
0.0
 20
0.0
 30
0.0
  3
*D17
  1

  0
LINE
  5
7EF4
  8
0
  6
BYBLOCK
 62
     0
 10
4784.7343004662071
 20
3915.1440144391208
 30
0.0
 11
4784.7343004662071
 21
4010.074260563058
 31
0.0
  0
LINE
  5
7EF5
  8
0
  6
BYBLOCK
 62
     0
 10
5060.734300466208
 20
3594.40782343912
 30
0.0
 11
5060.734300466208
 21
4010.074260563058
 31
0.0
  0
LINE
  5
7EF6
  8
0
  6
BYBLOCK
 62
     0
 10
4844.734300466208
 20
3980.0742605630589
 30
0.0
 11
5000.734300466208
 21
3980.0742605630589
 31
0.0
  0
TEXT
  5
7EF7
  8
3
 62
     0
 10
4814.4462602980193
 20
4004.6811122611798
 30
0.0
 40
90.0
  1
276
  0
INSERT
  5
7EF8
  8
0
  6
BYBLOCK
 62
     0
  2
_OPEN
 10
4784.7343004662071
 20
3980.0742605630589
 30
0.0
 41
60.0
 42
60.0
 43
60.0
 50
180.0
  0
INSERT
  5
7EF9
  8
0
  6
BYBLOCK
 62
     0
  2
_OPEN
 10
5060.734300466208
 20
3980.0742605630589
 30
0.0
 41
60.0
 42
60.0
 43
60.0
  0
POINT
  5
7EFA
  8
DEFPOINTS
  6
BYBLOCK
 62
     0
 10
4784.7343004662071
 20
3900.1440144391208
 30
0.0
  0
POINT
  5
7EFB
  8
DEFPOINTS
  6
BYBLOCK
 62
     0
 10
5060.734300466208
 20
3579.4078234391209
 30
0.0
  0
POINT
  5
7EFC
  8
DEFPOINTS
  6
BYBLOCK
 62
     0
 10
5060.734300466208
 20
3980.0742605630589
 30
0.0
  0
ENDBLK
  5
7EFD
  8
0
  0
BLOCK
  8
0
  2
*D18
 70
     1
 10
0.0
 20
0.0
 30
0.0
  3
*D18
  1

  0
LINE
  5
8050
  8
3
 62
     0
 10
1253.740353466208
 20
2804.40782343912
 30
0.0
 11
1253.740353466208
 21
4218.0379133881097
 31
0.0
  0
LINE
  5
8051
  8
3
 62
     0
 10
2578.740353466208
 20
3242.4078234391209
 30
0.0
 11
2578.740353466208
 21
4218.0379133881097
 31
0.0
  0
LINE
  5
8052
  8
3
 62
     0
 10
1313.740353466208
 20
4188.0379133881097
 30
0.0
 11
2518.740353466208
 21
4188.0379133881097
 31
0.0
  0
INSERT
  5
8053
  8
3
 62
     0
  2
_OPEN
 10
1253.740353466208
 20
4188.0379133881097
 30
0.0
 41
60.0
 42
60.0
 43
60.0
 50
180.0
  0
INSERT
  5
8054
  8
3
 62
     0
  2
_OPEN
 10
2578.740353466208
 20
4188.0379133881097
 30
0.0
 41
60.0
 42
60.0
 43
60.0
  0
TEXT
  8
3
  40
90
  5
8065
  62
0
  72
0
  71
0
 10
1712.56
 20
4103.74
 30
0.000000
  1
1325
  0
POINT
  5
8056
  8
DEFPOINTS
 62
     0
 10
1253.740353466208
 20
2789.4078234391209
 30
0.0
  0
POINT
  5
8057
  8
DEFPOINTS
 62
     0
 10
2578.740353466208
 20
3227.4078234391209
 30
0.0
  0
POINT
  5
8058
  8
DEFPOINTS
 62
     0
 10
2578.740353466208
 20
4188.0379133881097
 30
0.0
  0
ENDBLK
  5
7F27
  8
0
  0
ENDSEC
  0
SECTION
  2
ENTITIES
  0
CIRCLE
  5
7A78
  8
1
 10
2178.740353466208
 20
3269.40782343912
 30
0.0
 40
310.0
  0
LINE
  5
7A79
  8
1
 10
1253.740353466208
 20
2789.4078234391209
 30
0.0
 11
2533.740353466208
 21
2789.4078234391209
 31
0.0
  0
LINE
  5
7A7A
  8
1
 10
1253.740353466208
 20
2714.40782343912
 30
0.0
 11
2533.740353466208
 21
2714.40782343912
 31
0.0
  0
CIRCLE
  5
7A7B
  8
1
 10
2178.740353466208
 20
3269.40782343912
 30
0.0
 40
280.0
  0
ARC
  5
7A7C
  8
1
 10
2211.740353466208
 20
3236.4078234391209
 30
0.0
 40
367.0
 50
5.1589039999999997
 51
95.158904000000007
  0
ARC
  5
7A7D
  8
1
 10
2136.740353466208
 20
3227.4078234391209
 30
0.0
 40
442.0
 50
277.71408700000001
 51
5.452621999999999
  0
ARC
  5
7A7E
  8
1
 10
2178.740353466208
 20
3269.40782343912
 30
0.0
 40
164.30000000000001
 50
293.40571799999998
 51
113.40571799999989
  0
LINE
  5
7A7F
  8
1
 10
1253.740353466208
 20
2611.4078234391209
 30
0.0
 11
2533.740353466208
 21
2611.4078234391209
 31
0.0
  0
LINE
  5
7A80
  8
1
 10
1253.740353466208
 20
2676.4078234391209
 30
0.0
 11
2533.740353466208
 21
2676.4078234391209
 31
0.0
  0
LINE
  5
7A81
  8
2
 10
1478.740353466208
 20
2847.1078234391198
 30
0.0
 11
1478.740353466208
 21
3085.7078234391201
 31
0.0
  0
CIRCLE
  5
7A82
  8
1
 10
1478.740353466208
 20
2966.4078234391209
 30
0.0
 40
114.3
  0
ARC
  5
7A83
  8
1
 10
1478.740353466208
 20
2966.4078234391209
 30
0.0
 40
143.0
 50
324.34590999999989
 51
215.65408999999991
  0
ARC
  5
7A84
  8
1
 10
2136.740353466208
 20
3311.40782343912
 30
0.0
 40
526.0
 50
184.579824
 51
262.92949599999992
  0
ARC
  5
7A85
  8
1
 10
1478.740353466208
 20
2966.4078234391209
 30
0.0
 40
164.30000000000001
 50
113.40571799999989
 51
293.40571799999998
  0
LINE
  5
7A86
  8
1
 10
1544.0068014662079
 20
2815.6272514391198
 30
0.0
 11
2244.0068014662079
 21
3118.6272514391198
 31
0.0
  0
LINE
  5
7A87
  8
1
 10
1524.1448264662081
 20
2861.5130004391208
 30
0.0
 11
2224.1448264662081
 21
3164.5130004391208
 31
0.0
  0
LINE
  5
7A88
  8
2
 10
1359.4403534662081
 20
2966.4078234391209
 30
0.0
 11
1598.040353466208
 21
2966.4078234391209
 31
0.0
  0
LINE
  5
7A89
  8
1
 10
1313.740353466208
 20
2834.4078234391209
 30
0.0
 11
1303.740353466208
 21
2789.4078234391209
 31
0.0
  0
LINE
  5
7A8A
  8
1
 10
1348.740353466208
 20
2849.4078234391209
 30
0.0
 11
1362.769631466208
 21
2883.6005684391212
 31
0.0
  0
LINE
  5
7A8B
  8
1
 10
1348.740353466208
 20
2834.4078234391209
 30
0.0
 11
1348.740353466208
 21
2849.4078234391209
 31
0.0
  0
LINE
  5
7A8C
  8
1
 10
1313.740353466208
 20
2834.4078234391209
 30
0.0
 11
1348.740353466208
 21
2834.4078234391209
 31
0.0
  0
LINE
  5
7A8D
  8
1
 10
1253.740353466208
 20
2789.4078234391209
 30
0.0
 11
1253.740353466208
 21
2714.40782343912
 31
0.0
  0
LINE
  5
7A8E
  8
1
 10
1253.740353466208
 20
2676.4078234391209
 30
0.0
 11
1253.740353466208
 21
2611.4078234391209
 31
0.0
  0
LINE
  5
7A8F
  8
1
 10
1608.740353466208
 20
2834.4078234391209
 30
0.0
 11
1643.740353466208
 21
2834.4078234391209
 31
0.0
  0
LINE
  5
7A90
  8
1
 10
1653.740353466208
 20
2789.4078234391209
 30
0.0
 11
1643.740353466208
 21
2834.4078234391209
 31
0.0
  0
LINE
  5
7A91
  8
1
 10
1608.740353466208
 20
2834.4078234391209
 30
0.0
 11
1608.740353466208
 21
2849.4078234391209
 31
0.0
  0
LINE
  5
7A92
  8
1
 10
1608.740353466208
 20
2849.4078234391209
 30
0.0
 11
1594.7110764662079
 21
2883.6005684391212
 31
0.0
  0
LINE
  5
7A93
  8
1
 10
1413.4739064662081
 20
3117.1883954391201
 30
0.0
 11
2113.4739064662081
 21
3420.188395439121
 31
0.0
  0
LINE
  5
7A94
  8
1
 10
1433.3358804662071
 20
3071.3026464391201
 30
0.0
 11
2133.3358804662071
 21
3374.302646439121
 31
0.0
  0
LINE
  5
7A95
  8
1
 10
1612.4198404662079
 20
3269.40782343912
 30
0.0
 11
1578.740353466208
 21
3659.4078234391209
 31
0.0
  0
LINE
  5
7A96
  8
1
 10
2014.440353466209
 20
3269.40782343912
 30
0.0
 11
2014.440353466209
 21
3269.40782343912
 31
0.0
  0
LINE
  5
7A97
  8
2
 10
2178.740353466208
 20
2463.5778264391211
 30
0.0
 11
2178.740353466208
 21
3601.5933844391202
 31
0.0
  0
LINE
  5
7A98
  8
2
 10
5094.1626374662083
 20
3269.40782343912
 30
0.0
 11
4272.0797108180268
 21
3269.40782343912
 31
0.0
  0
CIRCLE
  5
7A99
  8
1
 10
2178.740353466208
 20
3269.40782343912
 30
0.0
 40
114.3
  0
LINE
  5
7A9A
  8
1
 10
1581.331083466207
 20
3629.40782343912
 30
0.0
 11
2158.740353466208
 21
3629.40782343912
 31
0.0
  0
LINE
  5
7A9B
  8
1
 10
1548.740353466208
 20
3659.4078234391209
 30
0.0
 11
2188.7403534662071
 21
3659.4078234391209
 31
0.0
  0
LINE
  5
7A9C
  8
1
 10
2158.740353466208
 20
3598.7049714391201
 30
0.0
 11
2158.740353466208
 21
3659.4078234391209
 31
0.0
  0
ARC
  5
7A9D
  8
1
 10
2211.740353466208
 20
3302.4078234391209
 30
0.0
 40
301.0
 50
96.294250000000005
 51
100.141498
  0
LINE
  5
7A9E
  8
1
 10
4439.734300466208
 20
3109.40782343912
 30
0.0
 11
4439.734300466208
 21
2789.4078234391209
 31
0.0
  0
LINE
  5
7A9F
  8
1
 10
4419.734300466208
 20
3433.7078234391201
 30
0.0
 11
4419.734300466208
 21
2802.1078234391198
 31
0.0
  0
LINE
  5
7AA0
  8
1
 10
4324.7343004662071
 20
3433.7078234391201
 30
0.0
 11
4324.7343004662071
 21
2802.1078234391198
 31
0.0
  0
LINE
  5
7AA1
  8
1
 10
5060.734300466208
 20
3579.4078234391209
 30
0.0
 11
5060.734300466208
 21
2959.4078234391209
 31
0.0
  0
LINE
  5
7AA2
  8
1
 10
4572.234300466208
 20
3659.4078234391209
 30
0.0
 11
4572.234300466208
 21
2789.4078234391209
 31
0.0
  0
LINE
  5
7AA3
  8
1
 10
4997.234300466208
 20
3659.4078234391209
 30
0.0
 11
4997.234300466208
 21
2789.4078234391209
 31
0.0
  0
LINE
  5
7AA4
  8
1
 10
4402.734300466208
 20
3080.7078234391201
 30
0.0
 11
4402.734300466208
 21
2852.1078234391211
 31
0.0
  0
LINE
  5
7AA5
  8
1
 10
4339.734300466208
 20
3080.7078234391201
 30
0.0
 11
4339.734300466208
 21
2852.1078234391211
 31
0.0
  0
LINE
  5
7AA6
  8
1
 10
4429.734300466208
 20
2676.4078234391209
 30
0.0
 11
5039.734300466208
 21
2676.4078234391209
 31
0.0
  0
LINE
  5
7AA7
  8
1
 10
4429.734300466208
 20
2611.4078234391209
 30
0.0
 11
5039.734300466208
 21
2611.4078234391209
 31
0.0
  0
LINE
  5
7AA8
  8
1
 10
4429.734300466208
 20
2789.4078234391209
 30
0.0
 11
5039.734300466208
 21
2789.4078234391209
 31
0.0
  0
LINE
  5
7AA9
  8
1
 10
4429.734300466208
 20
2714.40782343912
 30
0.0
 11
5039.734300466208
 21
2714.40782343912
 31
0.0
  0
LINE
  5
7AAA
  8
1
 10
2533.740353466208
 20
2789.4078234391209
 30
0.0
 11
2533.740353466208
 21
2714.40782343912
 31
0.0
  0
LINE
  5
7AAB
  8
1
 10
2533.740353466208
 20
2676.4078234391209
 30
0.0
 11
2533.740353466208
 21
2611.4078234391209
 31
0.0
  0
LINE
  5
7AAC
  8
1
 10
4429.734300466208
 20
2676.4078234391209
 30
0.0
 11
4429.734300466208
 21
2611.4078234391209
 31
0.0
  0
LINE
  5
7AAD
  8
1
 10
4402.734300466208
 20
2947.4078234391209
 30
0.0
 11
4439.734300466208
 21
2947.4078234391209
 31
0.0
  0
LINE
  5
7AAE
  8
1
 10
4402.734300466208
 20
2985.4078234391209
 30
0.0
 11
4439.734300466208
 21
2985.4078234391209
 31
0.0
  0
LINE
  5
7AAF
  8
1
 10
4339.734300466208
 20
2852.1078234391211
 30
0.0
 11
4402.734300466208
 21
2852.1078234391211
 31
0.0
  0
LINE
  5
7AB0
  8
1
 10
4439.734300466208
 20
2834.4078234391209
 30
0.0
 11
4572.234300466208
 21
2834.4078234391209
 31
0.0
  0
LINE
  5
7AB1
  8
1
 10
4324.7343004662071
 20
2802.1078234391198
 30
0.0
 11
4419.734300466208
 21
2802.1078234391198
 31
0.0
  0
LINE
  5
7AB2
  8
1
 10
4429.734300466208
 20
2789.4078234391209
 30
0.0
 11
4429.734300466208
 21
2714.40782343912
 31
0.0
  0
LINE
  5
7AB3
  8
1
 10
4997.234300466208
 20
2989.4078234391209
 30
0.0
 11
5060.734300466208
 21
2989.4078234391209
 31
0.0
  0
LINE
  5
7AB4
  8
1
 10
5039.734300466208
 20
2676.4078234391209
 30
0.0
 11
5039.734300466208
 21
2611.4078234391209
 31
0.0
  0
LINE
  5
7AB5
  8
1
 10
5039.734300466208
 20
2789.4078234391209
 30
0.0
 11
5039.734300466208
 21
2714.40782343912
 31
0.0
  0
LINE
  5
7AB6
  8
1
 10
4542.234300466208
 20
3659.4078234391209
 30
0.0
 11
5027.234300466208
 21
3659.4078234391209
 31
0.0
  0
LINE
  5
7AB7
  8
1
 10
4572.234300466208
 20
3629.40782343912
 30
0.0
 11
4997.234300466208
 21
3629.40782343912
 31
0.0
  0
LINE
  5
7AB8
  8
1
 10
4439.734300466208
 20
3109.40782343912
 30
0.0
 11
4572.234300466208
 21
3109.40782343912
 31
0.0
  0
LINE
  5
7AB9
  8
1
 10
4324.7343004662071
 20
3433.7078234391201
 30
0.0
 11
4419.734300466208
 21
3433.7078234391201
 31
0.0
  0
LINE
  5
7ABA
  8
1
 10
4402.734300466208
 20
3383.7078234391201
 30
0.0
 11
4402.734300466208
 21
3155.1078234391198
 31
0.0
  0
LINE
  5
7ABB
  8
1
 10
4339.734300466208
 20
3155.1078234391198
 30
0.0
 11
4402.734300466208
 21
3155.1078234391198
 31
0.0
  0
LINE
  5
7ABC
  8
1
 10
4339.734300466208
 20
3383.7078234391201
 30
0.0
 11
4402.734300466208
 21
3383.7078234391201
 31
0.0
  0
LINE
  5
7ABD
  8
1
 10
4339.734300466208
 20
3383.7078234391201
 30
0.0
 11
4339.734300466208
 21
3155.1078234391198
 31
0.0
  0
LINE
  5
7ABE
  8
1
 10
4402.734300466208
 20
3249.4078234391209
 30
0.0
 11
4572.234300466208
 21
3249.4078234391209
 31
0.0
  0
LINE
  5
7ABF
  8
1
 10
4402.734300466208
 20
3289.4078234391209
 30
0.0
 11
4572.234300466208
 21
3289.4078234391209
 31
0.0
  0
LINE
  5
7AC0
  8
1
 10
4339.734300466208
 20
3080.7078234391201
 30
0.0
 11
4402.734300466208
 21
3080.7078234391201
 31
0.0
  0
LINE
  5
7AC1
  8
1
 10
4997.234300466208
 20
3549.4078234391209
 30
0.0
 11
5060.734300466208
 21
3549.4078234391209
 31
0.0
  0
LINE
  5
7AC2
  8
1
 10
2198.740353466208
 20
5647.5675674391214
 30
0.0
 11
2533.740353466208
 21
5647.5675674391214
 31
0.0
  0
LINE
  5
7AC3
  8
1
 10
1868.740353466208
 20
6278.5675674391223
 30
0.0
 11
2488.740353466208
 21
6278.5675674391223
 31
0.0
  0
LINE
  5
7AC4
  8
1
 10
1578.740353466208
 20
5790.0675674391214
 30
0.0
 11
2578.740353466208
 21
5790.0675674391214
 31
0.0
  0
LINE
  5
7AC5
  8
1
 10
1578.740353466208
 20
6215.0675674391214
 30
0.0
 11
2578.740353466208
 21
6215.0675674391214
 31
0.0
  0
LINE
  5
7AC6
  8
1
 10
1314.4403534662081
 20
5637.5675674391223
 30
0.0
 11
2343.0403534662082
 21
5637.5675674391223
 31
0.0
  0
LINE
  5
7AC7
  8
1
 10
1314.4403534662081
 20
5542.5675674391214
 30
0.0
 11
2343.0403534662082
 21
5542.5675674391214
 31
0.0
  0
LINE
  5
7AC8
  8
1
 10
1364.4403534662081
 20
5557.5675674391223
 30
0.0
 11
1593.040353466208
 21
5557.5675674391223
 31
0.0
  0
LINE
  5
7AC9
  8
1
 10
1364.4403534662081
 20
5620.5675674391214
 30
0.0
 11
1593.040353466208
 21
5620.5675674391214
 31
0.0
  0
LINE
  5
7ACA
  8
1
 10
1497.740353466208
 20
5647.5675674391214
 30
0.0
 11
2158.740353466208
 21
5647.5675674391214
 31
0.0
  0
LINE
  5
7ACB
  8
1
 10
1621.740353466208
 20
5657.5675674391214
 30
0.0
 11
1335.740353466208
 21
5657.5675674391214
 31
0.0
  0
LINE
  5
7ACC
  8
1
 10
1335.740353466208
 20
6026.5675674391223
 30
0.0
 11
1578.740353466208
 21
6026.5675674391223
 31
0.0
  0
LINE
  5
7ACD
  8
1
 10
1253.740353466208
 20
6257.5675674391214
 30
0.0
 11
1898.740353466208
 21
6257.5675674391214
 31
0.0
  0
LINE
  5
7ACE
  8
1
 10
1335.740353466208
 20
5657.5675674391214
 30
0.0
 11
1335.740353466208
 21
6026.5675674391223
 31
0.0
  0
LINE
  5
7ACF
  8
1
 10
1253.740353466208
 20
5647.5675674391214
 30
0.0
 11
1253.740353466208
 21
6257.5675674391214
 31
0.0
  0
LINE
  5
7AD0
  8
1
 10
1314.4403534662081
 20
5542.5675674391214
 30
0.0
 11
1314.4403534662081
 21
5637.5675674391223
 31
0.0
  0
LINE
  5
7AD1
  8
1
 10
1364.4403534662081
 20
5557.5675674391223
 30
0.0
 11
1364.4403534662081
 21
5620.5675674391214
 31
0.0
  0
LINE
  5
7AD2
  8
1
 10
1459.740353466208
 20
5620.5675674391214
 30
0.0
 11
1459.740353466208
 21
5657.5675674391214
 31
0.0
  0
LINE
  5
7AD3
  8
1
 10
1497.740353466208
 20
5620.5675674391214
 30
0.0
 11
1497.740353466208
 21
5657.5675674391214
 31
0.0
  0
LINE
  5
7AD4
  8
1
 10
1253.740353466208
 20
5647.5675674391214
 30
0.0
 11
1459.740353466208
 21
5647.5675674391214
 31
0.0
  0
LINE
  5
7AD5
  8
1
 10
1578.740353466208
 20
5790.0675674391214
 30
0.0
 11
1578.740353466208
 21
6215.0675674391214
 31
0.0
  0
LINE
  5
7AD6
  8
1
 10
2158.740353466208
 20
5790.0675674391214
 30
0.0
 11
2158.740353466208
 21
6215.0675674391214
 31
0.0
  0
LINE
  5
7AD7
  8
1
 10
1578.740353466208
 20
6215.0675674391214
 30
0.0
 11
2158.740353466208
 21
5790.0675674391214
 31
0.0
  0
LINE
  5
7AD8
  8
1
 10
1578.740353466208
 20
5790.0675674391214
 30
0.0
 11
2158.740353466208
 21
6215.0675674391214
 31
0.0
  0
LINE
  5
7AD9
  8
1
 10
1593.040353466208
 20
5557.5675674391223
 30
0.0
 11
1593.040353466208
 21
5620.5675674391214
 31
0.0
  0
LINE
  5
7ADA
  8
1
 10
1621.740353466208
 20
5657.5675674391214
 30
0.0
 11
1621.740353466208
 21
5790.0675674391214
 31
0.0
  0
LINE
  5
7ADB
  8
1
 10
2343.0403534662082
 20
5542.5675674391214
 30
0.0
 11
2343.0403534662082
 21
5637.5675674391223
 31
0.0
  0
LINE
  5
7ADC
  8
1
 10
2064.4403534662092
 20
5557.5675674391223
 30
0.0
 11
2064.4403534662092
 21
5620.5675674391214
 31
0.0
  0
LINE
  5
7ADD
  8
1
 10
2293.0403534662082
 20
5557.5675674391223
 30
0.0
 11
2293.0403534662082
 21
5620.5675674391214
 31
0.0
  0
LINE
  5
7ADE
  8
1
 10
2064.4403534662092
 20
5557.5675674391223
 30
0.0
 11
2293.0403534662082
 21
5557.5675674391223
 31
0.0
  0
LINE
  5
7ADF
  8
1
 10
2064.4403534662092
 20
5620.5675674391214
 30
0.0
 11
2293.0403534662082
 21
5620.5675674391214
 31
0.0
  0
LINE
  5
7AE0
  8
1
 10
2158.740353466208
 20
5620.5675674391214
 30
0.0
 11
2158.740353466208
 21
5790.0675674391214
 31
0.0
  0
LINE
  5
7AE1
  8
1
 10
2198.740353466208
 20
5620.5675674391214
 30
0.0
 11
2198.740353466208
 21
5790.0675674391214
 31
0.0
  0
LINE
  5
7AE2
  8
1
 10
1898.740353466208
 20
6215.0675674391214
 30
0.0
 11
1898.740353466208
 21
6278.5675674391223
 31
0.0
  0
LINE
  5
7AE3
  8
1
 10
2578.740353466208
 20
5790.0675674391214
 30
0.0
 11
2578.740353466208
 21
6215.0675674391214
 31
0.0
  0
LINE
  5
7AE4
  8
1
 10
2533.740353466208
 20
5647.5675674391214
 30
0.0
 11
2533.740353466208
 21
5790.0675674391214
 31
0.0
  0
LINE
  5
7AE5
  8
1
 10
2458.740353466208
 20
6257.5675674391214
 30
0.0
 11
2533.740353466208
 21
6257.5675674391214
 31
0.0
  0
LINE
  5
7AE6
  8
1
 10
2458.740353466208
 20
6215.0675674391214
 30
0.0
 11
2458.740353466208
 21
6278.5675674391223
 31
0.0
  0
LINE
  5
7AE7
  8
1
 10
2533.740353466208
 20
6215.0675674391214
 30
0.0
 11
2533.740353466208
 21
6257.5675674391214
 31
0.0
  0
DIMENSION
  5
7AFB
  8
3
  2
*D1
 10
2178.740353466208
 20
2332.3126024391199
 30
0.0
 11
1719.7125094662081
 21
2332.3126024391199
 31
0.0
 70
   128
 13
1253.740353466208
 23
2611.4078234391209
 33
0.0
 14
2178.740353466208
 24
2492.4661704391201
 34
0.0
1001
ACAD
1000
DSTYLE
1002
{
1070
   287
1070
     3
1070
   287
1070
     3
1070
    40
1040
30.0
1070
   143
1040
0.039
1070
   172
1070
     1
1070
   271
1070
     0
1070
   279
1070
     0
1070
   288
1070
     1
1002
}
  0
DIMENSION
  5
7B09
  8
3
  2
*D2
 10
2533.740353466208
 20
2329.1027884391201
 30
0.0
 11
2361.5611774339341
 21
2402.2912890264311
 31
0.0
 70
   128
 13
2178.740353466208
 23
2492.4661704391201
 33
0.0
 14
2533.740353466208
 24
2611.4078234391209
 34
0.0
1001
ACAD
1000
DSTYLE
1002
{
1070
   288
1070
     1
1070
   172
1070
     1
1070
    40
1040
30.0
1070
   271
1070
     0
1070
   143
1040
0.039
1002
}
  0
DIMENSION
  5
7B2C
  8
3
  2
*D3
 10
2158.740353466208
 20
3841.5130834391198
 30
0.0
 11
1883.5327644662079
 21
3841.5130834391198
 31
0.0
 70
   128
 13
1578.740353466208
 23
3659.4078234391209
 33
0.0
 14
2158.740353466208
 24
3659.4078234391209
 34
0.0
1001
ACAD
1000
DSTYLE
1002
{
1070
   287
1070
     3
1070
   287
1070
     3
1070
    40
1040
30.0
1070
   143
1040
0.039
1070
   172
1070
     1
1070
   271
1070
     0
1070
   279
1070
     0
1070
   288
1070
     1
1002
}
  0
DIMENSION
  5
7B39
  8
3
  2
*D4
 10
2178.740353466208
 20
4030.8921894391201
 30
0.0
 11
1861.0476304662079
 21
4030.8921894391201
 31
0.0
 70
   128
 13
1578.740353466208
 23
3659.4078234391209
 33
0.0
 14
2178.740353466208
 24
3601.5933844391202
 34
0.0
1001
ACAD
1000
DSTYLE
1002
{
1070
   287
1070
     3
1070
   287
1070
     3
1070
    40
1040
30.0
1070
   143
1040
0.039
1070
   172
1070
     1
1070
   271
1070
     0
1070
   279
1070
     0
1070
   288
1070
     1
1002
}
  0
DIMENSION
  5
7B47
  8
3
  2
*D5
 10
2576.740353466208
 20
4028.0016004391209
 30
0.0
 11
2383.053404651283
 21
4094.1403950458989
 31
0.0
 70
   128
  1
400
 13
2178.740353466208
 23
3601.5933844391202
 33
0.0
 14
2576.740353466208
 24
3269.40782343912
 34
0.0
1001
ACAD
1000
DSTYLE
1002
{
1070
   288
1070
     1
1070
   172
1070
     1
1070
    40
1040
30.0
1070
   271
1070
     0
1070
   143
1040
0.039
1002
}
  0
DIMENSION
  5
7B6C
  8
3
  2
*D6
 10
2952.670706610646
 20
3269.40782343912
 30
0.0
 11
2868.5377082904888
 21
3464.40782343912
 31
0.0
 70
   128
 13
2188.7403534662071
 23
3659.4078234391209
 33
0.0
 14
2577.2536904662079
 24
3269.40782343912
 34
0.0
 50
90.0
1001
ACAD
1000
DSTYLE
1002
{
1070
   288
1070
     1
1070
   172
1070
     1
1070
    40
1040
30.0
1070
   271
1070
     0
1070
   143
1040
0.039
1002
}
  0
DIMENSION
  5
7B78
  8
3
  2
*D7
 10
2953.8244524662068
 20
2714.40782343912
 30
0.0
 11
2878.8244524662068
 21
2991.9078234391209
 31
0.0
 70
     0
 13
2577.2536904662079
 23
3269.40782343912
 33
0.0
 14
2533.740353466208
 24
2714.40782343912
 34
0.0
 50
90.0
1001
ACAD
1000
DSTYLE
1002
{
1070
   287
1070
     3
1070
   287
1070
     3
1070
    40
1040
30.0
1070
   143
1040
0.039
1070
   172
1070
     1
1070
   271
1070
     0
1070
   279
1070
     0
1070
   288
1070
     1
1002
}
  0
DIMENSION
  5
7B88
  8
3
  2
*D8
 10
2953.8244524662082
 20
2611.4078234391209
 30
0.0
 11
2953.8244524662068
 21
2346.4078234391209
 31
0.0
 70
   128
 13
2533.740353466208
 23
2714.40782343912
 33
0.0
 14
2533.740353466208
 24
2611.4078234391209
 34
0.0
 50
90.0
1001
ACAD
1000
DSTYLE
1002
{
1070
   287
1070
     3
1070
   287
1070
     3
1070
    40
1040
30.0
1070
   143
1040
0.039
1070
   172
1070
     1
1070
   271
1070
     0
1070
   279
1070
     0
1070
   288
1070
     1
1002
}
  0
DIMENSION
  5
7BAF
  8
3
  2
*D9
 10
3188.3122674662081
 20
2611.40782343912
 30
0.0
 11
3188.3122674662081
 21
3138.2442124391209
 31
0.0
 70
   128
 13
2188.7403534662071
 23
3659.4078234391209
 33
0.0
 14
2533.740353466208
 24
2611.4078234391209
 34
0.0
 50
90.0
1001
ACAD
1000
DSTYLE
1002
{
1070
   287
1070
     3
1070
   287
1070
     3
1070
    40
1040
30.0
1070
   143
1040
0.039
1070
   172
1070
     1
1070
   271
1070
     0
1070
   279
1070
     0
1070
   288
1070
     1
1002
}
  0
DIMENSION
  5
7BBC
  8
3
  2
*D10
 10
2533.740353466208
 20
5252.2241054391206
 30
0.0
 11
1932.3569674662081
 21
5252.2241054391206
 31
0.0
 70
   128
 13
1253.740353466208
 23
5647.5675674391214
 33
0.0
 14
2533.740353466208
 24
5647.5675674391214
 34
0.0
1001
ACAD
1000
DSTYLE
1002
{
1070
   287
1070
     3
1070
   287
1070
     3
1070
    40
1040
30.0
1070
   143
1040
0.039
1070
   172
1070
     1
1070
   271
1070
     0
1070
   279
1070
     0
1070
   288
1070
     1
1002
}
  0
DIMENSION
  5
7BC9
  8
3
  2
*D11
 10
2831.7623104662098
 20
5647.5675674391214
 30
0.0
 11
2831.762310466208
 21
5990.481747439122
 31
0.0
 70
   128
 13
2533.740353466208
 23
6257.5675674391214
 33
0.0
 14
2533.740353466208
 24
5647.5675674391214
 34
0.0
 50
90.0
1001
ACAD
1000
DSTYLE
1002
{
1070
   287
1070
     3
1070
   287
1070
     3
1070
    40
1040
30.0
1070
   143
1040
0.039
1070
   172
1070
     1
1070
   271
1070
     0
1070
   279
1070
     0
1070
   288
1070
     1
1002
}
  0
LINE
  5
7BCA
  8
2
 10
2634.708852466209
 20
6002.5675674391223
 30
0.0
 11
1402.350246466207
 21
6002.5675674391223
 31
0.0
  0
LINE
  5
7BCB
  8
2
 10
4784.7343004662071
 20
3758.5422754391211
 30
0.0
 11
4784.7343004662071
 21
2548.0085914391202
 31
0.0
  0
DIMENSION
  5
7BDA
  8
3
  2
*D12
 10
4784.7343004662071
 20
2379.2121065287902
 30
0.0
 11
4607.0634799250583
 21
2444.6940474673929
 31
0.0
 70
   128
 13
4429.734300466208
 23
2611.4078234391209
 33
0.0
 14
4784.7343004662071
 24
2548.0085914391202
 34
0.0
1001
ACAD
1000
DSTYLE
1002
{
1070
   288
1070
     1
1070
   172
1070
     1
1070
    40
1040
30.0
1070
   271
1070
     0
1070
   143
1040
0.039
1002
}
  0
DIMENSION
  5
7BE8
  8
3
  2
*D13
 10
5039.734300466208
 20
2379.4903024391201
 30
0.0
 11
4914.3010696320198
 21
2449.1110774143049
 31
0.0
 70
   128
 13
4784.7343004662071
 23
2548.0085914391202
 33
0.0
 14
5039.734300466208
 24
2611.4078234391209
 34
0.0
1001
ACAD
1000
DSTYLE
1002
{
1070
   288
1070
     1
1070
   172
1070
     1
1070
    40
1040
30.0
1070
   271
1070
     0
1070
   143
1040
0.039
1002
}
  0
DIMENSION
  5
7C0B
  8
3
  2
*D14
 10
5258.315485488115
 20
2989.40782343912
 30
0.0
 11
5258.315485488115
 21
3289.6935377248351
 31
0.0
 70
   128
 13
5060.734300466208
 23
3549.4078234391209
 33
0.0
 14
5060.734300466208
 24
2989.4078234391209
 34
0.0
 50
90.0
1001
ACAD
1000
DSTYLE
1002
{
1070
   287
1070
     3
1070
   287
1070
     3
1070
     3
1000
φ<>
1070
    40
1040
30.0
1070
   143
1040
0.039
1070
   172
1070
     1
1070
   271
1070
     0
1070
   279
1070
     0
1070
   288
1070
     1
1002
}
  0
DIMENSION
  5
7C1A
  8
3
  2
*D15
 10
4997.234300466208
 20
3763.2617902930069
 30
0.0
 11
4777.9485861804933
 21
3763.2617902930069
 31
0.0
 70
   128
 13
4572.234300466208
 23
3659.4078234391209
 33
0.0
 14
4997.234300466208
 24
3659.4078234391209
 34
0.0
1001
ACAD
1000
DSTYLE
1002
{
1070
   287
1070
     3
1070
   287
1070
     3
1070
    40
1040
30.0
1070
   143
1040
0.039
1070
   172
1070
     1
1070
   271
1070
     0
1070
   279
1070
     0
1070
   288
1070
     1
1002
}
  0
DIMENSION
  5
7C29
  8
3
  2
*D16
 10
4784.7343004662071
 20
3980.0742605630589
 30
0.0
 11
4543.3057290376364
 21
3980.0742605630589
 31
0.0
 70
   128
  1
MAX\P510
 13
4324.7343004662071
 23
3433.7078234391201
 33
0.0
 14
4784.7343004662071
 24
3900.1440144391208
 34
0.0
1001
ACAD
1000
DSTYLE
1002
{
1070
   287
1070
     3
1070
   287
1070
     3
1070
    40
1040
30.0
1070
   143
1040
0.039
1070
   172
1070
     1
1070
   271
1070
     0
1070
   279
1070
     0
1070
   288
1070
     1
1002
}
  0
DIMENSION
  5
7C37
  8
3
  2
*D17
 10
5060.734300466208
 20
3980.0742605630589
 30
0.0
 11
4928.0176888694477
 21
4049.6811122611789
 31
0.0
 70
   128
 13
4784.7343004662071
 23
3900.1440144391208
 33
0.0
 14
5060.734300466208
 24
3579.4078234391209
 34
0.0
1001
ACAD
1000
DSTYLE
1002
{
1070
   288
1070
     1
1070
   172
1070
     1
1070
    40
1040
30.0
1070
   271
1070
     0
1070
   143
1040
0.039
1002
}
  0
LINE
  5
7C4E
  8
2
 10
2757.3371094662079
 20
3269.40782343912
 30
0.0
 11
1519.7971634662081
 21
3269.40782343912
 31
0.0
  0
LINE
  5
7C4F
  8
2
 10
2178.740353466208
 20
5391.7676024391203
 30
0.0
 11
2178.740353466208
 21
6339.7876364391213
 31
0.0
  0
LINE
  5
7C50
  8
4
 10
5550.0
 20
1500.0
 30
0.0
 11
5550.0
 21
900.0
 31
0.0
  0
LINE
  5
7C51
  8
4
 10
3450.0
 20
1500.0
 30
0.0
 11
3450.0
 21
900.0
 31
0.0
  0
LINE
  5
7C52
  8
4
 10
1950.0
 20
1500.0
 30
0.0
 11
1950.0
 21
900.0
 31
0.0
  0
LINE
  5
7C55
  8
4
 10
1950.0
 20
900.0
 30
0.0
 11
5550.0
 21
900.0
 31
0.0
  0
LINE
  5
7C56
  8
4
 10
1950.0
 20
1200.0
 30
0.0
 11
5550.0
 21
1200.0
 31
0.0
  0
TEXT
  5
7C57
  8
4
 10
2065.50624225
 20
1294.6290779999999
 30
0.0
 40
150.0
  1
機器名称
  0
TEXT
  5
7C58
  8
4
 10
2058.7743179999989
 20
964.93547024999998
 30
0.0
 40
150.0
  1
機器型番
  0
TEXT
  5
7C59
  8
4
 10
3533.0362365000001
 20
1267.715306249999
 30
0.0
 40
120.0
  1
ミツヤリミットロードファン
  0
TEXT
  5
7C5A
  8
4
 10
3559.9634872500001
 20
951.4787527499999
 30
0.0
 40
150.0
  1
LLE#3 1/2-4
  0
TEXT
  5
7C5C
  8
4
 10
2291.0701800000002
 20
7150.2865245000012
 30
0.0
 40
162.0
  1
床置防振ベット
  0
TEXT
  5
7C5D
  8
4
 10
948.50278049999986
 20
7601.6429287499996
 30
0.0
 40
180.0
  1
ベルト駆動式片吸込両持排煙ファン
  0
LINE
  5
7C5E
  8
4
 10
750.0
 20
7408.2262627500004
 30
0.0
 11
5550.0
 21
7408.2262627500004
 31
0.0
  0
LINE
  5
7C5F
  8
4
 10
750.0
 20
8008.2262627500004
 30
0.0
 11
5550.0
 21
8008.2262627500004
 31
0.0
  0
LINE
  5
7C60
  8
4
 10
1950.0
 20
1500.0
 30
0.0
 11
5550.0
 21
1500.0
 31
0.0
  0
LINE
  5
7C61
  8
4
 10
750.0
 20
8008.2262627500004
 30
0.0
 11
750.0
 21
7408.2262627500004
 31
0.0
  0
TEXT
  5
7C62
  8
4
 10
983.49368399999969
 20
7146.9584324999987
 30
0.0
 40
162.0
  1
右回転上向
  0
TEXT
  5
7C63
  8
4
 10
4406.9086777499988
 20
8118.1832445
 30
0.0
 40
168.0
  1
No.
  0
TEXT
  5
7C64
  8
4
 10
4080.4106805000001
 20
7150.2865245000012
 30
0.0
 40
162.0
  1
縮尺：1/30
  0
LINE
  5
7C65
  8
4
 10
5550.0
 20
8008.2262627500004
 30
0.0
 11
5550.0
 21
7408.2262627500004
 31
0.0
  0
LINE
  5
7C67
  8
4
 10
4321.8522667500001
 20
8043.79074975
 30
0.0
 11
4321.8522667500001
 21
8359.9567845000001
 31
0.0
  0
LINE
  5
7C68
  8
4
 10
4321.8522667500001
 20
8359.9567845000001
 30
0.0
 11
5550.0
 21
8359.9567845000001
 31
0.0
  0
LINE
  5
7C69
  8
4
 10
5550.0
 20
8359.9567845000001
 30
0.0
 11
5550.0
 21
8043.79074975
 31
0.0
  0
LINE
  5
7C6A
  8
4
 10
5550.0
 20
8043.79074975
 30
0.0
 11
4321.8522667500001
 21
8043.79074975
 31
0.0
  0
DIMENSION
  5
7F28
  8
3
  2
*D18
 10
2578.740353466208
 20
4188.0379133881097
 30
0.0
 11
1892.556930788217
 21
4188.0379133881097
 31
0.0
 70
   128
 13
1253.740353466208
 23
2789.4078234391209
 33
0.0
 14
2578.740353466208
 24
3227.4078234391209
 34
0.0
1001
ACAD
1000
DSTYLE
1002
{
1070
   287
1070
     3
1070
   287
1070
     3
1070
    40
1040
30.0
1070
   143
1040
0.039
1070
   172
1070
     1
1070
   271
1070
     0
1070
   279
1070
     0
1070
   288
1070
     1
1002
}
  0
ENDSEC
  0
EOF
