  0
SECTION
  2
HEADER
  9
$ACADVER
  1
AC1009
  9
$INSBASE
 10
0.0
 20
0.0
 30
0.0
  9
$EXTMIN
 10
750.0
 20
900.0
 30
0.0
  9
$EXTMAX
 10
5550.0
 20
8359.9567845000001
 30
0.0
  9
$LIMMIN
 10
0.0
 20
0.0
  9
$LIMMAX
 10
297.0
 20
210.0
  9
$ORTHOMODE
 70
     0
  9
$REGENMODE
 70
     1
  9
$FILLMODE
 70
     0
  9
$QTEXTMODE
 70
     0
  9
$MIRRTEXT
 70
     1
  9
$DRAGMODE
 70
     2
  9
$LTSCALE
 40
100.0
  9
$OSMODE
 70
    37
  9
$ATTMODE
 70
     1
  9
$TEXTSIZE
 40
180.0
  9
$TRACEWID
 40
0.05
  9
$TEXTSTYLE
  7
STANDARD
  9
$CLAYER
  8
3
  9
$CELTYPE
  6
BYLAYER
  9
$CECOLOR
 62
   256
  9
$DIMSCALE
 40
30.0
  9
$DIMASZ
 40
2.0
  9
$DIMEXO
 40
0.5
  9
$DIMDLI
 40
10.0
  9
$DIMRND
 40
0.0
  9
$DIMDLE
 40
0.0
  9
$DIMEXE
 40
1.0
  9
$DIMTP
 40
1.0
  9
$DIMTM
 40
1.0
  9
$DIMTXT
 40
3.0
  9
$DIMCEN
 40
0.0
  9
$DIMTSZ
 40
0.0
  9
$DIMTOL
 70
     0
  9
$DIMLIM
 70
     0
  9
$DIMTIH
 70
     0
  9
$DIMTOH
 70
     0
  9
$DIMSE1
 70
     0
  9
$DIMSE2
 70
     0
  9
$DIMTAD
 70
     1
  9
$DIMZIN
 70
     8
  9
$DIMBLK
  1

  9
$DIMASO
 70
     1
  9
$DIMSHO
 70
     1
  9
$DIMPOST
  1

  9
$DIMAPOST
  1

  9
$DIMALT
 70
     0
  9
$DIMALTD
 70
     2
  9
$DIMALTF
 40
0.039
  9
$DIMLFAC
 40
1.0
  9
$DIMTOFL
 70
     1
  9
$DIMTVP
 40
0.0
  9
$DIMTIX
 70
     0
  9
$DIMSOXD
 70
     0
  9
$DIMSAH
 70
     1
  9
$DIMBLK1
  1
OPEN
  9
$DIMBLK2
  1
OPEN
  9
$DIMSTYLE
  2
IGA
  9
$DIMCLRD
 70
     0
  9
$DIMCLRE
 70
     0
  9
$DIMCLRT
 70
     0
  9
$DIMTFAC
 40
10.0
  9
$DIMGAP
 40
1.0
  9
$LUNITS
 70
     2
  9
$LUPREC
 70
     3
  9
$SKETCHINC
 40
0.1
  9
$FILLETRAD
 40
50.0
  9
$AUNITS
 70
     0
  9
$AUPREC
 70
     0
  9
$MENU
  1
acad
  9
$ELEVATION
 40
0.0
  9
$PELEVATION
 40
0.0
  9
$THICKNESS
 40
0.0
  9
$LIMCHECK
 70
     0
  9
$BLIPMODE
 70
     0
  9
$CHAMFERA
 40
0.5
  9
$CHAMFERB
 40
0.5
  9
$SKPOLY
 70
     0
  9
$TDCREATE
 40
2450759.5637903931
  9
$TDUPDATE
 40
2454953.6825274881
  9
$TDINDWG
 40
0.0156781134
  9
$TDUSRTIMER
 40
0.0156781134
  9
$USRTIMER
 70
     1
  9
$ANGBASE
 50
0.0
  9
$ANGDIR
 70
     0
  9
$PDMODE
 70
     0
  9
$PDSIZE
 40
0.0
  9
$PLINEWID
 40
0.0
  9
$COORDS
 70
     1
  9
$SPLFRAME
 70
     0
  9
$SPLINETYPE
 70
     6
  9
$SPLINESEGS
 70
     8
  9
$ATTDIA
 70
     0
  9
$ATTREQ
 70
     1
  9
$HANDLING
 70
 10241
  9
$HANDSEED
  5
81FB
  9
$SURFTAB1
 70
     6
  9
$SURFTAB2
 70
     6
  9
$SURFTYPE
 70
     6
  9
$SURFU
 70
     6
  9
$SURFV
 70
     6
  9
$UCSNAME
  2

  9
$UCSORG
 10
0.0
 20
0.0
 30
0.0
  9
$UCSXDIR
 10
1.0
 20
0.0
 30
0.0
  9
$UCSYDIR
 10
0.0
 20
1.0
 30
0.0
  9
$PUCSNAME
  2

  9
$PUCSORG
 10
0.0
 20
0.0
 30
0.0
  9
$PUCSXDIR
 10
1.0
 20
0.0
 30
0.0
  9
$PUCSYDIR
 10
0.0
 20
1.0
 30
0.0
  9
$USERI1
 70
     0
  9
$USERI2
 70
     0
  9
$USERI3
 70
     0
  9
$USERI4
 70
     0
  9
$USERI5
 70
     0
  9
$USERR1
 40
0.0
  9
$USERR2
 40
0.0
  9
$USERR3
 40
0.0
  9
$USERR4
 40
0.0
  9
$USERR5
 40
0.0
  9
$WORLDVIEW
 70
     1
  9
$SHADEDGE
 70
     3
  9
$SHADEDIF
 70
    70
  9
$TILEMODE
 70
     1
  9
$MAXACTVP
 70
    16
  9
$PLIMCHECK
 70
     0
  9
$PEXTMIN
 10
1.0000000000000000E+020
 20
1.0000000000000000E+020
 30
1.0000000000000000E+020
  9
$PEXTMAX
 10
-1.0000000000000000E+020
 20
-1.0000000000000000E+020
 30
-1.0000000000000000E+020
  9
$PLIMMIN
 10
0.0
 20
0.0
  9
$PLIMMAX
 10
12.0
 20
9.0
  9
$UNITMODE
 70
     0
  9
$VISRETAIN
 70
     0
  9
$PLINEGEN
 70
     0
  9
$PSLTSCALE
 70
     1
  0
ENDSEC
  0
SECTION
  2
TABLES
  0
TABLE
  2
VPORT
 70
     2
  0
VPORT
  2
*ACTIVE
 70
     0
 10
0.0
 20
0.0
 11
1.0
 21
1.0
 12
13323.555520564551
 22
3860.393610121349
 13
0.0
 23
0.0
 14
10.0
 24
10.0
 15
10.0
 25
10.0
 16
0.0
 26
0.0
 36
1.0
 17
0.0
 27
0.0
 37
0.0
 40
9988.1566279513263
 41
3.1666666666666661
 42
50.0
 43
0.0
 44
0.0
 50
0.0
 51
0.0
 71
     0
 72
   100
 73
     1
 74
     0
 75
     0
 76
     0
 77
     0
 78
     0
  0
ENDTAB
  0
TABLE
  2
LTYPE
 70
     2
  0
LTYPE
  2
CONTINUOUS
 70
     0
  3
Solid line
 72
    65
 73
     0
 40
0.0
  0
LTYPE
  2
CENTER
 70
     0
  3
____ _ ____ _ ____ _ ____ _ ____ _ ____ _ ____ 
 72
    65
 73
     4
 40
2.0
 49
1.25
 49
-0.25
 49
0.25
 49
-0.25
  0
ENDTAB
  0
TABLE
  2
LAYER
 70
     6
  0
LAYER
  2
0
 70
     0
 62
     7
  6
CONTINUOUS
  0
LAYER
  2
3
 70
     0
 62
     2
  6
CONTINUOUS
  0
LAYER
  2
2
 70
     0
 62
     3
  6
CENTER
  0
LAYER
  2
1
 70
     0
 62
     4
  6
CONTINUOUS
  0
LAYER
  2
4
 70
     0
 62
     7
  6
CONTINUOUS
  0
LAYER
  2
DEFPOINTS
 70
     0
 62
     7
  6
CONTINUOUS
  0
ENDTAB
  0
TABLE
  2
STYLE
 70
     1
  0
STYLE
  2
STANDARD
 70
     0
 40
0.0
 41
1.0
 50
0.0
 71
     0
 42
180.0
  3
simplex.shx
  4
extfont.shx
  0
ENDTAB
  0
TABLE
  2
VIEW
 70
     0
  0
ENDTAB
  0
TABLE
  2
UCS
 70
     0
  0
ENDTAB
  0
TABLE
  2
APPID
 70
     1
  0
APPID
  2
ACAD
 70
     0
  0
ENDTAB
  0
TABLE
  2
DIMSTYLE
 70
     1
  0
DIMSTYLE
  2
IGA
 70
     0
  3

  4

  5

  6
OPEN
  7
OPEN
 40
2.0
 41
2.0
 42
0.5
 43
10.0
 44
1.0
 45
0.0
 46
0.0
 47
1.0
 48
1.0
140
3.0
141
0.0
142
0.0
143
0.03937
144
1.0
145
0.0
146
10.0
147
1.0
 71
     0
 72
     0
 73
     0
 74
     0
 75
     0
 76
     0
 77
     1
 78
     8
170
     0
171
     2
172
     0
173
     1
174
     0
175
     0
176
     0
177
     0
178
     0
  0
ENDTAB
  0
ENDSEC
  0
SECTION
  2
BLOCKS
  0
BLOCK
  8
0
  2
$MODEL_SPACE
 70
     0
 10
0.0
 20
0.0
 30
0.0
  3
$MODEL_SPACE
  1

  0
ENDBLK
  5
1B
  8
0
  0
BLOCK
 67
     1
  8
0
  2
$PAPER_SPACE
 70
     0
 10
0.0
 20
0.0
 30
0.0
  3
$PAPER_SPACE
  1

  0
ENDBLK
  5
18
 67
     1
  8
0
  0
BLOCK
  8
0
  2
_OPEN
 70
     0
 10
0.0
 20
0.0
 30
0.0
  3
_OPEN
  1

  0
LINE
  5
7B05
  8
0
  6
BYBLOCK
 62
     0
 10
-1.0
 20
0.166667
 30
0.0
 11
0.0
 21
0.0
 31
0.0
  0
LINE
  5
7B06
  8
0
  6
BYBLOCK
 62
     0
 10
0.0
 20
0.0
 30
0.0
 11
-1.0
 21
-0.166667
 31
0.0
  0
LINE
  5
7B07
  8
0
  6
BYBLOCK
 62
     0
 10
0.0
 20
0.0
 30
0.0
 11
-1.0
 21
0.0
 31
0.0
  0
ENDBLK
  5
7B08
  8
0
  0
BLOCK
  8
0
  2
*D1
 70
     1
 10
0.0
 20
0.0
 30
0.0
  3
*D1
  1

  0
LINE
  5
8174
  8
3
  6
CONTINUOUS
 62
     0
 10
1159.358994475198
 20
2742.208292184011
 30
0.0
 11
1159.358994475198
 21
2435.8024121840122
 31
0.0
  0
LINE
  5
8175
  8
3
  6
CONTINUOUS
 62
     0
 10
2084.358994475198
 20
2665.7870341840121
 30
0.0
 11
2084.358994475198
 21
2435.8024121840122
 31
0.0
  0
LINE
  5
8176
  8
3
  6
CONTINUOUS
 62
     0
 10
1219.358994475198
 20
2465.8024121840131
 30
0.0
 11
2024.358994475198
 21
2465.8024121840131
 31
0.0
  0
INSERT
  5
8177
  8
3
  6
CONTINUOUS
 62
     0
  2
_OPEN
 10
1159.358994475198
 20
2465.8024121840131
 30
0.0
 41
60.0
 42
60.0
 43
60.0
 50
180.0
  0
INSERT
  5
8178
  8
3
  6
CONTINUOUS
 62
     0
  2
_OPEN
 10
2084.358994475198
 20
2465.8024121840131
 30
0.0
 41
60.0
 42
60.0
 43
60.0
  0
TEXT
  8
3
  40
90
  5
81ED
  62
0
  72
0
  71
0
 10
1435.67
 20
2381.50
 30
0.000000
  1
925
  0
POINT
  5
817A
  8
DEFPOINTS
  6
CONTINUOUS
 62
     0
 10
1159.358994475198
 20
2757.208292184012
 30
0.0
  0
POINT
  5
817B
  8
DEFPOINTS
  6
CONTINUOUS
 62
     0
 10
2084.358994475198
 20
2680.7870341840121
 30
0.0
  0
POINT
  5
817C
  8
DEFPOINTS
  6
CONTINUOUS
 62
     0
 10
2084.358994475198
 20
2465.8024121840131
 30
0.0
  0
ENDBLK
  5
7E70
  8
0
  0
BLOCK
  8
0
  2
*D2
 70
     1
 10
0.0
 20
0.0
 30
0.0
  3
*D2
  1

  0
LINE
  5
7E9E
  8
0
  6
BYBLOCK
 62
     0
 10
2084.358994475198
 20
2665.7870341840121
 30
0.0
 11
2084.358994475198
 21
2435.2056251840122
 31
0.0
  0
LINE
  5
7E9F
  8
0
  6
BYBLOCK
 62
     0
 10
2439.358994475198
 20
2742.208292184011
 30
0.0
 11
2439.358994475198
 21
2435.2056251840122
 31
0.0
  0
LINE
  5
7EA0
  8
0
  6
BYBLOCK
 62
     0
 10
2144.358994475198
 20
2465.2056251840122
 30
0.0
 11
2379.358994475198
 21
2465.2056251840122
 31
0.0
  0
TEXT
  5
7EA1
  8
3
 62
     0
 10
2160.1611712184422
 20
2487.2835488619021
 30
0.0
 40
90.0
  1
355
  0
INSERT
  5
7EA2
  8
0
  6
BYBLOCK
 62
     0
  2
_OPEN
 10
2084.358994475198
 20
2465.2056251840122
 30
0.0
 41
60.0
 42
60.0
 43
60.0
 50
180.0
  0
INSERT
  5
7EA3
  8
0
  6
BYBLOCK
 62
     0
  2
_OPEN
 10
2439.358994475198
 20
2465.2056251840122
 30
0.0
 41
60.0
 42
60.0
 43
60.0
  0
POINT
  5
7EA4
  8
DEFPOINTS
  6
BYBLOCK
 62
     0
 10
2084.358994475198
 20
2680.7870341840121
 30
0.0
  0
POINT
  5
7EA5
  8
DEFPOINTS
  6
BYBLOCK
 62
     0
 10
2439.358994475198
 20
2757.208292184012
 30
0.0
  0
POINT
  5
7EA6
  8
DEFPOINTS
  6
BYBLOCK
 62
     0
 10
2439.358994475198
 20
2465.2056251840122
 30
0.0
  0
ENDBLK
  5
7EA7
  8
0
  0
BLOCK
  8
0
  2
*D3
 70
     1
 10
0.0
 20
0.0
 30
0.0
  3
*D3
  1

  0
LINE
  5
817D
  8
3
  6
CONTINUOUS
 62
     0
 10
2489.358994475198
 20
3930.208292184012
 30
0.0
 11
2789.6930764751992
 21
3930.208292184012
 31
0.0
  0
LINE
  5
817E
  8
3
  6
CONTINUOUS
 62
     0
 10
2489.358994475198
 20
3350.208292184012
 30
0.0
 11
2789.6930764751992
 21
3350.208292184012
 31
0.0
  0
LINE
  5
817F
  8
3
  6
CONTINUOUS
 62
     0
 10
2759.6930764751992
 20
3870.208292184012
 30
0.0
 11
2759.6930764751992
 21
3410.208292184012
 31
0.0
  0
INSERT
  5
8180
  8
3
  6
CONTINUOUS
 62
     0
  2
_OPEN
 10
2759.6930764751992
 20
3930.208292184012
 30
0.0
 41
60.0
 42
60.0
 43
60.0
 50
90.0
  0
INSERT
  5
8181
  8
3
  6
CONTINUOUS
 62
     0
  2
_OPEN
 10
2759.6930764751992
 20
3350.208292184012
 30
0.0
 41
60.0
 42
60.0
 43
60.0
 50
270.0
  0
TEXT
  8
3
  40
90
  5
81EE
  62
0
  72
0
  71
0
 10
2504.69
 20
3484.69
 30
0.000000
  1
580
  0
POINT
  5
8183
  8
DEFPOINTS
  6
CONTINUOUS
 62
     0
 10
2474.358994475198
 20
3930.208292184012
 30
0.0
  0
POINT
  5
8184
  8
DEFPOINTS
  6
CONTINUOUS
 62
     0
 10
2474.358994475198
 20
3350.208292184012
 30
0.0
  0
POINT
  5
8185
  8
DEFPOINTS
  6
CONTINUOUS
 62
     0
 10
2759.6930764751992
 20
3350.208292184012
 30
0.0
  0
ENDBLK
  5
7E58
  8
0
  0
BLOCK
  8
0
  2
*D4
 70
     1
 10
0.0
 20
0.0
 30
0.0
  3
*D4
  1

  0
LINE
  5
8186
  8
3
  6
CONTINUOUS
 62
     0
 10
2489.358994475198
 20
3930.208292184012
 30
0.0
 11
2990.8721854751989
 21
3930.208292184012
 31
0.0
  0
LINE
  5
8187
  8
3
  6
CONTINUOUS
 62
     0
 10
2431.5445554751982
 20
3330.208292184011
 30
0.0
 11
2990.8721854751989
 21
3330.208292184011
 31
0.0
  0
LINE
  5
8188
  8
3
  6
CONTINUOUS
 62
     0
 10
2960.8721854751989
 20
3870.208292184012
 30
0.0
 11
2960.8721854751989
 21
3390.208292184011
 31
0.0
  0
INSERT
  5
8189
  8
3
  6
CONTINUOUS
 62
     0
  2
_OPEN
 10
2960.8721854751989
 20
3930.208292184012
 30
0.0
 41
60.0
 42
60.0
 43
60.0
 50
90.0
  0
INSERT
  5
818A
  8
3
  6
CONTINUOUS
 62
     0
  2
_OPEN
 10
2960.8721854751989
 20
3330.208292184011
 30
0.0
 41
60.0
 42
60.0
 43
60.0
 50
270.0
  0
TEXT
  8
3
  40
90
  5
81EF
  62
0
  72
0
  71
0
 10
2705.87
 20
3487.69
 30
0.000000
  1
600
  0
POINT
  5
818C
  8
DEFPOINTS
  6
CONTINUOUS
 62
     0
 10
2474.358994475198
 20
3930.208292184012
 30
0.0
  0
POINT
  5
818D
  8
DEFPOINTS
  6
CONTINUOUS
 62
     0
 10
2416.5445554751982
 20
3330.208292184011
 30
0.0
  0
POINT
  5
818E
  8
DEFPOINTS
  6
CONTINUOUS
 62
     0
 10
2960.8721854751989
 20
3330.208292184011
 30
0.0
  0
ENDBLK
  5
7E4D
  8
0
  0
BLOCK
  8
0
  2
*D5
 70
     1
 10
0.0
 20
0.0
 30
0.0
  3
*D5
  1

  0
LINE
  5
818F
  8
3
  6
CONTINUOUS
 62
     0
 10
2431.5445554751982
 20
3330.208292184011
 30
0.0
 11
2990.8721854751989
 21
3330.208292184011
 31
0.0
  0
LINE
  5
8190
  8
3
  6
CONTINUOUS
 62
     0
 10
2454.358994475198
 20
2860.208292184012
 30
0.0
 11
2990.8721854751989
 21
2860.208292184012
 31
0.0
  0
LINE
  5
8191
  8
3
  6
CONTINUOUS
 62
     0
 10
2960.8721854751989
 20
3390.208292184011
 30
0.0
 11
2960.8721854751989
 21
3450.208292184012
 31
0.0
  0
LINE
  5
8192
  8
3
  6
CONTINUOUS
 62
     0
 10
2960.8721854751989
 20
2800.208292184012
 30
0.0
 11
2960.8721854751989
 21
2740.208292184012
 31
0.0
  0
LINE
  5
8193
  8
3
  6
CONTINUOUS
 62
     0
 10
2960.8721854751989
 20
3330.208292184011
 30
0.0
 11
2960.8721854751989
 21
2860.208292184012
 31
0.0
  0
INSERT
  5
8194
  8
3
  6
CONTINUOUS
 62
     0
  2
_OPEN
 10
2960.8721854751989
 20
3330.208292184011
 30
0.0
 41
60.0
 42
60.0
 43
60.0
 50
270.0
  0
INSERT
  5
8195
  8
3
  6
CONTINUOUS
 62
     0
  2
_OPEN
 10
2960.8721854751989
 20
2860.208292184012
 30
0.0
 41
60.0
 42
60.0
 43
60.0
 50
90.0
  0
TEXT
  8
3
  40
90
  5
81F0
  62
0
  72
0
  71
0
 10
2705.87
 20
2906.62
 30
0.000000
  1
470
  0
POINT
  5
8197
  8
DEFPOINTS
  6
CONTINUOUS
 62
     0
 10
2416.5445554751982
 20
3330.208292184011
 30
0.0
  0
POINT
  5
8198
  8
DEFPOINTS
  6
CONTINUOUS
 62
     0
 10
2439.358994475198
 20
2860.208292184012
 30
0.0
  0
POINT
  5
8199
  8
DEFPOINTS
  6
CONTINUOUS
 62
     0
 10
2960.8721854751989
 20
2860.208292184012
 30
0.0
  0
ENDBLK
  5
7E42
  8
0
  0
BLOCK
  8
0
  2
*D6
 70
     1
 10
0.0
 20
0.0
 30
0.0
  3
*D6
  1

  0
LINE
  5
819A
  8
3
  6
CONTINUOUS
 62
     0
 10
2454.358994475198
 20
2860.208292184012
 30
0.0
 11
2990.8721854751989
 21
2860.208292184012
 31
0.0
  0
LINE
  5
819B
  8
3
  6
CONTINUOUS
 62
     0
 10
2454.358994475198
 20
2757.208292184012
 30
0.0
 11
2990.8721854751989
 21
2757.208292184012
 31
0.0
  0
LINE
  5
819C
  8
3
  6
CONTINUOUS
 62
     0
 10
2960.8721854751989
 20
2920.208292184012
 30
0.0
 11
2960.8721854751989
 21
2980.208292184012
 31
0.0
  0
LINE
  5
819D
  8
3
  6
CONTINUOUS
 62
     0
 10
2960.8721854751989
 20
2697.208292184011
 30
0.0
 11
2960.8721854751989
 21
2355.0654350411542
 31
0.0
  0
LINE
  5
819E
  8
3
  6
CONTINUOUS
 62
     0
 10
2960.8721854751989
 20
2860.208292184012
 30
0.0
 11
2960.8721854751989
 21
2757.208292184012
 31
0.0
  0
INSERT
  5
819F
  8
3
  6
CONTINUOUS
 62
     0
  2
_OPEN
 10
2960.8721854751989
 20
2860.208292184012
 30
0.0
 41
60.0
 42
60.0
 43
60.0
 50
270.0
  0
INSERT
  5
81A0
  8
3
  6
CONTINUOUS
 62
     0
  2
_OPEN
 10
2960.8721854751989
 20
2757.208292184012
 30
0.0
 41
60.0
 42
60.0
 43
60.0
 50
90.0
  0
TEXT
  8
3
  40
90
  5
81F1
  62
0
  72
0
  71
0
 10
2705.87
 20
2332.91
 30
0.000000
  1
103
  0
POINT
  5
81A2
  8
DEFPOINTS
  6
CONTINUOUS
 62
     0
 10
2439.358994475198
 20
2860.208292184012
 30
0.0
  0
POINT
  5
81A3
  8
DEFPOINTS
  6
CONTINUOUS
 62
     0
 10
2439.358994475198
 20
2757.208292184012
 30
0.0
  0
POINT
  5
81A4
  8
DEFPOINTS
  6
CONTINUOUS
 62
     0
 10
2960.8721854751989
 20
2757.208292184012
 30
0.0
  0
ENDBLK
  5
7E37
  8
0
  0
BLOCK
  8
0
  2
*D7
 70
     1
 10
0.0
 20
0.0
 30
0.0
  3
*D7
  1

  0
LINE
  5
81A5
  8
3
  6
CONTINUOUS
 62
     0
 10
2489.358994475198
 20
3960.208292184012
 30
0.0
 11
3237.0914094751988
 21
3960.208292184011
 31
0.0
  0
LINE
  5
81A6
  8
3
  6
CONTINUOUS
 62
     0
 10
2454.358994475198
 20
2757.208292184012
 30
0.0
 11
3237.0914094751988
 21
2757.208292184011
 31
0.0
  0
LINE
  5
81A7
  8
3
  6
CONTINUOUS
 62
     0
 10
3207.0914094752002
 20
3900.208292184011
 30
0.0
 11
3207.0914094751988
 21
2817.208292184011
 31
0.0
  0
INSERT
  5
81A8
  8
3
  6
CONTINUOUS
 62
     0
  2
_OPEN
 10
3207.0914094752002
 20
3960.208292184011
 30
0.0
 41
60.0
 42
60.0
 43
60.0
 50
90.0
  0
INSERT
  5
81A9
  8
3
  6
CONTINUOUS
 62
     0
  2
_OPEN
 10
3207.0914094751988
 20
2757.208292184011
 30
0.0
 41
60.0
 42
60.0
 43
60.0
 50
270.0
  0
TEXT
  8
3
  40
90
  5
81F2
  62
0
  72
0
  71
0
 10
2952.09
 20
3157.64
 30
0.000000
  1
1203
  0
POINT
  5
81AB
  8
DEFPOINTS
  6
CONTINUOUS
 62
     0
 10
2474.358994475198
 20
3960.208292184012
 30
0.0
  0
POINT
  5
81AC
  8
DEFPOINTS
  6
CONTINUOUS
 62
     0
 10
2439.358994475198
 20
2757.208292184012
 30
0.0
  0
POINT
  5
81AD
  8
DEFPOINTS
  6
CONTINUOUS
 62
     0
 10
3207.0914094751988
 20
2757.208292184011
 30
0.0
  0
ENDBLK
  5
7E2A
  8
0
  0
BLOCK
  8
0
  2
*D8
 70
     1
 10
0.0
 20
0.0
 30
0.0
  3
*D8
  1

  0
LINE
  5
81AE
  8
3
  6
CONTINUOUS
 62
     0
 10
1602.358994475198
 20
3345.208292184012
 30
0.0
 11
1602.358994475198
 21
4091.6559291840122
 31
0.0
  0
LINE
  5
81AF
  8
3
  6
CONTINUOUS
 62
     0
 10
2084.358994475198
 20
3911.5288051840121
 30
0.0
 11
2084.358994475198
 21
4091.6559291840122
 31
0.0
  0
LINE
  5
81B0
  8
3
  6
CONTINUOUS
 62
     0
 10
1662.358994475198
 20
4061.6559291840122
 30
0.0
 11
2024.358994475198
 21
4061.6559291840122
 31
0.0
  0
INSERT
  5
81B1
  8
3
  6
CONTINUOUS
 62
     0
  2
_OPEN
 10
1602.358994475198
 20
4061.6559291840122
 30
0.0
 41
60.0
 42
60.0
 43
60.0
 50
180.0
  0
INSERT
  5
81B2
  8
3
  6
CONTINUOUS
 62
     0
  2
_OPEN
 10
2084.358994475198
 20
4061.6559291840122
 30
0.0
 41
60.0
 42
60.0
 43
60.0
  0
TEXT
  8
3
  40
90
  5
81F3
  62
0
  72
0
  71
0
 10
1664.36
 20
3977.36
 30
0.000000
  1
484
  0
POINT
  5
81B4
  8
DEFPOINTS
  6
CONTINUOUS
 62
     0
 10
1602.358994475198
 20
3330.208292184011
 30
0.0
  0
POINT
  5
81B5
  8
DEFPOINTS
  6
CONTINUOUS
 62
     0
 10
2084.358994475198
 20
3896.5288051840121
 30
0.0
  0
POINT
  5
81B6
  8
DEFPOINTS
  6
CONTINUOUS
 62
     0
 10
2084.358994475198
 20
4061.6559291840122
 30
0.0
  0
ENDBLK
  5
7F3B
  8
0
  0
BLOCK
  8
0
  2
*D9
 70
     1
 10
0.0
 20
0.0
 30
0.0
  3
*D9
  1

  0
LINE
  5
7EA9
  8
0
  6
BYBLOCK
 62
     0
 10
2084.358994475198
 20
3911.5288051840121
 30
0.0
 11
2084.358994475198
 21
4091.6559291840122
 31
0.0
  0
LINE
  5
7EAA
  8
0
  6
BYBLOCK
 62
     0
 10
2474.358994475198
 20
3975.208292184012
 30
0.0
 11
2474.358994475198
 21
4091.6559291840122
 31
0.0
  0
LINE
  5
7EAB
  8
0
  6
BYBLOCK
 62
     0
 10
2144.358994475198
 20
4061.6559291840122
 30
0.0
 11
2414.358994475198
 21
4061.6559291840122
 31
0.0
  0
TEXT
  5
7EAC
  8
3
 62
     0
 10
2166.7174957916109
 20
4105.3638606735831
 30
0.0
 40
90.0
  1
390
  0
INSERT
  5
7EAD
  8
0
  6
BYBLOCK
 62
     0
  2
_OPEN
 10
2084.358994475198
 20
4061.6559291840122
 30
0.0
 41
60.0
 42
60.0
 43
60.0
 50
180.0
  0
INSERT
  5
7EAE
  8
0
  6
BYBLOCK
 62
     0
  2
_OPEN
 10
2474.358994475198
 20
4061.6559291840122
 30
0.0
 41
60.0
 42
60.0
 43
60.0
  0
POINT
  5
7EAF
  8
DEFPOINTS
  6
BYBLOCK
 62
     0
 10
2084.358994475198
 20
3896.5288051840121
 30
0.0
  0
POINT
  5
7EB0
  8
DEFPOINTS
  6
BYBLOCK
 62
     0
 10
2474.358994475198
 20
3960.208292184012
 30
0.0
  0
POINT
  5
7EB1
  8
DEFPOINTS
  6
BYBLOCK
 62
     0
 10
2474.358994475198
 20
4061.6559291840122
 30
0.0
  0
ENDBLK
  5
7EB2
  8
0
  0
BLOCK
  8
0
  2
*D10
 70
     1
 10
0.0
 20
0.0
 30
0.0
  3
*D10
  1

  0
LINE
  5
81B7
  8
3
  6
CONTINUOUS
 62
     0
 10
1159.358994475198
 20
5797.3478141840123
 30
0.0
 11
1159.358994475198
 21
5362.067721184013
 31
0.0
  0
LINE
  5
81B8
  8
3
  6
CONTINUOUS
 62
     0
 10
2439.358994475198
 20
5797.3478141840123
 30
0.0
 11
2439.358994475198
 21
5362.067721184013
 31
0.0
  0
LINE
  5
81B9
  8
3
  6
CONTINUOUS
 62
     0
 10
1219.358994475198
 20
5392.067721184012
 30
0.0
 11
2379.358994475198
 21
5392.067721184012
 31
0.0
  0
INSERT
  5
81BA
  8
3
  6
CONTINUOUS
 62
     0
  2
_OPEN
 10
1159.358994475198
 20
5392.067721184012
 30
0.0
 41
60.0
 42
60.0
 43
60.0
 50
180.0
  0
INSERT
  5
81BB
  8
3
  6
CONTINUOUS
 62
     0
  2
_OPEN
 10
2439.358994475198
 20
5392.067721184012
 30
0.0
 41
60.0
 42
60.0
 43
60.0
  0
TEXT
  8
3
  40
90
  5
81F4
  62
0
  72
0
  71
0
 10
1615.84
 20
5307.77
 30
0.000000
  1
1280
  0
POINT
  5
81BD
  8
DEFPOINTS
  6
CONTINUOUS
 62
     0
 10
1159.358994475198
 20
5812.3478141840123
 30
0.0
  0
POINT
  5
81BE
  8
DEFPOINTS
  6
CONTINUOUS
 62
     0
 10
2439.358994475198
 20
5812.3478141840123
 30
0.0
  0
POINT
  5
81BF
  8
DEFPOINTS
  6
CONTINUOUS
 62
     0
 10
2439.358994475198
 20
5392.067721184012
 30
0.0
  0
ENDBLK
  5
7E07
  8
0
  0
BLOCK
  8
0
  2
*D11
 70
     1
 10
0.0
 20
0.0
 30
0.0
  3
*D11
  1

  0
LINE
  5
81C0
  8
3
  6
CONTINUOUS
 62
     0
 10
2454.358994475198
 20
6422.3478141840123
 30
0.0
 11
2777.682442475199
 21
6422.3478141840123
 31
0.0
  0
LINE
  5
81C1
  8
3
  6
CONTINUOUS
 62
     0
 10
2454.358994475198
 20
5812.3478141840123
 30
0.0
 11
2777.682442475199
 21
5812.3478141840123
 31
0.0
  0
LINE
  5
81C2
  8
3
  6
CONTINUOUS
 62
     0
 10
2747.682442475199
 20
6362.3478141840123
 30
0.0
 11
2747.682442475199
 21
5872.3478141840133
 31
0.0
  0
INSERT
  5
81C3
  8
3
  6
CONTINUOUS
 62
     0
  2
_OPEN
 10
2747.682442475199
 20
6422.3478141840123
 30
0.0
 41
60.0
 42
60.0
 43
60.0
 50
90.0
  0
INSERT
  5
81C4
  8
3
  6
CONTINUOUS
 62
     0
  2
_OPEN
 10
2747.682442475199
 20
5812.3478141840123
 30
0.0
 41
60.0
 42
60.0
 43
60.0
 50
270.0
  0
TEXT
  8
3
  40
90
  5
81F5
  62
0
  72
0
  71
0
 10
2492.68
 20
5982.89
 30
0.000000
  1
610
  0
POINT
  5
81C6
  8
DEFPOINTS
  6
CONTINUOUS
 62
     0
 10
2439.358994475198
 20
6422.3478141840123
 30
0.0
  0
POINT
  5
81C7
  8
DEFPOINTS
  6
CONTINUOUS
 62
     0
 10
2439.358994475198
 20
5812.3478141840123
 30
0.0
  0
POINT
  5
81C8
  8
DEFPOINTS
  6
CONTINUOUS
 62
     0
 10
2747.682442475199
 20
5812.3478141840123
 30
0.0
  0
ENDBLK
  5
7DFC
  8
0
  0
BLOCK
  8
0
  2
*D12
 70
     1
 10
0.0
 20
0.0
 30
0.0
  3
*D12
  1

  0
LINE
  5
81C9
  8
3
  6
CONTINUOUS
 62
     0
 10
4869.721076475199
 20
3610.208292184012
 30
0.0
 11
5087.31878846974
 21
3610.208292184012
 31
0.0
  0
LINE
  5
81CA
  8
3
  6
CONTINUOUS
 62
     0
 10
4869.721076475199
 20
3050.208292184012
 30
0.0
 11
5087.31878846974
 21
3050.208292184012
 31
0.0
  0
LINE
  5
81CB
  8
3
  6
CONTINUOUS
 62
     0
 10
5057.3187884697409
 20
3550.208292184012
 30
0.0
 11
5057.3187884697409
 21
3110.208292184012
 31
0.0
  0
INSERT
  5
81CC
  8
3
  6
CONTINUOUS
 62
     0
  2
_OPEN
 10
5057.3187884697409
 20
3610.208292184012
 30
0.0
 41
60.0
 42
60.0
 43
60.0
 50
90.0
  0
INSERT
  5
81CD
  8
3
  6
CONTINUOUS
 62
     0
  2
_OPEN
 10
5057.3187884697409
 20
3050.208292184012
 30
0.0
 41
60.0
 42
60.0
 43
60.0
 50
270.0
  0
TEXT
  8
3
  40
90
  5
81F6
  62
0
  72
0
  71
0
 10
4802.32
 20
3150.62
 30
0.000000
  1
φ560
  0
POINT
  5
81CF
  8
DEFPOINTS
  6
CONTINUOUS
 62
     0
 10
4854.721076475199
 20
3610.208292184012
 30
0.0
  0
POINT
  5
81D0
  8
DEFPOINTS
  6
CONTINUOUS
 62
     0
 10
4854.721076475199
 20
3050.208292184012
 30
0.0
  0
POINT
  5
81D1
  8
DEFPOINTS
  6
CONTINUOUS
 62
     0
 10
5057.3187884697409
 20
3050.208292184012
 30
0.0
  0
ENDBLK
  5
7EDE
  8
0
  0
BLOCK
  8
0
  2
*D13
 70
     1
 10
0.0
 20
0.0
 30
0.0
  3
*D13
  1

  0
LINE
  5
81D2
  8
3
  6
CONTINUOUS
 62
     0
 10
4366.2210764751981
 20
3945.208292184012
 30
0.0
 11
4366.2210764751981
 21
4078.8923264365608
 31
0.0
  0
LINE
  5
81D3
  8
3
  6
CONTINUOUS
 62
     0
 10
4791.2210764751981
 20
3945.208292184012
 30
0.0
 11
4791.2210764751981
 21
4078.8923264365608
 31
0.0
  0
LINE
  5
81D4
  8
3
  6
CONTINUOUS
 62
     0
 10
4426.221076475199
 20
4048.8923264365621
 30
0.0
 11
4731.221076475199
 21
4048.8923264365621
 31
0.0
  0
INSERT
  5
81D5
  8
3
  6
CONTINUOUS
 62
     0
  2
_OPEN
 10
4366.2210764751981
 20
4048.8923264365621
 30
0.0
 41
60.0
 42
60.0
 43
60.0
 50
180.0
  0
INSERT
  5
81D6
  8
3
  6
CONTINUOUS
 62
     0
  2
_OPEN
 10
4791.2210764751981
 20
4048.8923264365621
 30
0.0
 41
60.0
 42
60.0
 43
60.0
  0
TEXT
  8
3
  40
90
  5
81F7
  62
0
  72
0
  71
0
 10
4405.51
 20
3964.59
 30
0.000000
  1
425
  0
POINT
  5
81D8
  8
DEFPOINTS
  6
CONTINUOUS
 62
     0
 10
4366.2210764751981
 20
3930.208292184012
 30
0.0
  0
POINT
  5
81D9
  8
DEFPOINTS
  6
CONTINUOUS
 62
     0
 10
4791.2210764751981
 20
3930.208292184012
 30
0.0
  0
POINT
  5
81DA
  8
DEFPOINTS
  6
CONTINUOUS
 62
     0
 10
4791.2210764751981
 20
4048.8923264365621
 30
0.0
  0
ENDBLK
  5
7F15
  8
0
  0
BLOCK
  8
0
  2
*D14
 70
     1
 10
0.0
 20
0.0
 30
0.0
  3
*D14
  1

  0
LINE
  5
81DB
  8
3
  6
CONTINUOUS
 62
     0
 10
4118.721076475199
 20
3509.5082921840121
 30
0.0
 11
4118.721076475199
 21
4283.3180340728541
 31
0.0
  0
LINE
  5
81DC
  8
3
  6
CONTINUOUS
 62
     0
 10
4578.721076475199
 20
4203.2495801840123
 30
0.0
 11
4578.721076475199
 21
4283.3180340728541
 31
0.0
  0
LINE
  5
81DD
  8
3
  6
CONTINUOUS
 62
     0
 10
4178.7210764751981
 20
4253.3180340728541
 30
0.0
 11
4518.7210764751981
 21
4253.3180340728541
 31
0.0
  0
INSERT
  5
81DE
  8
3
  6
CONTINUOUS
 62
     0
  2
_OPEN
 10
4118.721076475199
 20
4253.3180340728541
 30
0.0
 41
60.0
 42
60.0
 43
60.0
 50
180.0
  0
INSERT
  5
81DF
  8
3
  6
CONTINUOUS
 62
     0
  2
_OPEN
 10
4578.721076475199
 20
4253.3180340728541
 30
0.0
 41
60.0
 42
60.0
 43
60.0
  0
TEXT
  8
3
  40
90
  5
81F8
  62
0
  72
0
  71
0
 10
4157.29
 20
4244.02
 30
0.000000
  1
MAX
  0
TEXT
  8
3
  40
90
  5
81F9
  62
0
  72
0
  71
0
 10
4157.29
 20
4127.02
 30
0.000000
  1
510
  0
POINT
  5
81E1
  8
DEFPOINTS
  6
CONTINUOUS
 62
     0
 10
4118.721076475199
 20
3494.5082921840121
 30
0.0
  0
POINT
  5
81E2
  8
DEFPOINTS
  6
CONTINUOUS
 62
     0
 10
4578.721076475199
 20
4188.2495801840123
 30
0.0
  0
POINT
  5
81E3
  8
DEFPOINTS
  6
CONTINUOUS
 62
     0
 10
4578.721076475199
 20
4253.3180340728541
 30
0.0
  0
ENDBLK
  5
7F4A
  8
0
  0
BLOCK
  8
0
  2
*D15
 70
     1
 10
0.0
 20
0.0
 30
0.0
  3
*D15
  1

  0
LINE
  5
7EEB
  8
0
  6
BYBLOCK
 62
     0
 10
4223.721076475199
 20
2742.208292184011
 30
0.0
 11
4223.721076475199
 21
2487.8418461456199
 31
0.0
  0
LINE
  5
7EEC
  8
0
  6
BYBLOCK
 62
     0
 10
4578.721076475199
 20
2684.8398271840119
 30
0.0
 11
4578.721076475199
 21
2487.8418461456199
 31
0.0
  0
LINE
  5
7EED
  8
0
  6
BYBLOCK
 62
     0
 10
4283.721076475199
 20
2517.8418461456199
 30
0.0
 11
4518.7210764751981
 21
2517.8418461456199
 31
0.0
  0
TEXT
  5
7EEE
  8
3
 62
     0
 10
4289.4878546891086
 20
2534.6132787720489
 30
0.0
 40
90.0
  1
355
  0
INSERT
  5
7EEF
  8
0
  6
BYBLOCK
 62
     0
  2
_OPEN
 10
4223.721076475199
 20
2517.8418461456199
 30
0.0
 41
60.0
 42
60.0
 43
60.0
 50
180.0
  0
INSERT
  5
7EF0
  8
0
  6
BYBLOCK
 62
     0
  2
_OPEN
 10
4578.721076475199
 20
2517.8418461456199
 30
0.0
 41
60.0
 42
60.0
 43
60.0
  0
POINT
  5
7EF1
  8
DEFPOINTS
  6
BYBLOCK
 62
     0
 10
4223.721076475199
 20
2757.208292184012
 30
0.0
  0
POINT
  5
7EF2
  8
DEFPOINTS
  6
BYBLOCK
 62
     0
 10
4578.721076475199
 20
2699.8398271840119
 30
0.0
  0
POINT
  5
7EF3
  8
DEFPOINTS
  6
BYBLOCK
 62
     0
 10
4578.721076475199
 20
2517.8418461456199
 30
0.0
  0
ENDBLK
  5
7EF4
  8
0
  0
BLOCK
  8
0
  2
*D16
 70
     1
 10
0.0
 20
0.0
 30
0.0
  3
*D16
  1

  0
LINE
  5
7ECA
  8
0
  6
BYBLOCK
 62
     0
 10
4578.721076475199
 20
2684.8398271840119
 30
0.0
 11
4578.721076475199
 21
2485.5136281840118
 31
0.0
  0
LINE
  5
7ECB
  8
0
  6
BYBLOCK
 62
     0
 10
4833.7210764751999
 20
2742.208292184011
 30
0.0
 11
4833.7210764751999
 21
2485.5136281840118
 31
0.0
  0
LINE
  5
7ECC
  8
0
  6
BYBLOCK
 62
     0
 10
4638.7210764751981
 20
2515.5136281840118
 30
0.0
 11
4773.721076475199
 21
2515.5136281840118
 31
0.0
  0
TEXT
  5
7ECD
  8
3
 62
     0
 10
4592.5644391933793
 20
2546.2419469744959
 30
0.0
 40
90.0
  1
255
  0
INSERT
  5
7ECE
  8
0
  6
BYBLOCK
 62
     0
  2
_OPEN
 10
4578.721076475199
 20
2515.5136281840118
 30
0.0
 41
60.0
 42
60.0
 43
60.0
 50
180.0
  0
INSERT
  5
7ECF
  8
0
  6
BYBLOCK
 62
     0
  2
_OPEN
 10
4833.7210764751999
 20
2515.5136281840118
 30
0.0
 41
60.0
 42
60.0
 43
60.0
  0
POINT
  5
7ED0
  8
DEFPOINTS
  6
BYBLOCK
 62
     0
 10
4578.721076475199
 20
2699.8398271840119
 30
0.0
  0
POINT
  5
7ED1
  8
DEFPOINTS
  6
BYBLOCK
 62
     0
 10
4833.7210764751999
 20
2757.208292184012
 30
0.0
  0
POINT
  5
7ED2
  8
DEFPOINTS
  6
BYBLOCK
 62
     0
 10
4833.7210764751999
 20
2515.5136281840118
 30
0.0
  0
ENDBLK
  5
7ED3
  8
0
  0
BLOCK
  8
0
  2
*D17
 70
     1
 10
0.0
 20
0.0
 30
0.0
  3
*D17
  1

  0
LINE
  5
7F22
  8
0
  6
BYBLOCK
 62
     0
 10
4578.721076475199
 20
4203.2495801840123
 30
0.0
 11
4578.721076475199
 21
4283.3180340728541
 31
0.0
  0
LINE
  5
7F23
  8
0
  6
BYBLOCK
 62
     0
 10
4854.721076475199
 20
3655.208292184012
 30
0.0
 11
4854.721076475199
 21
4283.3180340728541
 31
0.0
  0
LINE
  5
7F24
  8
0
  6
BYBLOCK
 62
     0
 10
4638.7210764751981
 20
4253.3180340728541
 30
0.0
 11
4794.721076475199
 21
4253.3180340728541
 31
0.0
  0
TEXT
  5
7F25
  8
3
 62
     0
 10
4606.5140246064902
 20
4283.3288633370958
 30
0.0
 40
90.0
  1
276
  0
INSERT
  5
7F26
  8
0
  6
BYBLOCK
 62
     0
  2
_OPEN
 10
4578.721076475199
 20
4253.3180340728541
 30
0.0
 41
60.0
 42
60.0
 43
60.0
 50
180.0
  0
INSERT
  5
7F27
  8
0
  6
BYBLOCK
 62
     0
  2
_OPEN
 10
4854.721076475199
 20
4253.3180340728541
 30
0.0
 41
60.0
 42
60.0
 43
60.0
  0
POINT
  5
7F28
  8
DEFPOINTS
  6
BYBLOCK
 62
     0
 10
4578.721076475199
 20
4188.2495801840123
 30
0.0
  0
POINT
  5
7F29
  8
DEFPOINTS
  6
BYBLOCK
 62
     0
 10
4854.721076475199
 20
3640.208292184011
 30
0.0
  0
POINT
  5
7F2A
  8
DEFPOINTS
  6
BYBLOCK
 62
     0
 10
4854.721076475199
 20
4253.3180340728541
 30
0.0
  0
ENDBLK
  5
7F2B
  8
0
  0
BLOCK
  8
0
  2
*D18
 70
     1
 10
0.0
 20
0.0
 30
0.0
  3
*D18
  1

  0
LINE
  5
81E4
  8
3
 62
     0
 10
2474.358994475198
 20
3975.208292184012
 30
0.0
 11
2474.358994475198
 21
4282.0391637995854
 31
0.0
  0
LINE
  5
81E5
  8
3
 62
     0
 10
1159.358994475198
 20
2950.208292184012
 30
0.0
 11
1159.358994475198
 21
4282.0391637995854
 31
0.0
  0
LINE
  5
81E6
  8
3
 62
     0
 10
2414.358994475198
 20
4252.0391637995863
 30
0.0
 11
1219.358994475198
 21
4252.0391637995863
 31
0.0
  0
INSERT
  5
81E7
  8
3
 62
     0
  2
_OPEN
 10
2474.358994475198
 20
4252.0391637995863
 30
0.0
 41
60.0
 42
60.0
 43
60.0
  0
INSERT
  5
81E8
  8
3
 62
     0
  2
_OPEN
 10
1159.358994475198
 20
4252.0391637995863
 30
0.0
 41
60.0
 42
60.0
 43
60.0
 50
180.0
  0
TEXT
  8
3
  40
90
  5
81FA
  62
0
  72
0
  71
0
 10
1646.57
 20
4167.74
 30
0.000000
  1
1315
  0
POINT
  5
81EA
  8
DEFPOINTS
 62
     0
 10
2474.358994475198
 20
3960.208292184012
 30
0.0
  0
POINT
  5
81EB
  8
DEFPOINTS
 62
     0
 10
1159.358994475198
 20
2935.208292184012
 30
0.0
  0
POINT
  5
81EC
  8
DEFPOINTS
 62
     0
 10
1159.358994475198
 20
4252.0391637995863
 30
0.0
  0
ENDBLK
  5
7F56
  8
0
  0
ENDSEC
  0
SECTION
  2
ENTITIES
  0
ARC
  5
7A76
  8
1
  6
CONTINUOUS
 10
2126.358994475198
 20
3372.208292184012
 30
0.0
 40
526.0
 50
94.579824000000002
 51
184.579824
  0
ARC
  5
7A77
  8
1
  6
CONTINUOUS
 10
2042.358994475198
 20
3372.208292184012
 30
0.0
 40
442.0
 50
185.45262199999991
 51
261.37375600000001
  0
CIRCLE
  5
7A78
  8
1
  6
CONTINUOUS
 10
2084.358994475198
 20
3330.208292184011
 30
0.0
 40
280.0
  0
LINE
  5
7A79
  8
1
  6
CONTINUOUS
 10
1159.358994475198
 20
2860.208292184012
 30
0.0
 11
2439.358994475198
 21
2860.208292184012
 31
0.0
  0
LINE
  5
7A7A
  8
1
  6
CONTINUOUS
 10
1159.358994475198
 20
2935.208292184012
 30
0.0
 11
2439.358994475198
 21
2935.208292184012
 31
0.0
  0
CIRCLE
  5
7A7B
  8
1
  6
CONTINUOUS
 10
2084.358994475198
 20
3330.208292184011
 30
0.0
 40
310.0
  0
LINE
  5
7A7C
  8
1
  6
CONTINUOUS
 10
1335.505557475198
 20
3269.0771281840121
 30
0.0
 11
2035.505557475198
 21
3487.0771281840121
 31
0.0
  0
LINE
  5
7A7D
  8
1
  6
CONTINUOUS
 10
1433.2124324751981
 20
2955.3394561840119
 30
0.0
 11
2133.2124324751981
 21
3173.3394561840119
 31
0.0
  0
LINE
  5
7A7E
  8
1
  6
CONTINUOUS
 10
1350.372702475199
 20
3221.338590184012
 30
0.0
 11
2050.3727024751979
 21
3439.338590184012
 31
0.0
  0
LINE
  5
7A7F
  8
1
  6
CONTINUOUS
 10
1418.3452874751979
 20
3003.0779941840119
 30
0.0
 11
2118.3452874751979
 21
3221.0779941840119
 31
0.0
  0
LINE
  5
7A81
  8
1
  6
CONTINUOUS
 10
1159.358994475198
 20
2822.208292184011
 30
0.0
 11
2439.358994475198
 21
2822.208292184011
 31
0.0
  0
ARC
  5
7A82
  8
1
  6
CONTINUOUS
 10
1384.358994475198
 20
3112.208292184012
 30
0.0
 40
143.0
 50
324.34590999999989
 51
215.65408999999991
  0
CIRCLE
  5
7A83
  8
1
  6
CONTINUOUS
 10
1384.358994475198
 20
3112.208292184012
 30
0.0
 40
114.3
  0
ARC
  5
7A84
  8
1
  6
CONTINUOUS
 10
1384.358994475198
 20
3112.208292184012
 30
0.0
 40
164.30000000000001
 50
107.298081
 51
287.29808100000002
  0
LINE
  5
7A85
  8
2
  6
CENTER
 10
1384.358994475198
 20
2992.9082921840122
 30
0.0
 11
1384.358994475198
 21
3231.5082921840121
 31
0.0
  0
LINE
  5
7A86
  8
1
  6
CONTINUOUS
 10
1209.358994475198
 20
2935.208292184012
 30
0.0
 11
1559.358994475198
 21
2935.208292184012
 31
0.0
  0
LINE
  5
7A87
  8
2
  6
CENTER
 10
1265.0589944751989
 20
3112.208292184012
 30
0.0
 11
1503.658994475197
 21
3112.208292184012
 31
0.0
  0
LINE
  5
7A88
  8
1
  6
CONTINUOUS
 10
1159.358994475198
 20
2935.208292184012
 30
0.0
 11
1159.358994475198
 21
2860.208292184012
 31
0.0
  0
LINE
  5
7A89
  8
1
  6
CONTINUOUS
 10
1219.358994475198
 20
2980.208292184012
 30
0.0
 11
1254.358994475198
 21
2980.208292184012
 31
0.0
  0
LINE
  5
7A8A
  8
1
  6
CONTINUOUS
 10
1254.358994475198
 20
2980.208292184012
 30
0.0
 11
1254.358994475198
 21
2995.208292184011
 31
0.0
  0
LINE
  5
7A8B
  8
1
  6
CONTINUOUS
 10
1254.358994475198
 20
2995.208292184011
 30
0.0
 11
1268.3882724751979
 21
3029.4010371840118
 31
0.0
  0
LINE
  5
7A8C
  8
1
  6
CONTINUOUS
 10
1219.358994475198
 20
2980.208292184012
 30
0.0
 11
1209.358994475198
 21
2935.208292184012
 31
0.0
  0
LINE
  5
7A8D
  8
1
  6
CONTINUOUS
 10
1159.358994475198
 20
2822.208292184011
 30
0.0
 11
1159.358994475198
 21
2757.208292184012
 31
0.0
  0
LINE
  5
7A8E
  8
1
  6
CONTINUOUS
 10
1514.358994475198
 20
2995.208292184011
 30
0.0
 11
1500.329717475199
 21
3029.4010371840118
 31
0.0
  0
LINE
  5
7A8F
  8
1
  6
CONTINUOUS
 10
1514.358994475198
 20
2980.208292184012
 30
0.0
 11
1514.358994475198
 21
2995.208292184011
 31
0.0
  0
LINE
  5
7A90
  8
1
  6
CONTINUOUS
 10
1559.358994475198
 20
2935.208292184012
 30
0.0
 11
1549.358994475198
 21
2980.208292184012
 31
0.0
  0
LINE
  5
7A91
  8
1
  6
CONTINUOUS
 10
1514.358994475198
 20
2980.208292184012
 30
0.0
 11
1549.358994475198
 21
2980.208292184012
 31
0.0
  0
LINE
  5
7A92
  8
1
  6
CONTINUOUS
 10
4223.721076475199
 20
2822.208292184011
 30
0.0
 11
4833.7210764751999
 21
2822.208292184011
 31
0.0
  0
LINE
  5
7A94
  8
1
  6
CONTINUOUS
 10
4223.721076475199
 20
2860.208292184012
 30
0.0
 11
4833.7210764751999
 21
2860.208292184012
 31
0.0
  0
LINE
  5
7A95
  8
1
  6
CONTINUOUS
 10
4223.721076475199
 20
2935.208292184012
 30
0.0
 11
4833.7210764751999
 21
2935.208292184012
 31
0.0
  0
LINE
  5
7A96
  8
1
  6
CONTINUOUS
 10
4791.2210764751981
 20
3610.208292184012
 30
0.0
 11
4854.721076475199
 21
3610.208292184012
 31
0.0
  0
LINE
  5
7A97
  8
1
  6
CONTINUOUS
 10
4791.2210764751981
 20
3050.208292184012
 30
0.0
 11
4854.721076475199
 21
3050.208292184012
 31
0.0
  0
ARC
  5
7A98
  8
1
  6
CONTINUOUS
 10
2051.358994475198
 20
3297.208292184012
 30
0.0
 40
367.0
 50
279.46855899999991
 51
5.1589039999999997
  0
LINE
  5
7A99
  8
1
  6
CONTINUOUS
 10
4791.2210764751981
 20
3930.208292184012
 30
0.0
 11
4791.2210764751981
 21
2935.208292184012
 31
0.0
  0
LINE
  5
7A9A
  8
1
  6
CONTINUOUS
 10
4366.2210764751981
 20
3930.208292184012
 30
0.0
 11
4366.2210764751981
 21
2935.208292184012
 31
0.0
  0
LINE
  5
7A9B
  8
1
  6
CONTINUOUS
 10
4118.721076475199
 20
3494.5082921840121
 30
0.0
 11
4118.721076475199
 21
2947.9082921840122
 31
0.0
  0
LINE
  5
7A9C
  8
1
  6
CONTINUOUS
 10
4213.721076475199
 20
3494.5082921840121
 30
0.0
 11
4213.721076475199
 21
2947.9082921840122
 31
0.0
  0
LINE
  5
7A9D
  8
1
  6
CONTINUOUS
 10
4133.721076475199
 20
3444.5082921840121
 30
0.0
 11
4133.721076475199
 21
2997.9082921840122
 31
0.0
  0
LINE
  5
7A9E
  8
1
  6
CONTINUOUS
 10
4196.7210764751981
 20
3444.5082921840121
 30
0.0
 11
4196.7210764751981
 21
2997.9082921840122
 31
0.0
  0
LINE
  5
7A9F
  8
1
  6
CONTINUOUS
 10
4233.721076475199
 20
3255.208292184011
 30
0.0
 11
4233.721076475199
 21
2935.208292184012
 31
0.0
  0
LINE
  5
7AA0
  8
1
  6
CONTINUOUS
 10
2439.358994475198
 20
2935.208292184012
 30
0.0
 11
2439.358994475198
 21
2860.208292184012
 31
0.0
  0
LINE
  5
7AA1
  8
1
  6
CONTINUOUS
 10
2439.358994475198
 20
2822.208292184011
 30
0.0
 11
2439.358994475198
 21
2757.208292184012
 31
0.0
  0
LINE
  5
7AA2
  8
1
  6
CONTINUOUS
 10
4223.721076475199
 20
2822.208292184011
 30
0.0
 11
4223.721076475199
 21
2757.208292184012
 31
0.0
  0
LINE
  5
7AA3
  8
1
  6
CONTINUOUS
 10
4223.721076475199
 20
2935.208292184012
 30
0.0
 11
4223.721076475199
 21
2860.208292184012
 31
0.0
  0
LINE
  5
7AA4
  8
1
  6
CONTINUOUS
 10
4118.721076475199
 20
2947.9082921840122
 30
0.0
 11
4213.721076475199
 21
2947.9082921840122
 31
0.0
  0
LINE
  5
7AA5
  8
1
  6
CONTINUOUS
 10
4233.721076475199
 20
2980.208292184012
 30
0.0
 11
4366.2210764751981
 21
2980.208292184012
 31
0.0
  0
LINE
  5
7AA6
  8
1
  6
CONTINUOUS
 10
4133.721076475199
 20
2997.9082921840122
 30
0.0
 11
4196.7210764751981
 21
2997.9082921840122
 31
0.0
  0
LINE
  5
7AA7
  8
1
  6
CONTINUOUS
 10
4196.7210764751981
 20
3131.208292184012
 30
0.0
 11
4233.721076475199
 21
3131.208292184012
 31
0.0
  0
LINE
  5
7AA8
  8
1
  6
CONTINUOUS
 10
4196.7210764751981
 20
3093.208292184012
 30
0.0
 11
4233.721076475199
 21
3093.208292184012
 31
0.0
  0
LINE
  5
7AA9
  8
1
  6
CONTINUOUS
 10
2474.358994475198
 20
3960.208292184012
 30
0.0
 11
2474.358994475198
 21
3320.208292184012
 31
0.0
  0
LINE
  5
7AAA
  8
1
  6
CONTINUOUS
 10
2444.358994475198
 20
3927.617562184013
 30
0.0
 11
2444.358994475198
 21
3350.208292184012
 31
0.0
  0
ARC
  5
7AAB
  8
1
  6
CONTINUOUS
 10
2084.358994475198
 20
3330.208292184011
 30
0.0
 40
164.30000000000001
 50
287.29808100000002
 51
107.298081
  0
CIRCLE
  5
7AAC
  8
1
  6
CONTINUOUS
 10
2084.358994475198
 20
3330.208292184011
 30
0.0
 40
114.3
  0
LINE
  5
7AAD
  8
2
  6
CENTER
 10
2084.358994475198
 20
2680.7870341840121
 30
0.0
 11
2084.358994475198
 21
3926.6306571840119
 31
0.0
  0
LINE
  5
7AAE
  8
2
  6
CENTER
 10
1389.034594475198
 20
3330.208292184011
 30
0.0
 11
2525.2813694751981
 21
3330.208292184011
 31
0.0
  0
ARC
  5
7AB0
  8
1
  6
CONTINUOUS
 10
2117.358994475198
 20
3297.208292184012
 30
0.0
 40
301.0
 50
6.294249999999999
 51
10.14149799999999
  0
LINE
  5
7AB1
  8
1
  6
CONTINUOUS
 10
2413.656143475198
 20
3350.208292184012
 30
0.0
 11
2474.358994475198
 21
3350.208292184012
 31
0.0
  0
LINE
  5
7AB2
  8
1
  6
CONTINUOUS
 10
2084.358994475198
 20
3896.5288051840121
 30
0.0
 11
2474.358994475198
 21
3930.208292184012
 31
0.0
  0
LINE
  5
7AB3
  8
1
  6
CONTINUOUS
 10
4366.2210764751981
 20
3930.208292184012
 30
0.0
 11
4791.2210764751981
 21
3350.208292184012
 31
0.0
  0
LINE
  5
7AB4
  8
1
  6
CONTINUOUS
 10
4791.2210764751981
 20
3930.208292184012
 30
0.0
 11
4366.2210764751981
 21
3350.208292184012
 31
0.0
  0
LINE
  5
7AB5
  8
1
  6
CONTINUOUS
 10
4366.2210764751981
 20
3350.208292184012
 30
0.0
 11
4791.2210764751981
 21
3350.208292184012
 31
0.0
  0
LINE
  5
7AB6
  8
1
  6
CONTINUOUS
 10
4196.7210764751981
 20
3350.208292184012
 30
0.0
 11
4366.2210764751981
 21
3350.208292184012
 31
0.0
  0
LINE
  5
7AB7
  8
1
  6
CONTINUOUS
 10
4196.7210764751981
 20
3310.208292184012
 30
0.0
 11
4366.2210764751981
 21
3310.208292184012
 31
0.0
  0
LINE
  5
7AB8
  8
1
  6
CONTINUOUS
 10
4133.721076475199
 20
3444.5082921840121
 30
0.0
 11
4196.7210764751981
 21
3444.5082921840121
 31
0.0
  0
LINE
  5
7AB9
  8
1
  6
CONTINUOUS
 10
4133.721076475199
 20
3215.9082921840122
 30
0.0
 11
4196.7210764751981
 21
3215.9082921840122
 31
0.0
  0
LINE
  5
7ABA
  8
1
  6
CONTINUOUS
 10
4118.721076475199
 20
3494.5082921840121
 30
0.0
 11
4213.721076475199
 21
3494.5082921840121
 31
0.0
  0
LINE
  5
7ABB
  8
1
  6
CONTINUOUS
 10
4233.721076475199
 20
3255.208292184011
 30
0.0
 11
4366.2210764751981
 21
3255.208292184011
 31
0.0
  0
LINE
  5
7ABC
  8
1
  6
CONTINUOUS
 10
4366.2210764751981
 20
3930.208292184012
 30
0.0
 11
4791.2210764751981
 21
3930.208292184012
 31
0.0
  0
LINE
  5
7ABD
  8
1
  6
CONTINUOUS
 10
4854.721076475199
 20
3640.208292184011
 30
0.0
 11
4854.721076475199
 21
3020.208292184012
 31
0.0
  0
LINE
  5
7ABE
  8
1
  6
CONTINUOUS
 10
4833.7210764751999
 20
2822.208292184011
 30
0.0
 11
4833.7210764751999
 21
2757.208292184012
 31
0.0
  0
LINE
  5
7ABF
  8
1
  6
CONTINUOUS
 10
4833.7210764751999
 20
2935.208292184012
 30
0.0
 11
4833.7210764751999
 21
2860.208292184012
 31
0.0
  0
LINE
  5
7AC0
  8
1
  6
CONTINUOUS
 10
1600.358994475198
 20
6379.8478141840133
 30
0.0
 11
2474.358994475198
 21
6379.8478141840133
 31
0.0
  0
LINE
  5
7AC1
  8
1
  6
CONTINUOUS
 10
1600.358994475198
 20
5954.8478141840123
 30
0.0
 11
2474.358994475198
 21
5954.8478141840123
 31
0.0
  0
LINE
  5
7AC2
  8
1
  6
CONTINUOUS
 10
1774.358994475198
 20
6443.3478141840123
 30
0.0
 11
2394.358994475198
 21
6443.3478141840123
 31
0.0
  0
LINE
  5
7AC3
  8
1
  6
CONTINUOUS
 10
1403.358994475198
 20
5812.3478141840123
 30
0.0
 11
2064.358994475198
 21
5812.3478141840123
 31
0.0
  0
LINE
  5
7AC4
  8
1
  6
CONTINUOUS
 10
1220.0589944751989
 20
5707.3478141840133
 30
0.0
 11
2248.6589944751981
 21
5707.3478141840133
 31
0.0
  0
LINE
  5
7AC5
  8
1
  6
CONTINUOUS
 10
1220.0589944751989
 20
5802.3478141840123
 30
0.0
 11
2248.6589944751981
 21
5802.3478141840123
 31
0.0
  0
LINE
  5
7AC6
  8
1
  6
CONTINUOUS
 10
1159.358994475198
 20
5812.3478141840123
 30
0.0
 11
1159.358994475198
 21
6422.3478141840123
 31
0.0
  0
LINE
  5
7AC7
  8
1
  6
CONTINUOUS
 10
1600.358994475198
 20
5954.8478141840123
 30
0.0
 11
1600.358994475198
 21
6379.8478141840133
 31
0.0
  0
LINE
  5
7AC8
  8
1
  6
CONTINUOUS
 10
1241.358994475198
 20
5822.3478141840133
 30
0.0
 11
1241.358994475198
 21
6191.3478141840133
 31
0.0
  0
LINE
  5
7AC9
  8
1
  6
CONTINUOUS
 10
1527.358994475198
 20
5822.3478141840133
 30
0.0
 11
1527.358994475198
 21
6191.3478141840133
 31
0.0
  0
LINE
  5
7ACA
  8
1
  6
CONTINUOUS
 10
1527.358994475198
 20
5822.3478141840133
 30
0.0
 11
1241.358994475198
 21
5822.3478141840133
 31
0.0
  0
LINE
  5
7ACB
  8
1
  6
CONTINUOUS
 10
1270.0589944751989
 20
5785.3478141840133
 30
0.0
 11
1498.658994475197
 21
5785.3478141840133
 31
0.0
  0
LINE
  5
7ACC
  8
1
  6
CONTINUOUS
 10
1270.0589944751989
 20
5722.3478141840123
 30
0.0
 11
1498.658994475197
 21
5722.3478141840123
 31
0.0
  0
LINE
  5
7ACD
  8
1
  6
CONTINUOUS
 10
1159.358994475198
 20
5812.3478141840123
 30
0.0
 11
1365.358994475198
 21
5812.3478141840123
 31
0.0
  0
LINE
  5
7ACE
  8
1
  6
CONTINUOUS
 10
1403.358994475198
 20
5785.3478141840133
 30
0.0
 11
1403.358994475198
 21
5822.3478141840133
 31
0.0
  0
LINE
  5
7ACF
  8
1
  6
CONTINUOUS
 10
1365.358994475198
 20
5785.3478141840133
 30
0.0
 11
1365.358994475198
 21
5822.3478141840133
 31
0.0
  0
LINE
  5
7AD0
  8
1
  6
CONTINUOUS
 10
1270.0589944751989
 20
5722.3478141840123
 30
0.0
 11
1270.0589944751989
 21
5785.3478141840133
 31
0.0
  0
LINE
  5
7AD1
  8
1
  6
CONTINUOUS
 10
1220.0589944751989
 20
5707.3478141840133
 30
0.0
 11
1220.0589944751989
 21
5802.3478141840123
 31
0.0
  0
LINE
  5
7AD2
  8
1
  6
CONTINUOUS
 10
1498.658994475197
 20
5722.3478141840123
 30
0.0
 11
1498.658994475197
 21
5785.3478141840133
 31
0.0
  0
LINE
  5
7AD3
  8
1
  6
CONTINUOUS
 10
1159.358994475198
 20
6422.3478141840123
 30
0.0
 11
1804.358994475198
 21
6422.3478141840123
 31
0.0
  0
LINE
  5
7AD4
  8
1
  6
CONTINUOUS
 10
1241.358994475198
 20
6191.3478141840133
 30
0.0
 11
1527.358994475198
 21
6191.3478141840133
 31
0.0
  0
LINE
  5
7AD5
  8
1
  6
CONTINUOUS
 10
1804.358994475198
 20
6379.8478141840133
 30
0.0
 11
1804.358994475198
 21
6443.3478141840123
 31
0.0
  0
LINE
  5
7AD6
  8
1
  6
CONTINUOUS
 10
2474.358994475198
 20
5924.8478141840123
 30
0.0
 11
2474.358994475198
 21
6409.8478141840114
 31
0.0
  0
LINE
  5
7AD7
  8
1
  6
CONTINUOUS
 10
2444.358994475198
 20
5954.8478141840123
 30
0.0
 11
2444.358994475198
 21
6379.8478141840133
 31
0.0
  0
LINE
  5
7AD8
  8
1
  6
CONTINUOUS
 10
2104.358994475198
 20
5812.3478141840123
 30
0.0
 11
2439.358994475198
 21
5812.3478141840123
 31
0.0
  0
LINE
  5
7AD9
  8
1
  6
CONTINUOUS
 10
2104.358994475198
 20
5785.3478141840133
 30
0.0
 11
2104.358994475198
 21
5954.8478141840123
 31
0.0
  0
LINE
  5
7ADA
  8
1
  6
CONTINUOUS
 10
2064.358994475198
 20
5785.3478141840133
 30
0.0
 11
2064.358994475198
 21
5954.8478141840123
 31
0.0
  0
LINE
  5
7ADB
  8
1
  6
CONTINUOUS
 10
1970.058994475198
 20
5785.3478141840133
 30
0.0
 11
2198.6589944751981
 21
5785.3478141840133
 31
0.0
  0
LINE
  5
7ADC
  8
1
  6
CONTINUOUS
 10
1970.058994475198
 20
5722.3478141840123
 30
0.0
 11
2198.6589944751981
 21
5722.3478141840123
 31
0.0
  0
LINE
  5
7ADD
  8
1
  6
CONTINUOUS
 10
2198.6589944751981
 20
5722.3478141840123
 30
0.0
 11
2198.6589944751981
 21
5785.3478141840133
 31
0.0
  0
LINE
  5
7ADE
  8
1
  6
CONTINUOUS
 10
1970.058994475198
 20
5722.3478141840123
 30
0.0
 11
1970.058994475198
 21
5785.3478141840133
 31
0.0
  0
LINE
  5
7ADF
  8
1
  6
CONTINUOUS
 10
2439.358994475198
 20
5812.3478141840123
 30
0.0
 11
2439.358994475198
 21
5954.8478141840123
 31
0.0
  0
LINE
  5
7AE0
  8
1
  6
CONTINUOUS
 10
2248.6589944751981
 20
5707.3478141840133
 30
0.0
 11
2248.6589944751981
 21
5802.3478141840123
 31
0.0
  0
LINE
  5
7AE1
  8
1
  6
CONTINUOUS
 10
2439.358994475198
 20
6379.8478141840133
 30
0.0
 11
2439.358994475198
 21
6422.3478141840123
 31
0.0
  0
LINE
  5
7AE2
  8
1
  6
CONTINUOUS
 10
2364.358994475198
 20
6379.8478141840133
 30
0.0
 11
2364.358994475198
 21
6443.3478141840123
 31
0.0
  0
LINE
  5
7AE3
  8
1
  6
CONTINUOUS
 10
2364.358994475198
 20
6422.3478141840123
 30
0.0
 11
2439.358994475198
 21
6422.3478141840123
 31
0.0
  0
LINE
  5
7AE4
  8
4
  6
CONTINUOUS
 10
5550.0
 20
1500.0
 30
0.0
 11
5550.0
 21
900.0
 31
0.0
  0
LINE
  5
7AE5
  8
4
  6
CONTINUOUS
 10
3450.0
 20
1500.0
 30
0.0
 11
3450.0
 21
900.0
 31
0.0
  0
LINE
  5
7AE6
  8
4
  6
CONTINUOUS
 10
1950.0
 20
1500.0
 30
0.0
 11
1950.0
 21
900.0
 31
0.0
  0
LINE
  5
7AE9
  8
4
  6
CONTINUOUS
 10
1950.0
 20
900.0
 30
0.0
 11
5550.0
 21
900.0
 31
0.0
  0
LINE
  5
7AEA
  8
4
  6
CONTINUOUS
 10
1950.0
 20
1200.0
 30
0.0
 11
5550.0
 21
1200.0
 31
0.0
  0
TEXT
  5
7AEB
  8
4
  6
CONTINUOUS
 10
2065.50624225
 20
1294.6290779999999
 30
0.0
 40
150.0
  1
機器名称
  0
TEXT
  5
7AEC
  8
4
  6
CONTINUOUS
 10
2058.7743179999989
 20
964.93547024999998
 30
0.0
 40
150.0
  1
機器型番
  0
TEXT
  5
7AED
  8
4
  6
CONTINUOUS
 10
3533.0362365000001
 20
1267.715306249999
 30
0.0
 40
120.0
  1
ミツヤリミットロードファン
  0
TEXT
  5
7AEE
  8
4
  6
CONTINUOUS
 10
3559.9634872500001
 20
951.4787527499999
 30
0.0
 40
150.0
  1
LLE#3 1/2-4
  0
TEXT
  5
7AF0
  8
4
  6
CONTINUOUS
 10
2225.949080249999
 20
7150.2865245000012
 30
0.0
 40
162.0
  1
床置防振ベット
  0
TEXT
  5
7AF1
  8
4
  6
CONTINUOUS
 10
948.50278049999986
 20
7601.6429287499996
 30
0.0
 40
180.0
  1
ベルト駆動式片吸込両持排煙ファン
  0
LINE
  5
7AF2
  8
4
  6
CONTINUOUS
 10
750.0
 20
7408.2262627500004
 30
0.0
 11
5550.0
 21
7408.2262627500004
 31
0.0
  0
LINE
  5
7AF3
  8
4
  6
CONTINUOUS
 10
750.0
 20
8008.2262627500004
 30
0.0
 11
5550.0
 21
8008.2262627500004
 31
0.0
  0
LINE
  5
7AF4
  8
4
  6
CONTINUOUS
 10
1950.0
 20
1500.0
 30
0.0
 11
5550.0
 21
1500.0
 31
0.0
  0
LINE
  5
7AF5
  8
4
  6
CONTINUOUS
 10
750.0
 20
8008.2262627500004
 30
0.0
 11
750.0
 21
7408.2262627500004
 31
0.0
  0
TEXT
  5
7AF6
  8
4
  6
CONTINUOUS
 10
918.37258350000002
 20
7146.9584324999987
 30
0.0
 40
162.0
  1
右回転右横向
  0
TEXT
  5
7AF7
  8
4
  6
CONTINUOUS
 10
4406.9086777499988
 20
8118.1832445
 30
0.0
 40
168.0
  1
No.
  0
TEXT
  5
7AF8
  8
4
  6
CONTINUOUS
 10
3933.8881875000002
 20
7150.2865245000012
 30
0.0
 40
162.0
  1
縮尺：1/30
  0
LINE
  5
7AF9
  8
4
  6
CONTINUOUS
 10
5550.0
 20
8008.2262627500004
 30
0.0
 11
5550.0
 21
7408.2262627500004
 31
0.0
  0
LINE
  5
7AFA
  8
4
  6
CONTINUOUS
 10
5512.5
 20
7743.75
 30
0.0
 11
5512.5
 21
7743.75
 31
0.0
  0
LINE
  5
7AFB
  8
4
  6
CONTINUOUS
 10
4321.8522667500001
 20
8043.79074975
 30
0.0
 11
4321.8522667500001
 21
8359.9567845000001
 31
0.0
  0
LINE
  5
7AFC
  8
4
  6
CONTINUOUS
 10
4321.8522667500001
 20
8359.9567845000001
 30
0.0
 11
5550.0
 21
8359.9567845000001
 31
0.0
  0
LINE
  5
7AFD
  8
4
  6
CONTINUOUS
 10
5550.0
 20
8359.9567845000001
 30
0.0
 11
5550.0
 21
8043.79074975
 31
0.0
  0
LINE
  5
7AFE
  8
4
  6
CONTINUOUS
 10
5550.0
 20
8043.79074975
 30
0.0
 11
4321.8522667500001
 21
8043.79074975
 31
0.0
  0
DIMENSION
  5
7B16
  8
3
  6
CONTINUOUS
  2
*D1
 10
2084.358994475198
 20
2465.8024121840131
 30
0.0
 11
1615.674567475198
 21
2465.8024121840131
 31
0.0
 70
   128
 13
1159.358994475198
 23
2757.208292184012
 33
0.0
 14
2084.358994475198
 24
2680.7870341840121
 34
0.0
1001
ACAD
1000
DSTYLE
1002
{
1070
   287
1070
     3
1070
   287
1070
     3
1070
    40
1040
30.0
1070
   143
1040
0.039
1070
   172
1070
     1
1070
   271
1070
     0
1070
   279
1070
     0
1070
   288
1070
     1
1002
}
  0
DIMENSION
  5
7B24
  8
3
  6
CONTINUOUS
  2
*D2
 10
2439.358994475198
 20
2465.2056251840122
 30
0.0
 11
2275.875456932728
 21
2532.2835488619021
 31
0.0
 70
   128
 13
2084.358994475198
 23
2680.7870341840121
 33
0.0
 14
2439.358994475198
 24
2757.208292184012
 34
0.0
1001
ACAD
1000
DSTYLE
1002
{
1070
   288
1070
     1
1070
   172
1070
     1
1070
    40
1040
30.0
1070
   271
1070
     0
1070
   143
1040
0.039
1002
}
  0
DIMENSION
  5
7B47
  8
3
  6
CONTINUOUS
  2
*D3
 10
2759.6930764751992
 20
3350.208292184012
 30
0.0
 11
2759.6930764751992
 21
3643.9924591840122
 31
0.0
 70
   128
 13
2474.358994475198
 23
3930.208292184012
 33
0.0
 14
2474.358994475198
 24
3350.208292184012
 34
0.0
 50
90.0
1001
ACAD
1000
DSTYLE
1002
{
1070
   287
1070
     3
1070
   287
1070
     3
1070
    40
1040
30.0
1070
   143
1040
0.039
1070
   172
1070
     1
1070
   271
1070
     0
1070
   279
1070
     0
1070
   288
1070
     1
1002
}
  0
DIMENSION
  5
7B55
  8
3
  6
CONTINUOUS
  2
*D4
 10
2960.8721854751989
 20
3330.208292184011
 30
0.0
 11
2960.872185475198
 21
3646.992934184012
 31
0.0
 70
   128
 13
2474.358994475198
 23
3930.208292184012
 33
0.0
 14
2416.5445554751982
 24
3330.208292184011
 34
0.0
 50
90.0
1001
ACAD
1000
DSTYLE
1002
{
1070
   287
1070
     3
1070
   287
1070
     3
1070
    40
1040
30.0
1070
   143
1040
0.039
1070
   172
1070
     1
1070
   271
1070
     0
1070
   279
1070
     0
1070
   288
1070
     1
1002
}
  0
DIMENSION
  5
7B73
  8
3
  6
CONTINUOUS
  2
*D5
 10
2960.8721854751989
 20
2860.208292184012
 30
0.0
 11
2960.872185475198
 21
3065.9225778982982
 31
0.0
 70
   128
 13
2416.5445554751982
 23
3330.208292184011
 33
0.0
 14
2439.358994475198
 24
2860.208292184012
 34
0.0
 50
90.0
1001
ACAD
1000
DSTYLE
1002
{
1070
   287
1070
     3
1070
   287
1070
     3
1070
    40
1040
30.0
1070
   143
1040
0.039
1070
   172
1070
     1
1070
   271
1070
     0
1070
   279
1070
     0
1070
   288
1070
     1
1002
}
  0
DIMENSION
  5
7B83
  8
3
  6
CONTINUOUS
  2
*D6
 10
2960.8721854751989
 20
2757.208292184012
 30
0.0
 11
2960.872185475198
 21
2492.208292184011
 31
0.0
 70
   128
 13
2439.358994475198
 23
2860.208292184012
 33
0.0
 14
2439.358994475198
 24
2757.208292184012
 34
0.0
 50
90.0
1001
ACAD
1000
DSTYLE
1002
{
1070
   287
1070
     3
1070
   287
1070
     3
1070
    40
1040
30.0
1070
   143
1040
0.039
1070
   172
1070
     1
1070
   271
1070
     0
1070
   279
1070
     0
1070
   288
1070
     1
1002
}
  0
DIMENSION
  5
7BB2
  8
3
  6
CONTINUOUS
  2
*D7
 10
3207.0914094751988
 20
2757.208292184011
 30
0.0
 11
3207.0914094751988
 21
3316.9401491840122
 31
0.0
 70
   128
 13
2474.358994475198
 23
3960.208292184012
 33
0.0
 14
2439.358994475198
 24
2757.208292184012
 34
0.0
 50
90.0
1001
ACAD
1000
DSTYLE
1002
{
1070
   287
1070
     3
1070
   287
1070
     3
1070
    40
1040
30.0
1070
   143
1040
0.039
1070
   172
1070
     1
1070
   271
1070
     0
1070
   279
1070
     0
1070
   288
1070
     1
1002
}
  0
DIMENSION
  5
7BBF
  8
3
  6
CONTINUOUS
  2
*D8
 10
2084.358994475198
 20
4061.6559291840122
 30
0.0
 11
1844.358994475198
 21
4061.6559291840122
 31
0.0
 70
   128
  1
484
 13
1602.358994475198
 23
3330.208292184011
 33
0.0
 14
2084.358994475198
 24
3896.5288051840121
 34
0.0
1001
ACAD
1000
DSTYLE
1002
{
1070
   287
1070
     3
1070
   287
1070
     3
1070
    40
1040
30.0
1070
   143
1040
0.039
1070
   172
1070
     1
1070
   271
1070
     0
1070
   279
1070
     0
1070
   288
1070
     1
1002
}
  0
DIMENSION
  5
7BCD
  8
3
  6
CONTINUOUS
  2
*D9
 10
2474.358994475198
 20
4061.6559291840122
 30
0.0
 11
2282.4317815058962
 21
4150.363860673584
 31
0.0
 70
   128
 13
2084.358994475198
 23
3896.5288051840121
 33
0.0
 14
2474.358994475198
 24
3960.208292184012
 34
0.0
1001
ACAD
1000
DSTYLE
1002
{
1070
   288
1070
     1
1070
   172
1070
     1
1070
    40
1040
30.0
1070
   271
1070
     0
1070
   143
1040
0.039
1002
}
  0
DIMENSION
  5
7BF0
  8
3
  6
CONTINUOUS
  2
*D10
 10
2439.358994475198
 20
5392.067721184012
 30
0.0
 11
1795.8350274751981
 21
5392.067721184012
 31
0.0
 70
   128
 13
1159.358994475198
 23
5812.3478141840123
 33
0.0
 14
2439.358994475198
 24
5812.3478141840123
 34
0.0
1001
ACAD
1000
DSTYLE
1002
{
1070
   287
1070
     3
1070
   287
1070
     3
1070
    40
1040
30.0
1070
   143
1040
0.039
1070
   172
1070
     1
1070
   271
1070
     0
1070
   279
1070
     0
1070
   288
1070
     1
1002
}
  0
DIMENSION
  5
7BFD
  8
3
  6
CONTINUOUS
  2
*D11
 10
2747.682442475199
 20
5812.3478141840123
 30
0.0
 11
2747.6824424751981
 21
6142.1877361840116
 31
0.0
 70
   128
 13
2439.358994475198
 23
6422.3478141840123
 33
0.0
 14
2439.358994475198
 24
5812.3478141840123
 34
0.0
 50
90.0
1001
ACAD
1000
DSTYLE
1002
{
1070
   287
1070
     3
1070
   287
1070
     3
1070
    40
1040
30.0
1070
   143
1040
0.039
1070
   172
1070
     1
1070
   271
1070
     0
1070
   279
1070
     0
1070
   288
1070
     1
1002
}
  0
LINE
  5
7BFE
  8
2
  6
CENTER
 10
1465.2386884751979
 20
6167.3478141840133
 30
0.0
 11
2522.6127204751979
 21
6167.3478141840133
 31
0.0
  0
LINE
  5
7BFF
  8
2
  6
CENTER
 10
4578.721076475199
 20
4041.1950471840119
 30
0.0
 11
4578.721076475199
 21
2699.8398271840119
 31
0.0
  0
DIMENSION
  5
7C0C
  8
3
  6
CONTINUOUS
  2
*D12
 10
5057.3187884697409
 20
3050.208292184012
 30
0.0
 11
5057.31878846974
 21
3309.9225778982968
 31
0.0
 70
   128
 13
4854.721076475199
 23
3610.208292184012
 33
0.0
 14
4854.721076475199
 24
3050.208292184012
 34
0.0
 50
90.0
1001
ACAD
1000
DSTYLE
1002
{
1070
   287
1070
     3
1070
   287
1070
     3
1070
     3
1000
φ<>
1070
    40
1040
30.0
1070
   143
1040
0.039
1070
   172
1070
     1
1070
   271
1070
     0
1070
   279
1070
     0
1070
   288
1070
     1
1002
}
  0
DIMENSION
  5
7C1B
  8
3
  6
CONTINUOUS
  2
*D13
 10
4791.2210764751981
 20
4048.8923264365621
 30
0.0
 11
4585.5067907609136
 21
4048.8923264365621
 31
0.0
 70
   128
 13
4366.2210764751981
 23
3930.208292184012
 33
0.0
 14
4791.2210764751981
 24
3930.208292184012
 34
0.0
1001
ACAD
1000
DSTYLE
1002
{
1070
   287
1070
     3
1070
   287
1070
     3
1070
    40
1040
30.0
1070
   143
1040
0.039
1070
   172
1070
     1
1070
   271
1070
     0
1070
   279
1070
     0
1070
   288
1070
     1
1002
}
  0
DIMENSION
  5
7C2A
  8
3
  6
CONTINUOUS
  2
*D14
 10
4578.721076475199
 20
4253.3180340728541
 30
0.0
 11
4337.2925050466274
 21
4253.3180340728541
 31
0.0
 70
   128
  1
MAX\P510
 13
4118.721076475199
 23
3494.5082921840121
 33
0.0
 14
4578.721076475199
 24
4188.2495801840123
 34
0.0
1001
ACAD
1000
DSTYLE
1002
{
1070
   287
1070
     3
1070
   287
1070
     3
1070
    40
1040
30.0
1070
   143
1040
0.039
1070
   172
1070
     1
1070
   271
1070
     0
1070
   279
1070
     0
1070
   288
1070
     1
1002
}
  0
DIMENSION
  5
7C5D
  8
3
  6
CONTINUOUS
  2
*D15
 10
4578.721076475199
 20
2517.8418461456199
 30
0.0
 11
4405.2021404033949
 21
2579.6132787720489
 31
0.0
 70
   128
 13
4223.721076475199
 23
2757.208292184012
 33
0.0
 14
4578.721076475199
 24
2699.8398271840119
 34
0.0
1001
ACAD
1000
DSTYLE
1002
{
1070
   288
1070
     1
1070
   172
1070
     1
1070
    40
1040
30.0
1070
   271
1070
     0
1070
   143
1040
0.039
1002
}
  0
DIMENSION
  5
7C6B
  8
3
  6
CONTINUOUS
  2
*D16
 10
4833.7210764751999
 20
2515.5136281840118
 30
0.0
 11
4708.2787249076637
 21
2591.2419469744959
 31
0.0
 70
   128
 13
4578.721076475199
 23
2699.8398271840119
 33
0.0
 14
4833.7210764751999
 24
2757.208292184012
 34
0.0
1001
ACAD
1000
DSTYLE
1002
{
1070
   288
1070
     1
1070
   172
1070
     1
1070
    40
1040
30.0
1070
   271
1070
     0
1070
   143
1040
0.039
1002
}
  0
LINE
  5
7C82
  8
2
  6
CENTER
 10
4072.960933717316
 20
3330.208292184011
 30
0.0
 11
4874.3655174751984
 21
3330.208292184011
 31
0.0
  0
LINE
  5
7C83
  8
2
  6
CENTER
 10
2084.358994475198
 20
5644.8250681840127
 30
0.0
 11
2084.358994475198
 21
6491.3254221840107
 31
0.0
  0
DIMENSION
  5
7CB0
  8
3
  2
*D17
 10
4854.721076475199
 20
4253.3180340728541
 30
0.0
 11
4720.0854531779178
 21
4328.3288633370948
 31
0.0
 70
   128
 13
4578.721076475199
 23
4188.2495801840123
 33
0.0
 14
4854.721076475199
 24
3640.208292184011
 34
0.0
1001
ACAD
1000
DSTYLE
1002
{
1070
   288
1070
     1
1070
   172
1070
     1
1070
    40
1040
30.0
1070
   271
1070
     0
1070
   143
1040
0.039
1002
}
  0
LINE
  5
7CD9
  8
1
  6
CONTINUOUS
 10
1159.358994475198
 20
2757.208292184012
 30
0.0
 11
2439.358994475198
 21
2757.208292184012
 31
0.0
  0
LINE
  5
7CDA
  8
1
  6
CONTINUOUS
 10
4223.721076475199
 20
2757.208292184012
 30
0.0
 11
4833.7210764751999
 21
2757.208292184012
 31
0.0
  0
DIMENSION
  5
7F57
  8
3
  2
*D18
 10
1159.358994475198
 20
4252.0391637995863
 30
0.0
 11
1826.569606992078
 21
4252.0391637995863
 31
0.0
 70
   128
 13
2474.358994475198
 23
3960.208292184012
 33
0.0
 14
1159.358994475198
 24
2935.208292184012
 34
0.0
1001
ACAD
1000
DSTYLE
1002
{
1070
   287
1070
     3
1070
   287
1070
     3
1070
    40
1040
30.0
1070
   143
1040
0.039
1070
   172
1070
     1
1070
   271
1070
     0
1070
   279
1070
     0
1070
   288
1070
     1
1002
}
  0
ENDSEC
  0
EOF
