  0
SECTION
  2
HEADER
  9
$ACADVER
  1
AC1009
  9
$INSBASE
 10
0.0
 20
0.0
 30
0.0
  9
$EXTMIN
 10
-869.80734525000003
 20
-7638.9699847499996
 30
0.0
  9
$EXTMAX
 10
3943.2750142169239
 20
-179.01319950000001
 30
0.0
  9
$LIMMIN
 10
0.0
 20
0.0
  9
$LIMMAX
 10
297.0
 20
210.0
  9
$ORTHOMODE
 70
     0
  9
$REGENMODE
 70
     1
  9
$FILLMODE
 70
     0
  9
$QTEXTMODE
 70
     0
  9
$MIRRTEXT
 70
     1
  9
$DRAGMODE
 70
     2
  9
$LTSCALE
 40
100.0
  9
$OSMODE
 70
    37
  9
$ATTMODE
 70
     1
  9
$TEXTSIZE
 40
180.0
  9
$TRACEWID
 40
0.05
  9
$TEXTSTYLE
  7
STANDARD
  9
$CLAYER
  8
3
  9
$CELTYPE
  6
BYLAYER
  9
$CECOLOR
 62
   256
  9
$DIMSCALE
 40
30.0
  9
$DIMASZ
 40
2.0
  9
$DIMEXO
 40
0.5
  9
$DIMDLI
 40
10.0
  9
$DIMRND
 40
0.0
  9
$DIMDLE
 40
0.0
  9
$DIMEXE
 40
1.0
  9
$DIMTP
 40
1.0
  9
$DIMTM
 40
1.0
  9
$DIMTXT
 40
3.0
  9
$DIMCEN
 40
0.0
  9
$DIMTSZ
 40
0.0
  9
$DIMTOL
 70
     0
  9
$DIMLIM
 70
     0
  9
$DIMTIH
 70
     0
  9
$DIMTOH
 70
     0
  9
$DIMSE1
 70
     0
  9
$DIMSE2
 70
     0
  9
$DIMTAD
 70
     1
  9
$DIMZIN
 70
     8
  9
$DIMBLK
  1

  9
$DIMASO
 70
     1
  9
$DIMSHO
 70
     1
  9
$DIMPOST
  1

  9
$DIMAPOST
  1

  9
$DIMALT
 70
     0
  9
$DIMALTD
 70
     2
  9
$DIMALTF
 40
0.039
  9
$DIMLFAC
 40
1.0
  9
$DIMTOFL
 70
     1
  9
$DIMTVP
 40
0.0
  9
$DIMTIX
 70
     0
  9
$DIMSOXD
 70
     0
  9
$DIMSAH
 70
     1
  9
$DIMBLK1
  1
OPEN
  9
$DIMBLK2
  1
OPEN
  9
$DIMSTYLE
  2
IGA
  9
$DIMCLRD
 70
     0
  9
$DIMCLRE
 70
     0
  9
$DIMCLRT
 70
     0
  9
$DIMTFAC
 40
10.0
  9
$DIMGAP
 40
1.0
  9
$LUNITS
 70
     2
  9
$LUPREC
 70
     3
  9
$SKETCHINC
 40
0.1
  9
$FILLETRAD
 40
50.0
  9
$AUNITS
 70
     0
  9
$AUPREC
 70
     0
  9
$MENU
  1
acad
  9
$ELEVATION
 40
0.0
  9
$PELEVATION
 40
0.0
  9
$THICKNESS
 40
0.0
  9
$LIMCHECK
 70
     0
  9
$BLIPMODE
 70
     0
  9
$CHAMFERA
 40
0.5
  9
$CHAMFERB
 40
0.5
  9
$SKPOLY
 70
     0
  9
$TDCREATE
 40
2450759.683201273
  9
$TDUPDATE
 40
2454953.6824779282
  9
$TDINDWG
 40
0.0444856366
  9
$TDUSRTIMER
 40
0.0444856366
  9
$USRTIMER
 70
     1
  9
$ANGBASE
 50
0.0
  9
$ANGDIR
 70
     0
  9
$PDMODE
 70
     0
  9
$PDSIZE
 40
0.0
  9
$PLINEWID
 40
0.0
  9
$COORDS
 70
     1
  9
$SPLFRAME
 70
     0
  9
$SPLINETYPE
 70
     6
  9
$SPLINESEGS
 70
     8
  9
$ATTDIA
 70
     0
  9
$ATTREQ
 70
     1
  9
$HANDLING
 70
 10241
  9
$HANDSEED
  5
80D0
  9
$SURFTAB1
 70
     6
  9
$SURFTAB2
 70
     6
  9
$SURFTYPE
 70
     6
  9
$SURFU
 70
     6
  9
$SURFV
 70
     6
  9
$UCSNAME
  2

  9
$UCSORG
 10
0.0
 20
0.0
 30
0.0
  9
$UCSXDIR
 10
1.0
 20
0.0
 30
0.0
  9
$UCSYDIR
 10
0.0
 20
1.0
 30
0.0
  9
$PUCSNAME
  2

  9
$PUCSORG
 10
0.0
 20
0.0
 30
0.0
  9
$PUCSXDIR
 10
1.0
 20
0.0
 30
0.0
  9
$PUCSYDIR
 10
0.0
 20
1.0
 30
0.0
  9
$USERI1
 70
     0
  9
$USERI2
 70
     0
  9
$USERI3
 70
     0
  9
$USERI4
 70
     0
  9
$USERI5
 70
     0
  9
$USERR1
 40
0.0
  9
$USERR2
 40
0.0
  9
$USERR3
 40
0.0
  9
$USERR4
 40
0.0
  9
$USERR5
 40
0.0
  9
$WORLDVIEW
 70
     1
  9
$SHADEDGE
 70
     3
  9
$SHADEDIF
 70
    70
  9
$TILEMODE
 70
     1
  9
$MAXACTVP
 70
    16
  9
$PLIMCHECK
 70
     0
  9
$PEXTMIN
 10
1.0000000000000000E+020
 20
1.0000000000000000E+020
 30
1.0000000000000000E+020
  9
$PEXTMAX
 10
-1.0000000000000000E+020
 20
-1.0000000000000000E+020
 30
-1.0000000000000000E+020
  9
$PLIMMIN
 10
0.0
 20
0.0
  9
$PLIMMAX
 10
12.0
 20
9.0
  9
$UNITMODE
 70
     0
  9
$VISRETAIN
 70
     0
  9
$PLINEGEN
 70
     0
  9
$PSLTSCALE
 70
     1
  0
ENDSEC
  0
SECTION
  2
TABLES
  0
TABLE
  2
VPORT
 70
     2
  0
VPORT
  2
*ACTIVE
 70
     0
 10
0.0
 20
0.0
 11
1.0
 21
1.0
 12
10752.914262045681
 22
-4612.5842657725352
 13
0.0
 23
0.0
 14
10.0
 24
10.0
 15
10.0
 25
10.0
 16
0.0
 26
0.0
 36
1.0
 17
0.0
 27
0.0
 37
0.0
 40
9583.3829799508858
 41
3.1666666666666661
 42
50.0
 43
0.0
 44
0.0
 50
0.0
 51
0.0
 71
     0
 72
   100
 73
     1
 74
     0
 75
     0
 76
     0
 77
     0
 78
     0
  0
ENDTAB
  0
TABLE
  2
LTYPE
 70
     2
  0
LTYPE
  2
CONTINUOUS
 70
     0
  3
Solid line
 72
    65
 73
     0
 40
0.0
  0
LTYPE
  2
CENTER
 70
     0
  3
____ _ ____ _ ____ _ ____ _ ____ _ ____ _ ____ 
 72
    65
 73
     4
 40
2.0
 49
1.25
 49
-0.25
 49
0.25
 49
-0.25
  0
ENDTAB
  0
TABLE
  2
LAYER
 70
     6
  0
LAYER
  2
0
 70
     0
 62
     7
  6
CONTINUOUS
  0
LAYER
  2
3
 70
     0
 62
     2
  6
CONTINUOUS
  0
LAYER
  2
2
 70
     0
 62
     3
  6
CENTER
  0
LAYER
  2
1
 70
     0
 62
     4
  6
CONTINUOUS
  0
LAYER
  2
4
 70
     0
 62
     7
  6
CONTINUOUS
  0
LAYER
  2
DEFPOINTS
 70
     0
 62
    -7
  6
CONTINUOUS
  0
ENDTAB
  0
TABLE
  2
STYLE
 70
     1
  0
STYLE
  2
STANDARD
 70
     0
 40
0.0
 41
1.0
 50
0.0
 71
     0
 42
180.0
  3
simplex.shx
  4
extfont.shx
  0
ENDTAB
  0
TABLE
  2
VIEW
 70
     0
  0
ENDTAB
  0
TABLE
  2
UCS
 70
     0
  0
ENDTAB
  0
TABLE
  2
APPID
 70
     1
  0
APPID
  2
ACAD
 70
     0
  0
ENDTAB
  0
TABLE
  2
DIMSTYLE
 70
     1
  0
DIMSTYLE
  2
IGA
 70
     0
  3

  4

  5

  6
OPEN
  7
OPEN
 40
2.0
 41
2.0
 42
0.5
 43
10.0
 44
1.0
 45
0.0
 46
0.0
 47
1.0
 48
1.0
140
3.0
141
0.0
142
0.0
143
0.03937
144
1.0
145
0.0
146
10.0
147
1.0
 71
     0
 72
     0
 73
     0
 74
     0
 75
     0
 76
     0
 77
     1
 78
     8
170
     0
171
     2
172
     0
173
     1
174
     0
175
     0
176
     0
177
     0
178
     0
  0
ENDTAB
  0
ENDSEC
  0
SECTION
  2
BLOCKS
  0
BLOCK
  8
0
  2
$MODEL_SPACE
 70
     0
 10
0.0
 20
0.0
 30
0.0
  3
$MODEL_SPACE
  1

  0
ENDBLK
  5
1B
  8
0
  0
BLOCK
 67
     1
  8
0
  2
$PAPER_SPACE
 70
     0
 10
0.0
 20
0.0
 30
0.0
  3
$PAPER_SPACE
  1

  0
ENDBLK
  5
18
 67
     1
  8
0
  0
BLOCK
  8
0
  2
_OPEN
 70
     0
 10
0.0
 20
0.0
 30
0.0
  3
_OPEN
  1

  0
LINE
  5
7B3D
  8
0
  6
BYBLOCK
 62
     0
 10
-1.0
 20
0.166667
 30
0.0
 11
0.0
 21
0.0
 31
0.0
  0
LINE
  5
7B3E
  8
0
  6
BYBLOCK
 62
     0
 10
0.0
 20
0.0
 30
0.0
 11
-1.0
 21
-0.166667
 31
0.0
  0
LINE
  5
7B3F
  8
0
  6
BYBLOCK
 62
     0
 10
0.0
 20
0.0
 30
0.0
 11
-1.0
 21
0.0
 31
0.0
  0
ENDBLK
  5
7B40
  8
0
  0
BLOCK
  8
0
  2
*D1
 70
     1
 10
0.0
 20
0.0
 30
0.0
  3
*D1
  1

  0
LINE
  5
804B
  8
3
 62
     0
 10
64.213120999999774
 20
-5403.3018416096684
 30
0.0
 11
64.213120999999759
 21
-5731.0888436096684
 31
0.0
  0
LINE
  5
804C
  8
3
 62
     0
 10
989.21312100000023
 20
-5477.0406826096678
 30
0.0
 11
989.21312100000023
 21
-5731.0888436096684
 31
0.0
  0
LINE
  5
804D
  8
3
 62
     0
 10
124.2131209999997
 20
-5701.0888436096666
 30
0.0
 11
929.21312100000023
 21
-5701.0888436096666
 31
0.0
  0
INSERT
  5
804E
  8
3
 62
     0
  2
_OPEN
 10
64.213120999999759
 20
-5701.0888436096666
 30
0.0
 41
60.0
 42
60.0
 43
60.0
 50
180.0
  0
INSERT
  5
804F
  8
3
 62
     0
  2
_OPEN
 10
989.21312100000023
 20
-5701.0888436096666
 30
0.0
 41
60.0
 42
60.0
 43
60.0
  0
TEXT
  8
3
  40
90
  5
80C2
  62
0
  72
0
  71
0
 10
335.230
 20
-5785.39
 30
0.000000
  1
925
  0
POINT
  5
8051
  8
DEFPOINTS
 62
     0
 10
64.213120999999774
 20
-5388.3018416096684
 30
0.0
  0
POINT
  5
8052
  8
DEFPOINTS
 62
     0
 10
989.21312100000023
 20
-5462.0406826096678
 30
0.0
  0
POINT
  5
8053
  8
DEFPOINTS
 62
     0
 10
989.21312100000023
 20
-5701.0888436096666
 30
0.0
  0
ENDBLK
  5
7E60
  8
0
  0
BLOCK
  8
0
  2
*D2
 70
     1
 10
0.0
 20
0.0
 30
0.0
  3
*D2
  1

  0
LINE
  5
7EA4
  8
0
  6
BYBLOCK
 62
     0
 10
989.21312100000023
 20
-5477.0406826096678
 30
0.0
 11
989.21312100000023
 21
-5731.5293476096667
 31
0.0
  0
LINE
  5
7EA5
  8
0
  6
BYBLOCK
 62
     0
 10
1344.2131209999991
 20
-5403.3018416096684
 30
0.0
 11
1344.2131209999991
 21
-5731.5293476096667
 31
0.0
  0
LINE
  5
7EA6
  8
0
  6
BYBLOCK
 62
     0
 10
1049.213121
 20
-5701.5293476096667
 30
0.0
 11
1284.2131209999991
 21
-5701.5293476096667
 31
0.0
  0
TEXT
  5
7EA7
  8
3
 62
     0
 10
1050.998835285714
 20
-5666.8568873381992
 30
0.0
 40
90.0
  1
355
  0
INSERT
  5
7EA8
  8
0
  6
BYBLOCK
 62
     0
  2
_OPEN
 10
989.21312100000023
 20
-5701.5293476096667
 30
0.0
 41
60.0
 42
60.0
 43
60.0
 50
180.0
  0
INSERT
  5
7EA9
  8
0
  6
BYBLOCK
 62
     0
  2
_OPEN
 10
1344.2131209999991
 20
-5701.5293476096667
 30
0.0
 41
60.0
 42
60.0
 43
60.0
  0
POINT
  5
7EAA
  8
DEFPOINTS
  6
BYBLOCK
 62
     0
 10
989.21312100000023
 20
-5462.0406826096678
 30
0.0
  0
POINT
  5
7EAB
  8
DEFPOINTS
  6
BYBLOCK
 62
     0
 10
1344.2131209999991
 20
-5388.3018416096684
 30
0.0
  0
POINT
  5
7EAC
  8
DEFPOINTS
  6
BYBLOCK
 62
     0
 10
1344.2131209999991
 20
-5701.5293476096667
 30
0.0
  0
ENDBLK
  5
7EAD
  8
0
  0
BLOCK
  8
0
  2
*D3
 70
     1
 10
0.0
 20
0.0
 30
0.0
  3
*D3
  1

  0
LINE
  5
8054
  8
3
 62
     0
 10
1394.2131209999991
 20
-4585.3018416096666
 30
0.0
 11
1691.1110399999991
 21
-4585.3018416096666
 31
0.0
  0
LINE
  5
8055
  8
3
 62
     0
 10
1394.2131209999991
 20
-5165.3018416096684
 30
0.0
 11
1691.111039999998
 21
-5165.3018416096684
 31
0.0
  0
LINE
  5
8056
  8
3
 62
     0
 10
1661.1110399999991
 20
-4645.3018416096684
 30
0.0
 11
1661.1110399999991
 21
-5105.3018416096684
 31
0.0
  0
INSERT
  5
8057
  8
3
 62
     0
  2
_OPEN
 10
1661.1110399999991
 20
-4585.3018416096666
 30
0.0
 41
60.0
 42
60.0
 43
60.0
 50
90.0
  0
INSERT
  5
8058
  8
3
 62
     0
  2
_OPEN
 10
1661.1110399999991
 20
-5165.3018416096684
 30
0.0
 41
60.0
 42
60.0
 43
60.0
 50
270.0
  0
TEXT
  8
3
  40
90
  5
80C3
  62
0
  72
0
  71
0
 10
1406.11
 20
-4984.60
 30
0.000000
  1
580
  0
POINT
  5
805A
  8
DEFPOINTS
 62
     0
 10
1379.2131209999991
 20
-4585.3018416096666
 30
0.0
  0
POINT
  5
805B
  8
DEFPOINTS
 62
     0
 10
1379.2131209999991
 20
-5165.3018416096684
 30
0.0
  0
POINT
  5
805C
  8
DEFPOINTS
 62
     0
 10
1661.1110399999991
 20
-5165.3018416096684
 30
0.0
  0
ENDBLK
  5
7E48
  8
0
  0
BLOCK
  8
0
  2
*D4
 70
     1
 10
0.0
 20
0.0
 30
0.0
  3
*D4
  1

  0
LINE
  5
805D
  8
3
 62
     0
 10
1336.398682
 20
-4565.3018416096684
 30
0.0
 11
1932.699169999999
 21
-4565.3018416096684
 31
0.0
  0
LINE
  5
805E
  8
3
 62
     0
 10
1394.2131209999991
 20
-5165.3018416096684
 30
0.0
 11
1932.699169999999
 21
-5165.3018416096684
 31
0.0
  0
LINE
  5
805F
  8
3
 62
     0
 10
1902.699169999999
 20
-4625.3018416096666
 30
0.0
 11
1902.699169999999
 21
-5105.3018416096684
 31
0.0
  0
INSERT
  5
8060
  8
3
 62
     0
  2
_OPEN
 10
1902.699169999999
 20
-4565.3018416096684
 30
0.0
 41
60.0
 42
60.0
 43
60.0
 50
90.0
  0
INSERT
  5
8061
  8
3
 62
     0
  2
_OPEN
 10
1902.699169999999
 20
-5165.3018416096684
 30
0.0
 41
60.0
 42
60.0
 43
60.0
 50
270.0
  0
TEXT
  8
3
  40
90
  5
80C4
  62
0
  72
0
  71
0
 10
1647.70
 20
-5021.91
 30
0.000000
  1
600
  0
POINT
  5
8063
  8
DEFPOINTS
 62
     0
 10
1321.398682
 20
-4565.3018416096684
 30
0.0
  0
POINT
  5
8064
  8
DEFPOINTS
 62
     0
 10
1379.2131209999991
 20
-5165.3018416096684
 30
0.0
  0
POINT
  5
8065
  8
DEFPOINTS
 62
     0
 10
1902.699169999999
 20
-5165.3018416096684
 30
0.0
  0
ENDBLK
  5
7E3D
  8
0
  0
BLOCK
  8
0
  2
*D5
 70
     1
 10
0.0
 20
0.0
 30
0.0
  3
*D5
  1

  0
LINE
  5
7F37
  8
0
  6
BYBLOCK
 62
     0
 10
1004.213121
 20
-4166.7885046096681
 30
0.0
 11
2161.8405180138361
 21
-4166.7885046096681
 31
0.0
  0
LINE
  5
7F38
  8
0
  6
BYBLOCK
 62
     0
 10
1336.398682
 20
-4565.3018416096684
 30
0.0
 11
2161.8405180138361
 21
-4565.3018416096684
 31
0.0
  0
LINE
  5
7F39
  8
0
  6
BYBLOCK
 62
     0
 10
2131.8405180138361
 20
-4226.7885046096671
 30
0.0
 11
2131.8405180138361
 21
-4505.3018416096666
 31
0.0
  0
TEXT
  5
7F3A
  8
3
 62
     0
 10
2083.5436199384999
 20
-4481.7594588239526
 30
0.0
 40
90.0
  1
400
 50
90.0
  0
INSERT
  5
7F3B
  8
0
  6
BYBLOCK
 62
     0
  2
_OPEN
 10
2131.8405180138361
 20
-4166.7885046096681
 30
0.0
 41
60.0
 42
60.0
 43
60.0
 50
90.0
  0
INSERT
  5
7F3C
  8
0
  6
BYBLOCK
 62
     0
  2
_OPEN
 10
2131.8405180138361
 20
-4565.3018416096684
 30
0.0
 41
60.0
 42
60.0
 43
60.0
 50
270.0
  0
POINT
  5
7F3D
  8
DEFPOINTS
  6
BYBLOCK
 62
     0
 10
989.21312100000023
 20
-4166.7885046096681
 30
0.0
  0
POINT
  5
7F3E
  8
DEFPOINTS
  6
BYBLOCK
 62
     0
 10
1321.398682
 20
-4565.3018416096684
 30
0.0
  0
POINT
  5
7F3F
  8
DEFPOINTS
  6
BYBLOCK
 62
     0
 10
2131.8405180138361
 20
-4565.3018416096684
 30
0.0
  0
ENDBLK
  5
7F40
  8
0
  0
BLOCK
  8
0
  2
*D6
 70
     1
 10
0.0
 20
0.0
 30
0.0
  3
*D6
  1

  0
LINE
  5
8066
  8
3
 62
     0
 10
1336.398682
 20
-4565.3018416096684
 30
0.0
 11
2161.6531180000002
 21
-4565.3018416096684
 31
0.0
  0
LINE
  5
8067
  8
3
 62
     0
 10
1359.2131209999991
 20
-5285.3018416096693
 30
0.0
 11
2161.6531180000002
 21
-5285.3018416096693
 31
0.0
  0
LINE
  5
8068
  8
3
 62
     0
 10
2131.6531180000002
 20
-4625.3018416096684
 30
0.0
 11
2131.6531180000002
 21
-5225.3018416096693
 31
0.0
  0
INSERT
  5
8069
  8
3
 62
     0
  2
_OPEN
 10
2131.6531180000002
 20
-4565.3018416096684
 30
0.0
 41
60.0
 42
60.0
 43
60.0
 50
90.0
  0
INSERT
  5
806A
  8
3
 62
     0
  2
_OPEN
 10
2131.6531180000002
 20
-5285.3018416096693
 30
0.0
 41
60.0
 42
60.0
 43
60.0
 50
270.0
  0
TEXT
  8
3
  40
90
  5
80C5
  62
0
  72
0
  71
0
 10
1876.65
 20
-5084.60
 30
0.000000
  1
720
  0
POINT
  5
806C
  8
DEFPOINTS
 62
     0
 10
1321.398682
 20
-4565.3018416096684
 30
0.0
  0
POINT
  5
806D
  8
DEFPOINTS
 62
     0
 10
1344.2131209999991
 20
-5285.3018416096693
 30
0.0
  0
POINT
  5
806E
  8
DEFPOINTS
 62
     0
 10
2131.6531180000002
 20
-5285.3018416096693
 30
0.0
  0
ENDBLK
  5
7E25
  8
0
  0
BLOCK
  8
0
  2
*D7
 70
     1
 10
0.0
 20
0.0
 30
0.0
  3
*D7
  1

  0
LINE
  5
806F
  8
3
 62
     0
 10
1359.2131209999991
 20
-5285.3018416096693
 30
0.0
 11
2162.9815079999989
 21
-5285.3018416096693
 31
0.0
  0
LINE
  5
8070
  8
3
 62
     0
 10
1359.2131209999991
 20
-5388.3018416096684
 30
0.0
 11
2162.9815079999989
 21
-5388.3018416096702
 31
0.0
  0
LINE
  5
8071
  8
3
 62
     0
 10
2132.981507999998
 20
-5225.3018416096693
 30
0.0
 11
2132.981507999998
 21
-5165.3018416096693
 31
0.0
  0
LINE
  5
8072
  8
3
 62
     0
 10
2132.981507999998
 20
-5448.3018416096693
 30
0.0
 11
2132.981507999998
 21
-5790.4446987525262
 31
0.0
  0
LINE
  5
8073
  8
3
 62
     0
 10
2132.981507999998
 20
-5285.3018416096693
 30
0.0
 11
2132.981507999998
 21
-5388.3018416096702
 31
0.0
  0
INSERT
  5
8074
  8
3
 62
     0
  2
_OPEN
 10
2132.981507999998
 20
-5285.3018416096693
 30
0.0
 41
60.0
 42
60.0
 43
60.0
 50
270.0
  0
INSERT
  5
8075
  8
3
 62
     0
  2
_OPEN
 10
2132.981507999998
 20
-5388.3018416096702
 30
0.0
 41
60.0
 42
60.0
 43
60.0
 50
90.0
  0
TEXT
  8
3
  40
90
  5
80C6
  62
0
  72
0
  71
0
 10
1877.98
 20
-5812.60
 30
0.000000
  1
103
  0
POINT
  5
8077
  8
DEFPOINTS
 62
     0
 10
1344.2131209999991
 20
-5285.3018416096693
 30
0.0
  0
POINT
  5
8078
  8
DEFPOINTS
 62
     0
 10
1344.2131209999991
 20
-5388.3018416096684
 30
0.0
  0
POINT
  5
8079
  8
DEFPOINTS
 62
     0
 10
2132.981507999998
 20
-5388.3018416096702
 30
0.0
  0
ENDBLK
  5
7E1A
  8
0
  0
BLOCK
  8
0
  2
*D8
 70
     1
 10
0.0
 20
0.0
 30
0.0
  3
*D8
  1

  0
LINE
  5
807A
  8
3
 62
     0
 10
1004.213121
 20
-4166.7885046096681
 30
0.0
 11
2347.179548231371
 21
-4166.788504609669
 31
0.0
  0
LINE
  5
807B
  8
3
 62
     0
 10
1359.2131209999991
 20
-5388.3018416096684
 30
0.0
 11
2347.179548231371
 21
-5388.3018416096702
 31
0.0
  0
LINE
  5
807C
  8
3
 62
     0
 10
2317.179548231371
 20
-4226.7885046096681
 30
0.0
 11
2317.1795482313701
 21
-5328.3018416096693
 31
0.0
  0
INSERT
  5
807D
  8
3
 62
     0
  2
_OPEN
 10
2317.179548231371
 20
-4166.788504609669
 30
0.0
 41
60.0
 42
60.0
 43
60.0
 50
90.0
  0
INSERT
  5
807E
  8
3
 62
     0
  2
_OPEN
 10
2317.1795482313701
 20
-5388.3018416096702
 30
0.0
 41
60.0
 42
60.0
 43
60.0
 50
270.0
  0
TEXT
  8
3
  40
90
  5
80C7
  62
0
  72
0
  71
0
 10
2062.18
 20
-4978.06
 30
0.000000
  1
1223
  0
POINT
  5
8080
  8
DEFPOINTS
 62
     0
 10
989.21312100000023
 20
-4166.7885046096681
 30
0.0
  0
POINT
  5
8081
  8
DEFPOINTS
 62
     0
 10
1344.2131209999991
 20
-5388.3018416096684
 30
0.0
  0
POINT
  5
8082
  8
DEFPOINTS
 62
     0
 10
2317.1795482313701
 20
-5388.3018416096702
 30
0.0
  0
ENDBLK
  5
7F7E
  8
0
  0
BLOCK
  8
0
  2
*D9
 70
     1
 10
0.0
 20
0.0
 30
0.0
  3
*D9
  1

  0
LINE
  5
8083
  8
3
 62
     0
 10
507.21312099999972
 20
-4550.3018416096666
 30
0.0
 11
507.21312099999977
 21
-3980.579620609667
 31
0.0
  0
LINE
  5
8084
  8
3
 62
     0
 10
989.21312100000023
 20
-4151.7885046096681
 30
0.0
 11
989.21312100000023
 21
-3980.579620609667
 31
0.0
  0
LINE
  5
8085
  8
3
 62
     0
 10
567.21312099999977
 20
-4010.579620609667
 30
0.0
 11
929.21312100000023
 21
-4010.579620609667
 31
0.0
  0
INSERT
  5
8086
  8
3
 62
     0
  2
_OPEN
 10
507.21312099999977
 20
-4010.579620609667
 30
0.0
 41
60.0
 42
60.0
 43
60.0
 50
180.0
  0
INSERT
  5
8087
  8
3
 62
     0
  2
_OPEN
 10
989.21312100000023
 20
-4010.579620609667
 30
0.0
 41
60.0
 42
60.0
 43
60.0
  0
TEXT
  8
3
  40
90
  5
80C8
  62
0
  72
0
  71
0
 10
567.213
 20
-4094.88
 30
0.000000
  1
484
  0
POINT
  5
8089
  8
DEFPOINTS
 62
     0
 10
507.21312099999972
 20
-4565.3018416096684
 30
0.0
  0
POINT
  5
808A
  8
DEFPOINTS
 62
     0
 10
989.21312100000023
 20
-4166.7885046096681
 30
0.0
  0
POINT
  5
808B
  8
DEFPOINTS
 62
     0
 10
989.21312100000023
 20
-4010.579620609667
 30
0.0
  0
ENDBLK
  5
7F35
  8
0
  0
BLOCK
  8
0
  2
*D10
 70
     1
 10
0.0
 20
0.0
 30
0.0
  3
*D10
  1

  0
LINE
  5
7EBA
  8
0
  6
BYBLOCK
 62
     0
 10
989.21312100000023
 20
-4151.7885046096681
 30
0.0
 11
989.21312100000023
 21
-3980.579620609667
 31
0.0
  0
LINE
  5
7EBB
  8
0
  6
BYBLOCK
 62
     0
 10
1379.2131209999991
 20
-4540.3018416096666
 30
0.0
 11
1379.2131209999991
 21
-3980.579620609667
 31
0.0
  0
LINE
  5
7EBC
  8
0
  6
BYBLOCK
 62
     0
 10
1049.213121
 20
-4010.579620609667
 30
0.0
 11
1319.2131209999991
 21
-4010.579620609667
 31
0.0
  0
TEXT
  5
7EBD
  8
3
 62
     0
 10
1068.498835285714
 20
-3983.1491076945131
 30
0.0
 40
90.0
  1
390
  0
INSERT
  5
7EBE
  8
0
  6
BYBLOCK
 62
     0
  2
_OPEN
 10
989.21312100000023
 20
-4010.579620609667
 30
0.0
 41
60.0
 42
60.0
 43
60.0
 50
180.0
  0
INSERT
  5
7EBF
  8
0
  6
BYBLOCK
 62
     0
  2
_OPEN
 10
1379.2131209999991
 20
-4010.579620609667
 30
0.0
 41
60.0
 42
60.0
 43
60.0
  0
POINT
  5
7EC0
  8
DEFPOINTS
  6
BYBLOCK
 62
     0
 10
989.21312100000023
 20
-4166.7885046096681
 30
0.0
  0
POINT
  5
7EC1
  8
DEFPOINTS
  6
BYBLOCK
 62
     0
 10
1379.2131209999991
 20
-4555.3018416096684
 30
0.0
  0
POINT
  5
7EC2
  8
DEFPOINTS
  6
BYBLOCK
 62
     0
 10
1379.2131209999991
 20
-4010.579620609667
 30
0.0
  0
ENDBLK
  5
7EC3
  8
0
  0
BLOCK
  8
0
  2
*D11
 70
     1
 10
0.0
 20
0.0
 30
0.0
  3
*D11
  1

  0
LINE
  5
808C
  8
3
 62
     0
 10
64.213120999999774
 20
-2771.7154046096671
 30
0.0
 11
64.213120999999745
 21
-3204.2796476096678
 31
0.0
  0
LINE
  5
808D
  8
3
 62
     0
 10
1344.2131209999991
 20
-2771.7154046096671
 30
0.0
 11
1344.2131209999991
 21
-3204.2796476096678
 31
0.0
  0
LINE
  5
808E
  8
3
 62
     0
 10
124.2131209999997
 20
-3174.2796476096678
 30
0.0
 11
1284.2131209999991
 21
-3174.2796476096678
 31
0.0
  0
INSERT
  5
808F
  8
3
 62
     0
  2
_OPEN
 10
64.213120999999745
 20
-3174.2796476096678
 30
0.0
 41
60.0
 42
60.0
 43
60.0
 50
180.0
  0
INSERT
  5
8090
  8
3
 62
     0
  2
_OPEN
 10
1344.2131209999991
 20
-3174.2796476096678
 30
0.0
 41
60.0
 42
60.0
 43
60.0
  0
TEXT
  8
3
  40
90
  5
80C9
  62
0
  72
0
  71
0
 10
490.377
 20
-3258.58
 30
0.000000
  1
1280
  0
POINT
  5
8092
  8
DEFPOINTS
 62
     0
 10
64.213120999999774
 20
-2756.7154046096671
 30
0.0
  0
POINT
  5
8093
  8
DEFPOINTS
 62
     0
 10
1344.2131209999991
 20
-2756.7154046096671
 30
0.0
  0
POINT
  5
8094
  8
DEFPOINTS
 62
     0
 10
1344.2131209999991
 20
-3174.2796476096678
 30
0.0
  0
ENDBLK
  5
7DEA
  8
0
  0
BLOCK
  8
0
  2
*D12
 70
     1
 10
0.0
 20
0.0
 30
0.0
  3
*D12
  1

  0
LINE
  5
8095
  8
3
 62
     0
 10
1359.2131209999991
 20
-2146.715404609668
 30
0.0
 11
1733.221534
 21
-2146.715404609668
 31
0.0
  0
LINE
  5
8096
  8
3
 62
     0
 10
1359.2131209999991
 20
-2756.7154046096671
 30
0.0
 11
1733.2215339999991
 21
-2756.7154046096671
 31
0.0
  0
LINE
  5
8097
  8
3
 62
     0
 10
1703.221534
 20
-2206.7154046096671
 30
0.0
 11
1703.2215339999991
 21
-2696.7154046096671
 31
0.0
  0
INSERT
  5
8098
  8
3
 62
     0
  2
_OPEN
 10
1703.221534
 20
-2146.715404609668
 30
0.0
 41
60.0
 42
60.0
 43
60.0
 50
90.0
  0
INSERT
  5
8099
  8
3
 62
     0
  2
_OPEN
 10
1703.2215339999991
 20
-2756.7154046096671
 30
0.0
 41
60.0
 42
60.0
 43
60.0
 50
270.0
  0
TEXT
  8
3
  40
90
  5
80CA
  62
0
  72
0
  71
0
 10
1448.22
 20
-2633.71
 30
0.000000
  1
610
  0
POINT
  5
809B
  8
DEFPOINTS
 62
     0
 10
1344.2131209999991
 20
-2146.715404609668
 30
0.0
  0
POINT
  5
809C
  8
DEFPOINTS
 62
     0
 10
1344.2131209999991
 20
-2756.7154046096671
 30
0.0
  0
POINT
  5
809D
  8
DEFPOINTS
 62
     0
 10
1703.2215339999991
 20
-2756.7154046096671
 30
0.0
  0
ENDBLK
  5
7DDF
  8
0
  0
BLOCK
  8
0
  2
*D13
 70
     1
 10
0.0
 20
0.0
 30
0.0
  3
*D13
  1

  0
LINE
  5
809E
  8
3
 62
     0
 10
3223.6496550000002
 20
-4150.3018416096666
 30
0.0
 11
3223.6496550000002
 21
-3941.8331791104902
 31
0.0
  0
LINE
  5
809F
  8
3
 62
     0
 10
3648.6496549999988
 20
-4150.3018416096666
 30
0.0
 11
3648.6496549999988
 21
-3941.8331791104902
 31
0.0
  0
LINE
  5
80A0
  8
3
 62
     0
 10
3283.6496550000002
 20
-3971.8331791104902
 30
0.0
 11
3588.6496549999988
 21
-3971.8331791104902
 31
0.0
  0
INSERT
  5
80A1
  8
3
 62
     0
  2
_OPEN
 10
3223.6496550000002
 20
-3971.8331791104902
 30
0.0
 41
60.0
 42
60.0
 43
60.0
 50
180.0
  0
INSERT
  5
80A2
  8
3
 62
     0
  2
_OPEN
 10
3648.6496549999988
 20
-3971.8331791104902
 30
0.0
 41
60.0
 42
60.0
 43
60.0
  0
TEXT
  8
3
  40
90
  5
80CB
  62
0
  72
0
  71
0
 10
3249.36
 20
-4056.13
 30
0.000000
  1
425
  0
POINT
  5
80A4
  8
DEFPOINTS
 62
     0
 10
3223.6496550000002
 20
-4165.3018416096666
 30
0.0
  0
POINT
  5
80A5
  8
DEFPOINTS
 62
     0
 10
3648.6496549999988
 20
-4165.3018416096666
 30
0.0
  0
POINT
  5
80A6
  8
DEFPOINTS
 62
     0
 10
3648.6496549999988
 20
-3971.8331791104902
 30
0.0
  0
ENDBLK
  5
7EE4
  8
0
  0
BLOCK
  8
0
  2
*D14
 70
     1
 10
0.0
 20
0.0
 30
0.0
  3
*D14
  1

  0
LINE
  5
7F1D
  8
0
  6
BYBLOCK
 62
     0
 10
3081.1496550000002
 20
-5403.3018416096684
 30
0.0
 11
3081.1496550000002
 21
-5665.1407322657606
 31
0.0
  0
LINE
  5
7F1E
  8
0
  6
BYBLOCK
 62
     0
 10
3436.1496549999988
 20
-5495.9214106096679
 30
0.0
 11
3436.1496549999988
 21
-5665.1407322657606
 31
0.0
  0
LINE
  5
7F1F
  8
0
  6
BYBLOCK
 62
     0
 10
3141.1496550000002
 20
-5635.1407322657606
 30
0.0
 11
3376.1496549999988
 21
-5635.1407322657606
 31
0.0
  0
TEXT
  5
7F20
  8
3
 62
     0
 10
3146.9373172949599
 20
-5616.2603443350999
 30
0.0
 40
90.0
  1
355
  0
INSERT
  5
7F21
  8
0
  6
BYBLOCK
 62
     0
  2
_OPEN
 10
3081.1496550000002
 20
-5635.1407322657606
 30
0.0
 41
60.0
 42
60.0
 43
60.0
 50
180.0
  0
INSERT
  5
7F22
  8
0
  6
BYBLOCK
 62
     0
  2
_OPEN
 10
3436.1496549999988
 20
-5635.1407322657606
 30
0.0
 41
60.0
 42
60.0
 43
60.0
  0
POINT
  5
7F23
  8
DEFPOINTS
  6
BYBLOCK
 62
     0
 10
3081.1496550000002
 20
-5388.3018416096684
 30
0.0
  0
POINT
  5
7F24
  8
DEFPOINTS
  6
BYBLOCK
 62
     0
 10
3436.1496549999988
 20
-5480.9214106096679
 30
0.0
  0
POINT
  5
7F25
  8
DEFPOINTS
  6
BYBLOCK
 62
     0
 10
3436.1496549999988
 20
-5635.1407322657606
 30
0.0
  0
ENDBLK
  5
7F26
  8
0
  0
BLOCK
  8
0
  2
*D15
 70
     1
 10
0.0
 20
0.0
 30
0.0
  3
*D15
  1

  0
LINE
  5
7F12
  8
0
  6
BYBLOCK
 62
     0
 10
3436.1496549999988
 20
-5495.9214106096679
 30
0.0
 11
3436.1496549999988
 21
-5665.0754356096677
 31
0.0
  0
LINE
  5
7F13
  8
0
  6
BYBLOCK
 62
     0
 10
3691.1496549999988
 20
-5403.3018416096684
 30
0.0
 11
3691.1496549999988
 21
-5665.0754356096677
 31
0.0
  0
LINE
  5
7F14
  8
0
  6
BYBLOCK
 62
     0
 10
3496.1496549999988
 20
-5635.0754356096668
 30
0.0
 11
3631.1496550000002
 21
-5635.0754356096668
 31
0.0
  0
TEXT
  5
7F15
  8
3
 62
     0
 10
3449.1667634322262
 20
-5604.6457085239708
 30
0.0
 40
90.0
  1
255
  0
INSERT
  5
7F16
  8
0
  6
BYBLOCK
 62
     0
  2
_OPEN
 10
3436.1496549999988
 20
-5635.0754356096668
 30
0.0
 41
60.0
 42
60.0
 43
60.0
 50
180.0
  0
INSERT
  5
7F17
  8
0
  6
BYBLOCK
 62
     0
  2
_OPEN
 10
3691.1496549999988
 20
-5635.0754356096668
 30
0.0
 41
60.0
 42
60.0
 43
60.0
  0
POINT
  5
7F18
  8
DEFPOINTS
  6
BYBLOCK
 62
     0
 10
3436.1496549999988
 20
-5480.9214106096679
 30
0.0
  0
POINT
  5
7F19
  8
DEFPOINTS
  6
BYBLOCK
 62
     0
 10
3691.1496549999988
 20
-5388.3018416096684
 30
0.0
  0
POINT
  5
7F1A
  8
DEFPOINTS
  6
BYBLOCK
 62
     0
 10
3691.1496549999988
 20
-5635.0754356096668
 30
0.0
  0
ENDBLK
  5
7F1B
  8
0
  0
BLOCK
  8
0
  2
*D16
 70
     1
 10
0.0
 20
0.0
 30
0.0
  3
*D16
  1

  0
LINE
  5
80A7
  8
3
 62
     0
 10
3727.1496549999988
 20
-4285.3018416096666
 30
0.0
 11
3943.2750142169239
 21
-4285.3018416096666
 31
0.0
  0
LINE
  5
80A8
  8
3
 62
     0
 10
3727.1496549999988
 20
-4845.3018416096684
 30
0.0
 11
3943.2750142169239
 21
-4845.3018416096684
 31
0.0
  0
LINE
  5
80A9
  8
3
 62
     0
 10
3913.275014216923
 20
-4345.3018416096666
 30
0.0
 11
3913.275014216923
 21
-4785.3018416096666
 31
0.0
  0
INSERT
  5
80AA
  8
3
 62
     0
  2
_OPEN
 10
3913.275014216923
 20
-4285.3018416096666
 30
0.0
 41
60.0
 42
60.0
 43
60.0
 50
90.0
  0
INSERT
  5
80AB
  8
3
 62
     0
  2
_OPEN
 10
3913.275014216923
 20
-4845.3018416096684
 30
0.0
 41
60.0
 42
60.0
 43
60.0
 50
270.0
  0
TEXT
  8
3
  40
90
  5
80CC
  62
0
  72
0
  71
0
 10
3658.28
 20
-4704.32
 30
0.000000
  1
φ560
  0
POINT
  5
80AD
  8
DEFPOINTS
 62
     0
 10
3712.1496549999988
 20
-4285.3018416096666
 30
0.0
  0
POINT
  5
80AE
  8
DEFPOINTS
 62
     0
 10
3712.1496549999988
 20
-4845.3018416096684
 30
0.0
  0
POINT
  5
80AF
  8
DEFPOINTS
 62
     0
 10
3913.275014216923
 20
-4845.3018416096684
 30
0.0
  0
ENDBLK
  5
7F05
  8
0
  0
BLOCK
  8
0
  2
*D17
 70
     1
 10
0.0
 20
0.0
 30
0.0
  3
*D17
  1

  0
LINE
  5
80B0
  8
3
 62
     0
 10
2976.1496550000002
 20
-4386.0018416096673
 30
0.0
 11
2976.1496550000002
 21
-3726.1973050831248
 31
0.0
  0
LINE
  5
80B1
  8
3
 62
     0
 10
3436.1496549999988
 20
-3811.633639781001
 30
0.0
 11
3436.1496549999988
 21
-3726.1973050831248
 31
0.0
  0
LINE
  5
80B2
  8
3
 62
     0
 10
3036.1496550000002
 20
-3756.1973050831248
 30
0.0
 11
3376.1496549999988
 21
-3756.1973050831248
 31
0.0
  0
INSERT
  5
80B3
  8
3
 62
     0
  2
_OPEN
 10
2976.1496550000002
 20
-3756.1973050831248
 30
0.0
 41
60.0
 42
60.0
 43
60.0
 50
180.0
  0
INSERT
  5
80B4
  8
3
 62
     0
  2
_OPEN
 10
3436.1496549999988
 20
-3756.1973050831248
 30
0.0
 41
60.0
 42
60.0
 43
60.0
  0
TEXT
  8
3
  40
90
  5
80CD
  62
0
  72
0
  71
0
 10
3014.72
 20
-3765.50
 30
0.000000
  1
MAX
  0
TEXT
  8
3
  40
90
  5
80CE
  62
0
  72
0
  71
0
 10
3014.72
 20
-3882.50
 30
0.000000
  1
510
  0
POINT
  5
80B6
  8
DEFPOINTS
 62
     0
 10
2976.1496550000002
 20
-4401.0018416096673
 30
0.0
  0
POINT
  5
80B7
  8
DEFPOINTS
 62
     0
 10
3436.1496549999988
 20
-3826.6336397810001
 30
0.0
  0
POINT
  5
80B8
  8
DEFPOINTS
 62
     0
 10
3436.1496549999988
 20
-3756.1973050831248
 30
0.0
  0
ENDBLK
  5
7F5A
  8
0
  0
BLOCK
  8
0
  2
*D18
 70
     1
 10
0.0
 20
0.0
 30
0.0
  3
*D18
  1

  0
LINE
  5
7EF1
  8
0
  6
BYBLOCK
 62
     0
 10
3436.1496549999988
 20
-3811.633639781001
 30
0.0
 11
3436.1496549999988
 21
-3726.041962024552
 31
0.0
  0
LINE
  5
7EF2
  8
0
  6
BYBLOCK
 62
     0
 10
3712.1496549999988
 20
-4240.3018416096666
 30
0.0
 11
3712.1496549999988
 21
-3726.041962024552
 31
0.0
  0
LINE
  5
7EF3
  8
0
  6
BYBLOCK
 62
     0
 10
3496.1496549999988
 20
-3756.041962024552
 30
0.0
 11
3652.1496549999988
 21
-3756.041962024552
 31
0.0
  0
TEXT
  5
7EF4
  8
3
 62
     0
 10
3453.4712005990568
 20
-3731.0186238412789
 30
0.0
 40
90.0
  1
276
  0
INSERT
  5
7EF5
  8
0
  6
BYBLOCK
 62
     0
  2
_OPEN
 10
3436.1496549999988
 20
-3756.041962024552
 30
0.0
 41
60.0
 42
60.0
 43
60.0
 50
180.0
  0
INSERT
  5
7EF6
  8
0
  6
BYBLOCK
 62
     0
  2
_OPEN
 10
3712.1496549999988
 20
-3756.041962024552
 30
0.0
 41
60.0
 42
60.0
 43
60.0
  0
POINT
  5
7EF7
  8
DEFPOINTS
  6
BYBLOCK
 62
     0
 10
3436.1496549999988
 20
-3826.6336397810001
 30
0.0
  0
POINT
  5
7EF8
  8
DEFPOINTS
  6
BYBLOCK
 62
     0
 10
3712.1496549999988
 20
-4255.3018416096666
 30
0.0
  0
POINT
  5
7EF9
  8
DEFPOINTS
  6
BYBLOCK
 62
     0
 10
3712.1496549999988
 20
-3756.041962024552
 30
0.0
  0
ENDBLK
  5
7EFA
  8
0
  0
BLOCK
  8
0
  2
*D19
 70
     1
 10
0.0
 20
0.0
 30
0.0
  3
*D19
  1

  0
LINE
  5
80B9
  8
3
 62
     0
 10
1379.2131209999991
 20
-4540.3018416096666
 30
0.0
 11
1379.2131209999991
 21
-3809.4145892871129
 31
0.0
  0
LINE
  5
80BA
  8
3
 62
     0
 10
64.213120999999774
 20
-5195.3018416096684
 30
0.0
 11
64.213120999999859
 21
-3809.4145892871129
 31
0.0
  0
LINE
  5
80BB
  8
3
 62
     0
 10
1319.2131209999991
 20
-3839.414589287112
 30
0.0
 11
124.2131209999998
 21
-3839.414589287112
 31
0.0
  0
INSERT
  5
80BC
  8
3
 62
     0
  2
_OPEN
 10
1379.2131209999991
 20
-3839.414589287112
 30
0.0
 41
60.0
 42
60.0
 43
60.0
  0
INSERT
  5
80BD
  8
3
 62
     0
  2
_OPEN
 10
64.213120999999859
 20
-3839.414589287112
 30
0.0
 41
60.0
 42
60.0
 43
60.0
 50
180.0
  0
TEXT
  8
3
  40
90
  5
80CF
  62
0
  72
0
  71
0
 10
556.255
 20
-3923.71
 30
0.000000
  1
1315
  0
POINT
  5
80BF
  8
DEFPOINTS
 62
     0
 10
1379.2131209999991
 20
-4555.3018416096684
 30
0.0
  0
POINT
  5
80C0
  8
DEFPOINTS
 62
     0
 10
64.213120999999774
 20
-5210.3018416096693
 30
0.0
  0
POINT
  5
80C1
  8
DEFPOINTS
 62
     0
 10
64.213120999999859
 20
-3839.414589287112
 30
0.0
  0
ENDBLK
  5
7F66
  8
0
  0
ENDSEC
  0
SECTION
  2
ENTITIES
  0
LINE
  5
7A92
  8
2
 10
289.21312099999972
 20
-5152.6018416096686
 30
0.0
 11
289.21312099999972
 21
-4914.0018416096682
 31
0.0
  0
CIRCLE
  5
7A93
  8
1
 10
289.21312099999972
 20
-5033.3018416096684
 30
0.0
 40
114.3
  0
ARC
  5
7A94
  8
1
 10
289.21312099999972
 20
-5033.3018416096684
 30
0.0
 40
143.0
 50
324.34590999999989
 51
215.65408999999991
  0
LINE
  5
7A95
  8
1
 10
1349.213121
 20
-5162.7111116096676
 30
0.0
 11
1349.213121
 21
-4585.3018416096666
 31
0.0
  0
LINE
  5
7A96
  8
1
 10
1379.2131209999991
 20
-5195.3018416096684
 30
0.0
 11
1379.2131209999991
 21
-4555.3018416096684
 31
0.0
  0
ARC
  5
7A97
  8
1
 10
1031.2131209999991
 20
-4607.3018416096666
 30
0.0
 40
526.0
 50
175.420176
 51
265.42017599999991
  0
ARC
  5
7A98
  8
1
 10
289.21312099999972
 20
-5033.3018416096684
 30
0.0
 40
164.30000000000001
 50
123.7655559999999
 51
303.765556
  0
LINE
  5
7A99
  8
1
 10
380.53039700000039
 20
-5169.8875106096693
 30
0.0
 11
1080.530397
 21
-4701.8875106096684
 31
0.0
  0
LINE
  5
7A9A
  8
1
 10
352.74059899999969
 20
-5128.3215736096672
 30
0.0
 11
1052.7405989999991
 21
-4660.3215736096672
 31
0.0
  0
LINE
  5
7A9B
  8
1
 10
64.213120999999774
 20
-5210.3018416096693
 30
0.0
 11
1344.2131209999991
 21
-5210.3018416096693
 31
0.0
  0
LINE
  5
7A9C
  8
1
 10
64.213120999999774
 20
-5285.3018416096693
 30
0.0
 11
1344.2131209999991
 21
-5285.3018416096693
 31
0.0
  0
LINE
  5
7A9D
  8
1
 10
64.213120999999774
 20
-5388.3018416096684
 30
0.0
 11
1344.2131209999991
 21
-5388.3018416096684
 31
0.0
  0
LINE
  5
7A9E
  8
1
 10
64.213120999999774
 20
-5323.3018416096684
 30
0.0
 11
1344.2131209999991
 21
-5323.3018416096684
 31
0.0
  0
LINE
  5
7A9F
  8
2
 10
169.91312099999959
 20
-5033.3018416096684
 30
0.0
 11
408.5131209999999
 21
-5033.3018416096684
 31
0.0
  0
LINE
  5
7AA0
  8
1
 10
114.2131209999997
 20
-5210.3018416096693
 30
0.0
 11
464.21312099999972
 21
-5210.3018416096693
 31
0.0
  0
LINE
  5
7AA1
  8
1
 10
124.2131209999997
 20
-5165.3018416096684
 30
0.0
 11
114.2131209999997
 21
-5210.3018416096693
 31
0.0
  0
LINE
  5
7AA2
  8
1
 10
159.21312099999969
 20
-5150.3018416096684
 30
0.0
 11
173.24239899999969
 21
-5116.1090966096681
 31
0.0
  0
LINE
  5
7AA3
  8
1
 10
159.21312099999969
 20
-5165.3018416096684
 30
0.0
 11
159.21312099999969
 21
-5150.3018416096684
 31
0.0
  0
LINE
  5
7AA4
  8
1
 10
124.2131209999997
 20
-5165.3018416096684
 30
0.0
 11
159.21312099999969
 21
-5165.3018416096684
 31
0.0
  0
LINE
  5
7AA5
  8
1
 10
64.213120999999774
 20
-5210.3018416096693
 30
0.0
 11
64.213120999999774
 21
-5285.3018416096693
 31
0.0
  0
LINE
  5
7AA6
  8
1
 10
64.213120999999774
 20
-5323.3018416096684
 30
0.0
 11
64.213120999999774
 21
-5388.3018416096684
 31
0.0
  0
LINE
  5
7AA7
  8
1
 10
419.21312099999972
 20
-5165.3018416096684
 30
0.0
 11
454.21312099999977
 21
-5165.3018416096684
 31
0.0
  0
LINE
  5
7AA8
  8
1
 10
464.21312099999972
 20
-5210.3018416096693
 30
0.0
 11
454.21312099999977
 21
-5165.3018416096684
 31
0.0
  0
LINE
  5
7AA9
  8
1
 10
419.21312099999972
 20
-5165.3018416096684
 30
0.0
 11
419.21312099999972
 21
-5150.3018416096684
 31
0.0
  0
LINE
  5
7AAA
  8
1
 10
419.21312099999972
 20
-5150.3018416096684
 30
0.0
 11
405.18384400000008
 21
-5116.1090966096681
 31
0.0
  0
LINE
  5
7AAB
  8
1
 10
989.21312100000023
 20
-5131.6223546096671
 30
0.0
 11
1379.2131209999991
 21
-5165.3018416096684
 31
0.0
  0
LINE
  5
7AAC
  8
1
 10
1344.2131209999991
 20
-5210.3018416096693
 30
0.0
 11
1344.2131209999991
 21
-5285.3018416096693
 31
0.0
  0
LINE
  5
7AAD
  8
1
 10
1344.2131209999991
 20
-5323.3018416096684
 30
0.0
 11
1344.2131209999991
 21
-5388.3018416096684
 31
0.0
  0
CIRCLE
  5
7AAE
  8
1
 10
989.21312100000023
 20
-4565.3018416096684
 30
0.0
 40
310.0
  0
CIRCLE
  5
7AAF
  8
1
 10
989.21312100000023
 20
-4565.3018416096684
 30
0.0
 40
280.0
  0
ARC
  5
7AB0
  8
1
 10
947.21312100000023
 20
-4607.3018416096666
 30
0.0
 40
442.0
 50
84.547378000000009
 51
174.54737800000001
  0
LINE
  5
7AB1
  8
1
 10
197.89584500000001
 20
-4896.7161726096683
 30
0.0
 11
897.89584500000001
 21
-4428.7161726096674
 31
0.0
  0
LINE
  5
7AB2
  8
1
 10
225.6856429999998
 20
-4938.2821096096677
 30
0.0
 11
925.68564299999969
 21
-4470.2821096096677
 31
0.0
  0
ARC
  5
7AB3
  8
1
 10
956.21312100000023
 20
-4532.3018416096666
 30
0.0
 40
367.0
 50
354.84109599999999
 51
84.841095999999993
  0
ARC
  5
7AB4
  8
1
 10
989.21312100000023
 20
-4565.3018416096684
 30
0.0
 40
164.30000000000001
 50
303.765556
 51
123.7655559999999
  0
LINE
  5
7AB5
  8
1
 10
989.21312100000023
 20
-5507.0406826096678
 30
0.0
 11
989.21312100000023
 21
-5507.0406826096678
 31
0.0
  0
LINE
  5
7AB6
  8
2
 10
375.31280400000009
 20
-4565.3018416096684
 30
0.0
 11
1438.1384749999991
 21
-4565.3018416096684
 31
0.0
  0
LINE
  5
7AB7
  8
2
 10
989.21312100000023
 20
-2082.7080856096668
 30
0.0
 11
989.21312100000023
 21
-2927.104573609668
 31
0.0
  0
CIRCLE
  5
7AB8
  8
1
 10
989.21312100000023
 20
-4565.3018416096684
 30
0.0
 40
114.3
  0
LINE
  5
7AB9
  8
1
 10
1318.510268999999
 20
-4585.3018416096666
 30
0.0
 11
1379.2131209999991
 21
-4585.3018416096666
 31
0.0
  0
ARC
  5
7ABA
  8
1
 10
1022.213121
 20
-4532.3018416096666
 30
0.0
 40
301.0
 50
349.85850199999999
 51
353.70575000000002
  0
LINE
  5
7ABB
  8
1
 10
3091.1496550000002
 20
-4890.3018416096693
 30
0.0
 11
3091.1496550000002
 21
-5210.3018416096693
 31
0.0
  0
LINE
  5
7ABC
  8
1
 10
3071.1496550000002
 20
-4401.0018416096673
 30
0.0
 11
3071.1496550000002
 21
-5197.6018416096676
 31
0.0
  0
LINE
  5
7ABD
  8
1
 10
2976.1496550000002
 20
-4401.0018416096673
 30
0.0
 11
2976.1496550000002
 21
-5197.6018416096676
 31
0.0
  0
LINE
  5
7ABE
  8
1
 10
3223.6496550000002
 20
-4165.3018416096666
 30
0.0
 11
3223.6496550000002
 21
-5210.3018416096693
 31
0.0
  0
LINE
  5
7ABF
  8
1
 10
3648.6496549999988
 20
-4165.3018416096666
 30
0.0
 11
3648.6496549999988
 21
-5210.3018416096693
 31
0.0
  0
LINE
  5
7AC0
  8
1
 10
3648.6496549999988
 20
-4585.3018416096666
 30
0.0
 11
3223.6496550000002
 21
-5165.3018416096684
 31
0.0
  0
LINE
  5
7AC1
  8
1
 10
3223.6496550000002
 20
-4585.3018416096666
 30
0.0
 11
3648.6496549999988
 21
-5165.3018416096684
 31
0.0
  0
LINE
  5
7AC2
  8
1
 10
2991.1496550000002
 20
-4919.0018416096682
 30
0.0
 11
2991.1496550000002
 21
-5147.6018416096676
 31
0.0
  0
LINE
  5
7AC3
  8
1
 10
3054.1496550000002
 20
-4919.0018416096682
 30
0.0
 11
3054.1496550000002
 21
-5147.6018416096676
 31
0.0
  0
LINE
  5
7AC4
  8
1
 10
3081.1496550000002
 20
-5388.3018416096684
 30
0.0
 11
3691.1496549999988
 21
-5388.3018416096684
 31
0.0
  0
LINE
  5
7AC5
  8
1
 10
3081.1496550000002
 20
-5323.3018416096684
 30
0.0
 11
3691.1496549999988
 21
-5323.3018416096684
 31
0.0
  0
LINE
  5
7AC6
  8
1
 10
3081.1496550000002
 20
-5210.3018416096693
 30
0.0
 11
3691.1496549999988
 21
-5210.3018416096693
 31
0.0
  0
LINE
  5
7AC7
  8
1
 10
3081.1496550000002
 20
-5285.3018416096693
 30
0.0
 11
3691.1496549999988
 21
-5285.3018416096693
 31
0.0
  0
LINE
  5
7AC8
  8
1
 10
3223.6496550000002
 20
-5165.3018416096684
 30
0.0
 11
3648.6496549999988
 21
-5165.3018416096684
 31
0.0
  0
LINE
  5
7ACA
  8
1
 10
3081.1496550000002
 20
-5323.3018416096684
 30
0.0
 11
3081.1496550000002
 21
-5388.3018416096684
 31
0.0
  0
LINE
  5
7ACB
  8
1
 10
3054.1496550000002
 20
-5052.3018416096684
 30
0.0
 11
3091.1496550000002
 21
-5052.3018416096684
 31
0.0
  0
LINE
  5
7ACC
  8
1
 10
3054.1496550000002
 20
-5014.3018416096684
 30
0.0
 11
3091.1496550000002
 21
-5014.3018416096684
 31
0.0
  0
LINE
  5
7ACD
  8
1
 10
2991.1496550000002
 20
-5147.6018416096676
 30
0.0
 11
3054.1496550000002
 21
-5147.6018416096676
 31
0.0
  0
LINE
  5
7ACE
  8
1
 10
3091.1496550000002
 20
-5165.3018416096684
 30
0.0
 11
3223.6496550000002
 21
-5165.3018416096684
 31
0.0
  0
LINE
  5
7ACF
  8
1
 10
2976.1496550000002
 20
-5197.6018416096676
 30
0.0
 11
3071.1496550000002
 21
-5197.6018416096676
 31
0.0
  0
LINE
  5
7AD0
  8
1
 10
3081.1496550000002
 20
-5210.3018416096693
 30
0.0
 11
3081.1496550000002
 21
-5285.3018416096693
 31
0.0
  0
LINE
  5
7AD1
  8
1
 10
3691.1496549999988
 20
-5323.3018416096684
 30
0.0
 11
3691.1496549999988
 21
-5388.3018416096684
 31
0.0
  0
LINE
  5
7AD2
  8
1
 10
3691.1496549999988
 20
-5210.3018416096693
 30
0.0
 11
3691.1496549999988
 21
-5285.3018416096693
 31
0.0
  0
LINE
  5
7AD3
  8
1
 10
3223.6496550000002
 20
-4165.3018416096666
 30
0.0
 11
3648.6496549999988
 21
-4165.3018416096666
 31
0.0
  0
LINE
  5
7AD4
  8
1
 10
3223.6496550000002
 20
-4585.3018416096666
 30
0.0
 11
3648.6496549999988
 21
-4585.3018416096666
 31
0.0
  0
LINE
  5
7AD5
  8
1
 10
3091.1496550000002
 20
-4890.3018416096693
 30
0.0
 11
3223.6496550000002
 21
-4890.3018416096693
 31
0.0
  0
LINE
  5
7AD6
  8
1
 10
3054.1496550000002
 20
-4451.0018416096673
 30
0.0
 11
3054.1496550000002
 21
-4679.6018416096676
 31
0.0
  0
LINE
  5
7AD7
  8
1
 10
2991.1496550000002
 20
-4679.6018416096676
 30
0.0
 11
3054.1496550000002
 21
-4679.6018416096676
 31
0.0
  0
LINE
  5
7AD8
  8
1
 10
2991.1496550000002
 20
-4451.0018416096673
 30
0.0
 11
3054.1496550000002
 21
-4451.0018416096673
 31
0.0
  0
LINE
  5
7AD9
  8
1
 10
2991.1496550000002
 20
-4451.0018416096673
 30
0.0
 11
2991.1496550000002
 21
-4679.6018416096676
 31
0.0
  0
LINE
  5
7ADA
  8
1
 10
3054.1496550000002
 20
-4585.3018416096666
 30
0.0
 11
3223.6496550000002
 21
-4585.3018416096666
 31
0.0
  0
LINE
  5
7ADB
  8
1
 10
3054.1496550000002
 20
-4545.3018416096666
 30
0.0
 11
3223.6496550000002
 21
-4545.3018416096666
 31
0.0
  0
LINE
  5
7ADC
  8
1
 10
2991.1496550000002
 20
-4919.0018416096682
 30
0.0
 11
3054.1496550000002
 21
-4919.0018416096682
 31
0.0
  0
LINE
  5
7ADD
  8
1
 10
2976.1496550000002
 20
-4401.0018416096673
 30
0.0
 11
3071.1496550000002
 21
-4401.0018416096673
 31
0.0
  0
LINE
  5
7ADE
  8
1
 10
3712.1496549999988
 20
-4255.3018416096666
 30
0.0
 11
3712.1496549999988
 21
-4875.3018416096666
 31
0.0
  0
LINE
  5
7ADF
  8
1
 10
3648.6496549999988
 20
-4845.3018416096684
 30
0.0
 11
3712.1496549999988
 21
-4845.3018416096684
 31
0.0
  0
LINE
  5
7AE0
  8
1
 10
3648.6496549999988
 20
-4285.3018416096666
 30
0.0
 11
3712.1496549999988
 21
-4285.3018416096666
 31
0.0
  0
LINE
  5
7AE1
  8
1
 10
124.91312099999961
 20
-2766.715404609668
 30
0.0
 11
1153.513121
 21
-2766.715404609668
 31
0.0
  0
LINE
  5
7AE2
  8
1
 10
124.91312099999961
 20
-2861.7154046096671
 30
0.0
 11
1153.513121
 21
-2861.7154046096671
 31
0.0
  0
LINE
  5
7AE3
  8
1
 10
308.21312099999972
 20
-2756.7154046096671
 30
0.0
 11
969.21312100000023
 21
-2756.7154046096671
 31
0.0
  0
LINE
  5
7AE4
  8
1
 10
679.21312099999977
 20
-2125.715404609668
 30
0.0
 11
1299.2131209999991
 21
-2125.715404609668
 31
0.0
  0
LINE
  5
7AE5
  8
1
 10
505.21312099999972
 20
-2614.2154046096671
 30
0.0
 11
1379.2131209999991
 21
-2614.2154046096671
 31
0.0
  0
LINE
  5
7AE6
  8
1
 10
505.21312099999972
 20
-2189.215404609668
 30
0.0
 11
1379.2131209999991
 21
-2189.215404609668
 31
0.0
  0
LINE
  5
7AE7
  8
1
 10
432.21312099999972
 20
-2746.715404609668
 30
0.0
 11
432.21312099999972
 21
-2377.7154046096671
 31
0.0
  0
LINE
  5
7AE8
  8
1
 10
146.21312099999969
 20
-2746.715404609668
 30
0.0
 11
146.21312099999969
 21
-2377.7154046096671
 31
0.0
  0
LINE
  5
7AE9
  8
1
 10
505.21312099999972
 20
-2614.2154046096671
 30
0.0
 11
505.21312099999972
 21
-2189.215404609668
 31
0.0
  0
LINE
  5
7AEA
  8
1
 10
64.213120999999774
 20
-2756.7154046096671
 30
0.0
 11
64.213120999999774
 21
-2146.715404609668
 31
0.0
  0
LINE
  5
7AEB
  8
1
 10
174.91312099999959
 20
-2846.715404609668
 30
0.0
 11
403.5131209999999
 21
-2846.715404609668
 31
0.0
  0
LINE
  5
7AEC
  8
1
 10
174.91312099999959
 20
-2783.7154046096671
 30
0.0
 11
403.5131209999999
 21
-2783.7154046096671
 31
0.0
  0
LINE
  5
7AED
  8
1
 10
432.21312099999972
 20
-2746.715404609668
 30
0.0
 11
146.21312099999969
 21
-2746.715404609668
 31
0.0
  0
LINE
  5
7AEE
  8
1
 10
124.91312099999961
 20
-2861.7154046096671
 30
0.0
 11
124.91312099999961
 21
-2766.715404609668
 31
0.0
  0
LINE
  5
7AEF
  8
1
 10
174.91312099999959
 20
-2846.715404609668
 30
0.0
 11
174.91312099999959
 21
-2783.7154046096671
 31
0.0
  0
LINE
  5
7AF0
  8
1
 10
270.21312099999972
 20
-2783.7154046096671
 30
0.0
 11
270.21312099999972
 21
-2746.715404609668
 31
0.0
  0
LINE
  5
7AF1
  8
1
 10
308.21312099999972
 20
-2783.7154046096671
 30
0.0
 11
308.21312099999972
 21
-2746.715404609668
 31
0.0
  0
LINE
  5
7AF2
  8
1
 10
64.213120999999774
 20
-2756.7154046096671
 30
0.0
 11
270.21312099999972
 21
-2756.7154046096671
 31
0.0
  0
LINE
  5
7AF3
  8
1
 10
403.5131209999999
 20
-2846.715404609668
 30
0.0
 11
403.5131209999999
 21
-2783.7154046096671
 31
0.0
  0
LINE
  5
7AF4
  8
1
 10
146.21312099999969
 20
-2377.7154046096671
 30
0.0
 11
432.21312099999972
 21
-2377.7154046096671
 31
0.0
  0
LINE
  5
7AF5
  8
1
 10
64.213120999999774
 20
-2146.715404609668
 30
0.0
 11
709.21312099999977
 21
-2146.715404609668
 31
0.0
  0
LINE
  5
7AF6
  8
1
 10
709.21312099999977
 20
-2189.215404609668
 30
0.0
 11
709.21312099999977
 21
-2125.715404609668
 31
0.0
  0
LINE
  5
7AF7
  8
1
 10
1349.213121
 20
-2614.2154046096671
 30
0.0
 11
1349.213121
 21
-2189.215404609668
 31
0.0
  0
LINE
  5
7AF8
  8
1
 10
1379.2131209999991
 20
-2644.2154046096671
 30
0.0
 11
1379.2131209999991
 21
-2159.215404609668
 31
0.0
  0
LINE
  5
7AF9
  8
1
 10
1009.213121
 20
-2756.7154046096671
 30
0.0
 11
1344.2131209999991
 21
-2756.7154046096671
 31
0.0
  0
LINE
  5
7AFA
  8
1
 10
1153.513121
 20
-2861.7154046096671
 30
0.0
 11
1153.513121
 21
-2766.715404609668
 31
0.0
  0
LINE
  5
7AFB
  8
1
 10
874.91312099999993
 20
-2846.715404609668
 30
0.0
 11
874.91312099999993
 21
-2783.7154046096671
 31
0.0
  0
LINE
  5
7AFC
  8
1
 10
1103.513120999999
 20
-2846.715404609668
 30
0.0
 11
1103.513120999999
 21
-2783.7154046096671
 31
0.0
  0
LINE
  5
7AFD
  8
1
 10
874.91312099999993
 20
-2846.715404609668
 30
0.0
 11
1103.513120999999
 21
-2846.715404609668
 31
0.0
  0
LINE
  5
7AFE
  8
1
 10
874.91312099999993
 20
-2783.7154046096671
 30
0.0
 11
1103.513120999999
 21
-2783.7154046096671
 31
0.0
  0
LINE
  5
7AFF
  8
1
 10
969.21312100000023
 20
-2783.7154046096671
 30
0.0
 11
969.21312100000023
 21
-2614.2154046096671
 31
0.0
  0
LINE
  5
7B00
  8
1
 10
1009.213121
 20
-2783.7154046096671
 30
0.0
 11
1009.213121
 21
-2614.2154046096671
 31
0.0
  0
LINE
  5
7B01
  8
1
 10
1344.2131209999991
 20
-2756.7154046096671
 30
0.0
 11
1344.2131209999991
 21
-2614.2154046096671
 31
0.0
  0
LINE
  5
7B02
  8
1
 10
1269.2131209999991
 20
-2146.715404609668
 30
0.0
 11
1344.2131209999991
 21
-2146.715404609668
 31
0.0
  0
LINE
  5
7B03
  8
1
 10
1269.2131209999991
 20
-2189.215404609668
 30
0.0
 11
1269.2131209999991
 21
-2125.715404609668
 31
0.0
  0
LINE
  5
7B04
  8
1
 10
1344.2131209999991
 20
-2189.215404609668
 30
0.0
 11
1344.2131209999991
 21
-2146.715404609668
 31
0.0
  0
LINE
  5
7B1C
  8
4
 10
3930.1926547499988
 20
-7038.9699847499996
 30
0.0
 11
3930.1926547499988
 21
-7638.9699847499996
 31
0.0
  0
LINE
  5
7B1D
  8
4
 10
1830.19265475
 20
-7038.9699847499996
 30
0.0
 11
1830.19265475
 21
-7638.9699847499996
 31
0.0
  0
LINE
  5
7B1E
  8
4
 10
330.19265474999997
 20
-7038.9699847499996
 30
0.0
 11
330.19265474999997
 21
-7638.9699847499996
 31
0.0
  0
LINE
  5
7B21
  8
4
 10
330.19265474999997
 20
-7638.9699847499996
 30
0.0
 11
3930.1926547499988
 21
-7638.9699847499996
 31
0.0
  0
LINE
  5
7B22
  8
4
 10
330.19265474999997
 20
-7338.9699847499996
 30
0.0
 11
3930.1926547499988
 21
-7338.9699847499996
 31
0.0
  0
TEXT
  5
7B23
  8
4
 10
445.69889775000001
 20
-7244.3409067500006
 30
0.0
 40
150.0
  1
機器名称
  0
TEXT
  5
7B24
  8
4
 10
438.96697349999999
 20
-7574.0345145000001
 30
0.0
 40
150.0
  1
機器型番
  0
TEXT
  5
7B25
  8
4
 10
1913.228891999999
 20
-7271.2546785000004
 30
0.0
 40
120.0
  1
ミツヤリミットロードファン
  0
TEXT
  5
7B26
  8
4
 10
1940.156142
 20
-7587.4912320000012
 30
0.0
 40
150.0
  1
LLE#3 1/2-4
  0
TEXT
  5
7B28
  8
4
 10
752.66420774999995
 20
-1388.6834602500001
 30
0.0
 40
162.0
  1
床置防振ベット
  0
TEXT
  5
7B29
  8
4
 10
-671.30456474999994
 20
-937.32705600000008
 30
0.0
 40
180.0
  1
ベルト駆動式片吸込両持排煙ファン
  0
LINE
  5
7B2A
  8
4
 10
-869.80734525000003
 20
-1130.7437219999999
 30
0.0
 11
3930.1926547499988
 21
-1130.7437219999999
 31
0.0
  0
LINE
  5
7B2B
  8
4
 10
-869.80734525000003
 20
-530.74372199999993
 30
0.0
 11
3930.1926547499988
 21
-530.74372199999993
 31
0.0
  0
LINE
  5
7B2C
  8
4
 10
330.19265474999997
 20
-7038.9699847499996
 30
0.0
 11
3930.1926547499988
 21
-7038.9699847499996
 31
0.0
  0
LINE
  5
7B2D
  8
4
 10
-869.80734525000003
 20
-530.74372199999993
 30
0.0
 11
-869.80734525000003
 21
-1130.7437219999999
 31
0.0
  0
TEXT
  5
7B2E
  8
4
 10
-554.91228975000001
 20
-1392.0115515
 30
0.0
 40
162.0
  1
左回転右横向
  0
TEXT
  5
7B2F
  8
4
 10
2787.1013332500002
 20
-420.78674024999992
 30
0.0
 40
168.0
  1
No.
  0
TEXT
  5
7B30
  8
4
 10
2314.0808437499991
 20
-1388.6834602500001
 30
0.0
 40
162.0
  1
縮尺：1/30
  0
LINE
  5
7B31
  8
4
 10
3930.1926547499988
 20
-530.74372199999993
 30
0.0
 11
3930.1926547499988
 21
-1130.7437219999999
 31
0.0
  0
LINE
  5
7B33
  8
4
 10
2702.0449222500001
 20
-495.17923574999992
 30
0.0
 11
2702.0449222500001
 21
-179.01319950000001
 31
0.0
  0
LINE
  5
7B34
  8
4
 10
2702.0449222500001
 20
-179.01319950000001
 30
0.0
 11
3930.1926547499988
 21
-179.01319950000001
 31
0.0
  0
LINE
  5
7B35
  8
4
 10
3930.1926547499988
 20
-179.01319950000001
 30
0.0
 11
3930.1926547499988
 21
-495.17923574999992
 31
0.0
  0
LINE
  5
7B36
  8
4
 10
3930.1926547499988
 20
-495.17923574999992
 30
0.0
 11
2702.0449222500001
 21
-495.17923574999992
 31
0.0
  0
DIMENSION
  5
7B4D
  8
3
  2
*D1
 10
989.21312100000023
 20
-5701.0888436096666
 30
0.0
 11
515.22962600000017
 21
-5701.0888436096666
 31
0.0
 70
   128
 13
64.213120999999774
 23
-5388.3018416096684
 33
0.0
 14
989.21312100000023
 24
-5462.0406826096678
 34
0.0
1001
ACAD
1000
DSTYLE
1002
{
1070
   287
1070
     3
1070
   287
1070
     3
1070
    40
1040
30.0
1070
   143
1040
0.039
1070
   172
1070
     1
1070
   271
1070
     0
1070
   279
1070
     0
1070
   288
1070
     1
1002
}
  0
DIMENSION
  5
7B5B
  8
3
  2
*D2
 10
1344.2131209999991
 20
-5701.5293476096667
 30
0.0
 11
1166.713121
 21
-5621.8568873381992
 31
0.0
 70
   128
 13
989.21312100000023
 23
-5462.0406826096678
 33
0.0
 14
1344.2131209999991
 24
-5388.3018416096684
 34
0.0
1001
ACAD
1000
DSTYLE
1002
{
1070
   288
1070
     1
1070
   172
1070
     1
1070
    40
1040
30.0
1070
   271
1070
     0
1070
   143
1040
0.039
1002
}
  0
DIMENSION
  5
7B7E
  8
3
  2
*D3
 10
1661.1110399999991
 20
-5165.3018416096684
 30
0.0
 11
1661.1110399999991
 21
-4825.3018416096666
 31
0.0
 70
   128
 13
1379.2131209999991
 23
-4585.3018416096666
 33
0.0
 14
1379.2131209999991
 24
-5165.3018416096684
 34
0.0
 50
90.0
1001
ACAD
1000
DSTYLE
1002
{
1070
   287
1070
     3
1070
   287
1070
     3
1070
    40
1040
30.0
1070
   143
1040
0.039
1070
   172
1070
     1
1070
   271
1070
     0
1070
   279
1070
     0
1070
   288
1070
     1
1002
}
  0
DIMENSION
  5
7B8B
  8
3
  2
*D4
 10
1902.699169999999
 20
-5165.3018416096684
 30
0.0
 11
1902.699169999999
 21
-4862.605493609668
 31
0.0
 70
   128
 13
1321.398682
 23
-4565.3018416096684
 33
0.0
 14
1379.2131209999991
 24
-5165.3018416096684
 34
0.0
 50
90.0
1001
ACAD
1000
DSTYLE
1002
{
1070
   287
1070
     3
1070
   287
1070
     3
1070
    40
1040
30.0
1070
   143
1040
0.039
1070
   172
1070
     1
1070
   271
1070
     0
1070
   279
1070
     0
1070
   288
1070
     1
1002
}
  0
DIMENSION
  5
7B9A
  8
3
  2
*D5
 10
2131.8405180138361
 20
-4565.3018416096684
 30
0.0
 11
2038.5436199384999
 21
-4366.0451731096673
 31
0.0
 70
   128
  1
400
 13
989.21312100000023
 23
-4166.7885046096681
 33
0.0
 14
1321.398682
 24
-4565.3018416096684
 34
0.0
 50
90.0
1001
ACAD
1000
DSTYLE
1002
{
1070
   288
1070
     1
1070
   172
1070
     1
1070
    40
1040
30.0
1070
   271
1070
     0
1070
   143
1040
0.039
1002
}
  0
DIMENSION
  5
7BA6
  8
3
  2
*D6
 10
2131.6531180000002
 20
-5285.3018416096693
 30
0.0
 11
2056.6531180000011
 21
-4925.3018416096666
 31
0.0
 70
     0
 13
1321.398682
 23
-4565.3018416096684
 33
0.0
 14
1344.2131209999991
 24
-5285.3018416096693
 34
0.0
 50
90.0
1001
ACAD
1000
DSTYLE
1002
{
1070
   287
1070
     3
1070
   287
1070
     3
1070
    40
1040
30.0
1070
   143
1040
0.039
1070
   172
1070
     1
1070
   271
1070
     0
1070
   279
1070
     0
1070
   288
1070
     1
1002
}
  0
DIMENSION
  5
7BB6
  8
3
  2
*D7
 10
2132.981507999998
 20
-5388.3018416096702
 30
0.0
 11
2132.9815079999989
 21
-5653.3018416096684
 31
0.0
 70
   128
 13
1344.2131209999991
 23
-5285.3018416096693
 33
0.0
 14
1344.2131209999991
 24
-5388.3018416096684
 34
0.0
 50
90.0
1001
ACAD
1000
DSTYLE
1002
{
1070
   287
1070
     3
1070
   287
1070
     3
1070
    40
1040
30.0
1070
   143
1040
0.039
1070
   172
1070
     1
1070
   271
1070
     0
1070
   279
1070
     0
1070
   288
1070
     1
1002
}
  0
DIMENSION
  5
7BDD
  8
3
  2
*D8
 10
2317.1795482313701
 20
-5388.3018416096702
 30
0.0
 11
2317.1795482313719
 21
-4818.7638974279844
 31
0.0
 70
   128
  1
1223
 13
989.21312100000023
 23
-4166.7885046096681
 33
0.0
 14
1344.2131209999991
 24
-5388.3018416096684
 34
0.0
 50
90.0
1001
ACAD
1000
DSTYLE
1002
{
1070
   287
1070
     3
1070
   287
1070
     3
1070
    40
1040
30.0
1070
   143
1040
0.039
1070
   172
1070
     1
1070
   271
1070
     0
1070
   279
1070
     0
1070
   288
1070
     1
1002
}
  0
DIMENSION
  5
7BEA
  8
3
  2
*D9
 10
989.21312100000023
 20
-4010.579620609667
 30
0.0
 11
747.21312099999966
 21
-4010.579620609667
 31
0.0
 70
   128
  1
484
 13
507.21312099999972
 23
-4565.3018416096684
 33
0.0
 14
989.21312100000023
 24
-4166.7885046096681
 34
0.0
1001
ACAD
1000
DSTYLE
1002
{
1070
   287
1070
     3
1070
   287
1070
     3
1070
    40
1040
30.0
1070
   143
1040
0.039
1070
   172
1070
     1
1070
   271
1070
     0
1070
   279
1070
     0
1070
   288
1070
     1
1002
}
  0
DIMENSION
  5
7BF8
  8
3
  2
*D10
 10
1379.2131209999991
 20
-4010.579620609667
 30
0.0
 11
1184.2131209999991
 21
-3938.1491076945131
 31
0.0
 70
   128
 13
989.21312100000023
 23
-4166.7885046096681
 33
0.0
 14
1379.2131209999991
 24
-4555.3018416096684
 34
0.0
1001
ACAD
1000
DSTYLE
1002
{
1070
   288
1070
     1
1070
   172
1070
     1
1070
    40
1040
30.0
1070
   271
1070
     0
1070
   143
1040
0.039
1002
}
  0
DIMENSION
  5
7C1B
  8
3
  2
*D11
 10
1344.2131209999991
 20
-3174.2796476096678
 30
0.0
 11
670.37677499999972
 21
-3174.2796476096678
 31
0.0
 70
   128
 13
64.213120999999774
 23
-2756.7154046096671
 33
0.0
 14
1344.2131209999991
 24
-2756.7154046096671
 34
0.0
1001
ACAD
1000
DSTYLE
1002
{
1070
   287
1070
     3
1070
   287
1070
     3
1070
    40
1040
30.0
1070
   143
1040
0.039
1070
   172
1070
     1
1070
   271
1070
     0
1070
   279
1070
     0
1070
   288
1070
     1
1002
}
  0
DIMENSION
  5
7C28
  8
3
  2
*D12
 10
1703.2215339999991
 20
-2756.7154046096671
 30
0.0
 11
1703.221534
 21
-2474.4072106096669
 31
0.0
 70
   128
 13
1344.2131209999991
 23
-2146.715404609668
 33
0.0
 14
1344.2131209999991
 24
-2756.7154046096671
 34
0.0
 50
90.0
1001
ACAD
1000
DSTYLE
1002
{
1070
   287
1070
     3
1070
   287
1070
     3
1070
    40
1040
30.0
1070
   143
1040
0.039
1070
   172
1070
     1
1070
   271
1070
     0
1070
   279
1070
     0
1070
   288
1070
     1
1002
}
  0
LINE
  5
7C29
  8
2
 10
310.16944700000022
 20
-2401.7154046096671
 30
0.0
 11
1448.6889510000001
 21
-2401.7154046096671
 31
0.0
  0
LINE
  5
7C2B
  8
2
 10
989.21312100000023
 20
-4105.3708386096678
 30
0.0
 11
989.21312100000023
 21
-5462.0406826096678
 31
0.0
  0
DIMENSION
  5
7C3B
  8
3
  2
*D13
 10
3648.6496549999988
 20
-3971.8331791104902
 30
0.0
 11
3429.3639407142859
 21
-3971.8331791104902
 31
0.0
 70
   128
 13
3223.6496550000002
 23
-4165.3018416096666
 33
0.0
 14
3648.6496549999988
 24
-4165.3018416096666
 34
0.0
1001
ACAD
1000
DSTYLE
1002
{
1070
   287
1070
     3
1070
   287
1070
     3
1070
    40
1040
30.0
1070
   143
1040
0.039
1070
   172
1070
     1
1070
   271
1070
     0
1070
   279
1070
     0
1070
   288
1070
     1
1002
}
  0
DIMENSION
  5
7C4A
  8
3
  2
*D14
 10
3436.1496549999988
 20
-5635.1407322657606
 30
0.0
 11
3262.6516030092462
 21
-5571.2603443350999
 31
0.0
 70
   128
 13
3081.1496550000002
 23
-5388.3018416096684
 33
0.0
 14
3436.1496549999988
 24
-5480.9214106096679
 34
0.0
1001
ACAD
1000
DSTYLE
1002
{
1070
   288
1070
     1
1070
   172
1070
     1
1070
    40
1040
30.0
1070
   271
1070
     0
1070
   143
1040
0.039
1002
}
  0
DIMENSION
  5
7C58
  8
3
  2
*D15
 10
3691.1496549999988
 20
-5635.0754356096668
 30
0.0
 11
3564.8810491465119
 21
-5559.6457085239699
 31
0.0
 70
   128
 13
3436.1496549999988
 23
-5480.9214106096679
 33
0.0
 14
3691.1496549999988
 24
-5388.3018416096684
 34
0.0
1001
ACAD
1000
DSTYLE
1002
{
1070
   288
1070
     1
1070
   172
1070
     1
1070
    40
1040
30.0
1070
   271
1070
     0
1070
   143
1040
0.039
1002
}
  0
DIMENSION
  5
7C7B
  8
3
  2
*D16
 10
3913.275014216923
 20
-4845.3018416096684
 30
0.0
 11
3913.2750142169239
 21
-4545.0161273239528
 31
0.0
 70
   128
 13
3712.1496549999988
 23
-4285.3018416096666
 33
0.0
 14
3712.1496549999988
 24
-4845.3018416096684
 34
0.0
 50
90.0
1001
ACAD
1000
DSTYLE
1002
{
1070
   287
1070
     3
1070
   287
1070
     3
1070
     3
1000
φ<>
1070
    40
1040
30.0
1070
   143
1040
0.039
1070
   172
1070
     1
1070
   271
1070
     0
1070
   279
1070
     0
1070
   288
1070
     1
1002
}
  0
DIMENSION
  5
7C8A
  8
3
  2
*D17
 10
3436.1496549999988
 20
-3756.1973050831248
 30
0.0
 11
3194.7210835714282
 21
-3756.1973050831248
 31
0.0
 70
   128
  1
MAX\P510
 13
2976.1496550000002
 23
-4401.0018416096673
 33
0.0
 14
3436.1496549999988
 24
-3826.6336397810001
 34
0.0
1001
ACAD
1000
DSTYLE
1002
{
1070
   287
1070
     3
1070
   287
1070
     3
1070
    40
1040
30.0
1070
   143
1040
0.039
1070
   172
1070
     1
1070
   271
1070
     0
1070
   279
1070
     0
1070
   288
1070
     1
1002
}
  0
DIMENSION
  5
7C98
  8
3
  2
*D18
 10
3712.1496549999988
 20
-3756.041962024552
 30
0.0
 11
3567.0426291704862
 21
-3686.018623841278
 31
0.0
 70
   128
 13
3436.1496549999988
 23
-3826.6336397810001
 33
0.0
 14
3712.1496549999988
 24
-4255.3018416096666
 34
0.0
1001
ACAD
1000
DSTYLE
1002
{
1070
   288
1070
     1
1070
   172
1070
     1
1070
    40
1040
30.0
1070
   271
1070
     0
1070
   143
1040
0.039
1002
}
  0
LINE
  5
7CAF
  8
2
 10
2892.100218
 20
-4565.3018416096684
 30
0.0
 11
3747.8990250000002
 21
-4565.3018416096684
 31
0.0
  0
LINE
  5
7CB5
  8
2
 10
3436.1496549999988
 20
-3977.8071426096681
 30
0.0
 11
3436.1496549999988
 21
-5480.9214106096679
 31
0.0
  0
DIMENSION
  5
7F67
  8
3
  2
*D19
 10
64.213120999999859
 20
-3839.414589287112
 30
0.0
 11
736.25494106782196
 21
-3839.414589287112
 31
0.0
 70
   128
 13
1379.2131209999991
 23
-4555.3018416096684
 33
0.0
 14
64.213120999999774
 24
-5210.3018416096693
 34
0.0
1001
ACAD
1000
DSTYLE
1002
{
1070
   287
1070
     3
1070
   287
1070
     3
1070
    40
1040
30.0
1070
   143
1040
0.039
1070
   172
1070
     1
1070
   271
1070
     0
1070
   279
1070
     0
1070
   288
1070
     1
1002
}
  0
ENDSEC
  0
EOF
