  0
SECTION
  2
HEADER
  9
$ACADVER
  1
AC1009
  9
$INSBASE
 10
0.0
 20
0.0
 30
0.0
  9
$EXTMIN
 10
750.0
 20
900.0
 30
0.0
  9
$EXTMAX
 10
5550.0
 20
8359.9567845000001
 30
0.0
  9
$LIMMIN
 10
0.0
 20
0.0
  9
$LIMMAX
 10
297.0
 20
210.0
  9
$ORTHOMODE
 70
     0
  9
$REGENMODE
 70
     1
  9
$FILLMODE
 70
     0
  9
$QTEXTMODE
 70
     0
  9
$MIRRTEXT
 70
     1
  9
$DRAGMODE
 70
     2
  9
$LTSCALE
 40
100.0
  9
$OSMODE
 70
    37
  9
$ATTMODE
 70
     1
  9
$TEXTSIZE
 40
180.0
  9
$TRACEWID
 40
0.05
  9
$TEXTSTYLE
  7
STANDARD
  9
$CLAYER
  8
3
  9
$CELTYPE
  6
BYLAYER
  9
$CECOLOR
 62
   256
  9
$DIMSCALE
 40
30.0
  9
$DIMASZ
 40
2.0
  9
$DIMEXO
 40
0.5
  9
$DIMDLI
 40
10.0
  9
$DIMRND
 40
0.0
  9
$DIMDLE
 40
0.0
  9
$DIMEXE
 40
1.0
  9
$DIMTP
 40
1.0
  9
$DIMTM
 40
1.0
  9
$DIMTXT
 40
3.0
  9
$DIMCEN
 40
0.0
  9
$DIMTSZ
 40
0.0
  9
$DIMTOL
 70
     0
  9
$DIMLIM
 70
     0
  9
$DIMTIH
 70
     0
  9
$DIMTOH
 70
     0
  9
$DIMSE1
 70
     0
  9
$DIMSE2
 70
     0
  9
$DIMTAD
 70
     1
  9
$DIMZIN
 70
     8
  9
$DIMBLK
  1

  9
$DIMASO
 70
     1
  9
$DIMSHO
 70
     1
  9
$DIMPOST
  1

  9
$DIMAPOST
  1

  9
$DIMALT
 70
     0
  9
$DIMALTD
 70
     2
  9
$DIMALTF
 40
0.039
  9
$DIMLFAC
 40
1.0
  9
$DIMTOFL
 70
     1
  9
$DIMTVP
 40
0.0
  9
$DIMTIX
 70
     0
  9
$DIMSOXD
 70
     0
  9
$DIMSAH
 70
     1
  9
$DIMBLK1
  1
OPEN
  9
$DIMBLK2
  1
OPEN
  9
$DIMSTYLE
  2
IGA
  9
$DIMCLRD
 70
     0
  9
$DIMCLRE
 70
     0
  9
$DIMCLRT
 70
     0
  9
$DIMTFAC
 40
10.0
  9
$DIMGAP
 40
1.0
  9
$LUNITS
 70
     2
  9
$LUPREC
 70
     3
  9
$SKETCHINC
 40
0.1
  9
$FILLETRAD
 40
50.0
  9
$AUNITS
 70
     0
  9
$AUPREC
 70
     0
  9
$MENU
  1
acad
  9
$ELEVATION
 40
0.0
  9
$PELEVATION
 40
0.0
  9
$THICKNESS
 40
0.0
  9
$LIMCHECK
 70
     0
  9
$BLIPMODE
 70
     0
  9
$CHAMFERA
 40
0.5
  9
$CHAMFERB
 40
0.5
  9
$SKPOLY
 70
     0
  9
$TDCREATE
 40
2450759.585339814
  9
$TDUPDATE
 40
2454953.682428923
  9
$TDINDWG
 40
0.0119437269
  9
$TDUSRTIMER
 40
0.0119437269
  9
$USRTIMER
 70
     1
  9
$ANGBASE
 50
0.0
  9
$ANGDIR
 70
     0
  9
$PDMODE
 70
     0
  9
$PDSIZE
 40
0.0
  9
$PLINEWID
 40
0.0
  9
$COORDS
 70
     1
  9
$SPLFRAME
 70
     0
  9
$SPLINETYPE
 70
     6
  9
$SPLINESEGS
 70
     8
  9
$ATTDIA
 70
     0
  9
$ATTREQ
 70
     1
  9
$HANDLING
 70
 10241
  9
$HANDSEED
  5
80E3
  9
$SURFTAB1
 70
     6
  9
$SURFTAB2
 70
     6
  9
$SURFTYPE
 70
     6
  9
$SURFU
 70
     6
  9
$SURFV
 70
     6
  9
$UCSNAME
  2

  9
$UCSORG
 10
0.0
 20
0.0
 30
0.0
  9
$UCSXDIR
 10
1.0
 20
0.0
 30
0.0
  9
$UCSYDIR
 10
0.0
 20
1.0
 30
0.0
  9
$PUCSNAME
  2

  9
$PUCSORG
 10
0.0
 20
0.0
 30
0.0
  9
$PUCSXDIR
 10
1.0
 20
0.0
 30
0.0
  9
$PUCSYDIR
 10
0.0
 20
1.0
 30
0.0
  9
$USERI1
 70
     0
  9
$USERI2
 70
     0
  9
$USERI3
 70
     0
  9
$USERI4
 70
     0
  9
$USERI5
 70
     0
  9
$USERR1
 40
0.0
  9
$USERR2
 40
0.0
  9
$USERR3
 40
0.0
  9
$USERR4
 40
0.0
  9
$USERR5
 40
0.0
  9
$WORLDVIEW
 70
     1
  9
$SHADEDGE
 70
     3
  9
$SHADEDIF
 70
    70
  9
$TILEMODE
 70
     1
  9
$MAXACTVP
 70
    16
  9
$PLIMCHECK
 70
     0
  9
$PEXTMIN
 10
1.0000000000000000E+020
 20
1.0000000000000000E+020
 30
1.0000000000000000E+020
  9
$PEXTMAX
 10
-1.0000000000000000E+020
 20
-1.0000000000000000E+020
 30
-1.0000000000000000E+020
  9
$PLIMMIN
 10
0.0
 20
0.0
  9
$PLIMMAX
 10
12.0
 20
9.0
  9
$UNITMODE
 70
     0
  9
$VISRETAIN
 70
     0
  9
$PLINEGEN
 70
     0
  9
$PSLTSCALE
 70
     1
  0
ENDSEC
  0
SECTION
  2
TABLES
  0
TABLE
  2
VPORT
 70
     2
  0
VPORT
  2
*ACTIVE
 70
     0
 10
0.0
 20
0.0
 11
1.0
 21
1.0
 12
17686.65323976639
 22
5437.0046564084123
 13
0.0
 23
0.0
 14
10.0
 24
10.0
 15
10.0
 25
10.0
 16
0.0
 26
0.0
 36
1.0
 17
0.0
 27
0.0
 37
0.0
 40
14334.41963209337
 41
3.1666666666666661
 42
50.0
 43
0.0
 44
0.0
 50
0.0
 51
0.0
 71
     0
 72
   100
 73
     1
 74
     0
 75
     0
 76
     0
 77
     0
 78
     0
  0
ENDTAB
  0
TABLE
  2
LTYPE
 70
     2
  0
LTYPE
  2
CONTINUOUS
 70
     0
  3
Solid line
 72
    65
 73
     0
 40
0.0
  0
LTYPE
  2
CENTER
 70
     0
  3
____ _ ____ _ ____ _ ____ _ ____ _ ____ _ ____ 
 72
    65
 73
     4
 40
2.0
 49
1.25
 49
-0.25
 49
0.25
 49
-0.25
  0
ENDTAB
  0
TABLE
  2
LAYER
 70
     6
  0
LAYER
  2
0
 70
     0
 62
     7
  6
CONTINUOUS
  0
LAYER
  2
3
 70
     0
 62
     2
  6
CONTINUOUS
  0
LAYER
  2
2
 70
     0
 62
     3
  6
CENTER
  0
LAYER
  2
1
 70
     0
 62
     4
  6
CONTINUOUS
  0
LAYER
  2
4
 70
     0
 62
     7
  6
CONTINUOUS
  0
LAYER
  2
DEFPOINTS
 70
     0
 62
    -7
  6
CONTINUOUS
  0
ENDTAB
  0
TABLE
  2
STYLE
 70
     1
  0
STYLE
  2
STANDARD
 70
     0
 40
0.0
 41
1.0
 50
0.0
 71
     0
 42
180.0
  3
simplex.shx
  4
extfont.shx
  0
ENDTAB
  0
TABLE
  2
VIEW
 70
     0
  0
ENDTAB
  0
TABLE
  2
UCS
 70
     0
  0
ENDTAB
  0
TABLE
  2
APPID
 70
     1
  0
APPID
  2
ACAD
 70
     0
  0
ENDTAB
  0
TABLE
  2
DIMSTYLE
 70
     1
  0
DIMSTYLE
  2
IGA
 70
     0
  3

  4

  5

  6
OPEN
  7
OPEN
 40
2.0
 41
2.0
 42
0.5
 43
10.0
 44
1.0
 45
0.0
 46
0.0
 47
1.0
 48
1.0
140
3.0
141
0.0
142
0.0
143
0.03937
144
1.0
145
0.0
146
10.0
147
1.0
 71
     0
 72
     0
 73
     0
 74
     0
 75
     0
 76
     0
 77
     1
 78
     8
170
     0
171
     2
172
     0
173
     1
174
     0
175
     0
176
     0
177
     0
178
     0
  0
ENDTAB
  0
ENDSEC
  0
SECTION
  2
BLOCKS
  0
BLOCK
  8
0
  2
$MODEL_SPACE
 70
     0
 10
0.0
 20
0.0
 30
0.0
  3
$MODEL_SPACE
  1

  0
ENDBLK
  5
1B
  8
0
  0
BLOCK
 67
     1
  8
0
  2
$PAPER_SPACE
 70
     0
 10
0.0
 20
0.0
 30
0.0
  3
$PAPER_SPACE
  1

  0
ENDBLK
  5
18
 67
     1
  8
0
  0
BLOCK
  8
0
  2
_OPEN
 70
     0
 10
0.0
 20
0.0
 30
0.0
  3
_OPEN
  1

  0
LINE
  5
7B39
  8
0
  6
BYBLOCK
 62
     0
 10
-1.0
 20
0.166667
 30
0.0
 11
0.0
 21
0.0
 31
0.0
  0
LINE
  5
7B3A
  8
0
  6
BYBLOCK
 62
     0
 10
0.0
 20
0.0
 30
0.0
 11
-1.0
 21
-0.166667
 31
0.0
  0
LINE
  5
7B3B
  8
0
  6
BYBLOCK
 62
     0
 10
0.0
 20
0.0
 30
0.0
 11
-1.0
 21
0.0
 31
0.0
  0
ENDBLK
  5
7B3C
  8
0
  0
BLOCK
  8
0
  2
*D1
 70
     1
 10
0.0
 20
0.0
 30
0.0
  3
*D1
  1

  0
LINE
  5
7EED
  8
0
  6
BYBLOCK
 62
     0
 10
1358.4590804404961
 20
2683.1458004750129
 30
0.0
 11
1358.4590804404961
 21
2394.2078211640542
 31
0.0
  0
LINE
  5
7EEE
  8
0
  6
BYBLOCK
 62
     0
 10
1713.4590804404961
 20
2603.218890579994
 30
0.0
 11
1713.4590804404961
 21
2394.2078211640542
 31
0.0
  0
LINE
  5
7EEF
  8
0
  6
BYBLOCK
 62
     0
 10
1418.4590804404961
 20
2424.2078211640542
 30
0.0
 11
1653.4590804404961
 21
2424.2078211640542
 31
0.0
  0
TEXT
  5
7EF0
  8
3
 62
     0
 10
1426.9542287778349
 20
2452.6379487610789
 30
0.0
 40
90.0
  1
355
  0
INSERT
  5
7EF1
  8
0
  6
BYBLOCK
 62
     0
  2
_OPEN
 10
1358.4590804404961
 20
2424.2078211640542
 30
0.0
 41
60.0
 42
60.0
 43
60.0
 50
180.0
  0
INSERT
  5
7EF2
  8
0
  6
BYBLOCK
 62
     0
  2
_OPEN
 10
1713.4590804404961
 20
2424.2078211640542
 30
0.0
 41
60.0
 42
60.0
 43
60.0
  0
POINT
  5
7EF3
  8
DEFPOINTS
  6
BYBLOCK
 62
     0
 10
1358.4590804404961
 20
2698.1458004750129
 30
0.0
  0
POINT
  5
7EF4
  8
DEFPOINTS
  6
BYBLOCK
 62
     0
 10
1713.4590804404961
 20
2618.218890579994
 30
0.0
  0
POINT
  5
7EF5
  8
DEFPOINTS
  6
BYBLOCK
 62
     0
 10
1713.4590804404961
 20
2424.2078211640542
 30
0.0
  0
ENDBLK
  5
7EF6
  8
0
  0
BLOCK
  8
0
  2
*D2
 70
     1
 10
0.0
 20
0.0
 30
0.0
  3
*D2
  1

  0
LINE
  5
8068
  8
3
 62
     0
 10
1713.4590804404961
 20
2603.218890579994
 30
0.0
 11
1713.4590804404961
 21
2397.1005244750122
 31
0.0
  0
LINE
  5
8069
  8
3
 62
     0
 10
2638.4590804404961
 20
2683.1458004750129
 30
0.0
 11
2638.4590804404961
 21
2397.1005244750122
 31
0.0
  0
LINE
  5
806A
  8
3
 62
     0
 10
1773.4590804404961
 20
2427.1005244750122
 30
0.0
 11
2578.4590804404961
 21
2427.1005244750122
 31
0.0
  0
INSERT
  5
806B
  8
3
 62
     0
  2
_OPEN
 10
1713.4590804404961
 20
2427.1005244750122
 30
0.0
 41
60.0
 42
60.0
 43
60.0
 50
180.0
  0
INSERT
  5
806C
  8
3
 62
     0
  2
_OPEN
 10
2638.4590804404961
 20
2427.1005244750122
 30
0.0
 41
60.0
 42
60.0
 43
60.0
  0
TEXT
  8
3
  40
90
  5
80D6
  62
0
  72
0
  71
0
 10
1995.96
 20
2342.80
 30
0.000000
  1
925
  0
POINT
  5
806E
  8
DEFPOINTS
 62
     0
 10
1713.4590804404961
 20
2618.218890579994
 30
0.0
  0
POINT
  5
806F
  8
DEFPOINTS
 62
     0
 10
2638.4590804404961
 20
2698.1458004750129
 30
0.0
  0
POINT
  5
8070
  8
DEFPOINTS
 62
     0
 10
2638.4590804404961
 20
2427.1005244750122
 30
0.0
  0
ENDBLK
  5
7E7B
  8
0
  0
BLOCK
  8
0
  2
*D3
 70
     1
 10
0.0
 20
0.0
 30
0.0
  3
*D3
  1

  0
LINE
  5
7F80
  8
0
  6
BYBLOCK
 62
     0
 10
2358.4590804404961
 20
3746.145800475012
 30
0.0
 11
2966.8943774404961
 21
3746.145800475012
 31
0.0
  0
LINE
  5
7F81
  8
0
  6
BYBLOCK
 62
     0
 10
2294.7795934404958
 20
3356.1458004750129
 30
0.0
 11
2966.8943774404961
 21
3356.1458004750129
 31
0.0
  0
LINE
  5
7F82
  8
0
  6
BYBLOCK
 62
     0
 10
2936.8943774404961
 20
3686.1458004750129
 30
0.0
 11
2936.8943774404961
 21
3416.1458004750129
 31
0.0
  0
TEXT
  5
7F83
  8
3
 62
     0
 10
2904.3779909789519
 20
3434.7243005866549
 30
0.0
 40
90.0
  1
390
 50
90.0
  0
INSERT
  5
7F84
  8
0
  6
BYBLOCK
 62
     0
  2
_OPEN
 10
2936.8943774404961
 20
3746.145800475012
 30
0.0
 41
60.0
 42
60.0
 43
60.0
 50
90.0
  0
INSERT
  5
7F85
  8
0
  6
BYBLOCK
 62
     0
  2
_OPEN
 10
2936.8943774404961
 20
3356.1458004750129
 30
0.0
 41
60.0
 42
60.0
 43
60.0
 50
270.0
  0
POINT
  5
7F86
  8
DEFPOINTS
  6
BYBLOCK
 62
     0
 10
2343.4590804404961
 20
3746.145800475012
 30
0.0
  0
POINT
  5
7F87
  8
DEFPOINTS
  6
BYBLOCK
 62
     0
 10
2279.7795934404958
 20
3356.1458004750129
 30
0.0
  0
POINT
  5
7F88
  8
DEFPOINTS
  6
BYBLOCK
 62
     0
 10
2936.8943774404961
 20
3356.1458004750129
 30
0.0
  0
ENDBLK
  5
7F89
  8
0
  0
BLOCK
  8
0
  2
*D4
 70
     1
 10
0.0
 20
0.0
 30
0.0
  3
*D4
  1

  0
LINE
  5
8071
  8
3
 62
     0
 10
2294.7795934404958
 20
3356.1458004750129
 30
0.0
 11
2966.8943774404961
 21
3356.1458004750129
 31
0.0
  0
LINE
  5
8072
  8
3
 62
     0
 10
2653.4590804404961
 20
2801.145800475012
 30
0.0
 11
2966.8943774404961
 21
2801.145800475012
 31
0.0
  0
LINE
  5
8073
  8
3
 62
     0
 10
2936.8943774404961
 20
3296.1458004750129
 30
0.0
 11
2936.8943774404961
 21
2861.145800475012
 31
0.0
  0
INSERT
  5
8074
  8
3
 62
     0
  2
_OPEN
 10
2936.8943774404961
 20
3356.1458004750129
 30
0.0
 41
60.0
 42
60.0
 43
60.0
 50
90.0
  0
INSERT
  5
8075
  8
3
 62
     0
  2
_OPEN
 10
2936.8943774404961
 20
2801.145800475012
 30
0.0
 41
60.0
 42
60.0
 43
60.0
 50
270.0
  0
TEXT
  8
3
  40
90
  5
80D7
  62
0
  72
0
  71
0
 10
2681.89
 20
2919.35
 30
0.000000
  1
555
  0
POINT
  5
8077
  8
DEFPOINTS
 62
     0
 10
2279.7795934404958
 20
3356.1458004750129
 30
0.0
  0
POINT
  5
8078
  8
DEFPOINTS
 62
     0
 10
2638.4590804404961
 20
2801.145800475012
 30
0.0
  0
POINT
  5
8079
  8
DEFPOINTS
 62
     0
 10
2936.8943774404961
 20
2801.145800475012
 30
0.0
  0
ENDBLK
  5
7E63
  8
0
  0
BLOCK
  8
0
  2
*D5
 70
     1
 10
0.0
 20
0.0
 30
0.0
  3
*D5
  1

  0
LINE
  5
807A
  8
3
 62
     0
 10
2653.4590804404961
 20
2801.145800475012
 30
0.0
 11
2966.8943774404961
 21
2801.145800475012
 31
0.0
  0
LINE
  5
807B
  8
3
 62
     0
 10
2653.4590804404961
 20
2698.1458004750129
 30
0.0
 11
2966.8943774404961
 21
2698.1458004750129
 31
0.0
  0
LINE
  5
807C
  8
3
 62
     0
 10
2936.8943774404961
 20
2861.145800475012
 30
0.0
 11
2936.8943774404961
 21
2921.1458004750129
 31
0.0
  0
LINE
  5
807D
  8
3
 62
     0
 10
2936.8943774404961
 20
2638.1458004750129
 30
0.0
 11
2936.8943774404961
 21
2296.0029433321552
 31
0.0
  0
LINE
  5
807E
  8
3
 62
     0
 10
2936.8943774404961
 20
2801.145800475012
 30
0.0
 11
2936.8943774404961
 21
2698.1458004750129
 31
0.0
  0
INSERT
  5
807F
  8
3
 62
     0
  2
_OPEN
 10
2936.8943774404961
 20
2801.145800475012
 30
0.0
 41
60.0
 42
60.0
 43
60.0
 50
270.0
  0
INSERT
  5
8080
  8
3
 62
     0
  2
_OPEN
 10
2936.8943774404961
 20
2698.1458004750129
 30
0.0
 41
60.0
 42
60.0
 43
60.0
 50
90.0
  0
TEXT
  8
3
  40
90
  5
80D8
  62
0
  72
0
  71
0
 10
2681.89
 20
2273.85
 30
0.000000
  1
103
  0
POINT
  5
8082
  8
DEFPOINTS
 62
     0
 10
2638.4590804404961
 20
2801.145800475012
 30
0.0
  0
POINT
  5
8083
  8
DEFPOINTS
 62
     0
 10
2638.4590804404961
 20
2698.1458004750129
 30
0.0
  0
POINT
  5
8084
  8
DEFPOINTS
 62
     0
 10
2936.8943774404961
 20
2698.1458004750129
 30
0.0
  0
ENDBLK
  5
7E58
  8
0
  0
BLOCK
  8
0
  2
*D6
 70
     1
 10
0.0
 20
0.0
 30
0.0
  3
*D6
  1

  0
LINE
  5
8085
  8
3
 62
     0
 10
2358.4590804404961
 20
3746.145800475012
 30
0.0
 11
3241.5342474404979
 21
3746.145800475012
 31
0.0
  0
LINE
  5
8086
  8
3
 62
     0
 10
2653.4590804404961
 20
2698.1458004750129
 30
0.0
 11
3241.534247440497
 21
2698.145800475012
 31
0.0
  0
LINE
  5
8087
  8
3
 62
     0
 10
3211.5342474404979
 20
3686.145800475012
 30
0.0
 11
3211.534247440497
 21
2758.145800475012
 31
0.0
  0
INSERT
  5
8088
  8
3
 62
     0
  2
_OPEN
 10
3211.5342474404979
 20
3746.145800475012
 30
0.0
 41
60.0
 42
60.0
 43
60.0
 50
90.0
  0
INSERT
  5
8089
  8
3
 62
     0
  2
_OPEN
 10
3211.534247440497
 20
2698.145800475012
 30
0.0
 41
60.0
 42
60.0
 43
60.0
 50
270.0
  0
TEXT
  8
3
  40
90
  5
80D9
  62
0
  72
0
  71
0
 10
2956.53
 20
3090.75
 30
0.000000
  1
1048
  0
POINT
  5
808B
  8
DEFPOINTS
 62
     0
 10
2343.4590804404961
 20
3746.145800475012
 30
0.0
  0
POINT
  5
808C
  8
DEFPOINTS
 62
     0
 10
2638.4590804404961
 20
2698.1458004750129
 30
0.0
  0
POINT
  5
808D
  8
DEFPOINTS
 62
     0
 10
3211.534247440497
 20
2698.145800475012
 30
0.0
  0
ENDBLK
  5
7E4B
  8
0
  0
BLOCK
  8
0
  2
*D7
 70
     1
 10
0.0
 20
0.0
 30
0.0
  3
*D7
  1

  0
LINE
  5
808E
  8
3
 62
     0
 10
1733.4590804404961
 20
3761.1458004750129
 30
0.0
 11
1733.4590804404961
 21
3961.7234504750122
 31
0.0
  0
LINE
  5
808F
  8
3
 62
     0
 10
2313.4590804404961
 20
3761.1458004750129
 30
0.0
 11
2313.4590804404961
 21
3961.7234504750122
 31
0.0
  0
LINE
  5
8090
  8
3
 62
     0
 10
1793.4590804404961
 20
3931.7234504750122
 30
0.0
 11
2253.4590804404952
 21
3931.7234504750122
 31
0.0
  0
INSERT
  5
8091
  8
3
 62
     0
  2
_OPEN
 10
1733.4590804404961
 20
3931.7234504750122
 30
0.0
 41
60.0
 42
60.0
 43
60.0
 50
180.0
  0
INSERT
  5
8092
  8
3
 62
     0
  2
_OPEN
 10
2313.4590804404961
 20
3931.7234504750122
 30
0.0
 41
60.0
 42
60.0
 43
60.0
  0
TEXT
  8
3
  40
90
  5
80DA
  62
0
  72
0
  71
0
 10
1849.88
 20
3847.42
 30
0.000000
  1
580
  0
POINT
  5
8094
  8
DEFPOINTS
 62
     0
 10
1733.4590804404961
 20
3746.145800475012
 30
0.0
  0
POINT
  5
8095
  8
DEFPOINTS
 62
     0
 10
2313.4590804404961
 20
3746.145800475012
 30
0.0
  0
POINT
  5
8096
  8
DEFPOINTS
 62
     0
 10
2313.4590804404961
 20
3931.7234504750122
 30
0.0
  0
ENDBLK
  5
7E40
  8
0
  0
BLOCK
  8
0
  2
*D8
 70
     1
 10
0.0
 20
0.0
 30
0.0
  3
*D8
  1

  0
LINE
  5
8097
  8
3
 62
     0
 10
2313.4590804404961
 20
3761.1458004750129
 30
0.0
 11
2313.4590804404961
 21
4160.0171984750132
 31
0.0
  0
LINE
  5
8098
  8
3
 62
     0
 10
1713.4590804404961
 20
3703.3313614750118
 30
0.0
 11
1713.4590804404961
 21
4160.0171984750132
 31
0.0
  0
LINE
  5
8099
  8
3
 62
     0
 10
2253.4590804404952
 20
4130.0171984750123
 30
0.0
 11
1773.4590804404961
 21
4130.0171984750123
 31
0.0
  0
INSERT
  5
809A
  8
3
 62
     0
  2
_OPEN
 10
2313.4590804404961
 20
4130.0171984750123
 30
0.0
 41
60.0
 42
60.0
 43
60.0
  0
INSERT
  5
809B
  8
3
 62
     0
  2
_OPEN
 10
1713.4590804404961
 20
4130.0171984750123
 30
0.0
 41
60.0
 42
60.0
 43
60.0
 50
180.0
  0
TEXT
  8
3
  40
90
  5
80DB
  62
0
  72
0
  71
0
 10
1848.44
 20
4045.72
 30
0.000000
  1
600
  0
POINT
  5
809D
  8
DEFPOINTS
 62
     0
 10
2313.4590804404961
 20
3746.145800475012
 30
0.0
  0
POINT
  5
809E
  8
DEFPOINTS
 62
     0
 10
1713.4590804404961
 20
3688.3313614750118
 30
0.0
  0
POINT
  5
809F
  8
DEFPOINTS
 62
     0
 10
1713.4590804404961
 20
4130.0171984750123
 30
0.0
  0
ENDBLK
  5
7E35
  8
0
  0
BLOCK
  8
0
  2
*D9
 70
     1
 10
0.0
 20
0.0
 30
0.0
  3
*D9
  1

  0
LINE
  5
7F75
  8
0
  6
BYBLOCK
 62
     0
 10
1713.4590804404961
 20
3703.3313614750118
 30
0.0
 11
1713.4590804404961
 21
4162.171016475012
 31
0.0
  0
LINE
  5
7F76
  8
0
  6
BYBLOCK
 62
     0
 10
1315.4590804404961
 20
3371.145800475012
 30
0.0
 11
1315.4590804404961
 21
4162.171016475012
 31
0.0
  0
LINE
  5
7F77
  8
0
  6
BYBLOCK
 62
     0
 10
1653.4590804404961
 20
4132.171016475012
 30
0.0
 11
1375.4590804404961
 21
4132.171016475012
 31
0.0
  0
TEXT
  5
7F78
  8
3
 62
     0
 10
1406.1596982333319
 20
4166.2687265921268
 30
0.0
 40
90.0
  1
400
  0
INSERT
  5
7F79
  8
0
  6
BYBLOCK
 62
     0
  2
_OPEN
 10
1713.4590804404961
 20
4132.171016475012
 30
0.0
 41
60.0
 42
60.0
 43
60.0
  0
INSERT
  5
7F7A
  8
0
  6
BYBLOCK
 62
     0
  2
_OPEN
 10
1315.4590804404961
 20
4132.171016475012
 30
0.0
 41
60.0
 42
60.0
 43
60.0
 50
180.0
  0
POINT
  5
7F7B
  8
DEFPOINTS
  6
BYBLOCK
 62
     0
 10
1713.4590804404961
 20
3688.3313614750118
 30
0.0
  0
POINT
  5
7F7C
  8
DEFPOINTS
  6
BYBLOCK
 62
     0
 10
1315.4590804404961
 20
3356.1458004750129
 30
0.0
  0
POINT
  5
7F7D
  8
DEFPOINTS
  6
BYBLOCK
 62
     0
 10
1315.4590804404961
 20
4132.171016475012
 30
0.0
  0
ENDBLK
  5
7F7E
  8
0
  0
BLOCK
  8
0
  2
*D10
 70
     1
 10
0.0
 20
0.0
 30
0.0
  3
*D10
  1

  0
LINE
  5
80A0
  8
3
 62
     0
 10
1358.4590804404961
 20
5738.2853224750133
 30
0.0
 11
1358.4590804404961
 21
5318.641370475013
 31
0.0
  0
LINE
  5
80A1
  8
3
 62
     0
 10
2638.4590804404961
 20
5738.2853224750133
 30
0.0
 11
2638.4590804404961
 21
5318.641370475013
 31
0.0
  0
LINE
  5
80A2
  8
3
 62
     0
 10
1418.4590804404961
 20
5348.641370475013
 30
0.0
 11
2578.4590804404961
 21
5348.641370475013
 31
0.0
  0
INSERT
  5
80A3
  8
3
 62
     0
  2
_OPEN
 10
1358.4590804404961
 20
5348.641370475013
 30
0.0
 41
60.0
 42
60.0
 43
60.0
 50
180.0
  0
INSERT
  5
80A4
  8
3
 62
     0
  2
_OPEN
 10
2638.4590804404961
 20
5348.641370475013
 30
0.0
 41
60.0
 42
60.0
 43
60.0
  0
TEXT
  8
3
  40
90
  5
80DC
  62
0
  72
0
  71
0
 10
1813.10
 20
5264.34
 30
0.000000
  1
1280
  0
POINT
  5
80A6
  8
DEFPOINTS
 62
     0
 10
1358.4590804404961
 20
5753.2853224750124
 30
0.0
  0
POINT
  5
80A7
  8
DEFPOINTS
 62
     0
 10
2638.4590804404961
 20
5753.2853224750124
 30
0.0
  0
POINT
  5
80A8
  8
DEFPOINTS
 62
     0
 10
2638.4590804404961
 20
5348.641370475013
 30
0.0
  0
ENDBLK
  5
7E1D
  8
0
  0
BLOCK
  8
0
  2
*D11
 70
     1
 10
0.0
 20
0.0
 30
0.0
  3
*D11
  1

  0
LINE
  5
80A9
  8
3
 62
     0
 10
2653.4590804404961
 20
6363.2853224750133
 30
0.0
 11
2948.476783440497
 21
6363.2853224750133
 31
0.0
  0
LINE
  5
80AA
  8
3
 62
     0
 10
2653.4590804404961
 20
5753.2853224750124
 30
0.0
 11
2948.476783440497
 21
5753.2853224750124
 31
0.0
  0
LINE
  5
80AB
  8
3
 62
     0
 10
2918.476783440497
 20
6303.2853224750124
 30
0.0
 11
2918.476783440497
 21
5813.2853224750133
 31
0.0
  0
INSERT
  5
80AC
  8
3
 62
     0
  2
_OPEN
 10
2918.476783440497
 20
6363.2853224750133
 30
0.0
 41
60.0
 42
60.0
 43
60.0
 50
90.0
  0
INSERT
  5
80AD
  8
3
 62
     0
  2
_OPEN
 10
2918.476783440497
 20
5753.2853224750124
 30
0.0
 41
60.0
 42
60.0
 43
60.0
 50
270.0
  0
TEXT
  8
3
  40
90
  5
80DD
  62
0
  72
0
  71
0
 10
2663.48
 20
5918.77
 30
0.000000
  1
610
  0
POINT
  5
80AF
  8
DEFPOINTS
 62
     0
 10
2638.4590804404961
 20
6363.2853224750133
 30
0.0
  0
POINT
  5
80B0
  8
DEFPOINTS
 62
     0
 10
2638.4590804404961
 20
5753.2853224750124
 30
0.0
  0
POINT
  5
80B1
  8
DEFPOINTS
 62
     0
 10
2918.476783440497
 20
5753.2853224750124
 30
0.0
  0
ENDBLK
  5
7E12
  8
0
  0
BLOCK
  8
0
  2
*D12
 70
     1
 10
0.0
 20
0.0
 30
0.0
  3
*D12
  1

  0
LINE
  5
7F24
  8
0
  6
BYBLOCK
 62
     0
 10
4497.2643074281814
 20
2683.1458004750129
 30
0.0
 11
4497.2643074281814
 21
2450.0703319726449
 31
0.0
  0
LINE
  5
7F25
  8
0
  6
BYBLOCK
 62
     0
 10
4852.2643074281796
 20
2597.7062054750122
 30
0.0
 11
4852.2643074281796
 21
2450.0703319726449
 31
0.0
  0
LINE
  5
7F26
  8
0
  6
BYBLOCK
 62
     0
 10
4557.2643074281796
 20
2480.0703319726449
 30
0.0
 11
4792.2643074281796
 21
2480.0703319726449
 31
0.0
  0
TEXT
  5
7F27
  8
3
 62
     0
 10
4556.0237983453744
 20
2503.7942542072519
 30
0.0
 40
90.0
  1
355
  0
INSERT
  5
7F28
  8
0
  6
BYBLOCK
 62
     0
  2
_OPEN
 10
4497.2643074281814
 20
2480.0703319726449
 30
0.0
 41
60.0
 42
60.0
 43
60.0
 50
180.0
  0
INSERT
  5
7F29
  8
0
  6
BYBLOCK
 62
     0
  2
_OPEN
 10
4852.2643074281796
 20
2480.0703319726449
 30
0.0
 41
60.0
 42
60.0
 43
60.0
  0
POINT
  5
7F2A
  8
DEFPOINTS
  6
BYBLOCK
 62
     0
 10
4497.2643074281814
 20
2698.1458004750129
 30
0.0
  0
POINT
  5
7F2B
  8
DEFPOINTS
  6
BYBLOCK
 62
     0
 10
4852.2643074281796
 20
2612.7062054750122
 30
0.0
  0
POINT
  5
7F2C
  8
DEFPOINTS
  6
BYBLOCK
 62
     0
 10
4852.2643074281796
 20
2480.0703319726449
 30
0.0
  0
ENDBLK
  5
7F2D
  8
0
  0
BLOCK
  8
0
  2
*D13
 70
     1
 10
0.0
 20
0.0
 30
0.0
  3
*D13
  1

  0
LINE
  5
7F19
  8
0
  6
BYBLOCK
 62
     0
 10
4852.2643074281796
 20
2597.7062054750122
 30
0.0
 11
4852.2643074281796
 21
2450.605562475012
 31
0.0
  0
LINE
  5
7F1A
  8
0
  6
BYBLOCK
 62
     0
 10
5107.2643074281814
 20
2683.1458004750129
 30
0.0
 11
5107.2643074281814
 21
2450.605562475012
 31
0.0
  0
LINE
  5
7F1B
  8
0
  6
BYBLOCK
 62
     0
 10
4912.2643074281814
 20
2480.605562475012
 30
0.0
 11
5047.2643074281796
 21
2480.605562475012
 31
0.0
  0
TEXT
  5
7F1C
  8
3
 62
     0
 10
4866.7226864271342
 20
2508.5338308172691
 30
0.0
 40
90.0
  1
255
  0
INSERT
  5
7F1D
  8
0
  6
BYBLOCK
 62
     0
  2
_OPEN
 10
4852.2643074281796
 20
2480.605562475012
 30
0.0
 41
60.0
 42
60.0
 43
60.0
 50
180.0
  0
INSERT
  5
7F1E
  8
0
  6
BYBLOCK
 62
     0
  2
_OPEN
 10
5107.2643074281814
 20
2480.605562475012
 30
0.0
 41
60.0
 42
60.0
 43
60.0
  0
POINT
  5
7F1F
  8
DEFPOINTS
  6
BYBLOCK
 62
     0
 10
4852.2643074281796
 20
2612.7062054750122
 30
0.0
  0
POINT
  5
7F20
  8
DEFPOINTS
  6
BYBLOCK
 62
     0
 10
5107.2643074281814
 20
2698.1458004750129
 30
0.0
  0
POINT
  5
7F21
  8
DEFPOINTS
  6
BYBLOCK
 62
     0
 10
5107.2643074281814
 20
2480.605562475012
 30
0.0
  0
ENDBLK
  5
7F22
  8
0
  0
BLOCK
  8
0
  2
*D14
 70
     1
 10
0.0
 20
0.0
 30
0.0
  3
*D14
  1

  0
LINE
  5
80B2
  8
3
 62
     0
 10
4639.7643074281796
 20
3761.1458004750129
 30
0.0
 11
4639.7643074281796
 21
3934.4993352096681
 31
0.0
  0
LINE
  5
80B3
  8
3
 62
     0
 10
5064.7643074281796
 20
3761.1458004750129
 30
0.0
 11
5064.7643074281796
 21
3934.4993352096681
 31
0.0
  0
LINE
  5
80B4
  8
3
 62
     0
 10
4699.7643074281796
 20
3904.4993352096681
 30
0.0
 11
5004.7643074281814
 21
3904.4993352096681
 31
0.0
  0
INSERT
  5
80B5
  8
3
 62
     0
  2
_OPEN
 10
4639.7643074281796
 20
3904.4993352096681
 30
0.0
 41
60.0
 42
60.0
 43
60.0
 50
180.0
  0
INSERT
  5
80B6
  8
3
 62
     0
  2
_OPEN
 10
5064.7643074281796
 20
3904.4993352096681
 30
0.0
 41
60.0
 42
60.0
 43
60.0
  0
TEXT
  8
3
  40
90
  5
80DE
  62
0
  72
0
  71
0
 10
4665.48
 20
3820.20
 30
0.000000
  1
425
  0
POINT
  5
80B8
  8
DEFPOINTS
 62
     0
 10
4639.7643074281796
 20
3746.145800475012
 30
0.0
  0
POINT
  5
80B9
  8
DEFPOINTS
 62
     0
 10
5064.7643074281796
 20
3746.145800475012
 30
0.0
  0
POINT
  5
80BA
  8
DEFPOINTS
 62
     0
 10
5064.7643074281796
 20
3904.4993352096681
 30
0.0
  0
ENDBLK
  5
7F59
  8
0
  0
BLOCK
  8
0
  2
*D15
 70
     1
 10
0.0
 20
0.0
 30
0.0
  3
*D15
  1

  0
LINE
  5
80BB
  8
3
 62
     0
 10
4392.2643074281796
 20
3535.4458004750122
 30
0.0
 11
4392.2643074281796
 21
4175.4163139336779
 31
0.0
  0
LINE
  5
80BC
  8
3
 62
     0
 10
4852.2643074281796
 20
4054.3670636483671
 30
0.0
 11
4852.2643074281796
 21
4175.4163139336779
 31
0.0
  0
LINE
  5
80BD
  8
3
 62
     0
 10
4452.2643074281796
 20
4145.4163139336779
 30
0.0
 11
4792.2643074281796
 21
4145.4163139336779
 31
0.0
  0
INSERT
  5
80BE
  8
3
 62
     0
  2
_OPEN
 10
4392.2643074281796
 20
4145.4163139336779
 30
0.0
 41
60.0
 42
60.0
 43
60.0
 50
180.0
  0
INSERT
  5
80BF
  8
3
 62
     0
  2
_OPEN
 10
4852.2643074281796
 20
4145.4163139336779
 30
0.0
 41
60.0
 42
60.0
 43
60.0
  0
TEXT
  8
3
  40
90
  5
80DF
  62
0
  72
0
  71
0
 10
4430.84
 20
4136.12
 30
0.000000
  1
MAX
  0
TEXT
  8
3
  40
90
  5
80E0
  62
0
  72
0
  71
0
 10
4430.84
 20
4019.12
 30
0.000000
  1
510
  0
POINT
  5
80C1
  8
DEFPOINTS
 62
     0
 10
4392.2643074281796
 20
3520.4458004750122
 30
0.0
  0
POINT
  5
80C2
  8
DEFPOINTS
 62
     0
 10
4852.2643074281796
 20
4039.3670636483671
 30
0.0
  0
POINT
  5
80C3
  8
DEFPOINTS
 62
     0
 10
4852.2643074281796
 20
4145.4163139336779
 30
0.0
  0
ENDBLK
  5
7F98
  8
0
  0
BLOCK
  8
0
  2
*D16
 70
     1
 10
0.0
 20
0.0
 30
0.0
  3
*D16
  1

  0
LINE
  5
7F66
  8
0
  6
BYBLOCK
 62
     0
 10
4852.2643074281796
 20
4054.3670636483671
 30
0.0
 11
4852.2643074281796
 21
4176.1162154113772
 31
0.0
  0
LINE
  5
7F67
  8
0
  6
BYBLOCK
 62
     0
 10
5128.2643074281814
 20
3681.1458004750129
 30
0.0
 11
5128.2643074281814
 21
4176.1162154113772
 31
0.0
  0
LINE
  5
7F68
  8
0
  6
BYBLOCK
 62
     0
 10
4912.2643074281814
 20
4146.1162154113772
 30
0.0
 11
5068.2643074281796
 21
4146.1162154113772
 31
0.0
  0
TEXT
  5
7F69
  8
3
 62
     0
 10
4872.2561746031261
 20
4177.6837805090281
 30
0.0
 40
90.0
  1
276
  0
INSERT
  5
7F6A
  8
0
  6
BYBLOCK
 62
     0
  2
_OPEN
 10
4852.2643074281796
 20
4146.1162154113772
 30
0.0
 41
60.0
 42
60.0
 43
60.0
 50
180.0
  0
INSERT
  5
7F6B
  8
0
  6
BYBLOCK
 62
     0
  2
_OPEN
 10
5128.2643074281814
 20
4146.1162154113772
 30
0.0
 41
60.0
 42
60.0
 43
60.0
  0
POINT
  5
7F6C
  8
DEFPOINTS
  6
BYBLOCK
 62
     0
 10
4852.2643074281796
 20
4039.3670636483671
 30
0.0
  0
POINT
  5
7F6D
  8
DEFPOINTS
  6
BYBLOCK
 62
     0
 10
5128.2643074281814
 20
3666.1458004750129
 30
0.0
  0
POINT
  5
7F6E
  8
DEFPOINTS
  6
BYBLOCK
 62
     0
 10
5128.2643074281814
 20
4146.1162154113772
 30
0.0
  0
ENDBLK
  5
7F6F
  8
0
  0
BLOCK
  8
0
  2
*D17
 70
     1
 10
0.0
 20
0.0
 30
0.0
  3
*D17
  1

  0
LINE
  5
80C4
  8
3
 62
     0
 10
5143.2643074281796
 20
3636.1458004750129
 30
0.0
 11
5341.3257373740134
 21
3636.1458004750129
 31
0.0
  0
LINE
  5
80C5
  8
3
 62
     0
 10
5143.2643074281796
 20
3076.145800475012
 30
0.0
 11
5341.3257373740134
 21
3076.145800475012
 31
0.0
  0
LINE
  5
80C6
  8
3
 62
     0
 10
5311.3257373740134
 20
3576.1458004750129
 30
0.0
 11
5311.3257373740134
 21
3136.1458004750129
 31
0.0
  0
INSERT
  5
80C7
  8
3
 62
     0
  2
_OPEN
 10
5311.3257373740134
 20
3636.1458004750129
 30
0.0
 41
60.0
 42
60.0
 43
60.0
 50
90.0
  0
INSERT
  5
80C8
  8
3
 62
     0
  2
_OPEN
 10
5311.3257373740134
 20
3076.145800475012
 30
0.0
 41
60.0
 42
60.0
 43
60.0
 50
270.0
  0
TEXT
  8
3
  40
90
  5
80E1
  62
0
  72
0
  71
0
 10
5056.33
 20
3217.13
 30
0.000000
  1
φ560
  0
POINT
  5
80CA
  8
DEFPOINTS
 62
     0
 10
5128.2643074281814
 20
3636.1458004750129
 30
0.0
  0
POINT
  5
80CB
  8
DEFPOINTS
 62
     0
 10
5128.2643074281814
 20
3076.145800475012
 30
0.0
  0
POINT
  5
80CC
  8
DEFPOINTS
 62
     0
 10
5311.3257373740134
 20
3076.145800475012
 30
0.0
  0
ENDBLK
  5
7F38
  8
0
  0
BLOCK
  8
0
  2
*D18
 70
     1
 10
0.0
 20
0.0
 30
0.0
  3
*D18
  1

  0
LINE
  5
80CD
  8
3
 62
     0
 10
1313.4590804404961
 20
3329.1458004750129
 30
0.0
 11
1313.4590804404961
 21
4333.9987485914708
 31
0.0
  0
LINE
  5
80CE
  8
3
 62
     0
 10
2638.4590804404961
 20
2891.1458004750129
 30
0.0
 11
2638.4590804404961
 21
4333.9987485914708
 31
0.0
  0
LINE
  5
80CF
  8
3
 62
     0
 10
1373.4590804404961
 20
4303.9987485914708
 30
0.0
 11
2578.4590804404961
 21
4303.9987485914708
 31
0.0
  0
INSERT
  5
80D0
  8
3
 62
     0
  2
_OPEN
 10
1313.4590804404961
 20
4303.9987485914708
 30
0.0
 41
60.0
 42
60.0
 43
60.0
 50
180.0
  0
INSERT
  5
80D1
  8
3
 62
     0
  2
_OPEN
 10
2638.4590804404961
 20
4303.9987485914708
 30
0.0
 41
60.0
 42
60.0
 43
60.0
  0
TEXT
  8
3
  40
90
  5
80E2
  62
0
  72
0
  71
0
 10
1870.56
 20
4219.70
 30
0.000000
  1
1325
  0
POINT
  5
80D3
  8
DEFPOINTS
 62
     0
 10
1313.4590804404961
 20
3314.145800475012
 30
0.0
  0
POINT
  5
80D4
  8
DEFPOINTS
 62
     0
 10
2638.4590804404961
 20
2876.1458004750129
 30
0.0
  0
POINT
  5
80D5
  8
DEFPOINTS
 62
     0
 10
2638.4590804404961
 20
4303.9987485914708
 30
0.0
  0
ENDBLK
  5
7FA4
  8
0
  0
ENDSEC
  0
SECTION
  2
ENTITIES
  0
LINE
  5
7A90
  8
1
 10
2638.4590804404961
 20
2763.1458004750129
 30
0.0
 11
1358.4590804404961
 21
2763.1458004750129
 31
0.0
  0
LINE
  5
7A91
  8
1
 10
2638.4590804404961
 20
2698.1458004750129
 30
0.0
 11
1358.4590804404961
 21
2698.1458004750129
 31
0.0
  0
LINE
  5
7A92
  8
1
 10
2458.863554440496
 20
3158.0406234750121
 30
0.0
 11
1758.863554440496
 21
3461.040623475013
 31
0.0
  0
LINE
  5
7A93
  8
1
 10
2478.725528440496
 20
3203.9263724750131
 30
0.0
 11
1778.725528440496
 21
3506.9263724750131
 31
0.0
  0
ARC
  5
7A94
  8
1
 10
2413.4590804404961
 20
3053.1458004750129
 30
0.0
 40
164.30000000000001
 50
246.59428199999999
 51
66.594281999999993
  0
LINE
  5
7A95
  8
1
 10
2638.4590804404961
 20
2801.145800475012
 30
0.0
 11
1358.4590804404961
 21
2801.145800475012
 31
0.0
  0
ARC
  5
7A96
  8
1
 10
2413.4590804404961
 20
3053.1458004750129
 30
0.0
 40
143.0
 50
324.34590999999989
 51
215.65408999999991
  0
LINE
  5
7A97
  8
1
 10
2638.4590804404961
 20
2876.1458004750129
 30
0.0
 11
1358.4590804404961
 21
2876.1458004750129
 31
0.0
  0
CIRCLE
  5
7A98
  8
1
 10
2413.4590804404961
 20
3053.1458004750129
 30
0.0
 40
114.3
  0
LINE
  5
7A99
  8
2
 10
2532.7590804404958
 20
3053.1458004750129
 30
0.0
 11
2294.1590804404959
 21
3053.1458004750129
 31
0.0
  0
LINE
  5
7A9A
  8
1
 10
2368.0546074404951
 20
2948.250977475012
 30
0.0
 11
1668.0546074404949
 21
3251.250977475012
 31
0.0
  0
LINE
  5
7A9B
  8
1
 10
2348.1926334404961
 20
2902.3652284750119
 30
0.0
 11
1648.1926334404959
 21
3205.3652284750119
 31
0.0
  0
ARC
  5
7A9C
  8
1
 10
1755.4590804404961
 20
3398.1458004750129
 30
0.0
 40
526.0
 50
277.07050400000003
 51
355.42017599999991
  0
ARC
  5
7A9D
  8
1
 10
1755.4590804404961
 20
3314.145800475012
 30
0.0
 40
442.0
 50
174.54737800000001
 51
262.28591299999999
  0
CIRCLE
  5
7A9E
  8
1
 10
1713.4590804404961
 20
3356.1458004750129
 30
0.0
 40
280.0
  0
CIRCLE
  5
7A9F
  8
1
 10
1713.4590804404961
 20
3356.1458004750129
 30
0.0
 40
310.0
  0
LINE
  5
7AA0
  8
2
 10
2413.4590804404961
 20
2933.8458004750119
 30
0.0
 11
2413.4590804404961
 21
3172.4458004750122
 31
0.0
  0
LINE
  5
7AA1
  8
1
 10
1358.4590804404961
 20
2763.1458004750129
 30
0.0
 11
1358.4590804404961
 21
2698.1458004750129
 31
0.0
  0
LINE
  5
7AA2
  8
1
 10
1358.4590804404961
 20
2876.1458004750129
 30
0.0
 11
1358.4590804404961
 21
2801.145800475012
 31
0.0
  0
LINE
  5
7AA3
  8
1
 10
2283.4590804404961
 20
2936.1458004750129
 30
0.0
 11
2297.4883584404952
 21
2970.3385454750128
 31
0.0
  0
LINE
  5
7AA4
  8
1
 10
2283.4590804404961
 20
2921.1458004750129
 30
0.0
 11
2283.4590804404961
 21
2936.1458004750129
 31
0.0
  0
LINE
  5
7AA5
  8
1
 10
2238.4590804404961
 20
2876.1458004750129
 30
0.0
 11
2248.4590804404961
 21
2921.1458004750129
 31
0.0
  0
LINE
  5
7AA6
  8
1
 10
2283.4590804404961
 20
2921.1458004750129
 30
0.0
 11
2248.4590804404961
 21
2921.1458004750129
 31
0.0
  0
ARC
  5
7AA7
  8
1
 10
1713.4590804404961
 20
3356.1458004750129
 30
0.0
 40
164.30000000000001
 50
66.594281999999993
 51
246.59428199999999
  0
ARC
  5
7AA8
  8
1
 10
1680.459080440495
 20
3323.1458004750129
 30
0.0
 40
367.0
 50
84.841095999999993
 51
174.84109599999999
  0
CIRCLE
  5
7AA9
  8
1
 10
1713.4590804404961
 20
3356.1458004750129
 30
0.0
 40
114.3
  0
LINE
  5
7AAA
  8
2
 10
1226.1678654535569
 20
3356.1458004750129
 30
0.0
 11
2377.342279440496
 21
3356.1458004750129
 31
0.0
  0
LINE
  5
7AAB
  8
1
 10
2279.7795934404958
 20
3356.1458004750129
 30
0.0
 11
2313.4590804404961
 21
3746.145800475012
 31
0.0
  0
LINE
  5
7AAC
  8
2
 10
1713.4590804404961
 20
2621.8376302388492
 30
0.0
 11
1713.4590804404961
 21
3690.9961999538859
 31
0.0
  0
LINE
  5
7AAD
  8
1
 10
1877.7590804404961
 20
3356.1458004750129
 30
0.0
 11
1877.7590804404961
 21
3356.1458004750129
 31
0.0
  0
LINE
  5
7AAE
  8
1
 10
2343.4590804404961
 20
3746.145800475012
 30
0.0
 11
1703.4590804404961
 21
3746.145800475012
 31
0.0
  0
LINE
  5
7AAF
  8
1
 10
2310.8683514404961
 20
3716.1458004750129
 30
0.0
 11
1733.4590804404961
 21
3716.1458004750129
 31
0.0
  0
ARC
  5
7AB0
  8
1
 10
1680.459080440495
 20
3389.1458004750129
 30
0.0
 40
301.0
 50
79.858502000000001
 51
83.705749999999995
  0
LINE
  5
7AB1
  8
1
 10
1733.4590804404961
 20
3685.4429484750121
 30
0.0
 11
1733.4590804404961
 21
3746.145800475012
 31
0.0
  0
LINE
  5
7AB2
  8
1
 10
2638.4590804404961
 20
2763.1458004750129
 30
0.0
 11
2638.4590804404961
 21
2698.1458004750129
 31
0.0
  0
LINE
  5
7AB3
  8
1
 10
2638.4590804404961
 20
2876.1458004750129
 30
0.0
 11
2638.4590804404961
 21
2801.145800475012
 31
0.0
  0
LINE
  5
7AB4
  8
1
 10
2578.4590804404961
 20
2921.1458004750129
 30
0.0
 11
2543.4590804404961
 21
2921.1458004750129
 31
0.0
  0
LINE
  5
7AB5
  8
1
 10
2543.4590804404961
 20
2921.1458004750129
 30
0.0
 11
2543.4590804404961
 21
2936.1458004750129
 31
0.0
  0
LINE
  5
7AB6
  8
1
 10
2543.4590804404961
 20
2936.1458004750129
 30
0.0
 11
2529.429803440496
 21
2970.3385454750128
 31
0.0
  0
LINE
  5
7AB7
  8
1
 10
2578.4590804404961
 20
2921.1458004750129
 30
0.0
 11
2588.4590804404961
 21
2876.1458004750129
 31
0.0
  0
LINE
  5
7AB8
  8
1
 10
2638.4590804404961
 20
5753.2853224750124
 30
0.0
 11
2432.4590804404961
 21
5753.2853224750124
 31
0.0
  0
LINE
  5
7AB9
  8
1
 10
2638.4590804404961
 20
6363.2853224750133
 30
0.0
 11
1993.4590804404961
 21
6363.2853224750133
 31
0.0
  0
LINE
  5
7ABA
  8
1
 10
2556.4590804404961
 20
6132.2853224750133
 30
0.0
 11
2313.4590804404961
 21
6132.2853224750133
 31
0.0
  0
LINE
  5
7ABB
  8
1
 10
2270.4590804404961
 20
5763.2853224750133
 30
0.0
 11
2556.4590804404961
 21
5763.2853224750133
 31
0.0
  0
LINE
  5
7ABC
  8
1
 10
2527.7590804404958
 20
5726.2853224750124
 30
0.0
 11
2299.1590804404959
 21
5726.2853224750124
 31
0.0
  0
LINE
  5
7ABD
  8
1
 10
2527.7590804404958
 20
5663.2853224750133
 30
0.0
 11
2299.1590804404959
 21
5663.2853224750133
 31
0.0
  0
LINE
  5
7ABE
  8
1
 10
2577.7590804404958
 20
5648.2853224750124
 30
0.0
 11
1549.1590804404959
 21
5648.2853224750124
 31
0.0
  0
LINE
  5
7ABF
  8
1
 10
2577.7590804404958
 20
5743.2853224750133
 30
0.0
 11
1549.1590804404959
 21
5743.2853224750133
 31
0.0
  0
LINE
  5
7AC0
  8
1
 10
2313.4590804404961
 20
6320.7853224750124
 30
0.0
 11
1313.4590804404961
 21
6320.7853224750124
 31
0.0
  0
LINE
  5
7AC1
  8
1
 10
2313.4590804404961
 20
5895.7853224750124
 30
0.0
 11
1313.4590804404961
 21
5895.7853224750124
 31
0.0
  0
LINE
  5
7AC2
  8
1
 10
2023.4590804404961
 20
6384.2853224750124
 30
0.0
 11
1403.4590804404961
 21
6384.2853224750124
 31
0.0
  0
LINE
  5
7AC3
  8
1
 10
1693.4590804404961
 20
5753.2853224750124
 30
0.0
 11
1358.4590804404961
 21
5753.2853224750124
 31
0.0
  0
LINE
  5
7AC4
  8
1
 10
1827.7590804404961
 20
5726.2853224750124
 30
0.0
 11
1599.1590804404959
 21
5726.2853224750124
 31
0.0
  0
LINE
  5
7AC5
  8
1
 10
1827.7590804404961
 20
5663.2853224750133
 30
0.0
 11
1599.1590804404959
 21
5663.2853224750133
 31
0.0
  0
LINE
  5
7AC6
  8
1
 10
1313.4590804404961
 20
5895.7853224750124
 30
0.0
 11
1313.4590804404961
 21
6320.7853224750124
 31
0.0
  0
LINE
  5
7AC7
  8
1
 10
1358.4590804404961
 20
5753.2853224750124
 30
0.0
 11
1358.4590804404961
 21
5895.7853224750124
 31
0.0
  0
LINE
  5
7AC8
  8
1
 10
1599.1590804404959
 20
5663.2853224750133
 30
0.0
 11
1599.1590804404959
 21
5726.2853224750124
 31
0.0
  0
LINE
  5
7AC9
  8
1
 10
1549.1590804404959
 20
5648.2853224750124
 30
0.0
 11
1549.1590804404959
 21
5743.2853224750133
 31
0.0
  0
LINE
  5
7ACA
  8
1
 10
1358.4590804404961
 20
6320.7853224750124
 30
0.0
 11
1358.4590804404961
 21
6363.2853224750133
 31
0.0
  0
LINE
  5
7ACB
  8
1
 10
1433.4590804404961
 20
6320.7853224750124
 30
0.0
 11
1433.4590804404961
 21
6384.2853224750124
 31
0.0
  0
LINE
  5
7ACC
  8
1
 10
1433.4590804404961
 20
6363.2853224750133
 30
0.0
 11
1358.4590804404961
 21
6363.2853224750133
 31
0.0
  0
LINE
  5
7ACD
  8
1
 10
2313.4590804404961
 20
5895.7853224750124
 30
0.0
 11
1733.4590804404961
 21
6320.7853224750124
 31
0.0
  0
LINE
  5
7ACE
  8
1
 10
2313.4590804404961
 20
6320.7853224750124
 30
0.0
 11
1733.4590804404961
 21
5895.7853224750124
 31
0.0
  0
LINE
  5
7ACF
  8
1
 10
1733.4590804404961
 20
5895.7853224750124
 30
0.0
 11
1733.4590804404961
 21
6320.7853224750124
 31
0.0
  0
LINE
  5
7AD0
  8
1
 10
2313.4590804404961
 20
5895.7853224750124
 30
0.0
 11
2313.4590804404961
 21
6320.7853224750124
 31
0.0
  0
LINE
  5
7AD1
  8
1
 10
2394.4590804404952
 20
5753.2853224750124
 30
0.0
 11
1733.4590804404961
 21
5753.2853224750124
 31
0.0
  0
LINE
  5
7AD2
  8
1
 10
1693.4590804404961
 20
5726.2853224750124
 30
0.0
 11
1693.4590804404961
 21
5895.7853224750124
 31
0.0
  0
LINE
  5
7AD3
  8
1
 10
1733.4590804404961
 20
5726.2853224750124
 30
0.0
 11
1733.4590804404961
 21
5895.7853224750124
 31
0.0
  0
LINE
  5
7AD4
  8
1
 10
1827.7590804404961
 20
5663.2853224750133
 30
0.0
 11
1827.7590804404961
 21
5726.2853224750124
 31
0.0
  0
LINE
  5
7AD5
  8
1
 10
2394.4590804404952
 20
5726.2853224750124
 30
0.0
 11
2394.4590804404952
 21
5763.2853224750133
 31
0.0
  0
LINE
  5
7AD6
  8
1
 10
2432.4590804404961
 20
5726.2853224750124
 30
0.0
 11
2432.4590804404961
 21
5763.2853224750133
 31
0.0
  0
LINE
  5
7AD7
  8
1
 10
2270.4590804404961
 20
5763.2853224750133
 30
0.0
 11
2270.4590804404961
 21
5895.7853224750124
 31
0.0
  0
LINE
  5
7AD8
  8
1
 10
2299.1590804404959
 20
5663.2853224750133
 30
0.0
 11
2299.1590804404959
 21
5726.2853224750124
 31
0.0
  0
LINE
  5
7AD9
  8
1
 10
1993.4590804404961
 20
6320.7853224750124
 30
0.0
 11
1993.4590804404961
 21
6384.2853224750124
 31
0.0
  0
LINE
  5
7ADA
  8
1
 10
2638.4590804404961
 20
5753.2853224750124
 30
0.0
 11
2638.4590804404961
 21
6363.2853224750133
 31
0.0
  0
LINE
  5
7ADB
  8
1
 10
2556.4590804404961
 20
5763.2853224750133
 30
0.0
 11
2556.4590804404961
 21
6132.2853224750133
 31
0.0
  0
LINE
  5
7ADC
  8
1
 10
2527.7590804404958
 20
5663.2853224750133
 30
0.0
 11
2527.7590804404958
 21
5726.2853224750124
 31
0.0
  0
LINE
  5
7ADD
  8
1
 10
2577.7590804404958
 20
5648.2853224750124
 30
0.0
 11
2577.7590804404958
 21
5743.2853224750133
 31
0.0
  0
LINE
  5
7ADE
  8
1
 10
4507.2643074281796
 20
3196.1458004750129
 30
0.0
 11
4507.2643074281796
 21
2876.1458004750129
 31
0.0
  0
LINE
  5
7ADF
  8
1
 10
4487.2643074281796
 20
3520.4458004750122
 30
0.0
 11
4487.2643074281796
 21
2888.8458004750119
 31
0.0
  0
LINE
  5
7AE0
  8
1
 10
4392.2643074281796
 20
3520.4458004750122
 30
0.0
 11
4392.2643074281796
 21
2888.8458004750119
 31
0.0
  0
LINE
  5
7AE1
  8
1
 10
5128.2643074281814
 20
3666.1458004750129
 30
0.0
 11
5128.2643074281814
 21
3046.1458004750129
 31
0.0
  0
LINE
  5
7AE2
  8
1
 10
4639.7643074281796
 20
3746.145800475012
 30
0.0
 11
4639.7643074281796
 21
2876.1458004750129
 31
0.0
  0
LINE
  5
7AE3
  8
1
 10
5064.7643074281796
 20
3746.145800475012
 30
0.0
 11
5064.7643074281796
 21
2876.1458004750129
 31
0.0
  0
LINE
  5
7AE4
  8
1
 10
4470.2643074281796
 20
3167.4458004750122
 30
0.0
 11
4470.2643074281796
 21
2938.8458004750132
 31
0.0
  0
LINE
  5
7AE5
  8
1
 10
4407.2643074281814
 20
3167.4458004750122
 30
0.0
 11
4407.2643074281814
 21
2938.8458004750132
 31
0.0
  0
LINE
  5
7AE6
  8
1
 10
4497.2643074281814
 20
2763.1458004750129
 30
0.0
 11
5107.2643074281814
 21
2763.1458004750129
 31
0.0
  0
LINE
  5
7AE7
  8
1
 10
4497.2643074281814
 20
2698.1458004750129
 30
0.0
 11
5107.2643074281814
 21
2698.1458004750129
 31
0.0
  0
LINE
  5
7AE8
  8
1
 10
4497.2643074281814
 20
2876.1458004750129
 30
0.0
 11
5107.2643074281814
 21
2876.1458004750129
 31
0.0
  0
LINE
  5
7AE9
  8
1
 10
4497.2643074281814
 20
2801.145800475012
 30
0.0
 11
5107.2643074281814
 21
2801.145800475012
 31
0.0
  0
LINE
  5
7AEB
  8
1
 10
4497.2643074281814
 20
2763.1458004750129
 30
0.0
 11
4497.2643074281814
 21
2698.1458004750129
 31
0.0
  0
LINE
  5
7AEC
  8
1
 10
4470.2643074281796
 20
3034.1458004750129
 30
0.0
 11
4507.2643074281796
 21
3034.1458004750129
 31
0.0
  0
LINE
  5
7AED
  8
1
 10
4470.2643074281796
 20
3072.1458004750129
 30
0.0
 11
4507.2643074281796
 21
3072.1458004750129
 31
0.0
  0
LINE
  5
7AEE
  8
1
 10
4407.2643074281814
 20
2938.8458004750132
 30
0.0
 11
4470.2643074281796
 21
2938.8458004750132
 31
0.0
  0
LINE
  5
7AEF
  8
1
 10
4507.2643074281796
 20
2921.1458004750129
 30
0.0
 11
4639.7643074281796
 21
2921.1458004750129
 31
0.0
  0
LINE
  5
7AF0
  8
1
 10
4392.2643074281796
 20
2888.8458004750119
 30
0.0
 11
4487.2643074281796
 21
2888.8458004750119
 31
0.0
  0
LINE
  5
7AF1
  8
1
 10
4497.2643074281814
 20
2876.1458004750129
 30
0.0
 11
4497.2643074281814
 21
2801.145800475012
 31
0.0
  0
LINE
  5
7AF2
  8
1
 10
5064.7643074281796
 20
3076.145800475012
 30
0.0
 11
5128.2643074281814
 21
3076.145800475012
 31
0.0
  0
LINE
  5
7AF3
  8
1
 10
5107.2643074281814
 20
2763.1458004750129
 30
0.0
 11
5107.2643074281814
 21
2698.1458004750129
 31
0.0
  0
LINE
  5
7AF4
  8
1
 10
5107.2643074281814
 20
2876.1458004750129
 30
0.0
 11
5107.2643074281814
 21
2801.145800475012
 31
0.0
  0
LINE
  5
7AF5
  8
1
 10
4609.7643074281796
 20
3746.145800475012
 30
0.0
 11
5094.7643074281814
 21
3746.145800475012
 31
0.0
  0
LINE
  5
7AF6
  8
1
 10
4639.7643074281796
 20
3716.1458004750129
 30
0.0
 11
5064.7643074281796
 21
3716.1458004750129
 31
0.0
  0
LINE
  5
7AF7
  8
1
 10
4507.2643074281796
 20
3196.1458004750129
 30
0.0
 11
4639.7643074281796
 21
3196.1458004750129
 31
0.0
  0
LINE
  5
7AF8
  8
1
 10
4392.2643074281796
 20
3520.4458004750122
 30
0.0
 11
4487.2643074281796
 21
3520.4458004750122
 31
0.0
  0
LINE
  5
7AF9
  8
1
 10
4470.2643074281796
 20
3470.4458004750122
 30
0.0
 11
4470.2643074281796
 21
3241.8458004750132
 31
0.0
  0
LINE
  5
7AFA
  8
1
 10
4407.2643074281814
 20
3241.8458004750132
 30
0.0
 11
4470.2643074281796
 21
3241.8458004750132
 31
0.0
  0
LINE
  5
7AFB
  8
1
 10
4407.2643074281814
 20
3470.4458004750122
 30
0.0
 11
4470.2643074281796
 21
3470.4458004750122
 31
0.0
  0
LINE
  5
7AFC
  8
1
 10
4407.2643074281814
 20
3470.4458004750122
 30
0.0
 11
4407.2643074281814
 21
3241.8458004750132
 31
0.0
  0
LINE
  5
7AFD
  8
1
 10
4470.2643074281796
 20
3336.1458004750129
 30
0.0
 11
4639.7643074281796
 21
3336.1458004750129
 31
0.0
  0
LINE
  5
7AFE
  8
1
 10
4470.2643074281796
 20
3376.1458004750129
 30
0.0
 11
4639.7643074281796
 21
3376.1458004750129
 31
0.0
  0
LINE
  5
7AFF
  8
1
 10
4407.2643074281814
 20
3167.4458004750122
 30
0.0
 11
4470.2643074281796
 21
3167.4458004750122
 31
0.0
  0
LINE
  5
7B00
  8
1
 10
5064.7643074281796
 20
3636.1458004750129
 30
0.0
 11
5128.2643074281814
 21
3636.1458004750129
 31
0.0
  0
LINE
  5
7B18
  8
4
 10
5550.0
 20
1500.0
 30
0.0
 11
5550.0
 21
900.0
 31
0.0
  0
LINE
  5
7B19
  8
4
 10
3450.0
 20
1500.0
 30
0.0
 11
3450.0
 21
900.0
 31
0.0
  0
LINE
  5
7B1A
  8
4
 10
1950.0
 20
1500.0
 30
0.0
 11
1950.0
 21
900.0
 31
0.0
  0
LINE
  5
7B1D
  8
4
 10
1950.0
 20
900.0
 30
0.0
 11
5550.0
 21
900.0
 31
0.0
  0
LINE
  5
7B1E
  8
4
 10
1950.0
 20
1200.0
 30
0.0
 11
5550.0
 21
1200.0
 31
0.0
  0
TEXT
  5
7B1F
  8
4
 10
2065.50624225
 20
1294.6290779999999
 30
0.0
 40
150.0
  1
機器名称
  0
TEXT
  5
7B20
  8
4
 10
2058.7743179999989
 20
964.93547024999998
 30
0.0
 40
150.0
  1
機器型番
  0
TEXT
  5
7B21
  8
4
 10
3533.0362365000001
 20
1267.715306249999
 30
0.0
 40
120.0
  1
ミツヤリミットロードファン
  0
TEXT
  5
7B22
  8
4
 10
3559.9634872500001
 20
951.4787527499999
 30
0.0
 40
150.0
  1
LLE#3 1/2-4
  0
TEXT
  5
7B24
  8
4
 10
2356.1912805000002
 20
7150.2865245000012
 30
0.0
 40
162.0
  1
床置防振ベット
  0
TEXT
  5
7B25
  8
4
 10
948.50278049999986
 20
7601.6429287499996
 30
0.0
 40
180.0
  1
ベルト駆動式片吸込両持排煙ファン
  0
LINE
  5
7B26
  8
4
 10
750.0
 20
7408.2262627500004
 30
0.0
 11
5550.0
 21
7408.2262627500004
 31
0.0
  0
LINE
  5
7B27
  8
4
 10
750.0
 20
8008.2262627500004
 30
0.0
 11
5550.0
 21
8008.2262627500004
 31
0.0
  0
LINE
  5
7B28
  8
4
 10
1950.0
 20
1500.0
 30
0.0
 11
5550.0
 21
1500.0
 31
0.0
  0
LINE
  5
7B29
  8
4
 10
750.0
 20
8008.2262627500004
 30
0.0
 11
750.0
 21
7408.2262627500004
 31
0.0
  0
TEXT
  5
7B2A
  8
4
 10
1048.61478375
 20
7146.9584324999987
 30
0.0
 40
162.0
  1
左回転上向
  0
TEXT
  5
7B2B
  8
4
 10
4406.9086777499988
 20
8118.1832445
 30
0.0
 40
168.0
  1
No.
  0
TEXT
  5
7B2C
  8
4
 10
4096.690903499999
 20
7150.2865245000012
 30
0.0
 40
162.0
  1
縮尺：1/30
  0
LINE
  5
7B2D
  8
4
 10
5550.0
 20
8008.2262627500004
 30
0.0
 11
5550.0
 21
7408.2262627500004
 31
0.0
  0
LINE
  5
7B2E
  8
4
 10
5512.5
 20
7743.75
 30
0.0
 11
5512.5
 21
7743.75
 31
0.0
  0
LINE
  5
7B2F
  8
4
 10
4321.8522667500001
 20
8043.79074975
 30
0.0
 11
4321.8522667500001
 21
8359.9567845000001
 31
0.0
  0
LINE
  5
7B30
  8
4
 10
4321.8522667500001
 20
8359.9567845000001
 30
0.0
 11
5550.0
 21
8359.9567845000001
 31
0.0
  0
LINE
  5
7B31
  8
4
 10
5550.0
 20
8359.9567845000001
 30
0.0
 11
5550.0
 21
8043.79074975
 31
0.0
  0
LINE
  5
7B32
  8
4
 10
5550.0
 20
8043.79074975
 30
0.0
 11
4321.8522667500001
 21
8043.79074975
 31
0.0
  0
DIMENSION
  5
7B4B
  8
3
  2
*D1
 10
1713.4590804404961
 20
2424.2078211640542
 30
0.0
 11
1542.6685144921209
 21
2497.6379487610789
 31
0.0
 70
   128
 13
1358.4590804404961
 23
2698.1458004750129
 33
0.0
 14
1713.4590804404961
 24
2618.218890579994
 34
0.0
1001
ACAD
1000
DSTYLE
1002
{
1070
   288
1070
     1
1070
   172
1070
     1
1070
    40
1040
30.0
1070
   271
1070
     0
1070
   143
1040
0.039
1002
}
  0
DIMENSION
  5
7B57
  8
3
  2
*D2
 10
2638.4590804404961
 20
2427.1005244750122
 30
0.0
 11
2175.9590804404961
 21
2502.1005244750122
 31
0.0
 70
     0
 13
1713.4590804404961
 23
2618.218890579994
 33
0.0
 14
2638.4590804404961
 24
2698.1458004750129
 34
0.0
1001
ACAD
1000
DSTYLE
1002
{
1070
   287
1070
     3
1070
   287
1070
     3
1070
    40
1040
30.0
1070
   143
1040
0.039
1070
   172
1070
     1
1070
   271
1070
     0
1070
   279
1070
     0
1070
   288
1070
     1
1002
}
  0
DIMENSION
  5
7B66
  8
3
  2
*D3
 10
2936.8943774404961
 20
3356.1458004750129
 30
0.0
 11
2859.3779909789519
 21
3550.4385863009411
 31
0.0
 70
   128
 13
2343.4590804404961
 23
3746.145800475012
 33
0.0
 14
2279.7795934404958
 24
3356.1458004750129
 34
0.0
 50
90.0
1001
ACAD
1000
DSTYLE
1002
{
1070
   288
1070
     1
1070
   172
1070
     1
1070
    40
1040
30.0
1070
   271
1070
     0
1070
   143
1040
0.039
1002
}
  0
DIMENSION
  5
7B7E
  8
3
  2
*D4
 10
2936.8943774404961
 20
2801.145800475012
 30
0.0
 11
2861.8943774404961
 21
3078.6458004750129
 31
0.0
 70
     0
 13
2279.7795934404958
 23
3356.1458004750129
 33
0.0
 14
2638.4590804404961
 24
2801.145800475012
 34
0.0
 50
90.0
1001
ACAD
1000
DSTYLE
1002
{
1070
   287
1070
     3
1070
   287
1070
     3
1070
    40
1040
30.0
1070
   143
1040
0.039
1070
   172
1070
     1
1070
   271
1070
     0
1070
   279
1070
     0
1070
   288
1070
     1
1002
}
  0
DIMENSION
  5
7B8E
  8
3
  2
*D5
 10
2936.8943774404961
 20
2698.1458004750129
 30
0.0
 11
2936.8943774404961
 21
2433.1458004750129
 31
0.0
 70
   128
 13
2638.4590804404961
 23
2801.145800475012
 33
0.0
 14
2638.4590804404961
 24
2698.1458004750129
 34
0.0
 50
90.0
1001
ACAD
1000
DSTYLE
1002
{
1070
   287
1070
     3
1070
   287
1070
     3
1070
    40
1040
30.0
1070
   143
1040
0.039
1070
   172
1070
     1
1070
   271
1070
     0
1070
   279
1070
     0
1070
   288
1070
     1
1002
}
  0
DIMENSION
  5
7BB5
  8
3
  2
*D6
 10
3211.534247440497
 20
2698.145800475012
 30
0.0
 11
3211.5342474404961
 21
3250.047719475011
 31
0.0
 70
   128
 13
2343.4590804404961
 23
3746.145800475012
 33
0.0
 14
2638.4590804404961
 24
2698.1458004750129
 34
0.0
 50
90.0
1001
ACAD
1000
DSTYLE
1002
{
1070
   287
1070
     3
1070
   287
1070
     3
1070
    40
1040
30.0
1070
   143
1040
0.039
1070
   172
1070
     1
1070
   271
1070
     0
1070
   279
1070
     0
1070
   288
1070
     1
1002
}
  0
DIMENSION
  5
7BC2
  8
3
  2
*D7
 10
2313.4590804404961
 20
3931.7234504750122
 30
0.0
 11
2029.881568440496
 21
3931.7234504750122
 31
0.0
 70
   128
 13
1733.4590804404961
 23
3746.145800475012
 33
0.0
 14
2313.4590804404961
 24
3746.145800475012
 34
0.0
1001
ACAD
1000
DSTYLE
1002
{
1070
   287
1070
     3
1070
   287
1070
     3
1070
    40
1040
30.0
1070
   143
1040
0.039
1070
   172
1070
     1
1070
   271
1070
     0
1070
   279
1070
     0
1070
   288
1070
     1
1002
}
  0
DIMENSION
  5
7BCF
  8
3
  2
*D8
 10
1713.4590804404961
 20
4130.0171984750123
 30
0.0
 11
2028.444640440496
 21
4130.0171984750123
 31
0.0
 70
   128
 13
2313.4590804404961
 23
3746.145800475012
 33
0.0
 14
1713.4590804404961
 24
3688.3313614750118
 34
0.0
1001
ACAD
1000
DSTYLE
1002
{
1070
   287
1070
     3
1070
   287
1070
     3
1070
    40
1040
30.0
1070
   143
1040
0.039
1070
   172
1070
     1
1070
   271
1070
     0
1070
   279
1070
     0
1070
   288
1070
     1
1002
}
  0
DIMENSION
  5
7BDD
  8
3
  2
*D9
 10
1315.4590804404961
 20
4132.171016475012
 30
0.0
 11
1521.8739839476179
 21
4211.2687265921259
 31
0.0
 70
   128
  1
400
 13
1713.4590804404961
 23
3688.3313614750118
 33
0.0
 14
1315.4590804404961
 24
3356.1458004750129
 34
0.0
1001
ACAD
1000
DSTYLE
1002
{
1070
   288
1070
     1
1070
   172
1070
     1
1070
    40
1040
30.0
1070
   271
1070
     0
1070
   143
1040
0.039
1002
}
  0
DIMENSION
  5
7C00
  8
3
  2
*D10
 10
2638.4590804404961
 20
5348.641370475013
 30
0.0
 11
1993.0964004404959
 21
5348.641370475013
 31
0.0
 70
   128
 13
1358.4590804404961
 23
5753.2853224750124
 33
0.0
 14
2638.4590804404961
 24
5753.2853224750124
 34
0.0
1001
ACAD
1000
DSTYLE
1002
{
1070
   287
1070
     3
1070
   287
1070
     3
1070
    40
1040
30.0
1070
   143
1040
0.039
1070
   172
1070
     1
1070
   271
1070
     0
1070
   279
1070
     0
1070
   288
1070
     1
1002
}
  0
DIMENSION
  5
7C0D
  8
3
  2
*D11
 10
2918.476783440497
 20
5753.2853224750124
 30
0.0
 11
2918.4767834404961
 21
6078.0666594750128
 31
0.0
 70
   128
 13
2638.4590804404961
 23
6363.2853224750133
 33
0.0
 14
2638.4590804404961
 24
5753.2853224750124
 34
0.0
 50
90.0
1001
ACAD
1000
DSTYLE
1002
{
1070
   287
1070
     3
1070
   287
1070
     3
1070
    40
1040
30.0
1070
   143
1040
0.039
1070
   172
1070
     1
1070
   271
1070
     0
1070
   279
1070
     0
1070
   288
1070
     1
1002
}
  0
LINE
  5
7C0E
  8
2
 10
1271.1937094404959
 20
6108.2853224750124
 30
0.0
 11
2395.4356714404962
 21
6108.2853224750124
 31
0.0
  0
DIMENSION
  5
7C1E
  8
3
  2
*D12
 10
4852.2643074281796
 20
2480.0703319726449
 30
0.0
 11
4671.7380840596597
 21
2548.7942542072519
 31
0.0
 70
   128
 13
4497.2643074281814
 23
2698.1458004750129
 33
0.0
 14
4852.2643074281796
 24
2612.7062054750122
 34
0.0
1001
ACAD
1000
DSTYLE
1002
{
1070
   288
1070
     1
1070
   172
1070
     1
1070
    40
1040
30.0
1070
   271
1070
     0
1070
   143
1040
0.039
1002
}
  0
DIMENSION
  5
7C2C
  8
3
  2
*D13
 10
5107.2643074281814
 20
2480.605562475012
 30
0.0
 11
4982.4369721414178
 21
2553.5338308172691
 31
0.0
 70
   128
 13
4852.2643074281796
 23
2612.7062054750122
 33
0.0
 14
5107.2643074281814
 24
2698.1458004750129
 34
0.0
1001
ACAD
1000
DSTYLE
1002
{
1070
   288
1070
     1
1070
   172
1070
     1
1070
    40
1040
30.0
1070
   271
1070
     0
1070
   143
1040
0.039
1002
}
  0
DIMENSION
  5
7C51
  8
3
  2
*D14
 10
5064.7643074281796
 20
3904.4993352096681
 30
0.0
 11
4845.4785931424658
 21
3904.4993352096681
 31
0.0
 70
   128
 13
4639.7643074281796
 23
3746.145800475012
 33
0.0
 14
5064.7643074281796
 24
3746.145800475012
 34
0.0
1001
ACAD
1000
DSTYLE
1002
{
1070
   287
1070
     3
1070
   287
1070
     3
1070
    40
1040
30.0
1070
   143
1040
0.039
1070
   172
1070
     1
1070
   271
1070
     0
1070
   279
1070
     0
1070
   288
1070
     1
1002
}
  0
DIMENSION
  5
7C60
  8
3
  2
*D15
 10
4852.2643074281796
 20
4145.4163139336779
 30
0.0
 11
4610.8357359996089
 21
4145.4163139336779
 31
0.0
 70
   128
  1
MAX\P510
 13
4392.2643074281796
 23
3520.4458004750122
 33
0.0
 14
4852.2643074281796
 24
4039.3670636483671
 34
0.0
1001
ACAD
1000
DSTYLE
1002
{
1070
   287
1070
     3
1070
   287
1070
     3
1070
    40
1040
30.0
1070
   143
1040
0.039
1070
   172
1070
     1
1070
   271
1070
     0
1070
   279
1070
     0
1070
   288
1070
     1
1002
}
  0
DIMENSION
  5
7C6E
  8
3
  2
*D16
 10
5128.2643074281814
 20
4146.1162154113772
 30
0.0
 11
4985.8276031745563
 21
4222.6837805090281
 31
0.0
 70
   128
 13
4852.2643074281796
 23
4039.3670636483671
 33
0.0
 14
5128.2643074281814
 24
3666.1458004750129
 34
0.0
1001
ACAD
1000
DSTYLE
1002
{
1070
   288
1070
     1
1070
   172
1070
     1
1070
    40
1040
30.0
1070
   271
1070
     0
1070
   143
1040
0.039
1002
}
  0
DIMENSION
  5
7C91
  8
3
  2
*D17
 10
5311.3257373740134
 20
3076.145800475012
 30
0.0
 11
5311.3257373740116
 21
3376.4315147607272
 31
0.0
 70
   128
 13
5128.2643074281814
 23
3636.1458004750129
 33
0.0
 14
5128.2643074281814
 24
3076.145800475012
 34
0.0
 50
90.0
1001
ACAD
1000
DSTYLE
1002
{
1070
   287
1070
     3
1070
   287
1070
     3
1070
     3
1000
φ<>
1070
    40
1040
30.0
1070
   143
1040
0.039
1070
   172
1070
     1
1070
   271
1070
     0
1070
   279
1070
     0
1070
   288
1070
     1
1002
}
  0
LINE
  5
7C92
  8
2
 10
4326.6020154281796
 20
3356.1458004750129
 30
0.0
 11
5135.5580124281796
 21
3356.1458004750129
 31
0.0
  0
LINE
  5
7C93
  8
2
 10
1713.4590804404961
 20
5590.5464614750126
 30
0.0
 11
1713.4590804404961
 21
6405.7848984750117
 31
0.0
  0
LINE
  5
7C9A
  8
2
 10
4852.2643074281796
 20
3901.532148475012
 30
0.0
 11
4852.2643074281796
 21
2612.7062054750122
 31
0.0
  0
DIMENSION
  5
7FA5
  8
3
  2
*D18
 10
2638.4590804404961
 20
4303.9987485914708
 30
0.0
 11
2050.5585456685621
 21
4303.9987485914708
 31
0.0
 70
   128
 13
1313.4590804404961
 23
3314.145800475012
 33
0.0
 14
2638.4590804404961
 24
2876.1458004750129
 34
0.0
1001
ACAD
1000
DSTYLE
1002
{
1070
   287
1070
     3
1070
   287
1070
     3
1070
    40
1040
30.0
1070
   143
1040
0.039
1070
   172
1070
     1
1070
   271
1070
     0
1070
   279
1070
     0
1070
   288
1070
     1
1002
}
  0
ENDSEC
  0
EOF
