  0
SECTION
  2
HEADER
  9
$ACADVER
  1
AC1009
  9
$INSBASE
 10
0.0
 20
0.0
 30
0.0
  9
$EXTMIN
 10
1452.7462297500001
 20
1332.9675397499991
 30
0.0
  9
$EXTMAX
 10
6252.7462297500006
 20
8792.9243242499997
 30
0.0
  9
$LIMMIN
 10
0.0
 20
0.0
  9
$LIMMAX
 10
297.0
 20
210.0
  9
$ORTHOMODE
 70
     0
  9
$REGENMODE
 70
     1
  9
$FILLMODE
 70
     0
  9
$QTEXTMODE
 70
     0
  9
$MIRRTEXT
 70
     1
  9
$DRAGMODE
 70
     2
  9
$LTSCALE
 40
100.0
  9
$OSMODE
 70
    37
  9
$ATTMODE
 70
     1
  9
$TEXTSIZE
 40
180.0
  9
$TRACEWID
 40
0.05
  9
$TEXTSTYLE
  7
STANDARD
  9
$CLAYER
  8
3
  9
$CELTYPE
  6
BYLAYER
  9
$CECOLOR
 62
   256
  9
$DIMSCALE
 40
30.0
  9
$DIMASZ
 40
2.0
  9
$DIMEXO
 40
0.5
  9
$DIMDLI
 40
10.0
  9
$DIMRND
 40
0.0
  9
$DIMDLE
 40
0.0
  9
$DIMEXE
 40
1.0
  9
$DIMTP
 40
1.0
  9
$DIMTM
 40
1.0
  9
$DIMTXT
 40
3.0
  9
$DIMCEN
 40
0.0
  9
$DIMTSZ
 40
0.0
  9
$DIMTOL
 70
     0
  9
$DIMLIM
 70
     0
  9
$DIMTIH
 70
     0
  9
$DIMTOH
 70
     0
  9
$DIMSE1
 70
     0
  9
$DIMSE2
 70
     0
  9
$DIMTAD
 70
     1
  9
$DIMZIN
 70
     8
  9
$DIMBLK
  1

  9
$DIMASO
 70
     1
  9
$DIMSHO
 70
     1
  9
$DIMPOST
  1

  9
$DIMAPOST
  1

  9
$DIMALT
 70
     0
  9
$DIMALTD
 70
     2
  9
$DIMALTF
 40
0.039
  9
$DIMLFAC
 40
1.0
  9
$DIMTOFL
 70
     1
  9
$DIMTVP
 40
0.0
  9
$DIMTIX
 70
     0
  9
$DIMSOXD
 70
     0
  9
$DIMSAH
 70
     1
  9
$DIMBLK1
  1
OPEN
  9
$DIMBLK2
  1
OPEN
  9
$DIMSTYLE
  2
IGA
  9
$DIMCLRD
 70
     0
  9
$DIMCLRE
 70
     0
  9
$DIMCLRT
 70
     0
  9
$DIMTFAC
 40
10.0
  9
$DIMGAP
 40
1.0
  9
$LUNITS
 70
     2
  9
$LUPREC
 70
     3
  9
$SKETCHINC
 40
0.1
  9
$FILLETRAD
 40
50.0
  9
$AUNITS
 70
     0
  9
$AUPREC
 70
     0
  9
$MENU
  1
acad
  9
$ELEVATION
 40
0.0
  9
$PELEVATION
 40
0.0
  9
$THICKNESS
 40
0.0
  9
$LIMCHECK
 70
     0
  9
$BLIPMODE
 70
     0
  9
$CHAMFERA
 40
0.5
  9
$CHAMFERB
 40
0.5
  9
$SKPOLY
 70
     0
  9
$TDCREATE
 40
2450759.5402131942
  9
$TDUPDATE
 40
2454953.682373588
  9
$TDINDWG
 40
0.0093031019
  9
$TDUSRTIMER
 40
0.0093031019
  9
$USRTIMER
 70
     1
  9
$ANGBASE
 50
0.0
  9
$ANGDIR
 70
     0
  9
$PDMODE
 70
     0
  9
$PDSIZE
 40
0.0
  9
$PLINEWID
 40
0.0
  9
$COORDS
 70
     1
  9
$SPLFRAME
 70
     0
  9
$SPLINETYPE
 70
     6
  9
$SPLINESEGS
 70
     8
  9
$ATTDIA
 70
     0
  9
$ATTREQ
 70
     1
  9
$HANDLING
 70
 10241
  9
$HANDSEED
  5
808E
  9
$SURFTAB1
 70
     6
  9
$SURFTAB2
 70
     6
  9
$SURFTYPE
 70
     6
  9
$SURFU
 70
     6
  9
$SURFV
 70
     6
  9
$UCSNAME
  2

  9
$UCSORG
 10
0.0
 20
0.0
 30
0.0
  9
$UCSXDIR
 10
1.0
 20
0.0
 30
0.0
  9
$UCSYDIR
 10
0.0
 20
1.0
 30
0.0
  9
$PUCSNAME
  2

  9
$PUCSORG
 10
0.0
 20
0.0
 30
0.0
  9
$PUCSXDIR
 10
1.0
 20
0.0
 30
0.0
  9
$PUCSYDIR
 10
0.0
 20
1.0
 30
0.0
  9
$USERI1
 70
     0
  9
$USERI2
 70
     0
  9
$USERI3
 70
     0
  9
$USERI4
 70
     0
  9
$USERI5
 70
     0
  9
$USERR1
 40
0.0
  9
$USERR2
 40
0.0
  9
$USERR3
 40
0.0
  9
$USERR4
 40
0.0
  9
$USERR5
 40
0.0
  9
$WORLDVIEW
 70
     1
  9
$SHADEDGE
 70
     3
  9
$SHADEDIF
 70
    70
  9
$TILEMODE
 70
     1
  9
$MAXACTVP
 70
    16
  9
$PLIMCHECK
 70
     0
  9
$PEXTMIN
 10
1.0000000000000000E+020
 20
1.0000000000000000E+020
 30
1.0000000000000000E+020
  9
$PEXTMAX
 10
-1.0000000000000000E+020
 20
-1.0000000000000000E+020
 30
-1.0000000000000000E+020
  9
$PLIMMIN
 10
0.0
 20
0.0
  9
$PLIMMAX
 10
12.0
 20
9.0
  9
$UNITMODE
 70
     0
  9
$VISRETAIN
 70
     0
  9
$PLINEGEN
 70
     0
  9
$PSLTSCALE
 70
     1
  0
ENDSEC
  0
SECTION
  2
TABLES
  0
TABLE
  2
VPORT
 70
     2
  0
VPORT
  2
*ACTIVE
 70
     0
 10
0.0
 20
0.0
 11
1.0
 21
1.0
 12
14040.54341434331
 22
4095.5808956741739
 13
0.0
 23
0.0
 14
10.0
 24
10.0
 15
10.0
 25
10.0
 16
0.0
 26
0.0
 36
1.0
 17
0.0
 27
0.0
 37
0.0
 40
11075.043720631469
 41
3.1666666666666661
 42
50.0
 43
0.0
 44
0.0
 50
0.0
 51
0.0
 71
     0
 72
   100
 73
     1
 74
     0
 75
     0
 76
     0
 77
     0
 78
     0
  0
ENDTAB
  0
TABLE
  2
LTYPE
 70
     2
  0
LTYPE
  2
CONTINUOUS
 70
     0
  3
Solid line
 72
    65
 73
     0
 40
0.0
  0
LTYPE
  2
CENTER
 70
     0
  3
____ _ ____ _ ____ _ ____ _ ____ _ ____ _ ____ 
 72
    65
 73
     4
 40
2.0
 49
1.25
 49
-0.25
 49
0.25
 49
-0.25
  0
ENDTAB
  0
TABLE
  2
LAYER
 70
     6
  0
LAYER
  2
0
 70
     0
 62
     7
  6
CONTINUOUS
  0
LAYER
  2
3
 70
     0
 62
     2
  6
CONTINUOUS
  0
LAYER
  2
2
 70
     0
 62
     3
  6
CENTER
  0
LAYER
  2
1
 70
     0
 62
     4
  6
CONTINUOUS
  0
LAYER
  2
4
 70
     0
 62
     7
  6
CONTINUOUS
  0
LAYER
  2
DEFPOINTS
 70
     0
 62
     7
  6
CONTINUOUS
  0
ENDTAB
  0
TABLE
  2
STYLE
 70
     1
  0
STYLE
  2
STANDARD
 70
     0
 40
0.0
 41
1.0
 50
0.0
 71
     0
 42
180.0
  3
simplex.shx
  4
extfont.shx
  0
ENDTAB
  0
TABLE
  2
VIEW
 70
     0
  0
ENDTAB
  0
TABLE
  2
UCS
 70
     0
  0
ENDTAB
  0
TABLE
  2
APPID
 70
     1
  0
APPID
  2
ACAD
 70
     0
  0
ENDTAB
  0
TABLE
  2
DIMSTYLE
 70
     1
  0
DIMSTYLE
  2
IGA
 70
     0
  3

  4

  5

  6
OPEN
  7
OPEN
 40
2.0
 41
2.0
 42
0.5
 43
10.0
 44
1.0
 45
0.0
 46
0.0
 47
1.0
 48
1.0
140
3.0
141
0.0
142
0.0
143
0.03937
144
1.0
145
0.0
146
10.0
147
1.0
 71
     0
 72
     0
 73
     0
 74
     0
 75
     0
 76
     0
 77
     1
 78
     8
170
     0
171
     2
172
     0
173
     1
174
     0
175
     0
176
     0
177
     0
178
     0
  0
ENDTAB
  0
ENDSEC
  0
SECTION
  2
BLOCKS
  0
BLOCK
  8
0
  2
$MODEL_SPACE
 70
     0
 10
0.0
 20
0.0
 30
0.0
  3
$MODEL_SPACE
  1

  0
ENDBLK
  5
1B
  8
0
  0
BLOCK
 67
     1
  8
0
  2
$PAPER_SPACE
 70
     0
 10
0.0
 20
0.0
 30
0.0
  3
$PAPER_SPACE
  1

  0
ENDBLK
  5
18
 67
     1
  8
0
  0
BLOCK
  8
0
  2
_OPEN
 70
     0
 10
0.0
 20
0.0
 30
0.0
  3
_OPEN
  1

  0
LINE
  5
7AE7
  8
0
  6
BYBLOCK
 62
     0
 10
-1.0
 20
0.166667
 30
0.0
 11
0.0
 21
0.0
 31
0.0
  0
LINE
  5
7AE8
  8
0
  6
BYBLOCK
 62
     0
 10
0.0
 20
0.0
 30
0.0
 11
-1.0
 21
-0.166667
 31
0.0
  0
LINE
  5
7AE9
  8
0
  6
BYBLOCK
 62
     0
 10
0.0
 20
0.0
 30
0.0
 11
-1.0
 21
0.0
 31
0.0
  0
ENDBLK
  5
7AEA
  8
0
  0
BLOCK
  8
0
  2
*D1
 70
     1
 10
0.0
 20
0.0
 30
0.0
  3
*D1
  1

  0
LINE
  5
8009
  8
3
 62
     0
 10
3772.287550630499
 20
3018.46292350967
 30
0.0
 11
3772.287550630499
 21
2744.7083045096701
 31
0.0
  0
LINE
  5
800A
  8
3
 62
     0
 10
2847.287550630499
 20
2909.898649509671
 30
0.0
 11
2847.287550630499
 21
2744.7083045096701
 31
0.0
  0
LINE
  5
800B
  8
3
 62
     0
 10
3712.287550630499
 20
2774.7083045096701
 30
0.0
 11
2907.287550630499
 21
2774.7083045096701
 31
0.0
  0
INSERT
  5
800C
  8
3
 62
     0
  2
_OPEN
 10
3772.287550630499
 20
2774.7083045096701
 30
0.0
 41
60.0
 42
60.0
 43
60.0
  0
INSERT
  5
800D
  8
3
 62
     0
  2
_OPEN
 10
2847.287550630499
 20
2774.7083045096701
 30
0.0
 41
60.0
 42
60.0
 43
60.0
 50
180.0
  0
TEXT
  8
3
  40
90
  5
8080
  62
0
  72
0
  71
0
 10
3140.87
 20
2690.41
 30
0.000000
  1
925
  0
POINT
  5
800F
  8
DEFPOINTS
 62
     0
 10
3772.287550630499
 20
3033.4629235096709
 30
0.0
  0
POINT
  5
8010
  8
DEFPOINTS
 62
     0
 10
2847.287550630499
 20
2924.8986495096701
 30
0.0
  0
POINT
  5
8011
  8
DEFPOINTS
 62
     0
 10
2847.287550630499
 20
2774.7083045096701
 30
0.0
  0
ENDBLK
  5
7E54
  8
0
  0
BLOCK
  8
0
  2
*D2
 70
     1
 10
0.0
 20
0.0
 30
0.0
  3
*D2
  1

  0
LINE
  5
7E82
  8
0
  6
BYBLOCK
 62
     0
 10
2847.287550630499
 20
2909.898649509671
 30
0.0
 11
2847.287550630499
 21
2744.7083045096701
 31
0.0
  0
LINE
  5
7E83
  8
0
  6
BYBLOCK
 62
     0
 10
2492.287550630499
 20
3018.46292350967
 30
0.0
 11
2492.287550630499
 21
2744.7083045096701
 31
0.0
  0
LINE
  5
7E84
  8
0
  6
BYBLOCK
 62
     0
 10
2787.287550630499
 20
2774.7083045096701
 30
0.0
 11
2552.287550630499
 21
2774.7083045096701
 31
0.0
  0
TEXT
  5
7E85
  8
3
 62
     0
 10
2554.0732649162128
 20
2802.5909104410862
 30
0.0
 40
90.0
  1
355
  0
INSERT
  5
7E86
  8
0
  6
BYBLOCK
 62
     0
  2
_OPEN
 10
2847.287550630499
 20
2774.7083045096701
 30
0.0
 41
60.0
 42
60.0
 43
60.0
  0
INSERT
  5
7E87
  8
0
  6
BYBLOCK
 62
     0
  2
_OPEN
 10
2492.287550630499
 20
2774.7083045096701
 30
0.0
 41
60.0
 42
60.0
 43
60.0
 50
180.0
  0
POINT
  5
7E88
  8
DEFPOINTS
  6
BYBLOCK
 62
     0
 10
2847.287550630499
 20
2924.8986495096701
 30
0.0
  0
POINT
  5
7E89
  8
DEFPOINTS
  6
BYBLOCK
 62
     0
 10
2492.287550630499
 20
3033.4629235096709
 30
0.0
  0
POINT
  5
7E8A
  8
DEFPOINTS
  6
BYBLOCK
 62
     0
 10
2492.287550630499
 20
2774.7083045096701
 30
0.0
  0
ENDBLK
  5
7E8B
  8
0
  0
BLOCK
  8
0
  2
*D3
 70
     1
 10
0.0
 20
0.0
 30
0.0
  3
*D3
  1

  0
LINE
  5
8012
  8
3
 62
     0
 10
2442.287550630499
 20
4206.4629235096709
 30
0.0
 11
2248.2096986305
 21
4206.4629235096709
 31
0.0
  0
LINE
  5
8013
  8
3
 62
     0
 10
2442.287550630499
 20
3626.4629235096709
 30
0.0
 11
2248.2096986305
 21
3626.4629235096709
 31
0.0
  0
LINE
  5
8014
  8
3
 62
     0
 10
2278.2096986305
 20
4146.4629235096709
 30
0.0
 11
2278.2096986305
 21
3686.4629235096709
 31
0.0
  0
INSERT
  5
8015
  8
3
 62
     0
  2
_OPEN
 10
2278.2096986305
 20
4206.4629235096709
 30
0.0
 41
60.0
 42
60.0
 43
60.0
 50
90.0
  0
INSERT
  5
8016
  8
3
 62
     0
  2
_OPEN
 10
2278.2096986305
 20
3626.4629235096709
 30
0.0
 41
60.0
 42
60.0
 43
60.0
 50
270.0
  0
TEXT
  8
3
  40
90
  5
8081
  62
0
  72
0
  71
0
 10
2023.21
 20
3772.88
 30
0.000000
  1
580
  0
POINT
  5
8018
  8
DEFPOINTS
 62
     0
 10
2457.287550630499
 20
4206.4629235096709
 30
0.0
  0
POINT
  5
8019
  8
DEFPOINTS
 62
     0
 10
2457.287550630499
 20
3626.4629235096709
 30
0.0
  0
POINT
  5
801A
  8
DEFPOINTS
 62
     0
 10
2278.2096986305
 20
3626.4629235096709
 30
0.0
  0
ENDBLK
  5
7E3C
  8
0
  0
BLOCK
  8
0
  2
*D4
 70
     1
 10
0.0
 20
0.0
 30
0.0
  3
*D4
  1

  0
LINE
  5
801B
  8
3
 62
     0
 10
2442.287550630499
 20
4206.4629235096709
 30
0.0
 11
2030.3413536305
 21
4206.4629235096709
 31
0.0
  0
LINE
  5
801C
  8
3
 62
     0
 10
2500.1019886304989
 20
3606.4629235096709
 30
0.0
 11
2030.3413536305
 21
3606.4629235096709
 31
0.0
  0
LINE
  5
801D
  8
3
 62
     0
 10
2060.3413536305002
 20
4146.4629235096709
 30
0.0
 11
2060.3413536305002
 21
3666.4629235096709
 31
0.0
  0
INSERT
  5
801E
  8
3
 62
     0
  2
_OPEN
 10
2060.3413536305002
 20
4206.4629235096709
 30
0.0
 41
60.0
 42
60.0
 43
60.0
 50
90.0
  0
INSERT
  5
801F
  8
3
 62
     0
  2
_OPEN
 10
2060.3413536305002
 20
3606.4629235096709
 30
0.0
 41
60.0
 42
60.0
 43
60.0
 50
270.0
  0
TEXT
  8
3
  40
90
  5
8082
  62
0
  72
0
  71
0
 10
1805.34
 20
3772.88
 30
0.000000
  1
600
  0
POINT
  5
8021
  8
DEFPOINTS
 62
     0
 10
2457.287550630499
 20
4206.4629235096709
 30
0.0
  0
POINT
  5
8022
  8
DEFPOINTS
 62
     0
 10
2515.1019886304989
 20
3606.4629235096709
 30
0.0
  0
POINT
  5
8023
  8
DEFPOINTS
 62
     0
 10
2060.3413536305002
 20
3606.4629235096709
 30
0.0
  0
ENDBLK
  5
7E31
  8
0
  0
BLOCK
  8
0
  2
*D5
 70
     1
 10
0.0
 20
0.0
 30
0.0
  3
*D5
  1

  0
LINE
  5
8024
  8
3
 62
     0
 10
2500.1019886304989
 20
3606.4629235096709
 30
0.0
 11
2030.030446630499
 21
3606.4629235096709
 31
0.0
  0
LINE
  5
8025
  8
3
 62
     0
 10
2477.287550630499
 20
3136.4629235096709
 30
0.0
 11
2030.030446630499
 21
3136.4629235096709
 31
0.0
  0
LINE
  5
8026
  8
3
 62
     0
 10
2060.0304466304988
 20
3546.46292350967
 30
0.0
 11
2060.0304466304988
 21
3196.46292350967
 31
0.0
  0
INSERT
  5
8027
  8
3
 62
     0
  2
_OPEN
 10
2060.0304466304988
 20
3606.4629235096709
 30
0.0
 41
60.0
 42
60.0
 43
60.0
 50
90.0
  0
INSERT
  5
8028
  8
3
 62
     0
  2
_OPEN
 10
2060.0304466304988
 20
3136.4629235096709
 30
0.0
 41
60.0
 42
60.0
 43
60.0
 50
270.0
  0
TEXT
  8
3
  40
90
  5
8083
  62
0
  72
0
  71
0
 10
1805.03
 20
3241.45
 30
0.000000
  1
470
  0
POINT
  5
802A
  8
DEFPOINTS
 62
     0
 10
2515.1019886304989
 20
3606.4629235096709
 30
0.0
  0
POINT
  5
802B
  8
DEFPOINTS
 62
     0
 10
2492.287550630499
 20
3136.4629235096709
 30
0.0
  0
POINT
  5
802C
  8
DEFPOINTS
 62
     0
 10
2060.0304466304988
 20
3136.4629235096709
 30
0.0
  0
ENDBLK
  5
7E26
  8
0
  0
BLOCK
  8
0
  2
*D6
 70
     1
 10
0.0
 20
0.0
 30
0.0
  3
*D6
  1

  0
LINE
  5
802D
  8
3
 62
     0
 10
2477.287550630499
 20
3136.4629235096709
 30
0.0
 11
2030.030446630499
 21
3136.4629235096709
 31
0.0
  0
LINE
  5
802E
  8
3
 62
     0
 10
2477.287550630499
 20
3033.4629235096709
 30
0.0
 11
2030.030446630499
 21
3033.4629235096709
 31
0.0
  0
LINE
  5
802F
  8
3
 62
     0
 10
2060.0304466304988
 20
3196.46292350967
 30
0.0
 11
2060.0304466304988
 21
3256.4629235096709
 31
0.0
  0
LINE
  5
8030
  8
3
 62
     0
 10
2060.0304466304988
 20
2973.4629235096709
 30
0.0
 11
2060.0304466304988
 21
2593.46292350967
 31
0.0
  0
LINE
  5
8031
  8
3
 62
     0
 10
2060.0304466304988
 20
3136.4629235096709
 30
0.0
 11
2060.0304466304988
 21
3033.4629235096709
 31
0.0
  0
INSERT
  5
8032
  8
3
 62
     0
  2
_OPEN
 10
2060.0304466304988
 20
3136.4629235096709
 30
0.0
 41
60.0
 42
60.0
 43
60.0
 50
270.0
  0
INSERT
  5
8033
  8
3
 62
     0
  2
_OPEN
 10
2060.0304466304988
 20
3033.4629235096709
 30
0.0
 41
60.0
 42
60.0
 43
60.0
 50
90.0
  0
TEXT
  8
3
  40
90
  5
8084
  62
0
  72
0
  71
0
 10
1805.03
 20
2571.31
 30
0.000000
  1
103
  0
POINT
  5
8035
  8
DEFPOINTS
 62
     0
 10
2492.287550630499
 20
3136.4629235096709
 30
0.0
  0
POINT
  5
8036
  8
DEFPOINTS
 62
     0
 10
2492.287550630499
 20
3033.4629235096709
 30
0.0
  0
POINT
  5
8037
  8
DEFPOINTS
 62
     0
 10
2060.0304466304988
 20
3033.4629235096709
 30
0.0
  0
ENDBLK
  5
7E1B
  8
0
  0
BLOCK
  8
0
  2
*D7
 70
     1
 10
0.0
 20
0.0
 30
0.0
  3
*D7
  1

  0
LINE
  5
8038
  8
3
 62
     0
 10
2442.287550630499
 20
4236.46292350967
 30
0.0
 11
1805.937291630501
 21
4236.4629235096718
 31
0.0
  0
LINE
  5
8039
  8
3
 62
     0
 10
2477.287550630499
 20
3033.4629235096709
 30
0.0
 11
1805.9372916305001
 21
3033.4629235096709
 31
0.0
  0
LINE
  5
803A
  8
3
 62
     0
 10
1835.9372916305001
 20
4176.4629235096718
 30
0.0
 11
1835.9372916305001
 21
3093.4629235096709
 31
0.0
  0
INSERT
  5
803B
  8
3
 62
     0
  2
_OPEN
 10
1835.9372916305001
 20
4236.4629235096718
 30
0.0
 41
60.0
 42
60.0
 43
60.0
 50
90.0
  0
INSERT
  5
803C
  8
3
 62
     0
  2
_OPEN
 10
1835.9372916305001
 20
3033.4629235096709
 30
0.0
 41
60.0
 42
60.0
 43
60.0
 50
270.0
  0
TEXT
  8
3
  40
90
  5
8085
  62
0
  72
0
  71
0
 10
1580.94
 20
3433.01
 30
0.000000
  1
1203
  0
POINT
  5
803E
  8
DEFPOINTS
 62
     0
 10
2457.287550630499
 20
4236.46292350967
 30
0.0
  0
POINT
  5
803F
  8
DEFPOINTS
 62
     0
 10
2492.287550630499
 20
3033.4629235096709
 30
0.0
  0
POINT
  5
8040
  8
DEFPOINTS
 62
     0
 10
1835.9372916305001
 20
3033.4629235096709
 30
0.0
  0
ENDBLK
  5
7E0E
  8
0
  0
BLOCK
  8
0
  2
*D8
 70
     1
 10
0.0
 20
0.0
 30
0.0
  3
*D8
  1

  0
LINE
  5
7E61
  8
0
  6
BYBLOCK
 62
     0
 10
2457.287550630499
 20
4251.4629235096709
 30
0.0
 11
2457.287550630499
 21
4430.3189402875723
 31
0.0
  0
LINE
  5
7E62
  8
0
  6
BYBLOCK
 62
     0
 10
2847.287550630499
 20
4187.7834355096711
 30
0.0
 11
2847.287550630499
 21
4430.3189402875723
 31
0.0
  0
LINE
  5
7E63
  8
0
  6
BYBLOCK
 62
     0
 10
2517.287550630499
 20
4400.3189402875723
 30
0.0
 11
2787.287550630499
 21
4400.3189402875723
 31
0.0
  0
TEXT
  5
7E64
  8
3
 62
     0
 10
2536.5732649162128
 20
4438.6334647870653
 30
0.0
 40
90.0
  1
390
  0
INSERT
  5
7E65
  8
0
  6
BYBLOCK
 62
     0
  2
_OPEN
 10
2457.287550630499
 20
4400.3189402875723
 30
0.0
 41
60.0
 42
60.0
 43
60.0
 50
180.0
  0
INSERT
  5
7E66
  8
0
  6
BYBLOCK
 62
     0
  2
_OPEN
 10
2847.287550630499
 20
4400.3189402875723
 30
0.0
 41
60.0
 42
60.0
 43
60.0
  0
POINT
  5
7E67
  8
DEFPOINTS
  6
BYBLOCK
 62
     0
 10
2457.287550630499
 20
4236.46292350967
 30
0.0
  0
POINT
  5
7E68
  8
DEFPOINTS
  6
BYBLOCK
 62
     0
 10
2847.287550630499
 20
4172.7834355096702
 30
0.0
  0
POINT
  5
7E69
  8
DEFPOINTS
  6
BYBLOCK
 62
     0
 10
2847.287550630499
 20
4400.3189402875723
 30
0.0
  0
ENDBLK
  5
7E6A
  8
0
  0
BLOCK
  8
0
  2
*D9
 70
     1
 10
0.0
 20
0.0
 30
0.0
  3
*D9
  1

  0
LINE
  5
8041
  8
3
 62
     0
 10
2847.287550630499
 20
4187.7834355096711
 30
0.0
 11
2847.287550630499
 21
4430.3189402875723
 31
0.0
  0
LINE
  5
8042
  8
3
 62
     0
 10
3329.2875506304981
 20
3621.4629235096709
 30
0.0
 11
3329.2875506304981
 21
4430.3189402875723
 31
0.0
  0
LINE
  5
8043
  8
3
 62
     0
 10
2907.287550630499
 20
4400.3189402875723
 30
0.0
 11
3269.287550630499
 21
4400.3189402875723
 31
0.0
  0
INSERT
  5
8044
  8
3
 62
     0
  2
_OPEN
 10
2847.287550630499
 20
4400.3189402875723
 30
0.0
 41
60.0
 42
60.0
 43
60.0
 50
180.0
  0
INSERT
  5
8045
  8
3
 62
     0
  2
_OPEN
 10
3329.2875506304981
 20
4400.3189402875723
 30
0.0
 41
60.0
 42
60.0
 43
60.0
  0
TEXT
  8
3
  40
90
  5
8086
  62
0
  72
0
  71
0
 10
2875.14
 20
4316.02
 30
0.000000
  1
484
  0
POINT
  5
8047
  8
DEFPOINTS
 62
     0
 10
2847.287550630499
 20
4172.7834355096702
 30
0.0
  0
POINT
  5
8048
  8
DEFPOINTS
 62
     0
 10
3329.2875506304981
 20
3606.4629235096709
 30
0.0
  0
POINT
  5
8049
  8
DEFPOINTS
 62
     0
 10
3329.2875506304981
 20
4400.3189402875723
 30
0.0
  0
ENDBLK
  5
7F1F
  8
0
  0
BLOCK
  8
0
  2
*D10
 70
     1
 10
0.0
 20
0.0
 30
0.0
  3
*D10
  1

  0
LINE
  5
804A
  8
3
 62
     0
 10
2492.287550630499
 20
5970.5693465096701
 30
0.0
 11
2492.287550630499
 21
5545.0190525096714
 31
0.0
  0
LINE
  5
804B
  8
3
 62
     0
 10
3772.287550630499
 20
5970.5693465096701
 30
0.0
 11
3772.287550630499
 21
5545.0190525096714
 31
0.0
  0
LINE
  5
804C
  8
3
 62
     0
 10
2552.287550630499
 20
5575.0190525096696
 30
0.0
 11
3712.287550630499
 21
5575.0190525096696
 31
0.0
  0
INSERT
  5
804D
  8
3
 62
     0
  2
_OPEN
 10
2492.287550630499
 20
5575.0190525096696
 30
0.0
 41
60.0
 42
60.0
 43
60.0
 50
180.0
  0
INSERT
  5
804E
  8
3
 62
     0
  2
_OPEN
 10
3772.287550630499
 20
5575.0190525096696
 30
0.0
 41
60.0
 42
60.0
 43
60.0
  0
TEXT
  8
3
  40
90
  5
8087
  62
0
  72
0
  71
0
 10
2925.80
 20
5490.72
 30
0.000000
  1
1280
  0
POINT
  5
8050
  8
DEFPOINTS
 62
     0
 10
2492.287550630499
 20
5985.5693465096701
 30
0.0
  0
POINT
  5
8051
  8
DEFPOINTS
 62
     0
 10
3772.287550630499
 20
5985.5693465096701
 30
0.0
  0
POINT
  5
8052
  8
DEFPOINTS
 62
     0
 10
3772.287550630499
 20
5575.0190525096696
 30
0.0
  0
ENDBLK
  5
7DEB
  8
0
  0
BLOCK
  8
0
  2
*D11
 70
     1
 10
0.0
 20
0.0
 30
0.0
  3
*D11
  1

  0
LINE
  5
8053
  8
3
 62
     0
 10
3787.287550630499
 20
6595.5693465096701
 30
0.0
 11
4069.5202096305002
 21
6595.5693465096701
 31
0.0
  0
LINE
  5
8054
  8
3
 62
     0
 10
3787.287550630499
 20
5985.5693465096701
 30
0.0
 11
4069.5202096305002
 21
5985.5693465096701
 31
0.0
  0
LINE
  5
8055
  8
3
 62
     0
 10
4039.5202096305002
 20
6535.569346509671
 30
0.0
 11
4039.5202096305002
 21
6045.5693465096701
 31
0.0
  0
INSERT
  5
8056
  8
3
 62
     0
  2
_OPEN
 10
4039.5202096305002
 20
6595.5693465096701
 30
0.0
 41
60.0
 42
60.0
 43
60.0
 50
90.0
  0
INSERT
  5
8057
  8
3
 62
     0
  2
_OPEN
 10
4039.5202096305002
 20
5985.5693465096701
 30
0.0
 41
60.0
 42
60.0
 43
60.0
 50
270.0
  0
TEXT
  8
3
  40
90
  5
8088
  62
0
  72
0
  71
0
 10
3784.52
 20
6089.13
 30
0.000000
  1
610
  0
POINT
  5
8059
  8
DEFPOINTS
 62
     0
 10
3772.287550630499
 20
6595.5693465096701
 30
0.0
  0
POINT
  5
805A
  8
DEFPOINTS
 62
     0
 10
3772.287550630499
 20
5985.5693465096701
 30
0.0
  0
POINT
  5
805B
  8
DEFPOINTS
 62
     0
 10
4039.5202096305002
 20
5985.5693465096701
 30
0.0
  0
ENDBLK
  5
7DE0
  8
0
  0
BLOCK
  8
0
  2
*D12
 70
     1
 10
0.0
 20
0.0
 30
0.0
  3
*D12
  1

  0
LINE
  5
805C
  8
3
 62
     0
 10
5717.0818343432584
 20
3886.46292350967
 30
0.0
 11
5908.4749644037229
 21
3886.46292350967
 31
0.0
  0
LINE
  5
805D
  8
3
 62
     0
 10
5717.0818343432584
 20
3326.46292350967
 30
0.0
 11
5908.4749644037229
 21
3326.46292350967
 31
0.0
  0
LINE
  5
805E
  8
3
 62
     0
 10
5878.474964403722
 20
3826.4629235096709
 30
0.0
 11
5878.474964403722
 21
3386.46292350967
 31
0.0
  0
INSERT
  5
805F
  8
3
 62
     0
  2
_OPEN
 10
5878.474964403722
 20
3886.46292350967
 30
0.0
 41
60.0
 42
60.0
 43
60.0
 50
90.0
  0
INSERT
  5
8060
  8
3
 62
     0
  2
_OPEN
 10
5878.474964403722
 20
3326.46292350967
 30
0.0
 41
60.0
 42
60.0
 43
60.0
 50
270.0
  0
TEXT
  8
3
  40
90
  5
8089
  62
0
  72
0
  71
0
 10
5623.47
 20
3426.88
 30
0.000000
  1
φ560
  0
POINT
  5
8062
  8
DEFPOINTS
 62
     0
 10
5702.0818343432593
 20
3886.46292350967
 30
0.0
  0
POINT
  5
8063
  8
DEFPOINTS
 62
     0
 10
5702.0818343432593
 20
3326.46292350967
 30
0.0
  0
POINT
  5
8064
  8
DEFPOINTS
 62
     0
 10
5878.474964403722
 20
3326.46292350967
 30
0.0
  0
ENDBLK
  5
7ED8
  8
0
  0
BLOCK
  8
0
  2
*D13
 70
     1
 10
0.0
 20
0.0
 30
0.0
  3
*D13
  1

  0
LINE
  5
8065
  8
3
 62
     0
 10
5213.5818343432584
 20
4221.4629235096709
 30
0.0
 11
5213.5818343432584
 21
4421.8506801688118
 31
0.0
  0
LINE
  5
8066
  8
3
 62
     0
 10
5638.5818343432584
 20
4221.4629235096709
 30
0.0
 11
5638.5818343432584
 21
4421.8506801688118
 31
0.0
  0
LINE
  5
8067
  8
3
 62
     0
 10
5273.5818343432584
 20
4391.8506801688118
 30
0.0
 11
5578.5818343432593
 21
4391.8506801688118
 31
0.0
  0
INSERT
  5
8068
  8
3
 62
     0
  2
_OPEN
 10
5213.5818343432584
 20
4391.8506801688118
 30
0.0
 41
60.0
 42
60.0
 43
60.0
 50
180.0
  0
INSERT
  5
8069
  8
3
 62
     0
  2
_OPEN
 10
5638.5818343432584
 20
4391.8506801688118
 30
0.0
 41
60.0
 42
60.0
 43
60.0
  0
TEXT
  8
3
  40
90
  5
808A
  62
0
  72
0
  71
0
 10
5252.87
 20
4307.55
 30
0.000000
  1
425
  0
POINT
  5
806B
  8
DEFPOINTS
 62
     0
 10
5213.5818343432584
 20
4206.4629235096709
 30
0.0
  0
POINT
  5
806C
  8
DEFPOINTS
 62
     0
 10
5638.5818343432584
 20
4206.4629235096709
 30
0.0
  0
POINT
  5
806D
  8
DEFPOINTS
 62
     0
 10
5638.5818343432584
 20
4391.8506801688118
 30
0.0
  0
ENDBLK
  5
7EB7
  8
0
  0
BLOCK
  8
0
  2
*D14
 70
     1
 10
0.0
 20
0.0
 30
0.0
  3
*D14
  1

  0
LINE
  5
806E
  8
3
 62
     0
 10
4966.0818343432593
 20
3785.7629235096711
 30
0.0
 11
4966.0818343432593
 21
4634.1671351741197
 31
0.0
  0
LINE
  5
806F
  8
3
 62
     0
 10
5426.0818343432584
 20
4553.1295807337174
 30
0.0
 11
5426.0818343432584
 21
4634.1671351741197
 31
0.0
  0
LINE
  5
8070
  8
3
 62
     0
 10
5026.0818343432584
 20
4604.1671351741206
 30
0.0
 11
5366.0818343432584
 21
4604.1671351741206
 31
0.0
  0
INSERT
  5
8071
  8
3
 62
     0
  2
_OPEN
 10
4966.0818343432593
 20
4604.1671351741206
 30
0.0
 41
60.0
 42
60.0
 43
60.0
 50
180.0
  0
INSERT
  5
8072
  8
3
 62
     0
  2
_OPEN
 10
5426.0818343432584
 20
4604.1671351741206
 30
0.0
 41
60.0
 42
60.0
 43
60.0
  0
TEXT
  8
3
  40
90
  5
808B
  62
0
  72
0
  71
0
 10
5027.51
 20
4594.87
 30
0.000000
  1
MAX
  0
TEXT
  8
3
  40
90
  5
808C
  62
0
  72
0
  71
0
 10
5027.51
 20
4477.87
 30
0.000000
  1
510
  0
POINT
  5
8074
  8
DEFPOINTS
 62
     0
 10
4966.0818343432593
 20
3770.7629235096711
 30
0.0
  0
POINT
  5
8075
  8
DEFPOINTS
 62
     0
 10
5426.0818343432584
 20
4538.1295807337174
 30
0.0
  0
POINT
  5
8076
  8
DEFPOINTS
 62
     0
 10
5426.0818343432584
 20
4604.1671351741206
 30
0.0
  0
ENDBLK
  5
7F2E
  8
0
  0
BLOCK
  8
0
  2
*D15
 70
     1
 10
0.0
 20
0.0
 30
0.0
  3
*D15
  1

  0
LINE
  5
7EB9
  8
0
  6
BYBLOCK
 62
     0
 10
5426.0818343432584
 20
4553.1295807337174
 30
0.0
 11
5426.0818343432584
 21
4635.234390914804
 31
0.0
  0
LINE
  5
7EBA
  8
0
  6
BYBLOCK
 62
     0
 10
5702.0818343432593
 20
3901.4629235096709
 30
0.0
 11
5702.0818343432593
 21
4635.234390914804
 31
0.0
  0
LINE
  5
7EBB
  8
0
  6
BYBLOCK
 62
     0
 10
5486.0818343432584
 20
4605.234390914804
 30
0.0
 11
5642.0818343432584
 21
4605.234390914804
 31
0.0
  0
TEXT
  5
7EBC
  8
3
 62
     0
 10
5448.6480600601517
 20
4636.0335769084049
 30
0.0
 40
90.0
  1
276
  0
INSERT
  5
7EBD
  8
0
  6
BYBLOCK
 62
     0
  2
_OPEN
 10
5426.0818343432584
 20
4605.234390914804
 30
0.0
 41
60.0
 42
60.0
 43
60.0
 50
180.0
  0
INSERT
  5
7EBE
  8
0
  6
BYBLOCK
 62
     0
  2
_OPEN
 10
5702.0818343432593
 20
4605.234390914804
 30
0.0
 41
60.0
 42
60.0
 43
60.0
  0
POINT
  5
7EBF
  8
DEFPOINTS
  6
BYBLOCK
 62
     0
 10
5426.0818343432584
 20
4538.1295807337174
 30
0.0
  0
POINT
  5
7EC0
  8
DEFPOINTS
  6
BYBLOCK
 62
     0
 10
5702.0818343432593
 20
3886.46292350967
 30
0.0
  0
POINT
  5
7EC1
  8
DEFPOINTS
  6
BYBLOCK
 62
     0
 10
5702.0818343432593
 20
4605.234390914804
 30
0.0
  0
ENDBLK
  5
7EC2
  8
0
  0
BLOCK
  8
0
  2
*D16
 70
     1
 10
0.0
 20
0.0
 30
0.0
  3
*D16
  1

  0
LINE
  5
7F06
  8
0
  6
BYBLOCK
 62
     0
 10
5071.0818343432584
 20
3018.46292350967
 30
0.0
 11
5071.0818343432584
 21
2764.8252229906388
 31
0.0
  0
LINE
  5
7F07
  8
0
  6
BYBLOCK
 62
     0
 10
5426.0818343432584
 20
2988.0659018712158
 30
0.0
 11
5426.0818343432584
 21
2764.8252229906388
 31
0.0
  0
LINE
  5
7F08
  8
0
  6
BYBLOCK
 62
     0
 10
5131.0818343432593
 20
2794.8252229906388
 30
0.0
 11
5366.0818343432584
 21
2794.8252229906388
 31
0.0
  0
TEXT
  5
7F09
  8
3
 62
     0
 10
5134.7672629051713
 20
2817.9524150264951
 30
0.0
 40
90.0
  1
355
  0
INSERT
  5
7F0A
  8
0
  6
BYBLOCK
 62
     0
  2
_OPEN
 10
5071.0818343432584
 20
2794.8252229906388
 30
0.0
 41
60.0
 42
60.0
 43
60.0
 50
180.0
  0
INSERT
  5
7F0B
  8
0
  6
BYBLOCK
 62
     0
  2
_OPEN
 10
5426.0818343432584
 20
2794.8252229906388
 30
0.0
 41
60.0
 42
60.0
 43
60.0
  0
POINT
  5
7F0C
  8
DEFPOINTS
  6
BYBLOCK
 62
     0
 10
5071.0818343432584
 20
3033.4629235096709
 30
0.0
  0
POINT
  5
7F0D
  8
DEFPOINTS
  6
BYBLOCK
 62
     0
 10
5426.0818343432584
 20
3003.0659018712172
 30
0.0
  0
POINT
  5
7F0E
  8
DEFPOINTS
  6
BYBLOCK
 62
     0
 10
5426.0818343432584
 20
2794.8252229906388
 30
0.0
  0
ENDBLK
  5
7F0F
  8
0
  0
BLOCK
  8
0
  2
*D17
 70
     1
 10
0.0
 20
0.0
 30
0.0
  3
*D17
  1

  0
LINE
  5
7EE5
  8
0
  6
BYBLOCK
 62
     0
 10
5426.0818343432584
 20
2988.0659018712158
 30
0.0
 11
5426.0818343432584
 21
2764.5176745096701
 31
0.0
  0
LINE
  5
7EE6
  8
0
  6
BYBLOCK
 62
     0
 10
5681.0818343432593
 20
3018.46292350967
 30
0.0
 11
5681.0818343432593
 21
2764.5176745096701
 31
0.0
  0
LINE
  5
7EE7
  8
0
  6
BYBLOCK
 62
     0
 10
5486.0818343432584
 20
2794.5176745096701
 30
0.0
 11
5621.0818343432584
 21
2794.5176745096701
 31
0.0
  0
TEXT
  5
7EE8
  8
3
 62
     0
 10
5440.9551388814107
 20
2828.764426870348
 30
0.0
 40
90.0
  1
255
  0
INSERT
  5
7EE9
  8
0
  6
BYBLOCK
 62
     0
  2
_OPEN
 10
5426.0818343432584
 20
2794.5176745096701
 30
0.0
 41
60.0
 42
60.0
 43
60.0
 50
180.0
  0
INSERT
  5
7EEA
  8
0
  6
BYBLOCK
 62
     0
  2
_OPEN
 10
5681.0818343432593
 20
2794.5176745096701
 30
0.0
 41
60.0
 42
60.0
 43
60.0
  0
POINT
  5
7EEB
  8
DEFPOINTS
  6
BYBLOCK
 62
     0
 10
5426.0818343432584
 20
3003.0659018712172
 30
0.0
  0
POINT
  5
7EEC
  8
DEFPOINTS
  6
BYBLOCK
 62
     0
 10
5681.0818343432593
 20
3033.4629235096709
 30
0.0
  0
POINT
  5
7EED
  8
DEFPOINTS
  6
BYBLOCK
 62
     0
 10
5681.0818343432593
 20
2794.5176745096701
 30
0.0
  0
ENDBLK
  5
7EEE
  8
0
  0
BLOCK
  8
0
  2
*D18
 70
     1
 10
0.0
 20
0.0
 30
0.0
  3
*D18
  1

  0
LINE
  5
8077
  8
3
 62
     0
 10
2457.287550630499
 20
4251.4629235096709
 30
0.0
 11
2457.287550630499
 21
4630.9011761882366
 31
0.0
  0
LINE
  5
8078
  8
3
 62
     0
 10
3772.287550630499
 20
3226.46292350967
 30
0.0
 11
3772.287550630499
 21
4630.9011761882366
 31
0.0
  0
LINE
  5
8079
  8
3
 62
     0
 10
2517.287550630499
 20
4600.9011761882366
 30
0.0
 11
3712.287550630499
 21
4600.9011761882366
 31
0.0
  0
INSERT
  5
807A
  8
3
 62
     0
  2
_OPEN
 10
2457.287550630499
 20
4600.9011761882366
 30
0.0
 41
60.0
 42
60.0
 43
60.0
 50
180.0
  0
INSERT
  5
807B
  8
3
 62
     0
  2
_OPEN
 10
3772.287550630499
 20
4600.9011761882366
 30
0.0
 41
60.0
 42
60.0
 43
60.0
  0
TEXT
  8
3
  40
90
  5
808D
  62
0
  72
0
  71
0
 10
2912.01
 20
4516.60
 30
0.000000
  1
1315
  0
POINT
  5
807D
  8
DEFPOINTS
 62
     0
 10
2457.287550630499
 20
4236.46292350967
 30
0.0
  0
POINT
  5
807E
  8
DEFPOINTS
 62
     0
 10
3772.287550630499
 20
3211.46292350967
 30
0.0
  0
POINT
  5
807F
  8
DEFPOINTS
 62
     0
 10
3772.287550630499
 20
4600.9011761882366
 30
0.0
  0
ENDBLK
  5
7F3A
  8
0
  0
ENDSEC
  0
SECTION
  2
ENTITIES
  0
LINE
  5
7A76
  8
1
 10
3772.287550630499
 20
3098.4629235096709
 30
0.0
 11
2492.287550630499
 21
3098.4629235096709
 31
0.0
  0
LINE
  5
7A77
  8
1
 10
3772.287550630499
 20
3033.4629235096709
 30
0.0
 11
2492.287550630499
 21
3033.4629235096709
 31
0.0
  0
LINE
  5
7A78
  8
1
 10
3513.3012576304991
 20
3279.3326255096699
 30
0.0
 11
2813.3012576304991
 21
3497.3326255096699
 31
0.0
  0
LINE
  5
7A79
  8
1
 10
3581.2738426304991
 20
3497.5932215096709
 30
0.0
 11
2881.2738426304991
 21
3715.5932215096709
 31
0.0
  0
LINE
  5
7A7A
  8
1
 10
3498.4341126304998
 20
3231.5940875096699
 30
0.0
 11
2798.4341126304989
 21
3449.5940875096699
 31
0.0
  0
LINE
  5
7A7B
  8
1
 10
3596.1409876305001
 20
3545.3317595096701
 30
0.0
 11
2896.1409876304988
 21
3763.3317595096701
 31
0.0
  0
CIRCLE
  5
7A7C
  8
1
 10
2847.287550630499
 20
3606.4629235096709
 30
0.0
 40
310.0
  0
LINE
  5
7A7D
  8
1
 10
3772.287550630499
 20
3211.46292350967
 30
0.0
 11
2492.287550630499
 21
3211.46292350967
 31
0.0
  0
LINE
  5
7A7E
  8
1
 10
3772.287550630499
 20
3136.4629235096709
 30
0.0
 11
2492.287550630499
 21
3136.4629235096709
 31
0.0
  0
ARC
  5
7A7F
  8
1
 10
2889.2875506304981
 20
3648.4629235096709
 30
0.0
 40
442.0
 50
278.62624399999987
 51
354.54737799999998
  0
ARC
  5
7A80
  8
1
 10
2805.287550630499
 20
3648.4629235096709
 30
0.0
 40
526.0
 50
355.42017599999991
 51
85.420175999999984
  0
CIRCLE
  5
7A81
  8
1
 10
2847.287550630499
 20
3606.4629235096709
 30
0.0
 40
280.0
  0
ARC
  5
7A82
  8
1
 10
2880.2875506304981
 20
3573.4629235096709
 30
0.0
 40
367.0
 50
174.84109599999999
 51
260.53144099999997
  0
LINE
  5
7A83
  8
1
 10
2492.287550630499
 20
3098.4629235096709
 30
0.0
 11
2492.287550630499
 21
3033.4629235096709
 31
0.0
  0
LINE
  5
7A84
  8
1
 10
2492.287550630499
 20
3211.46292350967
 30
0.0
 11
2492.287550630499
 21
3136.4629235096709
 31
0.0
  0
LINE
  5
7A85
  8
1
 10
2487.287550630499
 20
4203.872193509671
 30
0.0
 11
2487.287550630499
 21
3626.4629235096709
 31
0.0
  0
LINE
  5
7A86
  8
1
 10
2457.287550630499
 20
4236.46292350967
 30
0.0
 11
2457.287550630499
 21
3596.4629235096709
 31
0.0
  0
LINE
  5
7A87
  8
2
 10
5722.0562053432586
 20
3606.4629235096709
 30
0.0
 11
4885.0530303280611
 21
3606.4629235096709
 31
0.0
  0
ARC
  5
7A88
  8
1
 10
2847.287550630499
 20
3606.4629235096709
 30
0.0
 40
164.30000000000001
 50
72.70191899999999
 51
252.70191899999989
  0
CIRCLE
  5
7A89
  8
1
 10
2847.287550630499
 20
3606.4629235096709
 30
0.0
 40
114.3
  0
LINE
  5
7A8A
  8
1
 10
2517.990401630499
 20
3626.4629235096709
 30
0.0
 11
2457.287550630499
 21
3626.4629235096709
 31
0.0
  0
ARC
  5
7A8B
  8
1
 10
2814.287550630499
 20
3573.4629235096709
 30
0.0
 40
301.0
 50
169.85850199999999
 51
173.70574999999991
  0
LINE
  5
7A8C
  8
1
 10
2847.287550630499
 20
3770.7629235096711
 30
0.0
 11
2847.287550630499
 21
3770.7629235096711
 31
0.0
  0
LINE
  5
7A8D
  8
2
 10
2847.287550630499
 20
2924.8986495096701
 30
0.0
 11
2847.287550630499
 21
4307.2740765096696
 31
0.0
  0
LINE
  5
7A8E
  8
1
 10
2847.287550630499
 20
4172.7834365096696
 30
0.0
 11
2457.287550630499
 21
4206.4629235096709
 31
0.0
  0
LINE
  5
7A8F
  8
2
 10
3547.287550630499
 20
3269.1629235096698
 30
0.0
 11
3547.287550630499
 21
3507.7629235096711
 31
0.0
  0
ARC
  5
7A90
  8
1
 10
3547.287550630499
 20
3388.4629235096709
 30
0.0
 40
164.30000000000001
 50
252.70191899999989
 51
72.70191899999999
  0
CIRCLE
  5
7A91
  8
1
 10
3547.287550630499
 20
3388.4629235096709
 30
0.0
 40
114.3
  0
ARC
  5
7A92
  8
1
 10
3547.287550630499
 20
3388.4629235096709
 30
0.0
 40
143.0
 50
324.34590999999989
 51
215.65408999999991
  0
LINE
  5
7A93
  8
2
 10
3666.5875506304992
 20
3388.4629235096709
 30
0.0
 11
3427.9875506304988
 21
3388.4629235096709
 31
0.0
  0
LINE
  5
7A94
  8
1
 10
3722.287550630499
 20
3211.46292350967
 30
0.0
 11
3372.287550630499
 21
3211.46292350967
 31
0.0
  0
LINE
  5
7A95
  8
1
 10
3417.287550630499
 20
3256.4629235096709
 30
0.0
 11
3382.287550630499
 21
3256.4629235096709
 31
0.0
  0
LINE
  5
7A96
  8
1
 10
3372.287550630499
 20
3211.46292350967
 30
0.0
 11
3382.287550630499
 21
3256.4629235096709
 31
0.0
  0
LINE
  5
7A97
  8
1
 10
3417.287550630499
 20
3256.4629235096709
 30
0.0
 11
3417.287550630499
 21
3271.4629235096709
 31
0.0
  0
LINE
  5
7A98
  8
1
 10
3417.287550630499
 20
3271.4629235096709
 30
0.0
 11
3431.3168276304991
 21
3305.6556685096698
 31
0.0
  0
LINE
  5
7A99
  8
1
 10
3772.287550630499
 20
3098.4629235096709
 30
0.0
 11
3772.287550630499
 21
3033.4629235096709
 31
0.0
  0
LINE
  5
7A9A
  8
1
 10
3712.287550630499
 20
3256.4629235096709
 30
0.0
 11
3722.287550630499
 21
3211.46292350967
 31
0.0
  0
LINE
  5
7A9B
  8
1
 10
3677.287550630499
 20
3271.4629235096709
 30
0.0
 11
3663.2582726305
 21
3305.6556685096698
 31
0.0
  0
LINE
  5
7A9C
  8
1
 10
3677.287550630499
 20
3256.4629235096709
 30
0.0
 11
3677.287550630499
 21
3271.4629235096709
 31
0.0
  0
LINE
  5
7A9D
  8
1
 10
3712.287550630499
 20
3256.4629235096709
 30
0.0
 11
3677.287550630499
 21
3256.4629235096709
 31
0.0
  0
LINE
  5
7A9E
  8
1
 10
3772.287550630499
 20
3211.46292350967
 30
0.0
 11
3772.287550630499
 21
3136.4629235096709
 31
0.0
  0
LINE
  5
7A9F
  8
1
 10
3711.5875506304992
 20
5975.5693465096701
 30
0.0
 11
2682.9875506305002
 21
5975.5693465096701
 31
0.0
  0
LINE
  5
7AA0
  8
1
 10
3711.5875506304992
 20
5880.5693465096701
 30
0.0
 11
2682.9875506305002
 21
5880.5693465096701
 31
0.0
  0
LINE
  5
7AA1
  8
1
 10
3528.287550630499
 20
5985.5693465096701
 30
0.0
 11
2867.287550630499
 21
5985.5693465096701
 31
0.0
  0
LINE
  5
7AA2
  8
1
 10
3157.287550630499
 20
6616.5693465096701
 30
0.0
 11
2537.287550630499
 21
6616.5693465096701
 31
0.0
  0
LINE
  5
7AA3
  8
1
 10
3331.287550630499
 20
6128.0693465096701
 30
0.0
 11
2457.287550630499
 21
6128.0693465096701
 31
0.0
  0
LINE
  5
7AA4
  8
1
 10
3331.287550630499
 20
6553.0693465096701
 30
0.0
 11
2457.287550630499
 21
6553.0693465096701
 31
0.0
  0
LINE
  5
7AA5
  8
1
 10
3772.287550630499
 20
6595.5693465096701
 30
0.0
 11
3127.287550630499
 21
6595.5693465096701
 31
0.0
  0
LINE
  5
7AA6
  8
1
 10
2487.287550630499
 20
6128.0693465096701
 30
0.0
 11
2487.287550630499
 21
6553.0693465096701
 31
0.0
  0
LINE
  5
7AA7
  8
1
 10
2457.287550630499
 20
6098.0693465096701
 30
0.0
 11
2457.287550630499
 21
6583.0693465096701
 31
0.0
  0
LINE
  5
7AA8
  8
1
 10
2961.5875506304992
 20
5895.5693465096701
 30
0.0
 11
2732.9875506304988
 21
5895.5693465096701
 31
0.0
  0
LINE
  5
7AA9
  8
1
 10
2961.5875506304992
 20
5958.5693465096701
 30
0.0
 11
2732.9875506304988
 21
5958.5693465096701
 31
0.0
  0
LINE
  5
7AAA
  8
1
 10
2827.287550630499
 20
5985.5693465096701
 30
0.0
 11
2492.287550630499
 21
5985.5693465096701
 31
0.0
  0
LINE
  5
7AAB
  8
1
 10
2682.9875506305002
 20
5880.5693465096701
 30
0.0
 11
2682.9875506305002
 21
5975.5693465096701
 31
0.0
  0
LINE
  5
7AAC
  8
1
 10
2732.9875506304988
 20
5895.5693465096701
 30
0.0
 11
2732.9875506304988
 21
5958.5693465096701
 31
0.0
  0
LINE
  5
7AAD
  8
1
 10
2492.287550630499
 20
5985.5693465096701
 30
0.0
 11
2492.287550630499
 21
6128.0693465096701
 31
0.0
  0
LINE
  5
7AAE
  8
1
 10
2961.5875506304992
 20
5895.5693465096701
 30
0.0
 11
2961.5875506304992
 21
5958.5693465096701
 31
0.0
  0
LINE
  5
7AAF
  8
1
 10
2867.287550630499
 20
5958.5693465096701
 30
0.0
 11
2867.287550630499
 21
6128.0693465096701
 31
0.0
  0
LINE
  5
7AB0
  8
1
 10
2827.287550630499
 20
5958.5693465096701
 30
0.0
 11
2827.287550630499
 21
6128.0693465096701
 31
0.0
  0
LINE
  5
7AB1
  8
1
 10
2567.287550630499
 20
6595.5693465096701
 30
0.0
 11
2492.287550630499
 21
6595.5693465096701
 31
0.0
  0
LINE
  5
7AB2
  8
1
 10
2567.287550630499
 20
6553.0693465096701
 30
0.0
 11
2567.287550630499
 21
6616.5693465096701
 31
0.0
  0
LINE
  5
7AB3
  8
1
 10
2492.287550630499
 20
6553.0693465096701
 30
0.0
 11
2492.287550630499
 21
6595.5693465096701
 31
0.0
  0
LINE
  5
7AB4
  8
1
 10
3127.287550630499
 20
6553.0693465096701
 30
0.0
 11
3127.287550630499
 21
6616.5693465096701
 31
0.0
  0
LINE
  5
7AB5
  8
1
 10
3404.287550630499
 20
5995.5693465096701
 30
0.0
 11
3404.287550630499
 21
6364.569346509671
 31
0.0
  0
LINE
  5
7AB6
  8
1
 10
3690.287550630499
 20
5995.5693465096701
 30
0.0
 11
3690.287550630499
 21
6364.569346509671
 31
0.0
  0
LINE
  5
7AB7
  8
1
 10
3331.287550630499
 20
6128.0693465096701
 30
0.0
 11
3331.287550630499
 21
6553.0693465096701
 31
0.0
  0
LINE
  5
7AB8
  8
1
 10
3772.287550630499
 20
5985.5693465096701
 30
0.0
 11
3772.287550630499
 21
6595.5693465096701
 31
0.0
  0
LINE
  5
7AB9
  8
1
 10
3661.5875506304992
 20
5895.5693465096701
 30
0.0
 11
3432.9875506304979
 21
5895.5693465096701
 31
0.0
  0
LINE
  5
7ABA
  8
1
 10
3661.5875506304992
 20
5958.5693465096701
 30
0.0
 11
3432.9875506304979
 21
5958.5693465096701
 31
0.0
  0
LINE
  5
7ABB
  8
1
 10
3404.287550630499
 20
5995.5693465096701
 30
0.0
 11
3690.287550630499
 21
5995.5693465096701
 31
0.0
  0
LINE
  5
7ABC
  8
1
 10
3432.9875506304979
 20
5895.5693465096701
 30
0.0
 11
3432.9875506304979
 21
5958.5693465096701
 31
0.0
  0
LINE
  5
7ABD
  8
1
 10
3528.287550630499
 20
5958.5693465096701
 30
0.0
 11
3528.287550630499
 21
5995.5693465096701
 31
0.0
  0
LINE
  5
7ABE
  8
1
 10
3711.5875506304992
 20
5880.5693465096701
 30
0.0
 11
3711.5875506304992
 21
5975.5693465096701
 31
0.0
  0
LINE
  5
7ABF
  8
1
 10
3661.5875506304992
 20
5895.5693465096701
 30
0.0
 11
3661.5875506304992
 21
5958.5693465096701
 31
0.0
  0
LINE
  5
7AC0
  8
1
 10
3566.287550630499
 20
5958.5693465096701
 30
0.0
 11
3566.287550630499
 21
5995.5693465096701
 31
0.0
  0
LINE
  5
7AC1
  8
1
 10
3772.287550630499
 20
5985.5693465096701
 30
0.0
 11
3566.287550630499
 21
5985.5693465096701
 31
0.0
  0
LINE
  5
7AC2
  8
1
 10
3690.287550630499
 20
6364.569346509671
 30
0.0
 11
3404.287550630499
 21
6364.569346509671
 31
0.0
  0
LINE
  5
7AC3
  8
1
 10
5071.0818343432584
 20
3098.4629235096709
 30
0.0
 11
5681.0818343432593
 21
3098.4629235096709
 31
0.0
  0
LINE
  5
7AC4
  8
1
 10
5071.0818343432584
 20
3033.4629235096709
 30
0.0
 11
5681.0818343432593
 21
3033.4629235096709
 31
0.0
  0
LINE
  5
7AC5
  8
1
 10
5071.0818343432584
 20
3136.4629235096709
 30
0.0
 11
5681.0818343432593
 21
3136.4629235096709
 31
0.0
  0
LINE
  5
7AC6
  8
1
 10
5071.0818343432584
 20
3211.46292350967
 30
0.0
 11
5681.0818343432593
 21
3211.46292350967
 31
0.0
  0
LINE
  5
7AC7
  8
1
 10
5638.5818343432584
 20
3886.46292350967
 30
0.0
 11
5702.0818343432593
 21
3886.46292350967
 31
0.0
  0
LINE
  5
7AC8
  8
1
 10
5638.5818343432584
 20
3326.46292350967
 30
0.0
 11
5702.0818343432593
 21
3326.46292350967
 31
0.0
  0
LINE
  5
7AC9
  8
1
 10
5638.5818343432584
 20
4206.4629235096709
 30
0.0
 11
5638.5818343432584
 21
3211.46292350967
 31
0.0
  0
LINE
  5
7ACA
  8
1
 10
5213.5818343432584
 20
4206.4629235096709
 30
0.0
 11
5213.5818343432584
 21
3211.46292350967
 31
0.0
  0
LINE
  5
7ACB
  8
1
 10
4966.0818343432593
 20
3770.7629235096711
 30
0.0
 11
4966.0818343432593
 21
3224.1629235096711
 31
0.0
  0
LINE
  5
7ACC
  8
1
 10
5061.0818343432593
 20
3770.7629235096711
 30
0.0
 11
5061.0818343432593
 21
3224.1629235096711
 31
0.0
  0
LINE
  5
7ACD
  8
1
 10
4981.0818343432593
 20
3720.7629235096711
 30
0.0
 11
4981.0818343432593
 21
3274.1629235096698
 31
0.0
  0
LINE
  5
7ACE
  8
1
 10
5044.0818343432584
 20
3720.7629235096711
 30
0.0
 11
5044.0818343432584
 21
3274.1629235096698
 31
0.0
  0
LINE
  5
7ACF
  8
1
 10
5081.0818343432584
 20
3531.4629235096709
 30
0.0
 11
5081.0818343432584
 21
3211.46292350967
 31
0.0
  0
LINE
  5
7AD0
  8
1
 10
5071.0818343432584
 20
3098.4629235096709
 30
0.0
 11
5071.0818343432584
 21
3033.4629235096709
 31
0.0
  0
LINE
  5
7AD1
  8
1
 10
5071.0818343432584
 20
3211.46292350967
 30
0.0
 11
5071.0818343432584
 21
3136.4629235096709
 31
0.0
  0
LINE
  5
7AD2
  8
1
 10
4966.0818343432593
 20
3224.1629235096711
 30
0.0
 11
5061.0818343432593
 21
3224.1629235096711
 31
0.0
  0
LINE
  5
7AD3
  8
1
 10
5081.0818343432584
 20
3256.4629235096709
 30
0.0
 11
5213.5818343432584
 21
3256.4629235096709
 31
0.0
  0
LINE
  5
7AD4
  8
1
 10
4981.0818343432593
 20
3274.1629235096698
 30
0.0
 11
5044.0818343432584
 21
3274.1629235096698
 31
0.0
  0
LINE
  5
7AD5
  8
1
 10
5044.0818343432584
 20
3407.4629235096709
 30
0.0
 11
5081.0818343432584
 21
3407.4629235096709
 31
0.0
  0
LINE
  5
7AD6
  8
1
 10
5044.0818343432584
 20
3369.4629235096709
 30
0.0
 11
5081.0818343432584
 21
3369.4629235096709
 31
0.0
  0
LINE
  5
7AD7
  8
1
 10
5213.5818343432584
 20
4206.4629235096709
 30
0.0
 11
5638.5818343432584
 21
3626.4629235096709
 31
0.0
  0
LINE
  5
7AD8
  8
1
 10
5638.5818343432584
 20
4206.4629235096709
 30
0.0
 11
5213.5818343432584
 21
3626.4629235096709
 31
0.0
  0
LINE
  5
7AD9
  8
1
 10
5213.5818343432584
 20
3626.4629235096709
 30
0.0
 11
5638.5818343432584
 21
3626.4629235096709
 31
0.0
  0
LINE
  5
7ADA
  8
1
 10
5044.0818343432584
 20
3626.4629235096709
 30
0.0
 11
5213.5818343432584
 21
3626.4629235096709
 31
0.0
  0
LINE
  5
7ADB
  8
1
 10
5044.0818343432584
 20
3586.46292350967
 30
0.0
 11
5213.5818343432584
 21
3586.46292350967
 31
0.0
  0
LINE
  5
7ADC
  8
1
 10
4981.0818343432593
 20
3720.7629235096711
 30
0.0
 11
5044.0818343432584
 21
3720.7629235096711
 31
0.0
  0
LINE
  5
7ADD
  8
1
 10
4981.0818343432593
 20
3492.1629235096698
 30
0.0
 11
5044.0818343432584
 21
3492.1629235096698
 31
0.0
  0
LINE
  5
7ADE
  8
1
 10
4966.0818343432593
 20
3770.7629235096711
 30
0.0
 11
5061.0818343432593
 21
3770.7629235096711
 31
0.0
  0
LINE
  5
7ADF
  8
1
 10
5081.0818343432584
 20
3531.4629235096709
 30
0.0
 11
5213.5818343432584
 21
3531.4629235096709
 31
0.0
  0
LINE
  5
7AE0
  8
1
 10
5213.5818343432584
 20
4206.4629235096709
 30
0.0
 11
5638.5818343432584
 21
4206.4629235096709
 31
0.0
  0
LINE
  5
7AE1
  8
1
 10
5702.0818343432593
 20
3916.4629235096709
 30
0.0
 11
5702.0818343432593
 21
3296.46292350967
 31
0.0
  0
LINE
  5
7AE2
  8
1
 10
5681.0818343432593
 20
3098.4629235096709
 30
0.0
 11
5681.0818343432593
 21
3033.4629235096709
 31
0.0
  0
LINE
  5
7AE3
  8
1
 10
5681.0818343432593
 20
3211.46292350967
 30
0.0
 11
5681.0818343432593
 21
3136.4629235096709
 31
0.0
  0
DIMENSION
  5
7AF8
  8
3
  2
*D1
 10
2847.287550630499
 20
2774.7083045096701
 30
0.0
 11
3320.865487630499
 21
2774.7083045096701
 31
0.0
 70
   128
 13
3772.287550630499
 23
3033.4629235096709
 33
0.0
 14
2847.287550630499
 24
2924.8986495096701
 34
0.0
1001
ACAD
1000
DSTYLE
1002
{
1070
   287
1070
     3
1070
   287
1070
     3
1070
    40
1040
30.0
1070
   143
1040
0.039
1070
   172
1070
     1
1070
   271
1070
     0
1070
   279
1070
     0
1070
   288
1070
     1
1002
}
  0
DIMENSION
  5
7B06
  8
3
  2
*D2
 10
2492.287550630499
 20
2774.7083045096701
 30
0.0
 11
2669.787550630499
 21
2847.5909104410862
 31
0.0
 70
   128
 13
2847.287550630499
 23
2924.8986495096701
 33
0.0
 14
2492.287550630499
 24
3033.4629235096709
 34
0.0
1001
ACAD
1000
DSTYLE
1002
{
1070
   288
1070
     1
1070
   172
1070
     1
1070
    40
1040
30.0
1070
   271
1070
     0
1070
   143
1040
0.039
1002
}
  0
DIMENSION
  5
7B29
  8
3
  2
*D3
 10
2278.2096986305
 20
3626.4629235096709
 30
0.0
 11
2278.2096986304991
 21
3932.17720850967
 31
0.0
 70
   128
 13
2457.287550630499
 23
4206.4629235096709
 33
0.0
 14
2457.287550630499
 24
3626.4629235096709
 34
0.0
 50
90.0
1001
ACAD
1000
DSTYLE
1002
{
1070
   287
1070
     3
1070
   287
1070
     3
1070
    40
1040
30.0
1070
   143
1040
0.039
1070
   172
1070
     1
1070
   271
1070
     0
1070
   279
1070
     0
1070
   288
1070
     1
1002
}
  0
DIMENSION
  5
7B36
  8
3
  2
*D4
 10
2060.3413536305002
 20
3606.4629235096709
 30
0.0
 11
2060.3413536304988
 21
3932.17720850967
 31
0.0
 70
   128
 13
2457.287550630499
 23
4206.4629235096709
 33
0.0
 14
2515.1019886304989
 24
3606.4629235096709
 34
0.0
 50
90.0
1001
ACAD
1000
DSTYLE
1002
{
1070
   287
1070
     3
1070
   287
1070
     3
1070
    40
1040
30.0
1070
   143
1040
0.039
1070
   172
1070
     1
1070
   271
1070
     0
1070
   279
1070
     0
1070
   288
1070
     1
1002
}
  0
DIMENSION
  5
7B44
  8
3
  2
*D5
 10
2060.0304466304988
 20
3136.4629235096709
 30
0.0
 11
2060.0304466304979
 21
3400.7486377953851
 31
0.0
 70
   128
 13
2515.1019886304989
 23
3606.4629235096709
 33
0.0
 14
2492.287550630499
 24
3136.4629235096709
 34
0.0
 50
90.0
1001
ACAD
1000
DSTYLE
1002
{
1070
   287
1070
     3
1070
   287
1070
     3
1070
    40
1040
30.0
1070
   143
1040
0.039
1070
   172
1070
     1
1070
   271
1070
     0
1070
   279
1070
     0
1070
   288
1070
     1
1002
}
  0
DIMENSION
  5
7B54
  8
3
  2
*D6
 10
2060.0304466304988
 20
3033.4629235096709
 30
0.0
 11
2060.0304466304979
 21
2730.6057806525282
 31
0.0
 70
   128
 13
2492.287550630499
 23
3136.4629235096709
 33
0.0
 14
2492.287550630499
 24
3033.4629235096709
 34
0.0
 50
90.0
1001
ACAD
1000
DSTYLE
1002
{
1070
   287
1070
     3
1070
   287
1070
     3
1070
    40
1040
30.0
1070
   143
1040
0.039
1070
   172
1070
     1
1070
   271
1070
     0
1070
   279
1070
     0
1070
   288
1070
     1
1002
}
  0
DIMENSION
  5
7B91
  8
3
  2
*D7
 10
1835.9372916305001
 20
3033.4629235096709
 30
0.0
 11
1835.9372916305001
 21
3592.31273050967
 31
0.0
 70
   128
 13
2457.287550630499
 23
4236.46292350967
 33
0.0
 14
2492.287550630499
 24
3033.4629235096709
 34
0.0
 50
90.0
1001
ACAD
1000
DSTYLE
1002
{
1070
   287
1070
     3
1070
   287
1070
     3
1070
    40
1040
30.0
1070
   143
1040
0.039
1070
   172
1070
     1
1070
   271
1070
     0
1070
   279
1070
     0
1070
   288
1070
     1
1002
}
  0
DIMENSION
  5
7BA0
  8
3
  2
*D8
 10
2847.287550630499
 20
4400.3189402875723
 30
0.0
 11
2652.287550630499
 21
4483.6334647870644
 31
0.0
 70
   128
 13
2457.287550630499
 23
4236.46292350967
 33
0.0
 14
2847.287550630499
 24
4172.7834355096702
 34
0.0
1001
ACAD
1000
DSTYLE
1002
{
1070
   288
1070
     1
1070
   172
1070
     1
1070
    40
1040
30.0
1070
   271
1070
     0
1070
   143
1040
0.039
1002
}
  0
DIMENSION
  5
7BAE
  8
3
  2
*D9
 10
3329.2875506304981
 20
4400.3189402875723
 30
0.0
 11
3055.1446934876408
 21
4400.3189402875723
 31
0.0
 70
   128
  1
484
 13
2847.287550630499
 23
4172.7834355096702
 33
0.0
 14
3329.2875506304981
 24
3606.4629235096709
 34
0.0
1001
ACAD
1000
DSTYLE
1002
{
1070
   287
1070
     3
1070
   287
1070
     3
1070
    40
1040
30.0
1070
   143
1040
0.039
1070
   172
1070
     1
1070
   271
1070
     0
1070
   279
1070
     0
1070
   288
1070
     1
1002
}
  0
DIMENSION
  5
7BD1
  8
3
  2
*D10
 10
3772.287550630499
 20
5575.0190525096696
 30
0.0
 11
3105.7986396304982
 21
5575.0190525096696
 31
0.0
 70
   128
 13
2492.287550630499
 23
5985.5693465096701
 33
0.0
 14
3772.287550630499
 24
5985.5693465096701
 34
0.0
1001
ACAD
1000
DSTYLE
1002
{
1070
   287
1070
     3
1070
   287
1070
     3
1070
    40
1040
30.0
1070
   143
1040
0.039
1070
   172
1070
     1
1070
   271
1070
     0
1070
   279
1070
     0
1070
   288
1070
     1
1002
}
  0
DIMENSION
  5
7BDE
  8
3
  2
*D11
 10
4039.5202096305002
 20
5985.5693465096701
 30
0.0
 11
4039.5202096304988
 21
6248.4264895096712
 31
0.0
 70
   128
 13
3772.287550630499
 23
6595.5693465096701
 33
0.0
 14
3772.287550630499
 24
5985.5693465096701
 34
0.0
 50
90.0
1001
ACAD
1000
DSTYLE
1002
{
1070
   287
1070
     3
1070
   287
1070
     3
1070
    40
1040
30.0
1070
   143
1040
0.039
1070
   172
1070
     1
1070
   271
1070
     0
1070
   279
1070
     0
1070
   288
1070
     1
1002
}
  0
LINE
  5
7BDF
  8
2
 10
3496.245011630499
 20
6340.569346509671
 30
0.0
 11
2252.9995516304989
 21
6340.569346509671
 31
0.0
  0
DIMENSION
  5
7BEC
  8
3
  2
*D12
 10
5878.474964403722
 20
3326.46292350967
 30
0.0
 11
5878.4749644037211
 21
3586.1772092239562
 31
0.0
 70
   128
 13
5702.0818343432593
 23
3886.46292350967
 33
0.0
 14
5702.0818343432593
 24
3326.46292350967
 34
0.0
 50
90.0
1001
ACAD
1000
DSTYLE
1002
{
1070
   287
1070
     3
1070
   287
1070
     3
1070
     3
1000
φ<>
1070
    40
1040
30.0
1070
   143
1040
0.039
1070
   172
1070
     1
1070
   271
1070
     0
1070
   279
1070
     0
1070
   288
1070
     1
1002
}
  0
DIMENSION
  5
7BFB
  8
3
  2
*D13
 10
5638.5818343432584
 20
4391.8506801688118
 30
0.0
 11
5432.8675486289731
 21
4391.8506801688118
 31
0.0
 70
   128
 13
5213.5818343432584
 23
4206.4629235096709
 33
0.0
 14
5638.5818343432584
 24
4206.4629235096709
 34
0.0
1001
ACAD
1000
DSTYLE
1002
{
1070
   287
1070
     3
1070
   287
1070
     3
1070
    40
1040
30.0
1070
   143
1040
0.039
1070
   172
1070
     1
1070
   271
1070
     0
1070
   279
1070
     0
1070
   288
1070
     1
1002
}
  0
DIMENSION
  5
7C0A
  8
3
  2
*D14
 10
5426.0818343432584
 20
4604.1671351741206
 30
0.0
 11
5207.5104057718299
 21
4604.1671351741206
 31
0.0
 70
   128
  1
MAX\P510
 13
4966.0818343432593
 23
3770.7629235096711
 33
0.0
 14
5426.0818343432584
 24
4538.1295807337174
 34
0.0
1001
ACAD
1000
DSTYLE
1002
{
1070
   287
1070
     3
1070
   287
1070
     3
1070
    40
1040
30.0
1070
   143
1040
0.039
1070
   172
1070
     1
1070
   271
1070
     0
1070
   279
1070
     0
1070
   288
1070
     1
1002
}
  0
DIMENSION
  5
7C18
  8
3
  2
*D15
 10
5702.0818343432593
 20
4605.234390914804
 30
0.0
 11
5562.219488631581
 21
4681.033576908404
 31
0.0
 70
   128
 13
5426.0818343432584
 23
4538.1295807337174
 33
0.0
 14
5702.0818343432593
 24
3886.46292350967
 34
0.0
1001
ACAD
1000
DSTYLE
1002
{
1070
   288
1070
     1
1070
   172
1070
     1
1070
    40
1040
30.0
1070
   271
1070
     0
1070
   143
1040
0.039
1002
}
  0
LINE
  5
7C3B
  8
2
 10
3536.3532186304992
 20
3606.4629235096709
 30
0.0
 11
2444.7586556304991
 21
3606.4629235096709
 31
0.0
  0
LINE
  5
7C3C
  8
2
 10
2847.287550630499
 20
5855.2318815096696
 30
0.0
 11
2847.287550630499
 21
6681.9176165096706
 31
0.0
  0
DIMENSION
  5
7C4A
  8
3
  2
*D16
 10
5426.0818343432584
 20
2794.8252229906388
 30
0.0
 11
5250.4815486194566
 21
2862.9524150264951
 31
0.0
 70
   128
 13
5071.0818343432584
 23
3033.4629235096709
 33
0.0
 14
5426.0818343432584
 24
3003.0659018712172
 34
0.0
1001
ACAD
1000
DSTYLE
1002
{
1070
   288
1070
     1
1070
   172
1070
     1
1070
    40
1040
30.0
1070
   271
1070
     0
1070
   143
1040
0.039
1002
}
  0
DIMENSION
  5
7C58
  8
3
  2
*D17
 10
5681.0818343432593
 20
2794.5176745096701
 30
0.0
 11
5556.669424595696
 21
2873.764426870348
 31
0.0
 70
   128
 13
5426.0818343432584
 23
3003.0659018712172
 33
0.0
 14
5681.0818343432593
 24
3033.4629235096709
 34
0.0
1001
ACAD
1000
DSTYLE
1002
{
1070
   288
1070
     1
1070
   172
1070
     1
1070
    40
1040
30.0
1070
   271
1070
     0
1070
   143
1040
0.039
1002
}
  0
LINE
  5
7C7C
  8
4
 10
6252.7462297500006
 20
1932.96753975
 30
0.0
 11
6252.7462297500006
 21
1332.9675397499991
 31
0.0
  0
LINE
  5
7C7D
  8
4
 10
4152.7462297499987
 20
1932.96753975
 30
0.0
 11
4152.7462297499987
 21
1332.9675397499991
 31
0.0
  0
LINE
  5
7C7E
  8
4
 10
2652.7462297499992
 20
1932.96753975
 30
0.0
 11
2652.7462297499992
 21
1332.9675397499991
 31
0.0
  0
LINE
  5
7C81
  8
4
 10
2652.7462297499992
 20
1332.96753975
 30
0.0
 11
6252.7462297500006
 21
1332.96753975
 31
0.0
  0
LINE
  5
7C82
  8
4
 10
2652.7462297499992
 20
1632.96753975
 30
0.0
 11
6252.7462297500006
 21
1632.96753975
 31
0.0
  0
TEXT
  5
7C83
  8
4
 10
2768.2524720000001
 20
1727.596617749999
 30
0.0
 40
150.0
  1
機器名称
  0
TEXT
  5
7C84
  8
4
 10
2761.520547749999
 20
1397.90301
 30
0.0
 40
150.0
  1
機器型番
  0
TEXT
  5
7C85
  8
4
 10
4235.7824655000004
 20
1700.6828459999999
 30
0.0
 40
120.0
  1
ミツヤリミットロードファン
  0
TEXT
  5
7C86
  8
4
 10
4262.7097162499986
 20
1384.4462924999989
 30
0.0
 40
150.0
  1
LLE#3 1/2-4
  0
TEXT
  5
7C88
  8
4
 10
3022.5138615000001
 20
7583.2540634999996
 30
0.0
 40
162.0
  1
床置防振ベット
  0
TEXT
  5
7C89
  8
4
 10
1651.2490095000001
 20
8034.6104685000018
 30
0.0
 40
180.0
  1
ベルト駆動式片吸込両持排煙ファン
  0
LINE
  5
7C8A
  8
4
 10
1452.7462297500001
 20
7841.1938025000009
 30
0.0
 11
6252.7462297500006
 21
7841.1938025000009
 31
0.0
  0
LINE
  5
7C8B
  8
4
 10
1452.7462297500001
 20
8441.1938025000018
 30
0.0
 11
6252.7462297500006
 21
8441.1938025000018
 31
0.0
  0
LINE
  5
7C8C
  8
4
 10
2652.7462297499992
 20
1932.96753975
 30
0.0
 11
6252.7462297500006
 21
1932.96753975
 31
0.0
  0
LINE
  5
7C8D
  8
4
 10
1452.7462297500001
 20
8441.1938025000018
 30
0.0
 11
1452.7462297500001
 21
7841.1938025000009
 31
0.0
  0
TEXT
  5
7C8E
  8
4
 10
1714.9373647499999
 20
7579.9259722499992
 30
0.0
 40
162.0
  1
左回転左横向
  0
TEXT
  5
7C8F
  8
4
 10
5109.6549075000012
 20
8551.1507835000011
 30
0.0
 40
168.0
  1
No.
  0
TEXT
  5
7C90
  8
4
 10
4636.6344172500003
 20
7583.2540634999996
 30
0.0
 40
162.0
  1
縮尺：1/30
  0
LINE
  5
7C91
  8
4
 10
6252.7462297500006
 20
8441.1938025000018
 30
0.0
 11
6252.7462297500006
 21
7841.1938025000009
 31
0.0
  0
LINE
  5
7C92
  8
4
 10
6127.4029507499999
 20
8122.5965970000007
 30
0.0
 11
6127.4029507499999
 21
8122.5965970000007
 31
0.0
  0
LINE
  5
7C93
  8
4
 10
5024.5984964999998
 20
8476.7582887499993
 30
0.0
 11
5024.5984964999998
 21
8792.9243242499997
 31
0.0
  0
LINE
  5
7C94
  8
4
 10
5024.5984964999998
 20
8792.9243242499997
 30
0.0
 11
6252.7462297500006
 21
8792.9243242499997
 31
0.0
  0
LINE
  5
7C95
  8
4
 10
6252.7462297500006
 20
8792.9243242499997
 30
0.0
 11
6252.7462297500006
 21
8476.7582887499993
 31
0.0
  0
LINE
  5
7C96
  8
4
 10
6252.7462297500006
 20
8476.7582887499993
 30
0.0
 11
5024.5984964999998
 21
8476.7582887499993
 31
0.0
  0
LINE
  5
7CA0
  8
2
 10
5426.0818343432584
 20
4384.4768915096711
 30
0.0
 11
5426.0818343432584
 21
3003.0659018712172
 31
0.0
  0
DIMENSION
  5
7F3B
  8
3
  2
*D18
 10
3772.287550630499
 20
4600.9011761882366
 30
0.0
 11
3092.013216342722
 21
4600.9011761882366
 31
0.0
 70
   128
 13
2457.287550630499
 23
4236.46292350967
 33
0.0
 14
3772.287550630499
 24
3211.46292350967
 34
0.0
1001
ACAD
1000
DSTYLE
1002
{
1070
   287
1070
     3
1070
   287
1070
     3
1070
    40
1040
30.0
1070
   143
1040
0.039
1070
   172
1070
     1
1070
   271
1070
     0
1070
   279
1070
     0
1070
   288
1070
     1
1002
}
  0
ENDSEC
  0
EOF
