  0
SECTION
  2
HEADER
  9
$ACADVER
  1
AC1009
  9
$INSBASE
 10
0.0
 20
0.0
 30
0.0
  9
$EXTMIN
 10
86.006074980290578
 20
293.33960874949298
 30
0.0
  9
$EXTMAX
 10
4886.0060749802897
 20
7753.296393249494
 30
0.0
  9
$LIMMIN
 10
0.0
 20
0.0
  9
$LIMMAX
 10
297.0
 20
210.0
  9
$ORTHOMODE
 70
     0
  9
$REGENMODE
 70
     1
  9
$FILLMODE
 70
     0
  9
$QTEXTMODE
 70
     0
  9
$MIRRTEXT
 70
     1
  9
$DRAGMODE
 70
     2
  9
$LTSCALE
 40
100.0
  9
$OSMODE
 70
    37
  9
$ATTMODE
 70
     1
  9
$TEXTSIZE
 40
180.0
  9
$TRACEWID
 40
0.05
  9
$TEXTSTYLE
  7
STANDARD
  9
$CLAYER
  8
3
  9
$CELTYPE
  6
BYLAYER
  9
$CECOLOR
 62
   256
  9
$DIMSCALE
 40
30.0
  9
$DIMASZ
 40
2.0
  9
$DIMEXO
 40
0.5
  9
$DIMDLI
 40
10.0
  9
$DIMRND
 40
0.0
  9
$DIMDLE
 40
0.0
  9
$DIMEXE
 40
1.0
  9
$DIMTP
 40
1.0
  9
$DIMTM
 40
1.0
  9
$DIMTXT
 40
3.0
  9
$DIMCEN
 40
0.0
  9
$DIMTSZ
 40
0.0
  9
$DIMTOL
 70
     0
  9
$DIMLIM
 70
     0
  9
$DIMTIH
 70
     0
  9
$DIMTOH
 70
     0
  9
$DIMSE1
 70
     0
  9
$DIMSE2
 70
     0
  9
$DIMTAD
 70
     1
  9
$DIMZIN
 70
     8
  9
$DIMBLK
  1

  9
$DIMASO
 70
     1
  9
$DIMSHO
 70
     1
  9
$DIMPOST
  1

  9
$DIMAPOST
  1

  9
$DIMALT
 70
     0
  9
$DIMALTD
 70
     2
  9
$DIMALTF
 40
0.039
  9
$DIMLFAC
 40
1.0
  9
$DIMTOFL
 70
     1
  9
$DIMTVP
 40
0.0
  9
$DIMTIX
 70
     0
  9
$DIMSOXD
 70
     0
  9
$DIMSAH
 70
     1
  9
$DIMBLK1
  1
OPEN
  9
$DIMBLK2
  1
OPEN
  9
$DIMSTYLE
  2
IGA
  9
$DIMCLRD
 70
     0
  9
$DIMCLRE
 70
     0
  9
$DIMCLRT
 70
     0
  9
$DIMTFAC
 40
10.0
  9
$DIMGAP
 40
1.0
  9
$LUNITS
 70
     2
  9
$LUPREC
 70
     3
  9
$SKETCHINC
 40
0.1
  9
$FILLETRAD
 40
50.0
  9
$AUNITS
 70
     0
  9
$AUPREC
 70
     0
  9
$MENU
  1
acad
  9
$ELEVATION
 40
0.0
  9
$PELEVATION
 40
0.0
  9
$THICKNESS
 40
0.0
  9
$LIMCHECK
 70
     0
  9
$BLIPMODE
 70
     0
  9
$CHAMFERA
 40
0.5
  9
$CHAMFERB
 40
0.5
  9
$SKPOLY
 70
     0
  9
$TDCREATE
 40
2450760.5381025458
  9
$TDUPDATE
 40
2454953.6823236691
  9
$TDINDWG
 40
0.0234760417
  9
$TDUSRTIMER
 40
0.0234760417
  9
$USRTIMER
 70
     1
  9
$ANGBASE
 50
0.0
  9
$ANGDIR
 70
     0
  9
$PDMODE
 70
     0
  9
$PDSIZE
 40
0.0
  9
$PLINEWID
 40
0.0
  9
$COORDS
 70
     1
  9
$SPLFRAME
 70
     0
  9
$SPLINETYPE
 70
     6
  9
$SPLINESEGS
 70
     8
  9
$ATTDIA
 70
     0
  9
$ATTREQ
 70
     1
  9
$HANDLING
 70
 10241
  9
$HANDSEED
  5
82F6
  9
$SURFTAB1
 70
     6
  9
$SURFTAB2
 70
     6
  9
$SURFTYPE
 70
     6
  9
$SURFU
 70
     6
  9
$SURFV
 70
     6
  9
$UCSNAME
  2

  9
$UCSORG
 10
0.0
 20
0.0
 30
0.0
  9
$UCSXDIR
 10
1.0
 20
0.0
 30
0.0
  9
$UCSYDIR
 10
0.0
 20
1.0
 30
0.0
  9
$PUCSNAME
  2

  9
$PUCSORG
 10
0.0
 20
0.0
 30
0.0
  9
$PUCSXDIR
 10
1.0
 20
0.0
 30
0.0
  9
$PUCSYDIR
 10
0.0
 20
1.0
 30
0.0
  9
$USERI1
 70
     0
  9
$USERI2
 70
     0
  9
$USERI3
 70
     0
  9
$USERI4
 70
     0
  9
$USERI5
 70
     0
  9
$USERR1
 40
0.0
  9
$USERR2
 40
0.0
  9
$USERR3
 40
0.0
  9
$USERR4
 40
0.0
  9
$USERR5
 40
0.0
  9
$WORLDVIEW
 70
     1
  9
$SHADEDGE
 70
     3
  9
$SHADEDIF
 70
    70
  9
$TILEMODE
 70
     1
  9
$MAXACTVP
 70
    16
  9
$PLIMCHECK
 70
     0
  9
$PEXTMIN
 10
1.0000000000000000E+020
 20
1.0000000000000000E+020
 30
1.0000000000000000E+020
  9
$PEXTMAX
 10
-1.0000000000000000E+020
 20
-1.0000000000000000E+020
 30
-1.0000000000000000E+020
  9
$PLIMMIN
 10
0.0
 20
0.0
  9
$PLIMMAX
 10
12.0
 20
9.0
  9
$UNITMODE
 70
     0
  9
$VISRETAIN
 70
     0
  9
$PLINEGEN
 70
     0
  9
$PSLTSCALE
 70
     1
  0
ENDSEC
  0
SECTION
  2
TABLES
  0
TABLE
  2
VPORT
 70
     2
  0
VPORT
  2
*ACTIVE
 70
     0
 10
0.0
 20
0.0
 11
1.0
 21
1.0
 12
19818.741324876639
 22
3546.3423657838762
 13
0.0
 23
0.0
 14
10.0
 24
10.0
 15
10.0
 25
10.0
 16
0.0
 26
0.0
 36
1.0
 17
0.0
 27
0.0
 37
0.0
 40
15388.4766382747
 41
3.1666666666666661
 42
50.0
 43
0.0
 44
0.0
 50
0.0
 51
0.0
 71
     0
 72
   100
 73
     1
 74
     0
 75
     0
 76
     0
 77
     0
 78
     0
  0
ENDTAB
  0
TABLE
  2
LTYPE
 70
     2
  0
LTYPE
  2
CONTINUOUS
 70
     0
  3
Solid line
 72
    65
 73
     0
 40
0.0
  0
LTYPE
  2
CENTER
 70
     0
  3
____ _ ____ _ ____ _ ____ _ ____ _ ____ _ ____ 
 72
    65
 73
     4
 40
2.0
 49
1.25
 49
-0.25
 49
0.25
 49
-0.25
  0
ENDTAB
  0
TABLE
  2
LAYER
 70
     6
  0
LAYER
  2
0
 70
     0
 62
     7
  6
CONTINUOUS
  0
LAYER
  2
3
 70
     0
 62
     2
  6
CONTINUOUS
  0
LAYER
  2
2
 70
     0
 62
     3
  6
CENTER
  0
LAYER
  2
1
 70
     0
 62
     4
  6
CONTINUOUS
  0
LAYER
  2
4
 70
     0
 62
     7
  6
CONTINUOUS
  0
LAYER
  2
DEFPOINTS
 70
     0
 62
     7
  6
CONTINUOUS
  0
ENDTAB
  0
TABLE
  2
STYLE
 70
     1
  0
STYLE
  2
STANDARD
 70
     0
 40
0.0
 41
1.0
 50
0.0
 71
     0
 42
180.0
  3
simplex.shx
  4
extfont.shx
  0
ENDTAB
  0
TABLE
  2
VIEW
 70
     0
  0
ENDTAB
  0
TABLE
  2
UCS
 70
     0
  0
ENDTAB
  0
TABLE
  2
APPID
 70
     1
  0
APPID
  2
ACAD
 70
     0
  0
ENDTAB
  0
TABLE
  2
DIMSTYLE
 70
     1
  0
DIMSTYLE
  2
IGA
 70
     0
  3

  4

  5

  6
OPEN
  7
OPEN
 40
2.0
 41
2.0
 42
0.5
 43
10.0
 44
1.0
 45
0.0
 46
0.0
 47
1.0
 48
1.0
140
3.0
141
0.0
142
0.0
143
0.03937
144
1.0
145
0.0
146
10.0
147
1.0
 71
     0
 72
     0
 73
     0
 74
     0
 75
     0
 76
     0
 77
     1
 78
     8
170
     0
171
     2
172
     0
173
     1
174
     0
175
     0
176
     0
177
     0
178
     0
  0
ENDTAB
  0
ENDSEC
  0
SECTION
  2
BLOCKS
  0
BLOCK
  8
0
  2
$MODEL_SPACE
 70
     0
 10
0.0
 20
0.0
 30
0.0
  3
$MODEL_SPACE
  1

  0
ENDBLK
  5
1B
  8
0
  0
BLOCK
 67
     1
  8
0
  2
$PAPER_SPACE
 70
     0
 10
0.0
 20
0.0
 30
0.0
  3
$PAPER_SPACE
  1

  0
ENDBLK
  5
18
 67
     1
  8
0
  0
BLOCK
  8
0
  2
_OPEN
 70
     0
 10
0.0
 20
0.0
 30
0.0
  3
_OPEN
  1

  0
LINE
  5
7ADE
  8
0
  6
BYBLOCK
 62
     0
 10
-1.0
 20
0.166667
 30
0.0
 11
0.0
 21
0.0
 31
0.0
  0
LINE
  5
7ADF
  8
0
  6
BYBLOCK
 62
     0
 10
0.0
 20
0.0
 30
0.0
 11
-1.0
 21
-0.166667
 31
0.0
  0
LINE
  5
7AE0
  8
0
  6
BYBLOCK
 62
     0
 10
0.0
 20
0.0
 30
0.0
 11
-1.0
 21
0.0
 31
0.0
  0
ENDBLK
  5
7AE1
  8
0
  0
BLOCK
  8
0
  2
*D1
 70
     1
 10
0.0
 20
0.0
 30
0.0
  3
*D1
  1

  0
LINE
  5
7DE9
  8
0
  6
BYBLOCK
 62
     0
 10
1692.929052633209
 20
2041.878878734283
 30
0.0
 11
1692.929052633209
 21
1820.5964924078989
 31
0.0
  0
LINE
  5
7DEA
  8
0
  6
BYBLOCK
 62
     0
 10
2047.929052633209
 20
1931.6395677342821
 30
0.0
 11
2047.929052633209
 21
1820.5964924078989
 31
0.0
  0
LINE
  5
7DEB
  8
0
  6
BYBLOCK
 62
     0
 10
1752.9290526332079
 20
1850.5964924078989
 30
0.0
 11
1987.929052633209
 21
1850.5964924078989
 31
0.0
  0
TEXT
  5
7DEC
  8
3
 62
     0
 10
1768.1182415997839
 20
1874.648594510641
 30
0.0
 40
90.0
  1
355
  0
INSERT
  5
7DED
  8
0
  6
BYBLOCK
 62
     0
  2
_OPEN
 10
1692.929052633209
 20
1850.5964924078989
 30
0.0
 41
60.0
 42
60.0
 43
60.0
 50
180.0
  0
INSERT
  5
7DEE
  8
0
  6
BYBLOCK
 62
     0
  2
_OPEN
 10
2047.929052633209
 20
1850.5964924078989
 30
0.0
 41
60.0
 42
60.0
 43
60.0
  0
POINT
  5
7DEF
  8
DEFPOINTS
  6
BYBLOCK
 62
     0
 10
1692.929052633209
 20
2056.8788787342819
 30
0.0
  0
POINT
  5
7DF0
  8
DEFPOINTS
  6
BYBLOCK
 62
     0
 10
2047.929052633209
 20
1946.6395677342821
 30
0.0
  0
POINT
  5
7DF1
  8
DEFPOINTS
  6
BYBLOCK
 62
     0
 10
2047.929052633209
 20
1850.5964924078989
 30
0.0
  0
ENDBLK
  5
7DF2
  8
0
  0
BLOCK
  8
0
  2
*D2
 70
     1
 10
0.0
 20
0.0
 30
0.0
  3
*D2
  1

  0
LINE
  5
827B
  8
3
 62
     0
 10
2047.929052633209
 20
1931.6395677342821
 30
0.0
 11
2047.929052633209
 21
1820.5964924078989
 31
0.0
  0
LINE
  5
827C
  8
3
 62
     0
 10
2972.9290526332079
 20
2041.878878734283
 30
0.0
 11
2972.9290526332079
 21
1820.5964924078989
 31
0.0
  0
LINE
  5
827D
  8
3
 62
     0
 10
2107.9290526332079
 20
1850.5964924078989
 30
0.0
 11
2912.9290526332088
 21
1850.5964924078989
 31
0.0
  0
INSERT
  5
827E
  8
3
 62
     0
  2
_OPEN
 10
2047.929052633209
 20
1850.5964924078989
 30
0.0
 41
60.0
 42
60.0
 43
60.0
 50
180.0
  0
INSERT
  5
827F
  8
3
 62
     0
  2
_OPEN
 10
2972.9290526332079
 20
1850.5964924078989
 30
0.0
 41
60.0
 42
60.0
 43
60.0
  0
TEXT
  8
3
  40
90
  5
82E9
  62
0
  72
0
  71
0
 10
2330.43
 20
1766.30
 30
0.000000
  1
925
  0
POINT
  5
8281
  8
DEFPOINTS
 62
     0
 10
2047.929052633209
 20
1946.6395677342821
 30
0.0
  0
POINT
  5
8282
  8
DEFPOINTS
 62
     0
 10
2972.9290526332079
 20
2056.8788787342819
 30
0.0
  0
POINT
  5
8283
  8
DEFPOINTS
 62
     0
 10
2972.9290526332079
 20
1850.5964924078989
 30
0.0
  0
ENDBLK
  5
7DE7
  8
0
  0
BLOCK
  8
0
  2
*D3
 70
     1
 10
0.0
 20
0.0
 30
0.0
  3
*D3
  1

  0
LINE
  5
8284
  8
3
 62
     0
 10
1642.9290526332079
 20
2756.8788787342828
 30
0.0
 11
1413.804838633208
 21
2756.8788787342828
 31
0.0
  0
LINE
  5
8285
  8
3
 62
     0
 10
1642.9290526332079
 20
2176.8788787342819
 30
0.0
 11
1413.804838633208
 21
2176.8788787342819
 31
0.0
  0
LINE
  5
8286
  8
3
 62
     0
 10
1443.8048386332091
 20
2696.8788787342828
 30
0.0
 11
1443.804838633208
 21
2236.8788787342828
 31
0.0
  0
INSERT
  5
8287
  8
3
 62
     0
  2
_OPEN
 10
1443.8048386332091
 20
2756.8788787342828
 30
0.0
 41
60.0
 42
60.0
 43
60.0
 50
90.0
  0
INSERT
  5
8288
  8
3
 62
     0
  2
_OPEN
 10
1443.804838633208
 20
2176.8788787342819
 30
0.0
 41
60.0
 42
60.0
 43
60.0
 50
270.0
  0
TEXT
  8
3
  40
90
  5
82EA
  62
0
  72
0
  71
0
 10
1188.80
 20
2316.20
 30
0.000000
  1
580
  0
POINT
  5
828A
  8
DEFPOINTS
 62
     0
 10
1657.9290526332079
 20
2756.8788787342828
 30
0.0
  0
POINT
  5
828B
  8
DEFPOINTS
 62
     0
 10
1657.9290526332079
 20
2176.8788787342819
 30
0.0
  0
POINT
  5
828C
  8
DEFPOINTS
 62
     0
 10
1443.804838633208
 20
2176.8788787342819
 30
0.0
  0
ENDBLK
  5
7CD1
  8
0
  0
BLOCK
  8
0
  2
*D4
 70
     1
 10
0.0
 20
0.0
 30
0.0
  3
*D4
  1

  0
LINE
  5
828D
  8
3
 62
     0
 10
1700.743491633209
 20
2776.8788787342828
 30
0.0
 11
1235.327885633209
 21
2776.8788787342828
 31
0.0
  0
LINE
  5
828E
  8
3
 62
     0
 10
1642.9290526332079
 20
2176.8788787342819
 30
0.0
 11
1235.327885633209
 21
2176.8788787342819
 31
0.0
  0
LINE
  5
828F
  8
3
 62
     0
 10
1265.327885633209
 20
2716.8788787342828
 30
0.0
 11
1265.327885633209
 21
2236.8788787342828
 31
0.0
  0
INSERT
  5
8290
  8
3
 62
     0
  2
_OPEN
 10
1265.327885633209
 20
2776.8788787342828
 30
0.0
 41
60.0
 42
60.0
 43
60.0
 50
90.0
  0
INSERT
  5
8291
  8
3
 62
     0
  2
_OPEN
 10
1265.327885633209
 20
2176.8788787342819
 30
0.0
 41
60.0
 42
60.0
 43
60.0
 50
270.0
  0
TEXT
  8
3
  40
90
  5
82EB
  62
0
  72
0
  71
0
 10
1010.33
 20
2336.01
 30
0.000000
  1
600
  0
POINT
  5
8293
  8
DEFPOINTS
 62
     0
 10
1715.743491633209
 20
2776.8788787342828
 30
0.0
  0
POINT
  5
8294
  8
DEFPOINTS
 62
     0
 10
1657.9290526332079
 20
2176.8788787342819
 30
0.0
  0
POINT
  5
8295
  8
DEFPOINTS
 62
     0
 10
1265.327885633209
 20
2176.8788787342819
 30
0.0
  0
ENDBLK
  5
7CC6
  8
0
  0
BLOCK
  8
0
  2
*D5
 70
     1
 10
0.0
 20
0.0
 30
0.0
  3
*D5
  1

  0
LINE
  5
7E19
  8
0
  6
BYBLOCK
 62
     0
 10
2032.9290526332079
 20
3174.8788787342828
 30
0.0
 11
1046.9355716332079
 21
3174.8788787342828
 31
0.0
  0
LINE
  5
7E1A
  8
0
  6
BYBLOCK
 62
     0
 10
1700.743491633209
 20
2776.8788787342828
 30
0.0
 11
1046.9355716332079
 21
2776.8788787342828
 31
0.0
  0
LINE
  5
7E1B
  8
0
  6
BYBLOCK
 62
     0
 10
1076.9355716332079
 20
3114.8788787342819
 30
0.0
 11
1076.9355716332079
 21
2836.8788787342828
 31
0.0
  0
TEXT
  5
7E1C
  8
3
 62
     0
 10
1054.274671393883
 20
2860.164593019997
 30
0.0
 40
90.0
  1
400
 50
90.0
  0
INSERT
  5
7E1D
  8
0
  6
BYBLOCK
 62
     0
  2
_OPEN
 10
1076.9355716332079
 20
3174.8788787342828
 30
0.0
 41
60.0
 42
60.0
 43
60.0
 50
90.0
  0
INSERT
  5
7E1E
  8
0
  6
BYBLOCK
 62
     0
  2
_OPEN
 10
1076.9355716332079
 20
2776.8788787342828
 30
0.0
 41
60.0
 42
60.0
 43
60.0
 50
270.0
  0
POINT
  5
7E1F
  8
DEFPOINTS
  6
BYBLOCK
 62
     0
 10
2047.929052633209
 20
3174.8788787342828
 30
0.0
  0
POINT
  5
7E20
  8
DEFPOINTS
  6
BYBLOCK
 62
     0
 10
1715.743491633209
 20
2776.8788787342828
 30
0.0
  0
POINT
  5
7E21
  8
DEFPOINTS
  6
BYBLOCK
 62
     0
 10
1076.9355716332079
 20
2776.8788787342828
 30
0.0
  0
ENDBLK
  5
7E22
  8
0
  0
BLOCK
  8
0
  2
*D6
 70
     1
 10
0.0
 20
0.0
 30
0.0
  3
*D6
  1

  0
LINE
  5
8296
  8
3
 62
     0
 10
1700.743491633209
 20
2776.8788787342828
 30
0.0
 11
1046.9355716332079
 21
2776.8788787342828
 31
0.0
  0
LINE
  5
8297
  8
3
 62
     0
 10
1677.9290526332079
 20
2056.8788787342819
 30
0.0
 11
1046.9355716332079
 21
2056.8788787342819
 31
0.0
  0
LINE
  5
8298
  8
3
 62
     0
 10
1076.9355716332079
 20
2716.8788787342828
 30
0.0
 11
1076.9355716332079
 21
2116.8788787342819
 31
0.0
  0
INSERT
  5
8299
  8
3
 62
     0
  2
_OPEN
 10
1076.9355716332079
 20
2776.8788787342828
 30
0.0
 41
60.0
 42
60.0
 43
60.0
 50
90.0
  0
INSERT
  5
829A
  8
3
 62
     0
  2
_OPEN
 10
1076.9355716332079
 20
2056.8788787342819
 30
0.0
 41
60.0
 42
60.0
 43
60.0
 50
270.0
  0
TEXT
  8
3
  40
90
  5
82EC
  62
0
  72
0
  71
0
 10
821.936
 20
2257.58
 30
0.000000
  1
720
  0
POINT
  5
829C
  8
DEFPOINTS
 62
     0
 10
1715.743491633209
 20
2776.8788787342828
 30
0.0
  0
POINT
  5
829D
  8
DEFPOINTS
 62
     0
 10
1692.929052633209
 20
2056.8788787342819
 30
0.0
  0
POINT
  5
829E
  8
DEFPOINTS
 62
     0
 10
1076.9355716332079
 20
2056.8788787342819
 30
0.0
  0
ENDBLK
  5
7CAE
  8
0
  0
BLOCK
  8
0
  2
*D7
 70
     1
 10
0.0
 20
0.0
 30
0.0
  3
*D7
  1

  0
LINE
  5
829F
  8
3
 62
     0
 10
2032.9290526332079
 20
3174.8788787342828
 30
0.0
 11
863.25532463321042
 21
3174.8788787342828
 31
0.0
  0
LINE
  5
82A0
  8
3
 62
     0
 10
1677.9290526332079
 20
2056.8788787342819
 30
0.0
 11
863.25532463321019
 21
2056.8788787342828
 31
0.0
  0
LINE
  5
82A1
  8
3
 62
     0
 10
893.25532463321053
 20
3114.8788787342828
 30
0.0
 11
893.25532463321031
 21
2116.8788787342828
 31
0.0
  0
INSERT
  5
82A2
  8
3
 62
     0
  2
_OPEN
 10
893.25532463321053
 20
3174.8788787342828
 30
0.0
 41
60.0
 42
60.0
 43
60.0
 50
90.0
  0
INSERT
  5
82A3
  8
3
 62
     0
  2
_OPEN
 10
893.25532463321031
 20
2056.8788787342828
 30
0.0
 41
60.0
 42
60.0
 43
60.0
 50
270.0
  0
TEXT
  8
3
  40
90
  5
82ED
  62
0
  72
0
  71
0
 10
638.255
 20
2457.39
 30
0.000000
  1
1120
  0
POINT
  5
82A5
  8
DEFPOINTS
 62
     0
 10
2047.929052633209
 20
3174.8788787342828
 30
0.0
  0
POINT
  5
82A6
  8
DEFPOINTS
 62
     0
 10
1692.929052633209
 20
2056.8788787342819
 30
0.0
  0
POINT
  5
82A7
  8
DEFPOINTS
 62
     0
 10
893.25532463321031
 20
2056.8788787342828
 30
0.0
  0
ENDBLK
  5
7E31
  8
0
  0
BLOCK
  8
0
  2
*D8
 70
     1
 10
0.0
 20
0.0
 30
0.0
  3
*D8
  1

  0
LINE
  5
7DD3
  8
0
  6
BYBLOCK
 62
     0
 10
1657.9290526332079
 20
2801.8788787342819
 30
0.0
 11
1657.9290526332079
 21
3320.908558996492
 31
0.0
  0
LINE
  5
7DD4
  8
0
  6
BYBLOCK
 62
     0
 10
2047.929052633209
 20
3189.8788787342819
 30
0.0
 11
2047.929052633209
 21
3320.908558996492
 31
0.0
  0
LINE
  5
7DD5
  8
0
  6
BYBLOCK
 62
     0
 10
1717.9290526332079
 20
3290.908558996492
 30
0.0
 11
1987.929052633209
 21
3290.908558996492
 31
0.0
  0
TEXT
  5
7DD6
  8
3
 62
     0
 10
1739.9113250811799
 20
3324.227306536704
 30
0.0
 40
90.0
  1
390
  0
INSERT
  5
7DD7
  8
0
  6
BYBLOCK
 62
     0
  2
_OPEN
 10
1657.9290526332079
 20
3290.908558996492
 30
0.0
 41
60.0
 42
60.0
 43
60.0
 50
180.0
  0
INSERT
  5
7DD8
  8
0
  6
BYBLOCK
 62
     0
  2
_OPEN
 10
2047.929052633209
 20
3290.908558996492
 30
0.0
 41
60.0
 42
60.0
 43
60.0
  0
POINT
  5
7DD9
  8
DEFPOINTS
  6
BYBLOCK
 62
     0
 10
1657.9290526332079
 20
2786.8788787342828
 30
0.0
  0
POINT
  5
7DDA
  8
DEFPOINTS
  6
BYBLOCK
 62
     0
 10
2047.929052633209
 20
3174.8788787342828
 30
0.0
  0
POINT
  5
7DDB
  8
DEFPOINTS
  6
BYBLOCK
 62
     0
 10
2047.929052633209
 20
3290.908558996492
 30
0.0
  0
ENDBLK
  5
7DDC
  8
0
  0
BLOCK
  8
0
  2
*D9
 70
     1
 10
0.0
 20
0.0
 30
0.0
  3
*D9
  1

  0
LINE
  5
82A8
  8
3
 62
     0
 10
2047.929052633209
 20
3189.8788787342819
 30
0.0
 11
2047.929052633209
 21
3320.908558996492
 31
0.0
  0
LINE
  5
82A9
  8
3
 62
     0
 10
2529.9290526332079
 20
2791.8788787342828
 30
0.0
 11
2529.9290526332079
 21
3320.908558996492
 31
0.0
  0
LINE
  5
82AA
  8
3
 62
     0
 10
2107.9290526332079
 20
3290.908558996492
 30
0.0
 11
2469.9290526332079
 21
3290.908558996492
 31
0.0
  0
INSERT
  5
82AB
  8
3
 62
     0
  2
_OPEN
 10
2047.929052633209
 20
3290.908558996492
 30
0.0
 41
60.0
 42
60.0
 43
60.0
 50
180.0
  0
INSERT
  5
82AC
  8
3
 62
     0
  2
_OPEN
 10
2529.9290526332079
 20
3290.908558996492
 30
0.0
 41
60.0
 42
60.0
 43
60.0
  0
TEXT
  8
3
  40
90
  5
82EE
  62
0
  72
0
  71
0
 10
2108.93
 20
3206.61
 30
0.000000
  1
484
  0
POINT
  5
82AE
  8
DEFPOINTS
 62
     0
 10
2047.929052633209
 20
3174.8788787342828
 30
0.0
  0
POINT
  5
82AF
  8
DEFPOINTS
 62
     0
 10
2529.9290526332079
 20
2776.8788787342828
 30
0.0
  0
POINT
  5
82B0
  8
DEFPOINTS
 62
     0
 10
2529.9290526332079
 20
3290.908558996492
 30
0.0
  0
ENDBLK
  5
7E17
  8
0
  0
BLOCK
  8
0
  2
*D10
 70
     1
 10
0.0
 20
0.0
 30
0.0
  3
*D10
  1

  0
LINE
  5
82B1
  8
3
 62
     0
 10
1692.929052633209
 20
5088.9172927342834
 30
0.0
 11
1692.929052633209
 21
4692.0063727342822
 31
0.0
  0
LINE
  5
82B2
  8
3
 62
     0
 10
2972.9290526332079
 20
5088.9172927342834
 30
0.0
 11
2972.9290526332079
 21
4692.0063727342822
 31
0.0
  0
LINE
  5
82B3
  8
3
 62
     0
 10
1752.9290526332079
 20
4722.0063727342831
 30
0.0
 11
2912.9290526332088
 21
4722.0063727342831
 31
0.0
  0
INSERT
  5
82B4
  8
3
 62
     0
  2
_OPEN
 10
1692.929052633209
 20
4722.0063727342831
 30
0.0
 41
60.0
 42
60.0
 43
60.0
 50
180.0
  0
INSERT
  5
82B5
  8
3
 62
     0
  2
_OPEN
 10
2972.9290526332079
 20
4722.0063727342831
 30
0.0
 41
60.0
 42
60.0
 43
60.0
  0
TEXT
  8
3
  40
90
  5
82EF
  62
0
  72
0
  71
0
 10
2193.62
 20
4637.71
 30
0.000000
  1
1280
  0
POINT
  5
82B7
  8
DEFPOINTS
 62
     0
 10
1692.929052633209
 20
5103.9172927342834
 30
0.0
  0
POINT
  5
82B8
  8
DEFPOINTS
 62
     0
 10
2972.9290526332079
 20
5103.9172927342834
 30
0.0
  0
POINT
  5
82B9
  8
DEFPOINTS
 62
     0
 10
2972.9290526332079
 20
4722.0063727342831
 30
0.0
  0
ENDBLK
  5
7C80
  8
0
  0
BLOCK
  8
0
  2
*D11
 70
     1
 10
0.0
 20
0.0
 30
0.0
  3
*D11
  1

  0
LINE
  5
82BA
  8
3
 62
     0
 10
2987.9290526332088
 20
5713.9172927342834
 30
0.0
 11
3336.1554166332089
 21
5713.9172927342834
 31
0.0
  0
LINE
  5
82BB
  8
3
 62
     0
 10
2987.9290526332088
 20
5103.9172927342834
 30
0.0
 11
3336.155416633208
 21
5103.9172927342834
 31
0.0
  0
LINE
  5
82BC
  8
3
 62
     0
 10
3306.155416633208
 20
5653.9172927342834
 30
0.0
 11
3306.155416633208
 21
5163.9172927342815
 31
0.0
  0
INSERT
  5
82BD
  8
3
 62
     0
  2
_OPEN
 10
3306.155416633208
 20
5713.9172927342834
 30
0.0
 41
60.0
 42
60.0
 43
60.0
 50
90.0
  0
INSERT
  5
82BE
  8
3
 62
     0
  2
_OPEN
 10
3306.155416633208
 20
5103.9172927342834
 30
0.0
 41
60.0
 42
60.0
 43
60.0
 50
270.0
  0
TEXT
  8
3
  40
90
  5
82F0
  62
0
  72
0
  71
0
 10
3051.16
 20
5258.78
 30
0.000000
  1
610
  0
POINT
  5
82C0
  8
DEFPOINTS
 62
     0
 10
2972.9290526332079
 20
5713.9172927342834
 30
0.0
  0
POINT
  5
82C1
  8
DEFPOINTS
 62
     0
 10
2972.9290526332079
 20
5103.9172927342834
 30
0.0
  0
POINT
  5
82C2
  8
DEFPOINTS
 62
     0
 10
3306.155416633208
 20
5103.9172927342834
 30
0.0
  0
ENDBLK
  5
7C75
  8
0
  0
BLOCK
  8
0
  2
*D12
 70
     1
 10
0.0
 20
0.0
 30
0.0
  3
*D12
  1

  0
LINE
  5
82C3
  8
3
 62
     0
 10
3991.3629645438418
 20
3191.8788787342828
 30
0.0
 11
3991.3629645438418
 21
3331.8682297342812
 31
0.0
  0
LINE
  5
82C4
  8
3
 62
     0
 10
4416.3629645438423
 20
3191.8788787342828
 30
0.0
 11
4416.3629645438423
 21
3331.8682297342812
 31
0.0
  0
LINE
  5
82C5
  8
3
 62
     0
 10
3931.3629645438418
 20
3301.8682297342821
 30
0.0
 11
3871.3629645438418
 21
3301.8682297342821
 31
0.0
  0
LINE
  5
82C6
  8
3
 62
     0
 10
4476.3629645438423
 20
3301.8682297342821
 30
0.0
 11
4536.3629645438423
 21
3301.8682297342821
 31
0.0
  0
LINE
  5
82C7
  8
3
 62
     0
 10
3991.3629645438418
 20
3301.8682297342821
 30
0.0
 11
4416.3629645438423
 21
3301.8682297342821
 31
0.0
  0
INSERT
  5
82C8
  8
3
 62
     0
  2
_OPEN
 10
3991.3629645438418
 20
3301.8682297342821
 30
0.0
 41
60.0
 42
60.0
 43
60.0
  0
INSERT
  5
82C9
  8
3
 62
     0
  2
_OPEN
 10
4416.3629645438423
 20
3301.8682297342821
 30
0.0
 41
60.0
 42
60.0
 43
60.0
 50
180.0
  0
TEXT
  8
3
  40
90
  5
82F1
  62
0
  72
0
  71
0
 10
4017.08
 20
3217.57
 30
0.000000
  1
425
  0
POINT
  5
82CB
  8
DEFPOINTS
 62
     0
 10
3991.3629645438418
 20
3176.8788787342819
 30
0.0
  0
POINT
  5
82CC
  8
DEFPOINTS
 62
     0
 10
4416.3629645438423
 20
3176.8788787342819
 30
0.0
  0
POINT
  5
82CD
  8
DEFPOINTS
 62
     0
 10
4416.3629645438423
 20
3301.8682297342821
 30
0.0
  0
ENDBLK
  5
7C6A
  8
0
  0
BLOCK
  8
0
  2
*D13
 70
     1
 10
0.0
 20
0.0
 30
0.0
  3
*D13
  1

  0
LINE
  5
82CE
  8
3
 62
     0
 10
4494.8629645438423
 20
3056.8788787342819
 30
0.0
 11
4781.1808085438443
 21
3056.8788787342819
 31
0.0
  0
LINE
  5
82CF
  8
3
 62
     0
 10
4494.8629645438423
 20
2496.8788787342819
 30
0.0
 11
4781.1808085438443
 21
2496.8788787342819
 31
0.0
  0
LINE
  5
82D0
  8
3
 62
     0
 10
4751.1808085438443
 20
2996.8788787342819
 30
0.0
 11
4751.1808085438443
 21
2556.8788787342819
 31
0.0
  0
INSERT
  5
82D1
  8
3
 62
     0
  2
_OPEN
 10
4751.1808085438443
 20
3056.8788787342819
 30
0.0
 41
60.0
 42
60.0
 43
60.0
 50
90.0
  0
INSERT
  5
82D2
  8
3
 62
     0
  2
_OPEN
 10
4751.1808085438443
 20
2496.8788787342819
 30
0.0
 41
60.0
 42
60.0
 43
60.0
 50
270.0
  0
TEXT
  8
3
  40
90
  5
82F2
  62
0
  72
0
  71
0
 10
4496.18
 20
2637.86
 30
0.000000
  1
φ560
  0
POINT
  5
82D4
  8
DEFPOINTS
 62
     0
 10
4479.8629645438423
 20
3056.8788787342819
 30
0.0
  0
POINT
  5
82D5
  8
DEFPOINTS
 62
     0
 10
4479.8629645438423
 20
2496.8788787342819
 30
0.0
  0
POINT
  5
82D6
  8
DEFPOINTS
 62
     0
 10
4751.1808085438443
 20
2496.8788787342819
 30
0.0
  0
ENDBLK
  5
7D63
  8
0
  0
BLOCK
  8
0
  2
*D14
 70
     1
 10
0.0
 20
0.0
 30
0.0
  3
*D14
  1

  0
LINE
  5
82D7
  8
3
 62
     0
 10
3743.8629645438418
 20
2956.178878734283
 30
0.0
 11
3743.8629645438418
 21
3547.360360698387
 31
0.0
  0
LINE
  5
82D8
  8
3
 62
     0
 10
4203.8629645438432
 20
3459.316945655331
 30
0.0
 11
4203.8629645438432
 21
3547.360360698387
 31
0.0
  0
LINE
  5
82D9
  8
3
 62
     0
 10
3803.8629645438418
 20
3517.3603606983861
 30
0.0
 11
4143.8629645438423
 21
3517.3603606983861
 31
0.0
  0
INSERT
  5
82DA
  8
3
 62
     0
  2
_OPEN
 10
3743.8629645438418
 20
3517.3603606983861
 30
0.0
 41
60.0
 42
60.0
 43
60.0
 50
180.0
  0
INSERT
  5
82DB
  8
3
 62
     0
  2
_OPEN
 10
4203.8629645438432
 20
3517.3603606983861
 30
0.0
 41
60.0
 42
60.0
 43
60.0
  0
TEXT
  8
3
  40
90
  5
82F3
  62
0
  72
0
  71
0
 10
3782.43
 20
3508.06
 30
0.000000
  1
MAX
  0
TEXT
  8
3
  40
90
  5
82F4
  62
0
  72
0
  71
0
 10
3782.43
 20
3391.06
 30
0.000000
  1
510
  0
POINT
  5
82DD
  8
DEFPOINTS
 62
     0
 10
3743.8629645438418
 20
2941.1788787342821
 30
0.0
  0
POINT
  5
82DE
  8
DEFPOINTS
 62
     0
 10
4203.8629645438432
 20
3444.316945655331
 30
0.0
  0
POINT
  5
82DF
  8
DEFPOINTS
 62
     0
 10
4203.8629645438432
 20
3517.3603606983861
 30
0.0
  0
ENDBLK
  5
81A1
  8
0
  0
BLOCK
  8
0
  2
*D15
 70
     1
 10
0.0
 20
0.0
 30
0.0
  3
*D15
  1

  0
LINE
  5
7D9C
  8
0
  6
BYBLOCK
 62
     0
 10
4203.8629645438432
 20
3459.316945655331
 30
0.0
 11
4203.8629645438432
 21
3547.360360698387
 31
0.0
  0
LINE
  5
7D9D
  8
0
  6
BYBLOCK
 62
     0
 10
4479.8629645438423
 20
3101.8788787342819
 30
0.0
 11
4479.8629645438423
 21
3547.360360698387
 31
0.0
  0
LINE
  5
7D9E
  8
0
  6
BYBLOCK
 62
     0
 10
4263.8629645438423
 20
3517.3603606983861
 30
0.0
 11
4419.8629645438423
 21
3517.3603606983861
 31
0.0
  0
TEXT
  5
7D9F
  8
3
 62
     0
 10
4228.1231502389774
 20
3545.9860359418981
 30
0.0
 40
90.0
  1
276
  0
INSERT
  5
7DA0
  8
0
  6
BYBLOCK
 62
     0
  2
_OPEN
 10
4203.8629645438432
 20
3517.3603606983861
 30
0.0
 41
60.0
 42
60.0
 43
60.0
 50
180.0
  0
INSERT
  5
7DA1
  8
0
  6
BYBLOCK
 62
     0
  2
_OPEN
 10
4479.8629645438423
 20
3517.3603606983861
 30
0.0
 41
60.0
 42
60.0
 43
60.0
  0
POINT
  5
7DA2
  8
DEFPOINTS
  6
BYBLOCK
 62
     0
 10
4203.8629645438432
 20
3444.316945655331
 30
0.0
  0
POINT
  5
7DA3
  8
DEFPOINTS
  6
BYBLOCK
 62
     0
 10
4479.8629645438423
 20
3086.8788787342828
 30
0.0
  0
POINT
  5
7DA4
  8
DEFPOINTS
  6
BYBLOCK
 62
     0
 10
4479.8629645438423
 20
3517.3603606983861
 30
0.0
  0
ENDBLK
  5
7DA5
  8
0
  0
BLOCK
  8
0
  2
*D16
 70
     1
 10
0.0
 20
0.0
 30
0.0
  3
*D16
  1

  0
LINE
  5
7DF4
  8
0
  6
BYBLOCK
 62
     0
 10
3848.8629645438418
 20
2041.878878734283
 30
0.0
 11
3848.8629645438418
 21
1803.387642826659
 31
0.0
  0
LINE
  5
7DF5
  8
0
  6
BYBLOCK
 62
     0
 10
4203.8629645438432
 20
2008.6637617342819
 30
0.0
 11
4203.8629645438432
 21
1803.387642826659
 31
0.0
  0
LINE
  5
7DF6
  8
0
  6
BYBLOCK
 62
     0
 10
3908.8629645438418
 20
1833.3876428266581
 30
0.0
 11
4143.8629645438423
 21
1833.3876428266581
 31
0.0
  0
TEXT
  5
7DF7
  8
3
 62
     0
 10
3910.648678829556
 20
1859.169380155475
 30
0.0
 40
90.0
  1
355
  0
INSERT
  5
7DF8
  8
0
  6
BYBLOCK
 62
     0
  2
_OPEN
 10
3848.8629645438418
 20
1833.3876428266581
 30
0.0
 41
60.0
 42
60.0
 43
60.0
 50
180.0
  0
INSERT
  5
7DF9
  8
0
  6
BYBLOCK
 62
     0
  2
_OPEN
 10
4203.8629645438432
 20
1833.3876428266581
 30
0.0
 41
60.0
 42
60.0
 43
60.0
  0
POINT
  5
7DFA
  8
DEFPOINTS
  6
BYBLOCK
 62
     0
 10
3848.8629645438418
 20
2056.8788787342819
 30
0.0
  0
POINT
  5
7DFB
  8
DEFPOINTS
  6
BYBLOCK
 62
     0
 10
4203.8629645438432
 20
2023.6637617342819
 30
0.0
  0
POINT
  5
7DFC
  8
DEFPOINTS
  6
BYBLOCK
 62
     0
 10
4203.8629645438432
 20
1833.3876428266581
 30
0.0
  0
ENDBLK
  5
7DFD
  8
0
  0
BLOCK
  8
0
  2
*D17
 70
     1
 10
0.0
 20
0.0
 30
0.0
  3
*D17
  1

  0
LINE
  5
7DFF
  8
0
  6
BYBLOCK
 62
     0
 10
4203.8629645438432
 20
2008.6637617342819
 30
0.0
 11
4203.8629645438432
 21
1803.387642826659
 31
0.0
  0
LINE
  5
7E00
  8
0
  6
BYBLOCK
 62
     0
 10
4458.8629645438423
 20
2041.878878734283
 30
0.0
 11
4458.8629645438423
 21
1803.387642826659
 31
0.0
  0
LINE
  5
7E01
  8
0
  6
BYBLOCK
 62
     0
 10
4263.8629645438423
 20
1833.3876428266581
 30
0.0
 11
4398.8629645438423
 21
1833.3876428266581
 31
0.0
  0
TEXT
  5
7E02
  8
3
 62
     0
 10
4221.1159147321159
 20
1854.3090107450009
 30
0.0
 40
90.0
  1
255
  0
INSERT
  5
7E03
  8
0
  6
BYBLOCK
 62
     0
  2
_OPEN
 10
4203.8629645438432
 20
1833.3876428266581
 30
0.0
 41
60.0
 42
60.0
 43
60.0
 50
180.0
  0
INSERT
  5
7E04
  8
0
  6
BYBLOCK
 62
     0
  2
_OPEN
 10
4458.8629645438423
 20
1833.3876428266581
 30
0.0
 41
60.0
 42
60.0
 43
60.0
  0
POINT
  5
7E05
  8
DEFPOINTS
  6
BYBLOCK
 62
     0
 10
4203.8629645438432
 20
2023.6637617342819
 30
0.0
  0
POINT
  5
7E06
  8
DEFPOINTS
  6
BYBLOCK
 62
     0
 10
4458.8629645438423
 20
2056.8788787342819
 30
0.0
  0
POINT
  5
7E07
  8
DEFPOINTS
  6
BYBLOCK
 62
     0
 10
4458.8629645438423
 20
1833.3876428266581
 30
0.0
  0
ENDBLK
  5
7E08
  8
0
  0
BLOCK
  8
0
  2
*D18
 70
     1
 10
0.0
 20
0.0
 30
0.0
  3
*D18
  1

  0
LINE
  5
82E0
  8
3
 62
     0
 10
1657.9290526332079
 20
2801.8788787342819
 30
0.0
 11
1657.9290526332079
 21
3499.9526375436071
 31
0.0
  0
LINE
  5
82E1
  8
3
 62
     0
 10
2972.9290526332079
 20
2146.8788787342819
 30
0.0
 11
2972.9290526332079
 21
3499.9526375436071
 31
0.0
  0
LINE
  5
82E2
  8
3
 62
     0
 10
1717.9290526332079
 20
3469.9526375436071
 30
0.0
 11
2912.9290526332088
 21
3469.9526375436071
 31
0.0
  0
INSERT
  5
82E3
  8
3
 62
     0
  2
_OPEN
 10
1657.9290526332079
 20
3469.9526375436071
 30
0.0
 41
60.0
 42
60.0
 43
60.0
 50
180.0
  0
INSERT
  5
82E4
  8
3
 62
     0
  2
_OPEN
 10
2972.9290526332079
 20
3469.9526375436071
 30
0.0
 41
60.0
 42
60.0
 43
60.0
  0
TEXT
  8
3
  40
90
  5
82F5
  62
0
  72
0
  71
0
 10
2137.61
 20
3385.65
 30
0.000000
  1
1315
  0
POINT
  5
82E6
  8
DEFPOINTS
 62
     0
 10
1657.9290526332079
 20
2786.8788787342828
 30
0.0
  0
POINT
  5
82E7
  8
DEFPOINTS
 62
     0
 10
2972.9290526332079
 20
2131.8788787342828
 30
0.0
  0
POINT
  5
82E8
  8
DEFPOINTS
 62
     0
 10
2972.9290526332079
 20
3469.9526375436071
 30
0.0
  0
ENDBLK
  5
81B9
  8
0
  0
ENDSEC
  0
SECTION
  2
ENTITIES
  0
LINE
  5
7A72
  8
2
 10
2747.9290526332079
 20
2189.5788787342822
 30
0.0
 11
2747.9290526332079
 21
2428.1788787342821
 31
0.0
  0
CIRCLE
  5
7A73
  8
1
 10
2747.9290526332079
 20
2308.8788787342828
 30
0.0
 40
114.3
  0
ARC
  5
7A74
  8
1
 10
2747.9290526332079
 20
2308.8788787342828
 30
0.0
 40
143.0
 50
324.34590999999989
 51
215.65408999999991
  0
LINE
  5
7A75
  8
1
 10
1687.9290526332079
 20
2179.4696087342832
 30
0.0
 11
1687.9290526332079
 21
2756.8788787342828
 31
0.0
  0
LINE
  5
7A76
  8
1
 10
1657.9290526332079
 20
2146.8788787342819
 30
0.0
 11
1657.9290526332079
 21
2786.8788787342828
 31
0.0
  0
ARC
  5
7A77
  8
1
 10
2005.9290526332079
 20
2734.8788787342828
 30
0.0
 40
526.0
 50
274.57982399999997
 51
4.5798239999999986
  0
ARC
  5
7A78
  8
1
 10
2747.9290526332079
 20
2308.8788787342828
 30
0.0
 40
164.30000000000001
 50
236.23444399999991
 51
56.234444000000003
  0
LINE
  5
7A79
  8
1
 10
2656.611776633209
 20
2172.2932097342818
 30
0.0
 11
1956.611776633209
 21
2640.2932097342832
 31
0.0
  0
LINE
  5
7A7A
  8
1
 10
2684.4015746332088
 20
2213.8591467342821
 30
0.0
 11
1984.4015746332091
 21
2681.8591467342831
 31
0.0
  0
LINE
  5
7A7B
  8
1
 10
2972.9290526332079
 20
2131.8788787342828
 30
0.0
 11
1692.929052633209
 21
2131.8788787342828
 31
0.0
  0
LINE
  5
7A7C
  8
1
 10
2972.9290526332079
 20
2056.8788787342819
 30
0.0
 11
1692.929052633209
 21
2056.8788787342819
 31
0.0
  0
LINE
  5
7A7D
  8
1
 10
2047.929052633209
 20
2210.558366734283
 30
0.0
 11
1657.9290526332079
 21
2176.8788787342819
 31
0.0
  0
LINE
  5
7A7E
  8
1
 10
1692.929052633209
 20
2131.8788787342828
 30
0.0
 11
1692.929052633209
 21
2056.8788787342819
 31
0.0
  0
LINE
  5
7A7F
  8
2
 10
2867.229052633209
 20
2308.8788787342828
 30
0.0
 11
2628.6290526332091
 21
2308.8788787342828
 31
0.0
  0
LINE
  5
7A80
  8
1
 10
2922.9290526332088
 20
2131.8788787342828
 30
0.0
 11
2572.9290526332088
 21
2131.8788787342828
 31
0.0
  0
LINE
  5
7A81
  8
1
 10
2617.9290526332088
 20
2176.8788787342819
 30
0.0
 11
2582.9290526332079
 21
2176.8788787342819
 31
0.0
  0
LINE
  5
7A82
  8
1
 10
2572.9290526332088
 20
2131.8788787342828
 30
0.0
 11
2582.9290526332079
 21
2176.8788787342819
 31
0.0
  0
LINE
  5
7A83
  8
1
 10
2617.9290526332088
 20
2176.8788787342819
 30
0.0
 11
2617.9290526332088
 21
2191.8788787342828
 31
0.0
  0
LINE
  5
7A84
  8
1
 10
2617.9290526332088
 20
2191.8788787342828
 30
0.0
 11
2631.9583296332089
 21
2226.0716237342831
 31
0.0
  0
LINE
  5
7A85
  8
1
 10
2912.9290526332088
 20
2176.8788787342819
 30
0.0
 11
2922.9290526332088
 21
2131.8788787342828
 31
0.0
  0
LINE
  5
7A86
  8
1
 10
2877.9290526332088
 20
2191.8788787342828
 30
0.0
 11
2863.8997746332088
 21
2226.0716237342831
 31
0.0
  0
LINE
  5
7A87
  8
1
 10
2877.9290526332088
 20
2176.8788787342819
 30
0.0
 11
2877.9290526332088
 21
2191.8788787342828
 31
0.0
  0
LINE
  5
7A88
  8
1
 10
2912.9290526332088
 20
2176.8788787342819
 30
0.0
 11
2877.9290526332088
 21
2176.8788787342819
 31
0.0
  0
LINE
  5
7A89
  8
1
 10
2972.9290526332079
 20
2131.8788787342828
 30
0.0
 11
2972.9290526332079
 21
2056.8788787342819
 31
0.0
  0
ARC
  5
7A8A
  8
1
 10
2089.9290526332088
 20
2734.8788787342828
 30
0.0
 40
442.0
 50
5.452621999999999
 51
95.452621999999991
  0
LINE
  5
7A8B
  8
1
 10
2839.246328633209
 20
2445.4645487342832
 30
0.0
 11
2139.246328633209
 21
2913.4645487342832
 31
0.0
  0
LINE
  5
7A8C
  8
1
 10
2811.4565306332088
 20
2403.8986107342821
 30
0.0
 11
2111.4565306332088
 21
2871.8986107342821
 31
0.0
  0
CIRCLE
  5
7A8D
  8
1
 10
2047.929052633209
 20
2776.8788787342828
 30
0.0
 40
310.0
  0
CIRCLE
  5
7A8E
  8
1
 10
2047.929052633209
 20
2776.8788787342828
 30
0.0
 40
280.0
  0
ARC
  5
7A8F
  8
1
 10
2080.9290526332079
 20
2809.8788787342819
 30
0.0
 40
367.0
 50
95.158904000000007
 51
185.15890400000001
  0
ARC
  5
7A90
  8
1
 10
2047.929052633209
 20
2776.8788787342828
 30
0.0
 40
164.30000000000001
 50
56.234444000000003
 51
236.23444399999991
  0
LINE
  5
7A91
  8
2
 10
4465.2061455438434
 20
2776.8788787342828
 30
0.0
 11
3638.5268023267458
 21
2776.8788787342828
 31
0.0
  0
CIRCLE
  5
7A92
  8
1
 10
2047.929052633209
 20
2776.8788787342828
 30
0.0
 40
114.3
  0
LINE
  5
7A93
  8
1
 10
1718.6319046332089
 20
2756.8788787342828
 30
0.0
 11
1657.9290526332079
 21
2756.8788787342828
 31
0.0
  0
ARC
  5
7A94
  8
1
 10
2014.9290526332079
 20
2809.8788787342819
 30
0.0
 40
301.0
 50
186.29425000000001
 51
190.14149800000001
  0
LINE
  5
7A95
  8
1
 10
2047.929052633209
 20
1901.6395677342821
 30
0.0
 11
2047.929052633209
 21
1901.6395677342821
 31
0.0
  0
LINE
  5
7A96
  8
2
 10
2047.929052633209
 20
5791.9285797342827
 30
0.0
 11
2047.929052633209
 21
4828.2215267342826
 31
0.0
  0
LINE
  5
7A97
  8
1
 10
2912.229052633209
 20
5093.9172927342815
 30
0.0
 11
1883.6290526332079
 21
5093.9172927342815
 31
0.0
  0
LINE
  5
7A98
  8
1
 10
2912.229052633209
 20
4998.9172927342834
 30
0.0
 11
1883.6290526332079
 21
4998.9172927342834
 31
0.0
  0
LINE
  5
7A99
  8
1
 10
2728.9290526332079
 20
5103.9172927342834
 30
0.0
 11
2067.9290526332079
 21
5103.9172927342834
 31
0.0
  0
LINE
  5
7A9A
  8
1
 10
2531.9290526332088
 20
5246.4172927342843
 30
0.0
 11
1657.9290526332079
 21
5246.4172927342843
 31
0.0
  0
LINE
  5
7A9B
  8
1
 10
2531.9290526332088
 20
5671.4172927342834
 30
0.0
 11
1657.9290526332079
 21
5671.4172927342834
 31
0.0
  0
LINE
  5
7A9C
  8
1
 10
2972.9290526332079
 20
5713.9172927342834
 30
0.0
 11
2327.9290526332079
 21
5713.9172927342834
 31
0.0
  0
LINE
  5
7A9D
  8
1
 10
1687.9290526332079
 20
5246.4172927342843
 30
0.0
 11
1687.9290526332079
 21
5671.4172927342834
 31
0.0
  0
LINE
  5
7A9E
  8
1
 10
1657.9290526332079
 20
5216.4172927342834
 30
0.0
 11
1657.9290526332079
 21
5701.4172927342843
 31
0.0
  0
LINE
  5
7A9F
  8
1
 10
2162.229052633209
 20
5013.9172927342834
 30
0.0
 11
1933.6290526332079
 21
5013.9172927342834
 31
0.0
  0
LINE
  5
7AA0
  8
1
 10
2162.229052633209
 20
5076.9172927342815
 30
0.0
 11
1933.6290526332079
 21
5076.9172927342815
 31
0.0
  0
LINE
  5
7AA1
  8
1
 10
1883.6290526332079
 20
4998.9172927342834
 30
0.0
 11
1883.6290526332079
 21
5093.9172927342815
 31
0.0
  0
LINE
  5
7AA2
  8
1
 10
1933.6290526332079
 20
5013.9172927342834
 30
0.0
 11
1933.6290526332079
 21
5076.9172927342815
 31
0.0
  0
LINE
  5
7AA3
  8
1
 10
2027.9290526332079
 20
5103.9172927342834
 30
0.0
 11
1692.929052633209
 21
5103.9172927342834
 31
0.0
  0
LINE
  5
7AA4
  8
1
 10
2027.9290526332079
 20
5076.9172927342815
 30
0.0
 11
2027.9290526332079
 21
5246.4172927342843
 31
0.0
  0
LINE
  5
7AA5
  8
1
 10
1692.929052633209
 20
5103.9172927342834
 30
0.0
 11
1692.929052633209
 21
5246.4172927342843
 31
0.0
  0
LINE
  5
7AA6
  8
1
 10
2162.229052633209
 20
5013.9172927342834
 30
0.0
 11
2162.229052633209
 21
5076.9172927342815
 31
0.0
  0
LINE
  5
7AA7
  8
1
 10
2067.9290526332079
 20
5076.9172927342815
 30
0.0
 11
2067.9290526332079
 21
5246.4172927342843
 31
0.0
  0
LINE
  5
7AA8
  8
1
 10
2357.9290526332079
 20
5734.9172927342843
 30
0.0
 11
1737.929052633209
 21
5734.9172927342843
 31
0.0
  0
LINE
  5
7AA9
  8
1
 10
1767.9290526332079
 20
5713.9172927342834
 30
0.0
 11
1692.929052633209
 21
5713.9172927342834
 31
0.0
  0
LINE
  5
7AAA
  8
1
 10
1767.9290526332079
 20
5671.4172927342834
 30
0.0
 11
1767.9290526332079
 21
5734.9172927342843
 31
0.0
  0
LINE
  5
7AAB
  8
1
 10
1692.929052633209
 20
5671.4172927342834
 30
0.0
 11
1692.929052633209
 21
5713.9172927342834
 31
0.0
  0
LINE
  5
7AAC
  8
1
 10
2327.9290526332079
 20
5671.4172927342834
 30
0.0
 11
2327.9290526332079
 21
5734.9172927342843
 31
0.0
  0
LINE
  5
7AAD
  8
1
 10
2604.9290526332088
 20
5113.9172927342815
 30
0.0
 11
2604.9290526332088
 21
5482.9172927342834
 31
0.0
  0
LINE
  5
7AAE
  8
1
 10
2890.9290526332088
 20
5113.9172927342815
 30
0.0
 11
2890.9290526332088
 21
5482.9172927342834
 31
0.0
  0
LINE
  5
7AAF
  8
1
 10
2531.9290526332088
 20
5246.4172927342843
 30
0.0
 11
2531.9290526332088
 21
5671.4172927342834
 31
0.0
  0
LINE
  5
7AB0
  8
1
 10
2972.9290526332079
 20
5103.9172927342834
 30
0.0
 11
2972.9290526332079
 21
5713.9172927342834
 31
0.0
  0
LINE
  5
7AB1
  8
1
 10
2862.229052633209
 20
5013.9172927342834
 30
0.0
 11
2633.6290526332082
 21
5013.9172927342834
 31
0.0
  0
LINE
  5
7AB2
  8
1
 10
2862.229052633209
 20
5076.9172927342815
 30
0.0
 11
2633.6290526332082
 21
5076.9172927342815
 31
0.0
  0
LINE
  5
7AB3
  8
1
 10
2604.9290526332088
 20
5113.9172927342815
 30
0.0
 11
2890.9290526332088
 21
5113.9172927342815
 31
0.0
  0
LINE
  5
7AB4
  8
1
 10
2972.9290526332079
 20
5103.9172927342834
 30
0.0
 11
2766.9290526332088
 21
5103.9172927342834
 31
0.0
  0
LINE
  5
7AB5
  8
1
 10
2633.6290526332082
 20
5013.9172927342834
 30
0.0
 11
2633.6290526332082
 21
5076.9172927342815
 31
0.0
  0
LINE
  5
7AB6
  8
1
 10
2766.9290526332088
 20
5076.9172927342815
 30
0.0
 11
2766.9290526332088
 21
5113.9172927342815
 31
0.0
  0
LINE
  5
7AB7
  8
1
 10
2728.9290526332079
 20
5076.9172927342815
 30
0.0
 11
2728.9290526332079
 21
5113.9172927342815
 31
0.0
  0
LINE
  5
7AB8
  8
1
 10
2912.229052633209
 20
4998.9172927342834
 30
0.0
 11
2912.229052633209
 21
5093.9172927342815
 31
0.0
  0
LINE
  5
7AB9
  8
1
 10
2862.229052633209
 20
5013.9172927342834
 30
0.0
 11
2862.229052633209
 21
5076.9172927342815
 31
0.0
  0
LINE
  5
7ABA
  8
1
 10
2890.9290526332088
 20
5482.9172927342834
 30
0.0
 11
2604.9290526332088
 21
5482.9172927342834
 31
0.0
  0
LINE
  5
7ABB
  8
1
 10
3821.8629645438418
 20
2423.1788787342821
 30
0.0
 11
3821.8629645438418
 21
2194.5788787342831
 31
0.0
  0
LINE
  5
7ABC
  8
1
 10
3758.8629645438418
 20
2423.1788787342821
 30
0.0
 11
3758.8629645438418
 21
2194.5788787342831
 31
0.0
  0
LINE
  5
7ABD
  8
1
 10
3991.3629645438418
 20
2756.8788787342828
 30
0.0
 11
4416.3629645438423
 21
2176.8788787342819
 31
0.0
  0
LINE
  5
7ABE
  8
1
 10
4416.3629645438423
 20
2756.8788787342828
 30
0.0
 11
3991.3629645438418
 21
2176.8788787342819
 31
0.0
  0
LINE
  5
7ABF
  8
1
 10
4416.3629645438423
 20
3176.8788787342819
 30
0.0
 11
4416.3629645438423
 21
2131.8788787342828
 31
0.0
  0
LINE
  5
7AC0
  8
1
 10
3991.3629645438418
 20
3176.8788787342819
 30
0.0
 11
3991.3629645438418
 21
2131.8788787342828
 31
0.0
  0
LINE
  5
7AC1
  8
1
 10
3743.8629645438418
 20
2941.1788787342821
 30
0.0
 11
3743.8629645438418
 21
2144.5788787342822
 31
0.0
  0
LINE
  5
7AC2
  8
1
 10
3838.8629645438418
 20
2941.1788787342821
 30
0.0
 11
3838.8629645438418
 21
2144.5788787342822
 31
0.0
  0
LINE
  5
7AC3
  8
1
 10
3858.8629645438418
 20
2451.8788787342819
 30
0.0
 11
3858.8629645438418
 21
2131.8788787342828
 31
0.0
  0
LINE
  5
7AC4
  8
1
 10
3991.3629645438418
 20
2176.8788787342819
 30
0.0
 11
4416.3629645438423
 21
2176.8788787342819
 31
0.0
  0
LINE
  5
7AC5
  8
1
 10
3848.8629645438418
 20
2056.8788787342819
 30
0.0
 11
4458.8629645438423
 21
2056.8788787342819
 31
0.0
  0
LINE
  5
7AC6
  8
1
 10
3848.8629645438418
 20
2131.8788787342828
 30
0.0
 11
4458.8629645438423
 21
2131.8788787342828
 31
0.0
  0
LINE
  5
7AC7
  8
1
 10
3848.8629645438418
 20
2131.8788787342828
 30
0.0
 11
3848.8629645438418
 21
2056.8788787342819
 31
0.0
  0
LINE
  5
7AC8
  8
1
 10
3743.8629645438418
 20
2144.5788787342822
 30
0.0
 11
3838.8629645438418
 21
2144.5788787342822
 31
0.0
  0
LINE
  5
7AC9
  8
1
 10
3858.8629645438418
 20
2176.8788787342819
 30
0.0
 11
3991.3629645438418
 21
2176.8788787342819
 31
0.0
  0
LINE
  5
7ACA
  8
1
 10
3758.8629645438418
 20
2194.5788787342831
 30
0.0
 11
3821.8629645438418
 21
2194.5788787342831
 31
0.0
  0
LINE
  5
7ACB
  8
1
 10
3821.8629645438418
 20
2327.8788787342828
 30
0.0
 11
3858.8629645438418
 21
2327.8788787342828
 31
0.0
  0
LINE
  5
7ACC
  8
1
 10
3821.8629645438418
 20
2289.8788787342819
 30
0.0
 11
3858.8629645438418
 21
2289.8788787342819
 31
0.0
  0
LINE
  5
7ACD
  8
1
 10
4458.8629645438423
 20
2131.8788787342828
 30
0.0
 11
4458.8629645438423
 21
2056.8788787342819
 31
0.0
  0
LINE
  5
7ACE
  8
1
 10
3991.3629645438418
 20
2756.8788787342828
 30
0.0
 11
4416.3629645438423
 21
2756.8788787342828
 31
0.0
  0
LINE
  5
7ACF
  8
1
 10
3991.3629645438418
 20
3176.8788787342819
 30
0.0
 11
4416.3629645438423
 21
3176.8788787342819
 31
0.0
  0
LINE
  5
7AD0
  8
1
 10
3758.8629645438418
 20
2423.1788787342821
 30
0.0
 11
3821.8629645438418
 21
2423.1788787342821
 31
0.0
  0
LINE
  5
7AD1
  8
1
 10
3821.8629645438418
 20
2796.8788787342828
 30
0.0
 11
3991.3629645438418
 21
2796.8788787342828
 31
0.0
  0
LINE
  5
7AD2
  8
1
 10
3821.8629645438418
 20
2756.8788787342828
 30
0.0
 11
3991.3629645438418
 21
2756.8788787342828
 31
0.0
  0
LINE
  5
7AD3
  8
1
 10
3758.8629645438418
 20
2891.178878734283
 30
0.0
 11
3758.8629645438418
 21
2662.5788787342831
 31
0.0
  0
LINE
  5
7AD4
  8
1
 10
3758.8629645438418
 20
2891.178878734283
 30
0.0
 11
3821.8629645438418
 21
2891.178878734283
 31
0.0
  0
LINE
  5
7AD5
  8
1
 10
3758.8629645438418
 20
2662.5788787342831
 30
0.0
 11
3821.8629645438418
 21
2662.5788787342831
 31
0.0
  0
LINE
  5
7AD6
  8
1
 10
3821.8629645438418
 20
2891.178878734283
 30
0.0
 11
3821.8629645438418
 21
2662.5788787342831
 31
0.0
  0
LINE
  5
7AD7
  8
1
 10
3743.8629645438418
 20
2941.1788787342821
 30
0.0
 11
3838.8629645438418
 21
2941.1788787342821
 31
0.0
  0
LINE
  5
7AD8
  8
1
 10
3858.8629645438418
 20
2451.8788787342819
 30
0.0
 11
3991.3629645438418
 21
2451.8788787342819
 31
0.0
  0
LINE
  5
7AD9
  8
1
 10
4479.8629645438423
 20
3086.8788787342828
 30
0.0
 11
4479.8629645438423
 21
2466.8788787342828
 31
0.0
  0
LINE
  5
7ADA
  8
1
 10
4416.3629645438423
 20
2496.8788787342819
 30
0.0
 11
4479.8629645438423
 21
2496.8788787342819
 31
0.0
  0
LINE
  5
7ADB
  8
1
 10
4416.3629645438423
 20
3056.8788787342819
 30
0.0
 11
4479.8629645438423
 21
3056.8788787342819
 31
0.0
  0
DIMENSION
  5
7AF1
  8
3
  2
*D1
 10
2047.929052633209
 20
1850.5964924078989
 30
0.0
 11
1883.8325273140699
 21
1919.648594510641
 31
0.0
 70
   128
 13
1692.929052633209
 23
2056.8788787342819
 33
0.0
 14
2047.929052633209
 24
1946.6395677342821
 34
0.0
1001
ACAD
1000
DSTYLE
1002
{
1070
   288
1070
     1
1070
   172
1070
     1
1070
    40
1040
30.0
1070
   271
1070
     0
1070
   143
1040
0.039
1002
}
  0
DIMENSION
  5
7AFD
  8
3
  2
*D2
 10
2972.9290526332079
 20
1850.5964924078989
 30
0.0
 11
2510.4290526332088
 21
1925.5964924078989
 31
0.0
 70
     0
 13
2047.929052633209
 23
1946.6395677342821
 33
0.0
 14
2972.9290526332079
 24
2056.8788787342819
 34
0.0
1001
ACAD
1000
DSTYLE
1002
{
1070
   287
1070
     3
1070
   287
1070
     3
1070
    40
1040
30.0
1070
   143
1040
0.039
1070
   172
1070
     1
1070
   271
1070
     0
1070
   279
1070
     0
1070
   288
1070
     1
1002
}
  0
DIMENSION
  5
7B0A
  8
3
  2
*D3
 10
1443.804838633208
 20
2176.8788787342819
 30
0.0
 11
1443.804838633208
 21
2475.4955257342831
 31
0.0
 70
   128
 13
1657.9290526332079
 23
2756.8788787342828
 33
0.0
 14
1657.9290526332079
 24
2176.8788787342819
 34
0.0
 50
90.0
1001
ACAD
1000
DSTYLE
1002
{
1070
   287
1070
     3
1070
   287
1070
     3
1070
    40
1040
30.0
1070
   143
1040
0.039
1070
   172
1070
     1
1070
   271
1070
     0
1070
   279
1070
     0
1070
   288
1070
     1
1002
}
  0
DIMENSION
  5
7B17
  8
3
  2
*D4
 10
1265.327885633209
 20
2176.8788787342819
 30
0.0
 11
1265.327885633209
 21
2495.3126567342829
 31
0.0
 70
   128
 13
1715.743491633209
 23
2776.8788787342828
 33
0.0
 14
1657.9290526332079
 24
2176.8788787342819
 34
0.0
 50
90.0
1001
ACAD
1000
DSTYLE
1002
{
1070
   287
1070
     3
1070
   287
1070
     3
1070
    40
1040
30.0
1070
   143
1040
0.039
1070
   172
1070
     1
1070
   271
1070
     0
1070
   279
1070
     0
1070
   288
1070
     1
1002
}
  0
DIMENSION
  5
7B26
  8
3
  2
*D5
 10
1076.9355716332079
 20
2776.8788787342828
 30
0.0
 11
1009.274671393883
 21
2975.8788787342828
 31
0.0
 70
   128
  1
400
 13
2047.929052633209
 23
3174.8788787342828
 33
0.0
 14
1715.743491633209
 24
2776.8788787342828
 34
0.0
 50
90.0
1001
ACAD
1000
DSTYLE
1002
{
1070
   288
1070
     1
1070
   172
1070
     1
1070
    40
1040
30.0
1070
   271
1070
     0
1070
   143
1040
0.039
1002
}
  0
DIMENSION
  5
7B32
  8
3
  2
*D6
 10
1076.9355716332079
 20
2056.8788787342819
 30
0.0
 11
1001.935571633208
 21
2416.8788787342828
 31
0.0
 70
     0
 13
1715.743491633209
 23
2776.8788787342828
 33
0.0
 14
1692.929052633209
 24
2056.8788787342819
 34
0.0
 50
90.0
1001
ACAD
1000
DSTYLE
1002
{
1070
   287
1070
     3
1070
   287
1070
     3
1070
    40
1040
30.0
1070
   143
1040
0.039
1070
   172
1070
     1
1070
   271
1070
     0
1070
   279
1070
     0
1070
   288
1070
     1
1002
}
  0
DIMENSION
  5
7B3F
  8
3
  2
*D7
 10
893.25532463321031
 20
2056.8788787342828
 30
0.0
 11
893.25532463320997
 21
2616.6925257342832
 31
0.0
 70
   128
  1
1120
 13
2047.929052633209
 23
3174.8788787342828
 33
0.0
 14
1692.929052633209
 24
2056.8788787342819
 34
0.0
 50
90.0
1001
ACAD
1000
DSTYLE
1002
{
1070
   287
1070
     3
1070
   287
1070
     3
1070
    40
1040
30.0
1070
   143
1040
0.039
1070
   172
1070
     1
1070
   271
1070
     0
1070
   279
1070
     0
1070
   288
1070
     1
1002
}
  0
DIMENSION
  5
7B4E
  8
3
  2
*D8
 10
2047.929052633209
 20
3290.908558996492
 30
0.0
 11
1855.625610795465
 21
3369.227306536704
 31
0.0
 70
   128
 13
1657.9290526332079
 23
2786.8788787342828
 33
0.0
 14
2047.929052633209
 24
3174.8788787342828
 34
0.0
1001
ACAD
1000
DSTYLE
1002
{
1070
   288
1070
     1
1070
   172
1070
     1
1070
    40
1040
30.0
1070
   271
1070
     0
1070
   143
1040
0.039
1002
}
  0
DIMENSION
  5
7B5A
  8
3
  2
*D9
 10
2529.9290526332079
 20
3290.908558996492
 30
0.0
 11
2288.9290526332079
 21
3365.908558996492
 31
0.0
 70
     0
  1
484
 13
2047.929052633209
 23
3174.8788787342828
 33
0.0
 14
2529.9290526332079
 24
2776.8788787342828
 34
0.0
1001
ACAD
1000
DSTYLE
1002
{
1070
   287
1070
     3
1070
   287
1070
     3
1070
    40
1040
30.0
1070
   143
1040
0.039
1070
   172
1070
     1
1070
   271
1070
     0
1070
   279
1070
     0
1070
   288
1070
     1
1002
}
  0
DIMENSION
  5
7B67
  8
3
  2
*D10
 10
2972.9290526332079
 20
4722.0063727342831
 30
0.0
 11
2373.6179056332089
 21
4722.0063727342831
 31
0.0
 70
   128
 13
1692.929052633209
 23
5103.9172927342834
 33
0.0
 14
2972.9290526332079
 24
5103.9172927342834
 34
0.0
1001
ACAD
1000
DSTYLE
1002
{
1070
   287
1070
     3
1070
   287
1070
     3
1070
    40
1040
30.0
1070
   143
1040
0.039
1070
   172
1070
     1
1070
   271
1070
     0
1070
   279
1070
     0
1070
   288
1070
     1
1002
}
  0
DIMENSION
  5
7B74
  8
3
  2
*D11
 10
3306.155416633208
 20
5103.9172927342834
 30
0.0
 11
3306.155416633208
 21
5418.0828357342816
 31
0.0
 70
   128
 13
2972.9290526332079
 23
5713.9172927342834
 33
0.0
 14
2972.9290526332079
 24
5103.9172927342834
 34
0.0
 50
90.0
1001
ACAD
1000
DSTYLE
1002
{
1070
   287
1070
     3
1070
   287
1070
     3
1070
    40
1040
30.0
1070
   143
1040
0.039
1070
   172
1070
     1
1070
   271
1070
     0
1070
   279
1070
     0
1070
   288
1070
     1
1002
}
  0
LINE
  5
7B75
  8
2
 10
2588.942520633208
 20
5458.9172927342843
 30
0.0
 11
1578.399317633209
 21
5458.9172927342843
 31
0.0
  0
LINE
  5
7B76
  8
2
 10
4203.8629645438432
 20
3283.550885403949
 30
0.0
 11
4203.8629645438432
 21
2023.6637617342819
 31
0.0
  0
DIMENSION
  5
7B85
  8
3
  2
*D12
 10
4416.3629645438423
 20
3301.8682297342821
 30
0.0
 11
4197.0772502581276
 21
3301.8682297342821
 31
0.0
 70
   128
 13
3991.3629645438418
 23
3176.8788787342819
 33
0.0
 14
4416.3629645438423
 24
3176.8788787342819
 34
0.0
1001
ACAD
1000
DSTYLE
1002
{
1070
   287
1070
     3
1070
   287
1070
     3
1070
    40
1040
30.0
1070
   143
1040
0.039
1070
   172
1070
     1
1070
   271
1070
     0
1070
   279
1070
     0
1070
   288
1070
     1
1002
}
  0
DIMENSION
  5
7B92
  8
3
  2
*D13
 10
4751.1808085438443
 20
2496.8788787342819
 30
0.0
 11
4751.1808085438433
 21
2797.164593019997
 31
0.0
 70
   128
 13
4479.8629645438423
 23
3056.8788787342819
 33
0.0
 14
4479.8629645438423
 24
2496.8788787342819
 34
0.0
 50
90.0
1001
ACAD
1000
DSTYLE
1002
{
1070
   287
1070
     3
1070
   287
1070
     3
1070
     3
1000
φ<>
1070
    40
1040
30.0
1070
   143
1040
0.039
1070
   172
1070
     1
1070
   271
1070
     0
1070
   279
1070
     0
1070
   288
1070
     1
1002
}
  0
DIMENSION
  5
7BA1
  8
3
  2
*D14
 10
4203.8629645438432
 20
3517.3603606983861
 30
0.0
 11
3962.4343931152712
 21
3517.3603606983861
 31
0.0
 70
   128
  1
MAX\P510
 13
3743.8629645438418
 23
2941.1788787342821
 33
0.0
 14
4203.8629645438432
 24
3444.316945655331
 34
0.0
1001
ACAD
1000
DSTYLE
1002
{
1070
   287
1070
     3
1070
   287
1070
     3
1070
    40
1040
30.0
1070
   143
1040
0.039
1070
   172
1070
     1
1070
   271
1070
     0
1070
   279
1070
     0
1070
   288
1070
     1
1002
}
  0
DIMENSION
  5
7BAF
  8
3
  2
*D15
 10
4479.8629645438423
 20
3517.3603606983861
 30
0.0
 11
4341.6945788104058
 21
3590.9860359418972
 31
0.0
 70
   128
 13
4203.8629645438432
 23
3444.316945655331
 33
0.0
 14
4479.8629645438423
 24
3086.8788787342828
 34
0.0
1001
ACAD
1000
DSTYLE
1002
{
1070
   288
1070
     1
1070
   172
1070
     1
1070
    40
1040
30.0
1070
   271
1070
     0
1070
   143
1040
0.039
1002
}
  0
DIMENSION
  5
7BD4
  8
3
  2
*D16
 10
4203.8629645438432
 20
1833.3876428266581
 30
0.0
 11
4026.3629645438409
 21
1904.169380155475
 31
0.0
 70
   128
 13
3848.8629645438418
 23
2056.8788787342819
 33
0.0
 14
4203.8629645438432
 24
2023.6637617342819
 34
0.0
1001
ACAD
1000
DSTYLE
1002
{
1070
   288
1070
     1
1070
   172
1070
     1
1070
    40
1040
30.0
1070
   271
1070
     0
1070
   143
1040
0.039
1002
}
  0
DIMENSION
  5
7BE2
  8
3
  2
*D17
 10
4458.8629645438423
 20
1833.3876428266581
 30
0.0
 11
4336.8302004464022
 21
1899.3090107450009
 31
0.0
 70
   128
 13
4203.8629645438432
 23
2023.6637617342819
 33
0.0
 14
4458.8629645438423
 24
2056.8788787342819
 34
0.0
1001
ACAD
1000
DSTYLE
1002
{
1070
   288
1070
     1
1070
   172
1070
     1
1070
    40
1040
30.0
1070
   271
1070
     0
1070
   143
1040
0.039
1002
}
  0
LINE
  5
7BF9
  8
2
 10
2702.837410633208
 20
2776.8788787342828
 30
0.0
 11
1674.571643709987
 21
2776.8788787342828
 31
0.0
  0
LINE
  5
7BFA
  8
2
 10
2049.0630796273072
 20
3191.6389175766708
 30
0.0
 11
2047.929052633209
 21
1946.6395677342821
 31
0.0
  0
LINE
  5
8007
  8
4
 10
4886.0060749802897
 20
893.33960874949298
 30
0.0
 11
4886.0060749802897
 21
293.33960874949298
 31
0.0
  0
LINE
  5
8008
  8
4
 10
2786.0060749802901
 20
893.33960874949298
 30
0.0
 11
2786.0060749802901
 21
293.33960874949298
 31
0.0
  0
LINE
  5
8009
  8
4
 10
1286.0060749802899
 20
893.33960874949298
 30
0.0
 11
1286.0060749802899
 21
293.33960874949298
 31
0.0
  0
LINE
  5
800C
  8
4
 10
1286.0060749802899
 20
293.33960874949298
 30
0.0
 11
4886.0060749802897
 21
293.33960874949298
 31
0.0
  0
LINE
  5
800D
  8
4
 10
1286.0060749802899
 20
593.33960874949287
 30
0.0
 11
4886.0060749802897
 21
593.33960874949287
 31
0.0
  0
TEXT
  5
800E
  8
4
 10
1401.5123172302899
 20
687.96868674949292
 30
0.0
 40
150.0
  1
機器名称
  0
TEXT
  5
800F
  8
4
 10
1394.7803929802899
 20
358.27507899949291
 30
0.0
 40
150.0
  1
機器型番
  0
TEXT
  5
8010
  8
4
 10
2869.0423114802902
 20
661.05491499949289
 30
0.0
 40
120.0
  1
ミツヤリミットロードファン
  0
TEXT
  5
8011
  8
4
 10
2895.9695622302888
 20
344.81836149949282
 30
0.0
 40
150.0
  1
LLE#3 1/2-4
  0
TEXT
  5
8013
  8
4
 10
2050.36337148029
 20
6543.6261332494933
 30
0.0
 40
162.0
  1
床置ベット
  0
TEXT
  5
8014
  8
4
 10
284.50885548029049
 20
6994.9825374994934
 30
0.0
 40
180.0
  1
ベルト駆動式片吸込両持排煙ファン
  0
LINE
  5
8015
  8
4
 10
86.006074980290578
 20
6801.5658714994943
 30
0.0
 11
4886.0060749802897
 21
6801.5658714994943
 31
0.0
  0
LINE
  5
8016
  8
4
 10
86.006074980290578
 20
7401.5658714994943
 30
0.0
 11
4886.0060749802897
 21
7401.5658714994943
 31
0.0
  0
LINE
  5
8017
  8
4
 10
1286.0060749802899
 20
893.33960874949298
 30
0.0
 11
4886.0060749802897
 21
893.33960874949298
 31
0.0
  0
LINE
  5
8018
  8
4
 10
86.006074980290578
 20
7401.5658714994943
 30
0.0
 11
86.006074980290578
 21
6801.5658714994943
 31
0.0
  0
TEXT
  5
8019
  8
4
 10
742.78687473029095
 20
6540.2980412494917
 30
0.0
 40
162.0
  1
右回転左横向
  0
TEXT
  5
801A
  8
4
 10
3742.9147527302898
 20
7511.5228532494921
 30
0.0
 40
168.0
  1
No.
  0
TEXT
  5
801B
  8
4
 10
3269.8942624802912
 20
6543.6261332494933
 30
0.0
 40
162.0
  1
縮尺：1/30
  0
LINE
  5
801C
  8
4
 10
4886.0060749802897
 20
7401.5658714994943
 30
0.0
 11
4886.0060749802897
 21
6801.5658714994943
 31
0.0
  0
LINE
  5
801D
  8
4
 10
3657.8583417302912
 20
7437.130358499493
 30
0.0
 11
3657.8583417302912
 21
7753.296393249494
 31
0.0
  0
LINE
  5
801E
  8
4
 10
3657.8583417302912
 20
7753.296393249494
 30
0.0
 11
4886.0060749802897
 21
7753.296393249494
 31
0.0
  0
LINE
  5
801F
  8
4
 10
4886.0060749802897
 20
7753.296393249494
 30
0.0
 11
4886.0060749802897
 21
7437.130358499493
 31
0.0
  0
LINE
  5
8020
  8
4
 10
4886.0060749802897
 20
7437.130358499493
 30
0.0
 11
3657.8583417302912
 21
7437.130358499493
 31
0.0
  0
DIMENSION
  5
81AE
  8
3
  2
*D18
 10
2972.9290526332079
 20
3469.9526375436071
 30
0.0
 11
2317.6099308570192
 21
3469.9526375436071
 31
0.0
 70
   128
 13
1657.9290526332079
 23
2786.8788787342828
 33
0.0
 14
2972.9290526332079
 24
2131.8788787342828
 34
0.0
1001
ACAD
1000
DSTYLE
1002
{
1070
   287
1070
     3
1070
   287
1070
     3
1070
    40
1040
30.0
1070
   143
1040
0.039
1070
   172
1070
     1
1070
   271
1070
     0
1070
   279
1070
     0
1070
   288
1070
     1
1002
}
  0
ENDSEC
  0
EOF
