  0
SECTION
  2
HEADER
  9
$ACADVER
  1
AC1009
  9
$INSBASE
 10
0.0
 20
0.0
 30
0.0
  9
$EXTMIN
 10
750.0
 20
900.0
 30
0.0
  9
$EXTMAX
 10
5550.0
 20
8359.9567845000001
 30
0.0
  9
$LIMMIN
 10
0.0
 20
0.0
  9
$LIMMAX
 10
297.0
 20
210.0
  9
$ORTHOMODE
 70
     0
  9
$REGENMODE
 70
     1
  9
$FILLMODE
 70
     0
  9
$QTEXTMODE
 70
     0
  9
$MIRRTEXT
 70
     1
  9
$DRAGMODE
 70
     2
  9
$LTSCALE
 40
100.0
  9
$OSMODE
 70
    37
  9
$ATTMODE
 70
     1
  9
$TEXTSIZE
 40
180.0
  9
$TRACEWID
 40
0.05
  9
$TEXTSTYLE
  7
STANDARD
  9
$CLAYER
  8
3
  9
$CELTYPE
  6
BYLAYER
  9
$CECOLOR
 62
   256
  9
$DIMSCALE
 40
30.0
  9
$DIMASZ
 40
2.0
  9
$DIMEXO
 40
0.5
  9
$DIMDLI
 40
10.0
  9
$DIMRND
 40
0.0
  9
$DIMDLE
 40
0.0
  9
$DIMEXE
 40
1.0
  9
$DIMTP
 40
1.0
  9
$DIMTM
 40
1.0
  9
$DIMTXT
 40
3.0
  9
$DIMCEN
 40
0.0
  9
$DIMTSZ
 40
0.0
  9
$DIMTOL
 70
     0
  9
$DIMLIM
 70
     0
  9
$DIMTIH
 70
     0
  9
$DIMTOH
 70
     0
  9
$DIMSE1
 70
     0
  9
$DIMSE2
 70
     0
  9
$DIMTAD
 70
     1
  9
$DIMZIN
 70
     8
  9
$DIMBLK
  1

  9
$DIMASO
 70
     1
  9
$DIMSHO
 70
     1
  9
$DIMPOST
  1

  9
$DIMAPOST
  1

  9
$DIMALT
 70
     0
  9
$DIMALTD
 70
     2
  9
$DIMALTF
 40
0.039
  9
$DIMLFAC
 40
1.0
  9
$DIMTOFL
 70
     1
  9
$DIMTVP
 40
0.0
  9
$DIMTIX
 70
     0
  9
$DIMSOXD
 70
     0
  9
$DIMSAH
 70
     1
  9
$DIMBLK1
  1
OPEN
  9
$DIMBLK2
  1
OPEN
  9
$DIMSTYLE
  2
IGA
  9
$DIMCLRD
 70
     0
  9
$DIMCLRE
 70
     0
  9
$DIMCLRT
 70
     0
  9
$DIMTFAC
 40
10.0
  9
$DIMGAP
 40
1.0
  9
$LUNITS
 70
     2
  9
$LUPREC
 70
     3
  9
$SKETCHINC
 40
0.1
  9
$FILLETRAD
 40
50.0
  9
$AUNITS
 70
     0
  9
$AUPREC
 70
     0
  9
$MENU
  1
acad
  9
$ELEVATION
 40
0.0
  9
$PELEVATION
 40
0.0
  9
$THICKNESS
 40
0.0
  9
$LIMCHECK
 70
     0
  9
$BLIPMODE
 70
     0
  9
$CHAMFERA
 40
0.5
  9
$CHAMFERB
 40
0.5
  9
$SKPOLY
 70
     0
  9
$TDCREATE
 40
2450760.4730559029
  9
$TDUPDATE
 40
2454953.682274838
  9
$TDINDWG
 40
0.0074606366
  9
$TDUSRTIMER
 40
0.0074606366
  9
$USRTIMER
 70
     1
  9
$ANGBASE
 50
0.0
  9
$ANGDIR
 70
     0
  9
$PDMODE
 70
     0
  9
$PDSIZE
 40
0.0
  9
$PLINEWID
 40
0.0
  9
$COORDS
 70
     1
  9
$SPLFRAME
 70
     0
  9
$SPLINETYPE
 70
     6
  9
$SPLINESEGS
 70
     8
  9
$ATTDIA
 70
     0
  9
$ATTREQ
 70
     1
  9
$HANDLING
 70
 10241
  9
$HANDSEED
  5
7F0F
  9
$SURFTAB1
 70
     6
  9
$SURFTAB2
 70
     6
  9
$SURFTYPE
 70
     6
  9
$SURFU
 70
     6
  9
$SURFV
 70
     6
  9
$UCSNAME
  2

  9
$UCSORG
 10
0.0
 20
0.0
 30
0.0
  9
$UCSXDIR
 10
1.0
 20
0.0
 30
0.0
  9
$UCSYDIR
 10
0.0
 20
1.0
 30
0.0
  9
$PUCSNAME
  2

  9
$PUCSORG
 10
0.0
 20
0.0
 30
0.0
  9
$PUCSXDIR
 10
1.0
 20
0.0
 30
0.0
  9
$PUCSYDIR
 10
0.0
 20
1.0
 30
0.0
  9
$USERI1
 70
     0
  9
$USERI2
 70
     0
  9
$USERI3
 70
     0
  9
$USERI4
 70
     0
  9
$USERI5
 70
     0
  9
$USERR1
 40
0.0
  9
$USERR2
 40
0.0
  9
$USERR3
 40
0.0
  9
$USERR4
 40
0.0
  9
$USERR5
 40
0.0
  9
$WORLDVIEW
 70
     1
  9
$SHADEDGE
 70
     3
  9
$SHADEDIF
 70
    70
  9
$TILEMODE
 70
     1
  9
$MAXACTVP
 70
    16
  9
$PLIMCHECK
 70
     0
  9
$PEXTMIN
 10
1.0000000000000000E+020
 20
1.0000000000000000E+020
 30
1.0000000000000000E+020
  9
$PEXTMAX
 10
-1.0000000000000000E+020
 20
-1.0000000000000000E+020
 30
-1.0000000000000000E+020
  9
$PLIMMIN
 10
0.0
 20
0.0
  9
$PLIMMAX
 10
12.0
 20
9.0
  9
$UNITMODE
 70
     0
  9
$VISRETAIN
 70
     0
  9
$PLINEGEN
 70
     0
  9
$PSLTSCALE
 70
     1
  0
ENDSEC
  0
SECTION
  2
TABLES
  0
TABLE
  2
VPORT
 70
     2
  0
VPORT
  2
*ACTIVE
 70
     0
 10
0.0
 20
0.0
 11
1.0
 21
1.0
 12
16792.9141268124
 22
3938.9380489084128
 13
0.0
 23
0.0
 14
10.0
 24
10.0
 15
10.0
 25
10.0
 16
0.0
 26
0.0
 36
1.0
 17
0.0
 27
0.0
 37
0.0
 40
12924.83383798774
 41
3.1666666666666661
 42
50.0
 43
0.0
 44
0.0
 50
0.0
 51
0.0
 71
     0
 72
   100
 73
     1
 74
     0
 75
     0
 76
     0
 77
     0
 78
     0
  0
ENDTAB
  0
TABLE
  2
LTYPE
 70
     2
  0
LTYPE
  2
CONTINUOUS
 70
     0
  3
Solid line
 72
    65
 73
     0
 40
0.0
  0
LTYPE
  2
CENTER
 70
     0
  3
____ _ ____ _ ____ _ ____ _ ____ _ ____ _ ____ 
 72
    65
 73
     4
 40
2.0
 49
1.25
 49
-0.25
 49
0.25
 49
-0.25
  0
ENDTAB
  0
TABLE
  2
LAYER
 70
     6
  0
LAYER
  2
0
 70
     0
 62
     7
  6
CONTINUOUS
  0
LAYER
  2
3
 70
     0
 62
     2
  6
CONTINUOUS
  0
LAYER
  2
2
 70
     0
 62
     3
  6
CENTER
  0
LAYER
  2
1
 70
     0
 62
     4
  6
CONTINUOUS
  0
LAYER
  2
4
 70
     0
 62
     7
  6
CONTINUOUS
  0
LAYER
  2
DEFPOINTS
 70
     0
 62
     7
  6
CONTINUOUS
  0
ENDTAB
  0
TABLE
  2
STYLE
 70
     1
  0
STYLE
  2
STANDARD
 70
     0
 40
0.0
 41
1.0
 50
0.0
 71
     0
 42
180.0
  3
simplex.shx
  4
extfont.shx
  0
ENDTAB
  0
TABLE
  2
VIEW
 70
     0
  0
ENDTAB
  0
TABLE
  2
UCS
 70
     0
  0
ENDTAB
  0
TABLE
  2
APPID
 70
     1
  0
APPID
  2
ACAD
 70
     0
  0
ENDTAB
  0
TABLE
  2
DIMSTYLE
 70
     1
  0
DIMSTYLE
  2
IGA
 70
     0
  3

  4

  5

  6
OPEN
  7
OPEN
 40
2.0
 41
2.0
 42
0.5
 43
10.0
 44
1.0
 45
0.0
 46
0.0
 47
1.0
 48
1.0
140
3.0
141
0.0
142
0.0
143
0.03937
144
1.0
145
0.0
146
10.0
147
1.0
 71
     0
 72
     0
 73
     0
 74
     0
 75
     0
 76
     0
 77
     1
 78
     8
170
     0
171
     2
172
     0
173
     1
174
     0
175
     0
176
     0
177
     0
178
     0
  0
ENDTAB
  0
ENDSEC
  0
SECTION
  2
BLOCKS
  0
BLOCK
  8
0
  2
$MODEL_SPACE
 70
     0
 10
0.0
 20
0.0
 30
0.0
  3
$MODEL_SPACE
  1

  0
ENDBLK
  5
1B
  8
0
  0
BLOCK
 67
     1
  8
0
  2
$PAPER_SPACE
 70
     0
 10
0.0
 20
0.0
 30
0.0
  3
$PAPER_SPACE
  1

  0
ENDBLK
  5
18
 67
     1
  8
0
  0
BLOCK
  8
0
  2
_OPEN
 70
     0
 10
0.0
 20
0.0
 30
0.0
  3
_OPEN
  1

  0
LINE
  5
7ADC
  8
0
  6
BYBLOCK
 62
     0
 10
-1.0
 20
0.166667
 30
0.0
 11
0.0
 21
0.0
 31
0.0
  0
LINE
  5
7ADD
  8
0
  6
BYBLOCK
 62
     0
 10
0.0
 20
0.0
 30
0.0
 11
-1.0
 21
-0.166667
 31
0.0
  0
LINE
  5
7ADE
  8
0
  6
BYBLOCK
 62
     0
 10
0.0
 20
0.0
 30
0.0
 11
-1.0
 21
0.0
 31
0.0
  0
ENDBLK
  5
7ADF
  8
0
  0
BLOCK
  8
0
  2
*D1
 70
     1
 10
0.0
 20
0.0
 30
0.0
  3
*D1
  1

  0
LINE
  5
7EA0
  8
3
 62
     0
 10
1244.401573943313
 20
2565.6313398209359
 30
0.0
 11
1244.401573943313
 21
2273.9063968209371
 31
0.0
  0
LINE
  5
7EA1
  8
3
 62
     0
 10
2169.401573943313
 20
2486.9932818209372
 30
0.0
 11
2169.401573943313
 21
2273.9063968209371
 31
0.0
  0
LINE
  5
7EA2
  8
3
 62
     0
 10
1304.401573943313
 20
2303.9063968209371
 30
0.0
 11
2109.401573943313
 21
2303.9063968209371
 31
0.0
  0
INSERT
  5
7EA3
  8
3
 62
     0
  2
_OPEN
 10
1244.401573943313
 20
2303.9063968209371
 30
0.0
 41
60.0
 42
60.0
 43
60.0
 50
180.0
  0
INSERT
  5
7EA4
  8
3
 62
     0
  2
_OPEN
 10
2169.401573943313
 20
2303.9063968209371
 30
0.0
 41
60.0
 42
60.0
 43
60.0
  0
TEXT
  8
3
  40
90
  5
7F03
  62
0
  72
0
  71
0
 10
1517.26
 20
2219.61
 30
0.000000
  1
925
  0
POINT
  5
7EA6
  8
DEFPOINTS
 62
     0
 10
1244.401573943313
 20
2580.6313398209368
 30
0.0
  0
POINT
  5
7EA7
  8
DEFPOINTS
 62
     0
 10
2169.401573943313
 20
2501.9932818209372
 30
0.0
  0
POINT
  5
7EA8
  8
DEFPOINTS
 62
     0
 10
2169.401573943313
 20
2303.9063968209371
 30
0.0
  0
ENDBLK
  5
7D00
  8
0
  0
BLOCK
  8
0
  2
*D2
 70
     1
 10
0.0
 20
0.0
 30
0.0
  3
*D2
  1

  0
LINE
  5
7D0D
  8
0
  6
BYBLOCK
 62
     0
 10
2169.401573943313
 20
2486.9932818209372
 30
0.0
 11
2169.401573943313
 21
2271.2711818209368
 31
0.0
  0
LINE
  5
7D0E
  8
0
  6
BYBLOCK
 62
     0
 10
2524.4015739433121
 20
2565.6313398209359
 30
0.0
 11
2524.4015739433121
 21
2271.2711818209368
 31
0.0
  0
LINE
  5
7D0F
  8
0
  6
BYBLOCK
 62
     0
 10
2229.401573943313
 20
2301.2711818209368
 30
0.0
 11
2464.4015739433121
 21
2301.2711818209368
 31
0.0
  0
TEXT
  5
7D10
  8
3
 62
     0
 10
2236.514007966482
 20
2336.0767922123482
 30
0.0
 40
90.0
  1
355
  0
INSERT
  5
7D11
  8
0
  6
BYBLOCK
 62
     0
  2
_OPEN
 10
2169.401573943313
 20
2301.2711818209368
 30
0.0
 41
60.0
 42
60.0
 43
60.0
 50
180.0
  0
INSERT
  5
7D12
  8
0
  6
BYBLOCK
 62
     0
  2
_OPEN
 10
2524.4015739433121
 20
2301.2711818209368
 30
0.0
 41
60.0
 42
60.0
 43
60.0
  0
POINT
  5
7D13
  8
DEFPOINTS
  6
BYBLOCK
 62
     0
 10
2169.401573943313
 20
2501.9932818209372
 30
0.0
  0
POINT
  5
7D14
  8
DEFPOINTS
  6
BYBLOCK
 62
     0
 10
2524.4015739433121
 20
2580.6313398209368
 30
0.0
  0
POINT
  5
7D15
  8
DEFPOINTS
  6
BYBLOCK
 62
     0
 10
2524.4015739433121
 20
2301.2711818209368
 30
0.0
  0
ENDBLK
  5
7D16
  8
0
  0
BLOCK
  8
0
  2
*D3
 70
     1
 10
0.0
 20
0.0
 30
0.0
  3
*D3
  1

  0
LINE
  5
7EA9
  8
3
 62
     0
 10
1569.401573943313
 20
3540.6313398209368
 30
0.0
 11
1569.401573943313
 21
3719.9743528209369
 31
0.0
  0
LINE
  5
7EAA
  8
3
 62
     0
 10
2149.401573943313
 20
3540.6313398209368
 30
0.0
 11
2149.401573943313
 21
3719.9743528209369
 31
0.0
  0
LINE
  5
7EAB
  8
3
 62
     0
 10
1629.401573943313
 20
3689.9743528209378
 30
0.0
 11
2089.401573943313
 21
3689.9743528209378
 31
0.0
  0
INSERT
  5
7EAC
  8
3
 62
     0
  2
_OPEN
 10
1569.401573943313
 20
3689.9743528209378
 30
0.0
 41
60.0
 42
60.0
 43
60.0
 50
180.0
  0
INSERT
  5
7EAD
  8
3
 62
     0
  2
_OPEN
 10
2149.401573943313
 20
3689.9743528209378
 30
0.0
 41
60.0
 42
60.0
 43
60.0
  0
TEXT
  8
3
  40
90
  5
7F04
  62
0
  72
0
  71
0
 10
1693.23
 20
3605.67
 30
0.000000
  1
580
  0
POINT
  5
7EAF
  8
DEFPOINTS
 62
     0
 10
1569.401573943313
 20
3525.6313398209368
 30
0.0
  0
POINT
  5
7EB0
  8
DEFPOINTS
 62
     0
 10
2149.401573943313
 20
3525.6313398209368
 30
0.0
  0
POINT
  5
7EB1
  8
DEFPOINTS
 62
     0
 10
2149.401573943313
 20
3689.9743528209378
 30
0.0
  0
ENDBLK
  5
7CE9
  8
0
  0
BLOCK
  8
0
  2
*D4
 70
     1
 10
0.0
 20
0.0
 30
0.0
  3
*D4
  1

  0
LINE
  5
7EB2
  8
3
 62
     0
 10
1569.401573943313
 20
3540.6313398209368
 30
0.0
 11
1569.401573943313
 21
3909.0046178209359
 31
0.0
  0
LINE
  5
7EB3
  8
3
 62
     0
 10
2169.401573943313
 20
3482.816900820937
 30
0.0
 11
2169.401573943313
 21
3909.0046178209359
 31
0.0
  0
LINE
  5
7EB4
  8
3
 62
     0
 10
1629.401573943313
 20
3879.0046178209359
 30
0.0
 11
2109.401573943313
 21
3879.0046178209359
 31
0.0
  0
INSERT
  5
7EB5
  8
3
 62
     0
  2
_OPEN
 10
1569.401573943313
 20
3879.0046178209359
 30
0.0
 41
60.0
 42
60.0
 43
60.0
 50
180.0
  0
INSERT
  5
7EB6
  8
3
 62
     0
  2
_OPEN
 10
2169.401573943313
 20
3879.0046178209359
 30
0.0
 41
60.0
 42
60.0
 43
60.0
  0
TEXT
  8
3
  40
90
  5
7F05
  62
0
  72
0
  71
0
 10
1699.82
 20
3794.70
 30
0.000000
  1
600
  0
POINT
  5
7EB8
  8
DEFPOINTS
 62
     0
 10
1569.401573943313
 20
3525.6313398209368
 30
0.0
  0
POINT
  5
7EB9
  8
DEFPOINTS
 62
     0
 10
2169.401573943313
 20
3467.816900820937
 30
0.0
  0
POINT
  5
7EBA
  8
DEFPOINTS
 62
     0
 10
2169.401573943313
 20
3879.0046178209359
 30
0.0
  0
ENDBLK
  5
7CDE
  8
0
  0
BLOCK
  8
0
  2
*D5
 70
     1
 10
0.0
 20
0.0
 30
0.0
  3
*D5
  1

  0
LINE
  5
7D4F
  8
0
  6
BYBLOCK
 62
     0
 10
2194.401573943313
 20
3525.6313398209368
 30
0.0
 11
2928.210918943314
 21
3525.6313398209368
 31
0.0
  0
LINE
  5
7D50
  8
0
  6
BYBLOCK
 62
     0
 10
2582.9149109433142
 20
3135.6313398209368
 30
0.0
 11
2928.210918943314
 21
3135.6313398209368
 31
0.0
  0
LINE
  5
7D51
  8
0
  6
BYBLOCK
 62
     0
 10
2898.210918943314
 20
3465.6313398209368
 30
0.0
 11
2898.210918943314
 21
3195.6313398209359
 31
0.0
  0
TEXT
  5
7D52
  8
3
 62
     0
 10
2862.8440964827819
 20
3195.8256154430128
 30
0.0
 40
90.0
  1
390
 50
90.0
  0
INSERT
  5
7D53
  8
0
  6
BYBLOCK
 62
     0
  2
_OPEN
 10
2898.210918943314
 20
3525.6313398209368
 30
0.0
 41
60.0
 42
60.0
 43
60.0
 50
90.0
  0
INSERT
  5
7D54
  8
0
  6
BYBLOCK
 62
     0
  2
_OPEN
 10
2898.210918943314
 20
3135.6313398209368
 30
0.0
 41
60.0
 42
60.0
 43
60.0
 50
270.0
  0
POINT
  5
7D55
  8
DEFPOINTS
  6
BYBLOCK
 62
     0
 10
2179.401573943313
 20
3525.6313398209368
 30
0.0
  0
POINT
  5
7D56
  8
DEFPOINTS
  6
BYBLOCK
 62
     0
 10
2567.9149109433129
 20
3135.6313398209368
 30
0.0
  0
POINT
  5
7D57
  8
DEFPOINTS
  6
BYBLOCK
 62
     0
 10
2898.210918943314
 20
3135.6313398209368
 30
0.0
  0
ENDBLK
  5
7D58
  8
0
  0
BLOCK
  8
0
  2
*D6
 70
     1
 10
0.0
 20
0.0
 30
0.0
  3
*D6
  1

  0
LINE
  5
7EBB
  8
3
 62
     0
 10
2582.9149109433142
 20
3135.6313398209368
 30
0.0
 11
2928.210918943314
 21
3135.6313398209368
 31
0.0
  0
LINE
  5
7EBC
  8
3
 62
     0
 10
2539.4015739433121
 20
2580.6313398209368
 30
0.0
 11
2928.210918943314
 21
2580.6313398209368
 31
0.0
  0
LINE
  5
7EBD
  8
3
 62
     0
 10
2898.210918943314
 20
3075.6313398209368
 30
0.0
 11
2898.210918943314
 21
2640.6313398209359
 31
0.0
  0
INSERT
  5
7EBE
  8
3
 62
     0
  2
_OPEN
 10
2898.210918943314
 20
3135.6313398209368
 30
0.0
 41
60.0
 42
60.0
 43
60.0
 50
90.0
  0
INSERT
  5
7EBF
  8
3
 62
     0
  2
_OPEN
 10
2898.210918943314
 20
2580.6313398209368
 30
0.0
 41
60.0
 42
60.0
 43
60.0
 50
270.0
  0
TEXT
  8
3
  40
90
  5
7F06
  62
0
  72
0
  71
0
 10
2643.21
 20
2698.83
 30
0.000000
  1
555
  0
POINT
  5
7EC1
  8
DEFPOINTS
 62
     0
 10
2567.9149109433129
 20
3135.6313398209368
 30
0.0
  0
POINT
  5
7EC2
  8
DEFPOINTS
 62
     0
 10
2524.4015739433121
 20
2580.6313398209368
 30
0.0
  0
POINT
  5
7EC3
  8
DEFPOINTS
 62
     0
 10
2898.210918943314
 20
2580.6313398209368
 30
0.0
  0
ENDBLK
  5
7CB9
  8
0
  0
BLOCK
  8
0
  2
*D7
 70
     1
 10
0.0
 20
0.0
 30
0.0
  3
*D7
  1

  0
LINE
  5
7EC4
  8
3
 62
     0
 10
2194.401573943313
 20
3525.6313398209368
 30
0.0
 11
3168.6392489433142
 21
3525.6313398209359
 31
0.0
  0
LINE
  5
7EC5
  8
3
 62
     0
 10
2539.4015739433121
 20
2580.6313398209368
 30
0.0
 11
3168.6392489433129
 21
2580.6313398209359
 31
0.0
  0
LINE
  5
7EC6
  8
3
 62
     0
 10
3138.6392489433129
 20
3465.6313398209359
 30
0.0
 11
3138.6392489433129
 21
2640.6313398209359
 31
0.0
  0
INSERT
  5
7EC7
  8
3
 62
     0
  2
_OPEN
 10
3138.6392489433129
 20
3525.6313398209359
 30
0.0
 41
60.0
 42
60.0
 43
60.0
 50
90.0
  0
INSERT
  5
7EC8
  8
3
 62
     0
  2
_OPEN
 10
3138.6392489433129
 20
2580.6313398209359
 30
0.0
 41
60.0
 42
60.0
 43
60.0
 50
270.0
  0
TEXT
  8
3
  40
90
  5
7F07
  62
0
  72
0
  71
0
 10
2883.64
 20
2955.35
 30
0.000000
  1
945
  0
POINT
  5
7ECA
  8
DEFPOINTS
 62
     0
 10
2179.401573943313
 20
3525.6313398209368
 30
0.0
  0
POINT
  5
7ECB
  8
DEFPOINTS
 62
     0
 10
2524.4015739433121
 20
2580.6313398209368
 30
0.0
  0
POINT
  5
7ECC
  8
DEFPOINTS
 62
     0
 10
3138.6392489433129
 20
2580.6313398209359
 30
0.0
  0
ENDBLK
  5
7CAE
  8
0
  0
BLOCK
  8
0
  2
*D8
 70
     1
 10
0.0
 20
0.0
 30
0.0
  3
*D8
  1

  0
LINE
  5
7ECD
  8
3
 62
     0
 10
1244.401573943313
 20
5669.6090888209374
 30
0.0
 11
1244.401573943313
 21
5257.9338608209364
 31
0.0
  0
LINE
  5
7ECE
  8
3
 62
     0
 10
2524.4015739433121
 20
5669.6090888209374
 30
0.0
 11
2524.4015739433121
 21
5257.9338608209364
 31
0.0
  0
LINE
  5
7ECF
  8
3
 62
     0
 10
1304.401573943313
 20
5287.9338608209364
 30
0.0
 11
2464.4015739433121
 21
5287.9338608209364
 31
0.0
  0
INSERT
  5
7ED0
  8
3
 62
     0
  2
_OPEN
 10
1244.401573943313
 20
5287.9338608209364
 30
0.0
 41
60.0
 42
60.0
 43
60.0
 50
180.0
  0
INSERT
  5
7ED1
  8
3
 62
     0
  2
_OPEN
 10
2524.4015739433121
 20
5287.9338608209364
 30
0.0
 41
60.0
 42
60.0
 43
60.0
  0
TEXT
  8
3
  40
90
  5
7F08
  62
0
  72
0
  71
0
 10
1597.51
 20
5203.63
 30
0.000000
  1
1280
  0
POINT
  5
7ED3
  8
DEFPOINTS
 62
     0
 10
1244.401573943313
 20
5684.6090888209374
 30
0.0
  0
POINT
  5
7ED4
  8
DEFPOINTS
 62
     0
 10
2524.4015739433121
 20
5684.6090888209374
 30
0.0
  0
POINT
  5
7ED5
  8
DEFPOINTS
 62
     0
 10
2524.4015739433121
 20
5287.9338608209364
 30
0.0
  0
ENDBLK
  5
7CA3
  8
0
  0
BLOCK
  8
0
  2
*D9
 70
     1
 10
0.0
 20
0.0
 30
0.0
  3
*D9
  1

  0
LINE
  5
7ED6
  8
3
 62
     0
 10
2539.4015739433121
 20
6294.6090888209374
 30
0.0
 11
2884.7598029433138
 21
6294.6090888209374
 31
0.0
  0
LINE
  5
7ED7
  8
3
 62
     0
 10
2539.4015739433121
 20
5684.6090888209374
 30
0.0
 11
2884.7598029433138
 21
5684.6090888209374
 31
0.0
  0
LINE
  5
7ED8
  8
3
 62
     0
 10
2854.7598029433138
 20
6234.6090888209374
 30
0.0
 11
2854.7598029433138
 21
5744.6090888209364
 31
0.0
  0
INSERT
  5
7ED9
  8
3
 62
     0
  2
_OPEN
 10
2854.7598029433138
 20
6294.6090888209374
 30
0.0
 41
60.0
 42
60.0
 43
60.0
 50
90.0
  0
INSERT
  5
7EDA
  8
3
 62
     0
  2
_OPEN
 10
2854.7598029433138
 20
5684.6090888209374
 30
0.0
 41
60.0
 42
60.0
 43
60.0
 50
270.0
  0
TEXT
  8
3
  40
90
  5
7F09
  62
0
  72
0
  71
0
 10
2599.76
 20
5838.70
 30
0.000000
  1
610
  0
POINT
  5
7EDC
  8
DEFPOINTS
 62
     0
 10
2524.4015739433121
 20
6294.6090888209374
 30
0.0
  0
POINT
  5
7EDD
  8
DEFPOINTS
 62
     0
 10
2524.4015739433121
 20
5684.6090888209374
 30
0.0
  0
POINT
  5
7EDE
  8
DEFPOINTS
 62
     0
 10
2854.7598029433138
 20
5684.6090888209374
 30
0.0
  0
ENDBLK
  5
7C98
  8
0
  0
BLOCK
  8
0
  2
*D10
 70
     1
 10
0.0
 20
0.0
 30
0.0
  3
*D10
  1

  0
LINE
  5
7EDF
  8
3
 62
     0
 10
4619.8140109433134
 20
3540.6313398209368
 30
0.0
 11
4619.8140109433134
 21
3676.9966638209371
 31
0.0
  0
LINE
  5
7EE0
  8
3
 62
     0
 10
5044.8140109433134
 20
3540.6313398209368
 30
0.0
 11
5044.8140109433134
 21
3676.9966638209371
 31
0.0
  0
LINE
  5
7EE1
  8
3
 62
     0
 10
4679.8140109433134
 20
3646.9966638209371
 30
0.0
 11
4984.8140109433134
 21
3646.9966638209371
 31
0.0
  0
INSERT
  5
7EE2
  8
3
 62
     0
  2
_OPEN
 10
4619.8140109433134
 20
3646.9966638209371
 30
0.0
 41
60.0
 42
60.0
 43
60.0
 50
180.0
  0
INSERT
  5
7EE3
  8
3
 62
     0
  2
_OPEN
 10
5044.8140109433134
 20
3646.9966638209371
 30
0.0
 41
60.0
 42
60.0
 43
60.0
  0
TEXT
  8
3
  40
90
  5
7F0A
  62
0
  72
0
  71
0
 10
4645.53
 20
3562.70
 30
0.000000
  1
425
  0
POINT
  5
7EE5
  8
DEFPOINTS
 62
     0
 10
4619.8140109433134
 20
3525.6313398209368
 30
0.0
  0
POINT
  5
7EE6
  8
DEFPOINTS
 62
     0
 10
5044.8140109433134
 20
3525.6313398209368
 30
0.0
  0
POINT
  5
7EE7
  8
DEFPOINTS
 62
     0
 10
5044.8140109433134
 20
3646.9966638209371
 30
0.0
  0
ENDBLK
  5
7C8D
  8
0
  0
BLOCK
  8
0
  2
*D11
 70
     1
 10
0.0
 20
0.0
 30
0.0
  3
*D11
  1

  0
LINE
  5
7EE8
  8
3
 62
     0
 10
4372.3140109433134
 20
3314.931339820937
 30
0.0
 11
4372.3140109433134
 21
3896.5201438209369
 31
0.0
  0
LINE
  5
7EE9
  8
3
 62
     0
 10
4832.3140109433143
 20
3840.3653198209372
 30
0.0
 11
4832.3140109433143
 21
3896.5201438209369
 31
0.0
  0
LINE
  5
7EEA
  8
3
 62
     0
 10
4432.3140109433134
 20
3866.5201438209369
 30
0.0
 11
4772.3140109433134
 21
3866.5201438209369
 31
0.0
  0
INSERT
  5
7EEB
  8
3
 62
     0
  2
_OPEN
 10
4372.3140109433134
 20
3866.5201438209369
 30
0.0
 41
60.0
 42
60.0
 43
60.0
 50
180.0
  0
INSERT
  5
7EEC
  8
3
 62
     0
  2
_OPEN
 10
4832.3140109433143
 20
3866.5201438209369
 30
0.0
 41
60.0
 42
60.0
 43
60.0
  0
TEXT
  8
3
  40
90
  5
7F0B
  62
0
  72
0
  71
0
 10
4410.89
 20
3857.22
 30
0.000000
  1
MAX
  0
TEXT
  8
3
  40
90
  5
7F0C
  62
0
  72
0
  71
0
 10
4410.89
 20
3740.22
 30
0.000000
  1
510
  0
POINT
  5
7EEE
  8
DEFPOINTS
 62
     0
 10
4372.3140109433134
 20
3299.931339820936
 30
0.0
  0
POINT
  5
7EEF
  8
DEFPOINTS
 62
     0
 10
4832.3140109433143
 20
3825.3653198209372
 30
0.0
  0
POINT
  5
7EF0
  8
DEFPOINTS
 62
     0
 10
4832.3140109433143
 20
3866.5201438209369
 30
0.0
  0
ENDBLK
  5
7DB8
  8
0
  0
BLOCK
  8
0
  2
*D12
 70
     1
 10
0.0
 20
0.0
 30
0.0
  3
*D12
  1

  0
LINE
  5
7D65
  8
0
  6
BYBLOCK
 62
     0
 10
4832.3140109433143
 20
3840.3653198209372
 30
0.0
 11
4832.3140109433143
 21
3896.5201438209369
 31
0.0
  0
LINE
  5
7D66
  8
0
  6
BYBLOCK
 62
     0
 10
5108.3140109433134
 20
3460.6313398209359
 30
0.0
 11
5108.3140109433134
 21
3896.5201438209369
 31
0.0
  0
LINE
  5
7D67
  8
0
  6
BYBLOCK
 62
     0
 10
4892.3140109433134
 20
3866.5201438209369
 30
0.0
 11
5048.3140109433143
 21
3866.5201438209369
 31
0.0
  0
TEXT
  5
7D68
  8
3
 62
     0
 10
4858.5217548033306
 20
3899.2548311790561
 30
0.0
 40
90.0
  1
276
  0
INSERT
  5
7D69
  8
0
  6
BYBLOCK
 62
     0
  2
_OPEN
 10
4832.3140109433143
 20
3866.5201438209369
 30
0.0
 41
60.0
 42
60.0
 43
60.0
 50
180.0
  0
INSERT
  5
7D6A
  8
0
  6
BYBLOCK
 62
     0
  2
_OPEN
 10
5108.3140109433134
 20
3866.5201438209369
 30
0.0
 41
60.0
 42
60.0
 43
60.0
  0
POINT
  5
7D6B
  8
DEFPOINTS
  6
BYBLOCK
 62
     0
 10
4832.3140109433143
 20
3825.3653198209372
 30
0.0
  0
POINT
  5
7D6C
  8
DEFPOINTS
  6
BYBLOCK
 62
     0
 10
5108.3140109433134
 20
3445.6313398209359
 30
0.0
  0
POINT
  5
7D6D
  8
DEFPOINTS
  6
BYBLOCK
 62
     0
 10
5108.3140109433134
 20
3866.5201438209369
 30
0.0
  0
ENDBLK
  5
7D6E
  8
0
  0
BLOCK
  8
0
  2
*D13
 70
     1
 10
0.0
 20
0.0
 30
0.0
  3
*D13
  1

  0
LINE
  5
7EF1
  8
3
 62
     0
 10
5123.3140109433143
 20
3415.6313398209359
 30
0.0
 11
5380.6001039433149
 21
3415.6313398209359
 31
0.0
  0
LINE
  5
7EF2
  8
3
 62
     0
 10
5123.3140109433143
 20
2855.6313398209359
 30
0.0
 11
5380.6001039433149
 21
2855.6313398209359
 31
0.0
  0
LINE
  5
7EF3
  8
3
 62
     0
 10
5350.6001039433149
 20
3355.6313398209359
 30
0.0
 11
5350.6001039433149
 21
2915.6313398209359
 31
0.0
  0
INSERT
  5
7EF4
  8
3
 62
     0
  2
_OPEN
 10
5350.6001039433149
 20
3415.6313398209359
 30
0.0
 41
60.0
 42
60.0
 43
60.0
 50
90.0
  0
INSERT
  5
7EF5
  8
3
 62
     0
  2
_OPEN
 10
5350.6001039433149
 20
2855.6313398209359
 30
0.0
 41
60.0
 42
60.0
 43
60.0
 50
270.0
  0
TEXT
  8
3
  40
90
  5
7F0D
  62
0
  72
0
  71
0
 10
5095.60
 20
2996.62
 30
0.000000
  1
φ560
  0
POINT
  5
7EF7
  8
DEFPOINTS
 62
     0
 10
5108.3140109433134
 20
3415.6313398209368
 30
0.0
  0
POINT
  5
7EF8
  8
DEFPOINTS
 62
     0
 10
5108.3140109433134
 20
2855.6313398209359
 30
0.0
  0
POINT
  5
7EF9
  8
DEFPOINTS
 62
     0
 10
5350.6001039433149
 20
2855.6313398209359
 30
0.0
  0
ENDBLK
  5
7D9A
  8
0
  0
BLOCK
  8
0
  2
*D14
 70
     1
 10
0.0
 20
0.0
 30
0.0
  3
*D14
  1

  0
LINE
  5
7D7B
  8
0
  6
BYBLOCK
 62
     0
 10
4477.3140109433134
 20
2565.6313398209359
 30
0.0
 11
4477.3140109433134
 21
2350.095235820937
 31
0.0
  0
LINE
  5
7D7C
  8
0
  6
BYBLOCK
 62
     0
 10
4832.3140109433143
 20
2487.941603820937
 30
0.0
 11
4832.3140109433143
 21
2350.095235820937
 31
0.0
  0
LINE
  5
7D7D
  8
0
  6
BYBLOCK
 62
     0
 10
4537.3140109433143
 20
2380.0952358209361
 30
0.0
 11
4772.3140109433134
 21
2380.0952358209361
 31
0.0
  0
TEXT
  5
7D7E
  8
3
 62
     0
 10
4547.1010017429844
 20
2399.5452836357031
 30
0.0
 40
90.0
  1
355
  0
INSERT
  5
7D7F
  8
0
  6
BYBLOCK
 62
     0
  2
_OPEN
 10
4477.3140109433134
 20
2380.0952358209361
 30
0.0
 41
60.0
 42
60.0
 43
60.0
 50
180.0
  0
INSERT
  5
7D80
  8
0
  6
BYBLOCK
 62
     0
  2
_OPEN
 10
4832.3140109433143
 20
2380.0952358209361
 30
0.0
 41
60.0
 42
60.0
 43
60.0
  0
POINT
  5
7D81
  8
DEFPOINTS
  6
BYBLOCK
 62
     0
 10
4477.3140109433134
 20
2580.6313398209368
 30
0.0
  0
POINT
  5
7D82
  8
DEFPOINTS
  6
BYBLOCK
 62
     0
 10
4832.3140109433143
 20
2502.941603820937
 30
0.0
  0
POINT
  5
7D83
  8
DEFPOINTS
  6
BYBLOCK
 62
     0
 10
4832.3140109433143
 20
2380.0952358209361
 30
0.0
  0
ENDBLK
  5
7D84
  8
0
  0
BLOCK
  8
0
  2
*D15
 70
     1
 10
0.0
 20
0.0
 30
0.0
  3
*D15
  1

  0
LINE
  5
7D86
  8
0
  6
BYBLOCK
 62
     0
 10
4832.3140109433143
 20
2487.941603820937
 30
0.0
 11
4832.3140109433143
 21
2350.095235820937
 31
0.0
  0
LINE
  5
7D87
  8
0
  6
BYBLOCK
 62
     0
 10
5087.3140109433134
 20
2565.6313398209359
 30
0.0
 11
5087.3140109433134
 21
2350.095235820937
 31
0.0
  0
LINE
  5
7D88
  8
0
  6
BYBLOCK
 62
     0
 10
4892.3140109433134
 20
2380.0952358209361
 30
0.0
 11
5027.3140109433143
 21
2380.0952358209361
 31
0.0
  0
TEXT
  5
7D89
  8
3
 62
     0
 10
4850.1706778213456
 20
2404.3107692527878
 30
0.0
 40
90.0
  1
255
  0
INSERT
  5
7D8A
  8
0
  6
BYBLOCK
 62
     0
  2
_OPEN
 10
4832.3140109433143
 20
2380.0952358209361
 30
0.0
 41
60.0
 42
60.0
 43
60.0
 50
180.0
  0
INSERT
  5
7D8B
  8
0
  6
BYBLOCK
 62
     0
  2
_OPEN
 10
5087.3140109433134
 20
2380.0952358209361
 30
0.0
 41
60.0
 42
60.0
 43
60.0
  0
POINT
  5
7D8C
  8
DEFPOINTS
  6
BYBLOCK
 62
     0
 10
4832.3140109433143
 20
2502.941603820937
 30
0.0
  0
POINT
  5
7D8D
  8
DEFPOINTS
  6
BYBLOCK
 62
     0
 10
5087.3140109433134
 20
2580.6313398209368
 30
0.0
  0
POINT
  5
7D8E
  8
DEFPOINTS
  6
BYBLOCK
 62
     0
 10
5087.3140109433134
 20
2380.0952358209361
 30
0.0
  0
ENDBLK
  5
7D8F
  8
0
  0
BLOCK
  8
0
  2
*D16
 70
     1
 10
0.0
 20
0.0
 30
0.0
  3
*D16
  1

  0
LINE
  5
7EFA
  8
3
 62
     0
 10
2569.401573943313
 20
3123.6313398209368
 30
0.0
 11
2569.401573943313
 21
4096.7262626715556
 31
0.0
  0
LINE
  5
7EFB
  8
3
 62
     0
 10
1244.401573943313
 20
2670.6313398209359
 30
0.0
 11
1244.401573943313
 21
4096.7262626715556
 31
0.0
  0
LINE
  5
7EFC
  8
3
 62
     0
 10
2509.401573943313
 20
4066.726262671556
 30
0.0
 11
1304.401573943313
 21
4066.726262671556
 31
0.0
  0
INSERT
  5
7EFD
  8
3
 62
     0
  2
_OPEN
 10
2569.401573943313
 20
4066.726262671556
 30
0.0
 41
60.0
 42
60.0
 43
60.0
  0
INSERT
  5
7EFE
  8
3
 62
     0
  2
_OPEN
 10
1244.401573943313
 20
4066.726262671556
 30
0.0
 41
60.0
 42
60.0
 43
60.0
 50
180.0
  0
TEXT
  8
3
  40
90
  5
7F0E
  62
0
  72
0
  71
0
 10
1634.62
 20
3982.43
 30
0.000000
  1
1325
  0
POINT
  5
7F00
  8
DEFPOINTS
 62
     0
 10
2569.401573943313
 20
3108.6313398209368
 30
0.0
  0
POINT
  5
7F01
  8
DEFPOINTS
 62
     0
 10
1244.401573943313
 20
2655.6313398209368
 30
0.0
  0
POINT
  5
7F02
  8
DEFPOINTS
 62
     0
 10
1244.401573943313
 20
4066.726262671556
 30
0.0
  0
ENDBLK
  5
7DE8
  8
0
  0
BLOCK
  8
0
  2
*D17
 70
     1
 10
0.0
 20
0.0
 30
0.0
  3
*D17
  1

  0
LINE
  5
7DD5
  8
0
  6
BYBLOCK
 62
     0
 10
2569.401573943313
 20
3108.6313398209368
 30
0.0
 11
2569.401573943313
 21
3909.0046178209359
 31
0.0
  0
LINE
  5
7DD6
  8
0
  6
BYBLOCK
 62
     0
 10
2229.401573943313
 20
3879.0046178209359
 30
0.0
 11
2509.401573943313
 21
3879.0046178209359
 31
0.0
  0
TEXT
  5
7DD7
  8
3
 62
     0
 10
2253.6872882290272
 20
3954.0046178209359
 30
0.0
 40
90.0
  1
400
  0
INSERT
  5
7DD8
  8
0
  6
BYBLOCK
 62
     0
  2
_OPEN
 10
2169.401573943313
 20
3879.0046178209359
 30
0.0
 41
60.0
 42
60.0
 43
60.0
 50
180.0
  0
INSERT
  5
7DD9
  8
0
  6
BYBLOCK
 62
     0
  2
_OPEN
 10
2569.401573943313
 20
3879.0046178209359
 30
0.0
 41
60.0
 42
60.0
 43
60.0
  0
POINT
  5
7DDA
  8
DEFPOINTS
  6
BYBLOCK
 62
     0
 10
2169.401573943313
 20
3467.816900820937
 30
0.0
  0
POINT
  5
7DDB
  8
DEFPOINTS
  6
BYBLOCK
 62
     0
 10
2569.401573943313
 20
3093.6313398209359
 30
0.0
  0
POINT
  5
7DDC
  8
DEFPOINTS
  6
BYBLOCK
 62
     0
 10
2569.401573943313
 20
3879.0046178209359
 30
0.0
  0
ENDBLK
  5
7DDD
  8
0
  0
ENDSEC
  0
SECTION
  2
ENTITIES
  0
LINE
  5
7A71
  8
1
 10
1514.806046943313
 20
2727.736517820937
 30
0.0
 11
2214.806046943313
 21
3030.736517820937
 31
0.0
  0
LINE
  5
7A72
  8
1
 10
1534.6680219433131
 20
2681.8507678209371
 30
0.0
 11
2234.6680219433129
 21
2984.8507678209371
 31
0.0
  0
ARC
  5
7A73
  8
1
 10
1469.401573943313
 20
2832.6313398209359
 30
0.0
 40
164.30000000000001
 50
113.40571799999989
 51
293.40571799999998
  0
ARC
  5
7A74
  8
1
 10
2127.401573943313
 20
3177.6313398209368
 30
0.0
 40
526.0
 50
184.579824
 51
262.92949599999992
  0
ARC
  5
7A75
  8
1
 10
2127.401573943313
 20
3093.6313398209359
 30
0.0
 40
442.0
 50
277.71408700000001
 51
5.452621999999999
  0
CIRCLE
  5
7A76
  8
1
 10
2169.401573943313
 20
3135.6313398209368
 30
0.0
 40
280.0
  0
ARC
  5
7A77
  8
1
 10
1469.401573943313
 20
2832.6313398209359
 30
0.0
 40
143.0
 50
324.34590999999989
 51
215.65408999999991
  0
CIRCLE
  5
7A78
  8
1
 10
2169.401573943313
 20
3135.6313398209368
 30
0.0
 40
310.0
  0
CIRCLE
  5
7A79
  8
1
 10
1469.401573943313
 20
2832.6313398209359
 30
0.0
 40
114.3
  0
LINE
  5
7A7A
  8
2
 10
1469.401573943313
 20
2713.3313398209361
 30
0.0
 11
1469.401573943313
 21
2951.931339820937
 31
0.0
  0
LINE
  5
7A7B
  8
1
 10
4387.3140109433134
 20
2946.931339820936
 30
0.0
 11
4387.3140109433134
 21
2718.3313398209361
 31
0.0
  0
LINE
  5
7A7C
  8
1
 10
4450.3140109433134
 20
2946.931339820936
 30
0.0
 11
4450.3140109433134
 21
2718.3313398209361
 31
0.0
  0
LINE
  5
7A7D
  8
1
 10
5044.8140109433134
 20
3525.6313398209368
 30
0.0
 11
5044.8140109433134
 21
2655.6313398209368
 31
0.0
  0
LINE
  5
7A7E
  8
1
 10
4619.8140109433134
 20
3525.6313398209368
 30
0.0
 11
4619.8140109433134
 21
2655.6313398209368
 31
0.0
  0
LINE
  5
7A7F
  8
1
 10
5108.3140109433134
 20
3445.6313398209359
 30
0.0
 11
5108.3140109433134
 21
2825.6313398209368
 31
0.0
  0
LINE
  5
7A80
  8
1
 10
4372.3140109433134
 20
3299.931339820936
 30
0.0
 11
4372.3140109433134
 21
2668.3313398209361
 31
0.0
  0
LINE
  5
7A81
  8
1
 10
4467.3140109433134
 20
3299.931339820936
 30
0.0
 11
4467.3140109433134
 21
2668.3313398209361
 31
0.0
  0
LINE
  5
7A82
  8
1
 10
4487.3140109433143
 20
2975.6313398209368
 30
0.0
 11
4487.3140109433143
 21
2655.6313398209368
 31
0.0
  0
LINE
  5
7A83
  8
1
 10
1244.401573943313
 20
2580.6313398209368
 30
0.0
 11
2524.4015739433121
 21
2580.6313398209368
 31
0.0
  0
LINE
  5
7A84
  8
1
 10
1244.401573943313
 20
2655.6313398209368
 30
0.0
 11
2524.4015739433121
 21
2655.6313398209368
 31
0.0
  0
LINE
  5
7A85
  8
1
 10
1294.401573943313
 20
2655.6313398209368
 30
0.0
 11
1644.401573943313
 21
2655.6313398209368
 31
0.0
  0
LINE
  5
7A86
  8
2
 10
1350.101573943313
 20
2832.6313398209359
 30
0.0
 11
1588.701573943313
 21
2832.6313398209359
 31
0.0
  0
LINE
  5
7A87
  8
1
 10
1244.401573943313
 20
2655.6313398209368
 30
0.0
 11
1244.401573943313
 21
2580.6313398209368
 31
0.0
  0
LINE
  5
7A88
  8
1
 10
1304.401573943313
 20
2700.6313398209368
 30
0.0
 11
1339.401573943313
 21
2700.6313398209368
 31
0.0
  0
LINE
  5
7A89
  8
1
 10
1339.401573943313
 20
2700.6313398209368
 30
0.0
 11
1339.401573943313
 21
2715.6313398209359
 31
0.0
  0
LINE
  5
7A8A
  8
1
 10
1339.401573943313
 20
2715.6313398209359
 30
0.0
 11
1353.430851943313
 21
2749.8240848209371
 31
0.0
  0
LINE
  5
7A8B
  8
1
 10
1304.401573943313
 20
2700.6313398209368
 30
0.0
 11
1294.401573943313
 21
2655.6313398209368
 31
0.0
  0
LINE
  5
7A8C
  8
1
 10
1599.401573943313
 20
2715.6313398209359
 30
0.0
 11
1585.3722969433129
 21
2749.8240848209371
 31
0.0
  0
LINE
  5
7A8D
  8
1
 10
1599.401573943313
 20
2700.6313398209368
 30
0.0
 11
1599.401573943313
 21
2715.6313398209359
 31
0.0
  0
LINE
  5
7A8E
  8
1
 10
1644.401573943313
 20
2655.6313398209368
 30
0.0
 11
1634.401573943313
 21
2700.6313398209368
 31
0.0
  0
LINE
  5
7A8F
  8
1
 10
1599.401573943313
 20
2700.6313398209368
 30
0.0
 11
1634.401573943313
 21
2700.6313398209368
 31
0.0
  0
LINE
  5
7A90
  8
1
 10
4477.3140109433134
 20
2580.6313398209368
 30
0.0
 11
5087.3140109433134
 21
2580.6313398209368
 31
0.0
  0
LINE
  5
7A91
  8
1
 10
4477.3140109433134
 20
2655.6313398209368
 30
0.0
 11
5087.3140109433134
 21
2655.6313398209368
 31
0.0
  0
LINE
  5
7A92
  8
1
 10
2524.4015739433121
 20
2655.6313398209368
 30
0.0
 11
2524.4015739433121
 21
2580.6313398209368
 31
0.0
  0
LINE
  5
7A93
  8
1
 10
4477.3140109433134
 20
2655.6313398209368
 30
0.0
 11
4477.3140109433134
 21
2580.6313398209368
 31
0.0
  0
LINE
  5
7A94
  8
1
 10
4372.3140109433134
 20
2668.3313398209361
 30
0.0
 11
4467.3140109433134
 21
2668.3313398209361
 31
0.0
  0
LINE
  5
7A95
  8
1
 10
4487.3140109433143
 20
2700.6313398209368
 30
0.0
 11
4619.8140109433134
 21
2700.6313398209368
 31
0.0
  0
LINE
  5
7A96
  8
1
 10
4387.3140109433134
 20
2718.3313398209361
 30
0.0
 11
4450.3140109433134
 21
2718.3313398209361
 31
0.0
  0
LINE
  5
7A97
  8
1
 10
4450.3140109433134
 20
2851.6313398209359
 30
0.0
 11
4487.3140109433143
 21
2851.6313398209359
 31
0.0
  0
LINE
  5
7A98
  8
1
 10
4450.3140109433134
 20
2813.6313398209359
 30
0.0
 11
4487.3140109433143
 21
2813.6313398209359
 31
0.0
  0
LINE
  5
7A99
  8
1
 10
5044.8140109433134
 20
2855.6313398209359
 30
0.0
 11
5108.3140109433134
 21
2855.6313398209359
 31
0.0
  0
LINE
  5
7A9A
  8
1
 10
5087.3140109433134
 20
2655.6313398209368
 30
0.0
 11
5087.3140109433134
 21
2580.6313398209368
 31
0.0
  0
ARC
  5
7A9B
  8
1
 10
2169.401573943313
 20
3135.6313398209368
 30
0.0
 40
164.30000000000001
 50
293.40571799999998
 51
113.40571799999989
  0
ARC
  5
7A9C
  8
1
 10
2202.401573943313
 20
3102.6313398209359
 30
0.0
 40
367.0
 50
5.1589039999999997
 51
95.158904000000007
  0
LINE
  5
7A9D
  8
1
 10
1569.401573943313
 20
6252.1090888209374
 30
0.0
 11
2569.4015739433121
 21
6252.1090888209374
 31
0.0
  0
LINE
  5
7A9E
  8
1
 10
1569.401573943313
 20
5827.1090888209364
 30
0.0
 11
2569.4015739433121
 21
5827.1090888209364
 31
0.0
  0
LINE
  5
7A9F
  8
1
 10
1859.401573943313
 20
6315.6090888209364
 30
0.0
 11
2479.4015739433121
 21
6315.6090888209364
 31
0.0
  0
LINE
  5
7AA0
  8
1
 10
2189.401573943313
 20
5684.6090888209374
 30
0.0
 11
2524.4015739433121
 21
5684.6090888209374
 31
0.0
  0
LINE
  5
7AA1
  8
1
 10
1423.9971009433141
 20
2937.526162820936
 30
0.0
 11
2123.9971009433129
 21
3240.526162820936
 31
0.0
  0
LINE
  5
7AA2
  8
1
 10
1404.135126943313
 20
2983.411911820936
 30
0.0
 11
2104.135126943313
 21
3286.411911820936
 31
0.0
  0
LINE
  5
7AA3
  8
1
 10
1603.0810609433131
 20
3135.6313398209368
 30
0.0
 11
1569.401573943313
 21
3525.6313398209368
 31
0.0
  0
LINE
  5
7AA4
  8
1
 10
2149.401573943313
 20
3464.928487820936
 30
0.0
 11
2149.401573943313
 21
3525.6313398209368
 31
0.0
  0
ARC
  5
7AA5
  8
1
 10
2202.401573943313
 20
3168.6313398209368
 30
0.0
 40
301.0
 50
96.294250000000005
 51
100.141498
  0
CIRCLE
  5
7AA6
  8
1
 10
2169.401573943313
 20
3135.6313398209368
 30
0.0
 40
114.3
  0
LINE
  5
7AA7
  8
2
 10
5163.6976759433137
 20
3135.6313398209368
 30
0.0
 11
4265.5442673193347
 21
3135.6313398209368
 31
0.0
  0
LINE
  5
7AA8
  8
2
 10
2169.401573943313
 20
2475.616972820937
 30
0.0
 11
2169.401573943313
 21
3607.0646928209371
 31
0.0
  0
LINE
  5
7AA9
  8
1
 10
1523.402336943313
 20
3135.6313398209368
 30
0.0
 11
1523.402336943313
 21
3135.6313398209368
 31
0.0
  0
LINE
  5
7AAA
  8
1
 10
1539.401573943313
 20
3525.6313398209368
 30
0.0
 11
2179.401573943313
 21
3525.6313398209368
 31
0.0
  0
LINE
  5
7AAB
  8
1
 10
1571.992303943314
 20
3495.6313398209368
 30
0.0
 11
2149.401573943313
 21
3495.6313398209368
 31
0.0
  0
LINE
  5
7AAC
  8
1
 10
1244.401573943313
 20
6294.6090888209374
 30
0.0
 11
1889.401573943313
 21
6294.6090888209374
 31
0.0
  0
LINE
  5
7AAD
  8
1
 10
1326.401573943313
 20
6063.6090888209364
 30
0.0
 11
1569.401573943313
 21
6063.6090888209364
 31
0.0
  0
LINE
  5
7AAE
  8
1
 10
1612.401573943313
 20
5694.6090888209374
 30
0.0
 11
1326.401573943313
 21
5694.6090888209374
 31
0.0
  0
LINE
  5
7AAF
  8
1
 10
1488.401573943313
 20
5684.6090888209374
 30
0.0
 11
2149.401573943313
 21
5684.6090888209374
 31
0.0
  0
LINE
  5
7AB0
  8
1
 10
1355.101573943313
 20
5657.6090888209374
 30
0.0
 11
1583.701573943313
 21
5657.6090888209374
 31
0.0
  0
LINE
  5
7AB1
  8
1
 10
1355.101573943313
 20
5594.6090888209374
 30
0.0
 11
1583.701573943313
 21
5594.6090888209374
 31
0.0
  0
LINE
  5
7AB2
  8
1
 10
1305.101573943313
 20
5579.6090888209364
 30
0.0
 11
2333.7015739433132
 21
5579.6090888209364
 31
0.0
  0
LINE
  5
7AB3
  8
1
 10
1305.101573943313
 20
5674.6090888209364
 30
0.0
 11
2333.7015739433132
 21
5674.6090888209364
 31
0.0
  0
LINE
  5
7AB4
  8
1
 10
1244.401573943313
 20
5684.6090888209374
 30
0.0
 11
1244.401573943313
 21
6294.6090888209374
 31
0.0
  0
LINE
  5
7AB5
  8
1
 10
1326.401573943313
 20
5694.6090888209374
 30
0.0
 11
1326.401573943313
 21
6063.6090888209364
 31
0.0
  0
LINE
  5
7AB6
  8
1
 10
1244.401573943313
 20
5684.6090888209374
 30
0.0
 11
1450.401573943313
 21
5684.6090888209374
 31
0.0
  0
LINE
  5
7AB7
  8
1
 10
1488.401573943313
 20
5657.6090888209374
 30
0.0
 11
1488.401573943313
 21
5694.6090888209374
 31
0.0
  0
LINE
  5
7AB8
  8
1
 10
1450.401573943313
 20
5657.6090888209374
 30
0.0
 11
1450.401573943313
 21
5694.6090888209374
 31
0.0
  0
LINE
  5
7AB9
  8
1
 10
1355.101573943313
 20
5594.6090888209374
 30
0.0
 11
1355.101573943313
 21
5657.6090888209374
 31
0.0
  0
LINE
  5
7ABA
  8
1
 10
1305.101573943313
 20
5579.6090888209364
 30
0.0
 11
1305.101573943313
 21
5674.6090888209364
 31
0.0
  0
LINE
  5
7ABB
  8
1
 10
1569.401573943313
 20
5827.1090888209364
 30
0.0
 11
2149.401573943313
 21
6252.1090888209374
 31
0.0
  0
LINE
  5
7ABC
  8
1
 10
1569.401573943313
 20
6252.1090888209374
 30
0.0
 11
2149.401573943313
 21
5827.1090888209364
 31
0.0
  0
LINE
  5
7ABD
  8
1
 10
2149.401573943313
 20
5827.1090888209364
 30
0.0
 11
2149.401573943313
 21
6252.1090888209374
 31
0.0
  0
LINE
  5
7ABE
  8
1
 10
1569.401573943313
 20
5827.1090888209364
 30
0.0
 11
1569.401573943313
 21
6252.1090888209374
 31
0.0
  0
LINE
  5
7ABF
  8
1
 10
1612.401573943313
 20
5694.6090888209374
 30
0.0
 11
1612.401573943313
 21
5827.1090888209364
 31
0.0
  0
LINE
  5
7AC0
  8
1
 10
1583.701573943313
 20
5594.6090888209374
 30
0.0
 11
1583.701573943313
 21
5657.6090888209374
 31
0.0
  0
LINE
  5
7AC1
  8
1
 10
2189.401573943313
 20
5657.6090888209374
 30
0.0
 11
2189.401573943313
 21
5827.1090888209364
 31
0.0
  0
LINE
  5
7AC2
  8
1
 10
2149.401573943313
 20
5657.6090888209374
 30
0.0
 11
2149.401573943313
 21
5827.1090888209364
 31
0.0
  0
LINE
  5
7AC3
  8
1
 10
2055.1015739433128
 20
5657.6090888209374
 30
0.0
 11
2283.7015739433132
 21
5657.6090888209374
 31
0.0
  0
LINE
  5
7AC4
  8
1
 10
2055.1015739433128
 20
5594.6090888209374
 30
0.0
 11
2283.7015739433132
 21
5594.6090888209374
 31
0.0
  0
LINE
  5
7AC5
  8
1
 10
2283.7015739433132
 20
5594.6090888209374
 30
0.0
 11
2283.7015739433132
 21
5657.6090888209374
 31
0.0
  0
LINE
  5
7AC6
  8
1
 10
2055.1015739433128
 20
5594.6090888209374
 30
0.0
 11
2055.1015739433128
 21
5657.6090888209374
 31
0.0
  0
LINE
  5
7AC7
  8
1
 10
2333.7015739433132
 20
5579.6090888209364
 30
0.0
 11
2333.7015739433132
 21
5674.6090888209364
 31
0.0
  0
LINE
  5
7AC8
  8
1
 10
1889.401573943313
 20
6252.1090888209374
 30
0.0
 11
1889.401573943313
 21
6315.6090888209364
 31
0.0
  0
LINE
  5
7AC9
  8
1
 10
4619.8140109433134
 20
3495.6313398209368
 30
0.0
 11
5044.8140109433134
 21
3495.6313398209368
 31
0.0
  0
LINE
  5
7ACA
  8
1
 10
4589.8140109433134
 20
3525.6313398209368
 30
0.0
 11
5074.8140109433134
 21
3525.6313398209368
 31
0.0
  0
LINE
  5
7ACB
  8
1
 10
4387.3140109433134
 20
2946.931339820936
 30
0.0
 11
4450.3140109433134
 21
2946.931339820936
 31
0.0
  0
LINE
  5
7ACC
  8
1
 10
4450.3140109433134
 20
3155.6313398209368
 30
0.0
 11
4619.8140109433134
 21
3155.6313398209368
 31
0.0
  0
LINE
  5
7ACD
  8
1
 10
4450.3140109433134
 20
3115.6313398209359
 30
0.0
 11
4619.8140109433134
 21
3115.6313398209359
 31
0.0
  0
LINE
  5
7ACE
  8
1
 10
4387.3140109433134
 20
3249.931339820936
 30
0.0
 11
4387.3140109433134
 21
3021.3313398209361
 31
0.0
  0
LINE
  5
7ACF
  8
1
 10
4387.3140109433134
 20
3249.931339820936
 30
0.0
 11
4450.3140109433134
 21
3249.931339820936
 31
0.0
  0
LINE
  5
7AD0
  8
1
 10
4387.3140109433134
 20
3021.3313398209361
 30
0.0
 11
4450.3140109433134
 21
3021.3313398209361
 31
0.0
  0
LINE
  5
7AD1
  8
1
 10
4450.3140109433134
 20
3249.931339820936
 30
0.0
 11
4450.3140109433134
 21
3021.3313398209361
 31
0.0
  0
LINE
  5
7AD2
  8
1
 10
4372.3140109433134
 20
3299.931339820936
 30
0.0
 11
4467.3140109433134
 21
3299.931339820936
 31
0.0
  0
LINE
  5
7AD3
  8
1
 10
4487.3140109433143
 20
2975.6313398209368
 30
0.0
 11
4619.8140109433134
 21
2975.6313398209368
 31
0.0
  0
LINE
  5
7AD4
  8
1
 10
5044.8140109433134
 20
3415.6313398209368
 30
0.0
 11
5108.3140109433134
 21
3415.6313398209368
 31
0.0
  0
LINE
  5
7AD5
  8
1
 10
2569.4015739433121
 20
5827.1090888209364
 30
0.0
 11
2569.4015739433121
 21
6252.1090888209374
 31
0.0
  0
LINE
  5
7AD6
  8
1
 10
2524.4015739433121
 20
5684.6090888209374
 30
0.0
 11
2524.4015739433121
 21
5827.1090888209364
 31
0.0
  0
LINE
  5
7AD7
  8
1
 10
2524.4015739433121
 20
6252.1090888209374
 30
0.0
 11
2524.4015739433121
 21
6294.6090888209374
 31
0.0
  0
LINE
  5
7AD8
  8
1
 10
2449.4015739433121
 20
6252.1090888209374
 30
0.0
 11
2449.4015739433121
 21
6315.6090888209364
 31
0.0
  0
LINE
  5
7AD9
  8
1
 10
2449.4015739433121
 20
6294.6090888209374
 30
0.0
 11
2524.4015739433121
 21
6294.6090888209374
 31
0.0
  0
DIMENSION
  5
7AED
  8
3
  2
*D1
 10
2169.401573943313
 20
2303.9063968209371
 30
0.0
 11
1697.2619669433129
 21
2303.9063968209371
 31
0.0
 70
   128
 13
1244.401573943313
 23
2580.6313398209368
 33
0.0
 14
2169.401573943313
 24
2501.9932818209372
 34
0.0
1001
ACAD
1000
DSTYLE
1002
{
1070
   287
1070
     3
1070
   287
1070
     3
1070
    40
1040
30.0
1070
   143
1040
0.039
1070
   172
1070
     1
1070
   271
1070
     0
1070
   279
1070
     0
1070
   288
1070
     1
1002
}
  0
DIMENSION
  5
7AFB
  8
3
  2
*D2
 10
2524.4015739433121
 20
2301.2711818209368
 30
0.0
 11
2352.2282936807669
 21
2381.0767922123482
 31
0.0
 70
   128
 13
2169.401573943313
 23
2501.9932818209372
 33
0.0
 14
2524.4015739433121
 24
2580.6313398209368
 34
0.0
1001
ACAD
1000
DSTYLE
1002
{
1070
   288
1070
     1
1070
   172
1070
     1
1070
    40
1040
30.0
1070
   271
1070
     0
1070
   143
1040
0.039
1002
}
  0
DIMENSION
  5
7B1E
  8
3
  2
*D3
 10
2149.401573943313
 20
3689.9743528209378
 30
0.0
 11
1873.2252159433131
 21
3689.9743528209378
 31
0.0
 70
   128
 13
1569.401573943313
 23
3525.6313398209368
 33
0.0
 14
2149.401573943313
 24
3525.6313398209368
 34
0.0
1001
ACAD
1000
DSTYLE
1002
{
1070
   287
1070
     3
1070
   287
1070
     3
1070
    40
1040
30.0
1070
   143
1040
0.039
1070
   172
1070
     1
1070
   271
1070
     0
1070
   279
1070
     0
1070
   288
1070
     1
1002
}
  0
DIMENSION
  5
7B2B
  8
3
  2
*D4
 10
2169.401573943313
 20
3879.0046178209359
 30
0.0
 11
1879.823837943313
 21
3879.0046178209359
 31
0.0
 70
   128
 13
1569.401573943313
 23
3525.6313398209368
 33
0.0
 14
2169.401573943313
 24
3467.816900820937
 34
0.0
1001
ACAD
1000
DSTYLE
1002
{
1070
   287
1070
     3
1070
   287
1070
     3
1070
    40
1040
30.0
1070
   143
1040
0.039
1070
   172
1070
     1
1070
   271
1070
     0
1070
   279
1070
     0
1070
   288
1070
     1
1002
}
  0
DIMENSION
  5
7B5E
  8
3
  2
*D5
 10
2898.210918943314
 20
3135.6313398209368
 30
0.0
 11
2817.8440964827819
 21
3311.539901157299
 31
0.0
 70
   128
 13
2179.401573943313
 23
3525.6313398209368
 33
0.0
 14
2567.9149109433129
 24
3135.6313398209368
 34
0.0
 50
90.0
1001
ACAD
1000
DSTYLE
1002
{
1070
   288
1070
     1
1070
   172
1070
     1
1070
    40
1040
30.0
1070
   271
1070
     0
1070
   143
1040
0.039
1002
}
  0
DIMENSION
  5
7B6A
  8
3
  2
*D6
 10
2898.210918943314
 20
2580.6313398209368
 30
0.0
 11
2823.2109189433131
 21
2858.1313398209368
 31
0.0
 70
     0
 13
2567.9149109433129
 23
3135.6313398209368
 33
0.0
 14
2524.4015739433121
 24
2580.6313398209368
 34
0.0
 50
90.0
1001
ACAD
1000
DSTYLE
1002
{
1070
   287
1070
     3
1070
   287
1070
     3
1070
    40
1040
30.0
1070
   143
1040
0.039
1070
   172
1070
     1
1070
   271
1070
     0
1070
   279
1070
     0
1070
   288
1070
     1
1002
}
  0
DIMENSION
  5
7B78
  8
3
  2
*D7
 10
3138.6392489433129
 20
2580.6313398209359
 30
0.0
 11
3138.6392489433129
 21
3114.6545528209372
 31
0.0
 70
   128
 13
2179.401573943313
 23
3525.6313398209368
 33
0.0
 14
2524.4015739433121
 24
2580.6313398209368
 34
0.0
 50
90.0
1001
ACAD
1000
DSTYLE
1002
{
1070
   287
1070
     3
1070
   287
1070
     3
1070
    40
1040
30.0
1070
   143
1040
0.039
1070
   172
1070
     1
1070
   271
1070
     0
1070
   279
1070
     0
1070
   288
1070
     1
1002
}
  0
DIMENSION
  5
7B85
  8
3
  2
*D8
 10
2524.4015739433121
 20
5287.9338608209364
 30
0.0
 11
1777.508972943313
 21
5287.9338608209364
 31
0.0
 70
   128
 13
1244.401573943313
 23
5684.6090888209374
 33
0.0
 14
2524.4015739433121
 24
5684.6090888209374
 34
0.0
1001
ACAD
1000
DSTYLE
1002
{
1070
   287
1070
     3
1070
   287
1070
     3
1070
    40
1040
30.0
1070
   143
1040
0.039
1070
   172
1070
     1
1070
   271
1070
     0
1070
   279
1070
     0
1070
   288
1070
     1
1002
}
  0
DIMENSION
  5
7B92
  8
3
  2
*D9
 10
2854.7598029433138
 20
5684.6090888209374
 30
0.0
 11
2854.7598029433138
 21
5998.003196820936
 31
0.0
 70
   128
 13
2524.4015739433121
 23
6294.6090888209374
 33
0.0
 14
2524.4015739433121
 24
5684.6090888209374
 34
0.0
 50
90.0
1001
ACAD
1000
DSTYLE
1002
{
1070
   287
1070
     3
1070
   287
1070
     3
1070
    40
1040
30.0
1070
   143
1040
0.039
1070
   172
1070
     1
1070
   271
1070
     0
1070
   279
1070
     0
1070
   288
1070
     1
1002
}
  0
LINE
  5
7B93
  8
2
 10
1484.911285943313
 20
6039.6090888209364
 30
0.0
 11
2664.656664943313
 21
6039.6090888209364
 31
0.0
  0
LINE
  5
7B94
  8
2
 10
4832.3140109433143
 20
3664.0954978209361
 30
0.0
 11
4832.3140109433143
 21
2502.941603820937
 31
0.0
  0
DIMENSION
  5
7BA3
  8
3
  2
*D10
 10
5044.8140109433134
 20
3646.9966638209371
 30
0.0
 11
4825.5282966575987
 21
3646.9966638209371
 31
0.0
 70
   128
 13
4619.8140109433134
 23
3525.6313398209368
 33
0.0
 14
5044.8140109433134
 24
3525.6313398209368
 34
0.0
1001
ACAD
1000
DSTYLE
1002
{
1070
   287
1070
     3
1070
   287
1070
     3
1070
    40
1040
30.0
1070
   143
1040
0.039
1070
   172
1070
     1
1070
   271
1070
     0
1070
   279
1070
     0
1070
   288
1070
     1
1002
}
  0
DIMENSION
  5
7BB2
  8
3
  2
*D11
 10
4832.3140109433143
 20
3866.5201438209369
 30
0.0
 11
4590.8854395147418
 21
3866.5201438209369
 31
0.0
 70
   128
  1
MAX\P510
 13
4372.3140109433134
 23
3299.931339820936
 33
0.0
 14
4832.3140109433143
 24
3825.3653198209372
 34
0.0
1001
ACAD
1000
DSTYLE
1002
{
1070
   287
1070
     3
1070
   287
1070
     3
1070
    40
1040
30.0
1070
   143
1040
0.039
1070
   172
1070
     1
1070
   271
1070
     0
1070
   279
1070
     0
1070
   288
1070
     1
1002
}
  0
DIMENSION
  5
7BC0
  8
3
  2
*D12
 10
5108.3140109433134
 20
3866.5201438209369
 30
0.0
 11
4972.0931833747591
 21
3944.2548311790561
 31
0.0
 70
   128
 13
4832.3140109433143
 23
3825.3653198209372
 33
0.0
 14
5108.3140109433134
 24
3445.6313398209359
 34
0.0
1001
ACAD
1000
DSTYLE
1002
{
1070
   288
1070
     1
1070
   172
1070
     1
1070
    40
1040
30.0
1070
   271
1070
     0
1070
   143
1040
0.039
1002
}
  0
DIMENSION
  5
7BE3
  8
3
  2
*D13
 10
5350.6001039433149
 20
2855.6313398209359
 30
0.0
 11
5350.600103943314
 21
3155.917054106651
 31
0.0
 70
   128
 13
5108.3140109433134
 23
3415.6313398209368
 33
0.0
 14
5108.3140109433134
 24
2855.6313398209359
 34
0.0
 50
90.0
1001
ACAD
1000
DSTYLE
1002
{
1070
   287
1070
     3
1070
   287
1070
     3
1070
     3
1000
φ<>
1070
    40
1040
30.0
1070
   143
1040
0.039
1070
   172
1070
     1
1070
   271
1070
     0
1070
   279
1070
     0
1070
   288
1070
     1
1002
}
  0
DIMENSION
  5
7BF2
  8
3
  2
*D14
 10
4832.3140109433143
 20
2380.0952358209361
 30
0.0
 11
4662.8152874572688
 21
2444.5452836357031
 31
0.0
 70
   128
 13
4477.3140109433134
 23
2580.6313398209368
 33
0.0
 14
4832.3140109433143
 24
2502.941603820937
 34
0.0
1001
ACAD
1000
DSTYLE
1002
{
1070
   288
1070
     1
1070
   172
1070
     1
1070
    40
1040
30.0
1070
   271
1070
     0
1070
   143
1040
0.039
1002
}
  0
DIMENSION
  5
7C00
  8
3
  2
*D15
 10
5087.3140109433134
 20
2380.0952358209361
 30
0.0
 11
4965.884963535631
 21
2449.3107692527878
 31
0.0
 70
   128
 13
4832.3140109433143
 23
2502.941603820937
 33
0.0
 14
5087.3140109433134
 24
2580.6313398209368
 34
0.0
1001
ACAD
1000
DSTYLE
1002
{
1070
   288
1070
     1
1070
   172
1070
     1
1070
    40
1040
30.0
1070
   271
1070
     0
1070
   143
1040
0.039
1002
}
  0
LINE
  5
7C17
  8
2
 10
2709.1180209433128
 20
3135.6313398209368
 30
0.0
 11
1568.402336943313
 21
3135.6313398209368
 31
0.0
  0
LINE
  5
7C18
  8
2
 10
2169.401573943313
 20
5429.1235058209359
 30
0.0
 11
2169.401573943313
 21
6348.4040838209366
 31
0.0
  0
LINE
  5
7C19
  8
4
 10
5550.0
 20
1500.0
 30
0.0
 11
5550.0
 21
900.0
 31
0.0
  0
LINE
  5
7C1A
  8
4
 10
3450.0
 20
1500.0
 30
0.0
 11
3450.0
 21
900.0
 31
0.0
  0
LINE
  5
7C1B
  8
4
 10
1950.0
 20
1500.0
 30
0.0
 11
1950.0
 21
900.0
 31
0.0
  0
LINE
  5
7C1E
  8
4
 10
1950.0
 20
900.0
 30
0.0
 11
5550.0
 21
900.0
 31
0.0
  0
LINE
  5
7C1F
  8
4
 10
1950.0
 20
1200.0
 30
0.0
 11
5550.0
 21
1200.0
 31
0.0
  0
TEXT
  5
7C20
  8
4
 10
2065.50624225
 20
1294.6290779999999
 30
0.0
 40
150.0
  1
機器名称
  0
TEXT
  5
7C21
  8
4
 10
2058.7743179999989
 20
964.93547024999998
 30
0.0
 40
150.0
  1
機器型番
  0
TEXT
  5
7C22
  8
4
 10
3533.0362365000001
 20
1267.715306249999
 30
0.0
 40
120.0
  1
ミツヤリミットロードファン
  0
TEXT
  5
7C23
  8
4
 10
3559.9634872500001
 20
951.4787527499999
 30
0.0
 40
150.0
  1
LLE#3 1/2-4
  0
TEXT
  5
7C25
  8
4
 10
2714.3572964999998
 20
7150.2865245000012
 30
0.0
 40
162.0
  1
床置ベット
  0
TEXT
  5
7C26
  8
4
 10
948.50278049999986
 20
7601.6429287499996
 30
0.0
 40
180.0
  1
ベルト駆動式片吸込両持排煙ファン
  0
LINE
  5
7C27
  8
4
 10
750.0
 20
7408.2262627500004
 30
0.0
 11
5550.0
 21
7408.2262627500004
 31
0.0
  0
LINE
  5
7C28
  8
4
 10
750.0
 20
8008.2262627500004
 30
0.0
 11
5550.0
 21
8008.2262627500004
 31
0.0
  0
LINE
  5
7C29
  8
4
 10
1950.0
 20
1500.0
 30
0.0
 11
5550.0
 21
1500.0
 31
0.0
  0
LINE
  5
7C2A
  8
4
 10
750.0
 20
8008.2262627500004
 30
0.0
 11
750.0
 21
7408.2262627500004
 31
0.0
  0
TEXT
  5
7C2B
  8
4
 10
1406.780799749999
 20
7146.9584324999987
 30
0.0
 40
162.0
  1
右回転上向
  0
TEXT
  5
7C2C
  8
4
 10
4406.9086777499988
 20
8118.1832445
 30
0.0
 40
168.0
  1
No.
  0
TEXT
  5
7C2D
  8
4
 10
3933.8881875000002
 20
7150.2865245000012
 30
0.0
 40
162.0
  1
縮尺：1/30
  0
LINE
  5
7C2E
  8
4
 10
5550.0
 20
8008.2262627500004
 30
0.0
 11
5550.0
 21
7408.2262627500004
 31
0.0
  0
LINE
  5
7C30
  8
4
 10
4321.8522667500001
 20
8043.79074975
 30
0.0
 11
4321.8522667500001
 21
8359.9567845000001
 31
0.0
  0
LINE
  5
7C31
  8
4
 10
4321.8522667500001
 20
8359.9567845000001
 30
0.0
 11
5550.0
 21
8359.9567845000001
 31
0.0
  0
LINE
  5
7C32
  8
4
 10
5550.0
 20
8359.9567845000001
 30
0.0
 11
5550.0
 21
8043.79074975
 31
0.0
  0
LINE
  5
7C33
  8
4
 10
5550.0
 20
8043.79074975
 30
0.0
 11
4321.8522667500001
 21
8043.79074975
 31
0.0
  0
DIMENSION
  5
7DC5
  8
3
  2
*D16
 10
1244.401573943313
 20
4066.726262671556
 30
0.0
 11
1814.6201694684751
 21
4066.726262671556
 31
0.0
 70
   128
 13
2569.401573943313
 23
3108.6313398209368
 33
0.0
 14
1244.401573943313
 24
2655.6313398209368
 34
0.0
1001
ACAD
1000
DSTYLE
1002
{
1070
   287
1070
     3
1070
   287
1070
     3
1070
    40
1040
30.0
1070
   143
1040
0.039
1070
   172
1070
     1
1070
   271
1070
     0
1070
   279
1070
     0
1070
   288
1070
     1
1002
}
  0
DIMENSION
  5
7DD3
  8
3
  2
*D17
 10
2569.401573943313
 20
3879.0046178209359
 30
0.0
 11
2369.401573943313
 21
3999.0046178209359
 31
0.0
 70
     0
 13
2169.401573943313
 23
3467.816900820937
 33
0.0
 14
2569.401573943313
 24
3093.6313398209359
 34
0.0
1001
ACAD
1000
DSTYLE
1002
{
1070
   288
1070
     1
1070
   172
1070
     1
1070
    75
1070
     1
1070
    40
1040
30.0
1070
   271
1070
     0
1070
   143
1040
0.039
1002
}
  0
ENDSEC
  0
EOF
