  0
SECTION
  2
HEADER
  9
$ACADVER
  1
AC1009
  9
$INSBASE
 10
0.0
 20
0.0
 30
0.0
  9
$EXTMIN
 10
750.0
 20
900.0
 30
0.0
  9
$EXTMAX
 10
5550.0
 20
8359.9567845000001
 30
0.0
  9
$LIMMIN
 10
0.0
 20
0.0
  9
$LIMMAX
 10
297.0
 20
210.0
  9
$ORTHOMODE
 70
     0
  9
$REGENMODE
 70
     1
  9
$FILLMODE
 70
     0
  9
$QTEXTMODE
 70
     0
  9
$MIRRTEXT
 70
     1
  9
$DRAGMODE
 70
     2
  9
$LTSCALE
 40
100.0
  9
$OSMODE
 70
    37
  9
$ATTMODE
 70
     1
  9
$TEXTSIZE
 40
180.0
  9
$TRACEWID
 40
0.05
  9
$TEXTSTYLE
  7
STANDARD
  9
$CLAYER
  8
3
  9
$CELTYPE
  6
BYLAYER
  9
$CECOLOR
 62
   256
  9
$DIMSCALE
 40
30.0
  9
$DIMASZ
 40
2.0
  9
$DIMEXO
 40
0.5
  9
$DIMDLI
 40
10.0
  9
$DIMRND
 40
0.0
  9
$DIMDLE
 40
0.0
  9
$DIMEXE
 40
1.0
  9
$DIMTP
 40
1.0
  9
$DIMTM
 40
1.0
  9
$DIMTXT
 40
3.0
  9
$DIMCEN
 40
0.0
  9
$DIMTSZ
 40
0.0
  9
$DIMTOL
 70
     0
  9
$DIMLIM
 70
     0
  9
$DIMTIH
 70
     0
  9
$DIMTOH
 70
     0
  9
$DIMSE1
 70
     0
  9
$DIMSE2
 70
     0
  9
$DIMTAD
 70
     1
  9
$DIMZIN
 70
     8
  9
$DIMBLK
  1

  9
$DIMASO
 70
     1
  9
$DIMSHO
 70
     1
  9
$DIMPOST
  1

  9
$DIMAPOST
  1

  9
$DIMALT
 70
     0
  9
$DIMALTD
 70
     2
  9
$DIMALTF
 40
0.039
  9
$DIMLFAC
 40
1.0
  9
$DIMTOFL
 70
     1
  9
$DIMTVP
 40
0.0
  9
$DIMTIX
 70
     0
  9
$DIMSOXD
 70
     0
  9
$DIMSAH
 70
     1
  9
$DIMBLK1
  1
OPEN
  9
$DIMBLK2
  1
OPEN
  9
$DIMSTYLE
  2
IGA
  9
$DIMCLRD
 70
     0
  9
$DIMCLRE
 70
     0
  9
$DIMCLRT
 70
     0
  9
$DIMTFAC
 40
10.0
  9
$DIMGAP
 40
1.0
  9
$LUNITS
 70
     2
  9
$LUPREC
 70
     3
  9
$SKETCHINC
 40
0.1
  9
$FILLETRAD
 40
50.0
  9
$AUNITS
 70
     0
  9
$AUPREC
 70
     0
  9
$MENU
  1
acad
  9
$ELEVATION
 40
0.0
  9
$PELEVATION
 40
0.0
  9
$THICKNESS
 40
0.0
  9
$LIMCHECK
 70
     0
  9
$BLIPMODE
 70
     0
  9
$CHAMFERA
 40
0.5
  9
$CHAMFERB
 40
0.5
  9
$SKPOLY
 70
     0
  9
$TDCREATE
 40
2450760.3665144672
  9
$TDUPDATE
 40
2454953.6822211342
  9
$TDINDWG
 40
0.0112628241
  9
$TDUSRTIMER
 40
0.0112628241
  9
$USRTIMER
 70
     1
  9
$ANGBASE
 50
0.0
  9
$ANGDIR
 70
     0
  9
$PDMODE
 70
     0
  9
$PDSIZE
 40
0.0
  9
$PLINEWID
 40
0.0
  9
$COORDS
 70
     1
  9
$SPLFRAME
 70
     0
  9
$SPLINETYPE
 70
     6
  9
$SPLINESEGS
 70
     8
  9
$ATTDIA
 70
     0
  9
$ATTREQ
 70
     1
  9
$HANDLING
 70
 10241
  9
$HANDSEED
  5
8095
  9
$SURFTAB1
 70
     6
  9
$SURFTAB2
 70
     6
  9
$SURFTYPE
 70
     6
  9
$SURFU
 70
     6
  9
$SURFV
 70
     6
  9
$UCSNAME
  2

  9
$UCSORG
 10
0.0
 20
0.0
 30
0.0
  9
$UCSXDIR
 10
1.0
 20
0.0
 30
0.0
  9
$UCSYDIR
 10
0.0
 20
1.0
 30
0.0
  9
$PUCSNAME
  2

  9
$PUCSORG
 10
0.0
 20
0.0
 30
0.0
  9
$PUCSXDIR
 10
1.0
 20
0.0
 30
0.0
  9
$PUCSYDIR
 10
0.0
 20
1.0
 30
0.0
  9
$USERI1
 70
     0
  9
$USERI2
 70
     0
  9
$USERI3
 70
     0
  9
$USERI4
 70
     0
  9
$USERI5
 70
     0
  9
$USERR1
 40
0.0
  9
$USERR2
 40
0.0
  9
$USERR3
 40
0.0
  9
$USERR4
 40
0.0
  9
$USERR5
 40
0.0
  9
$WORLDVIEW
 70
     1
  9
$SHADEDGE
 70
     3
  9
$SHADEDIF
 70
    70
  9
$TILEMODE
 70
     1
  9
$MAXACTVP
 70
    16
  9
$PLIMCHECK
 70
     0
  9
$PEXTMIN
 10
1.0000000000000000E+020
 20
1.0000000000000000E+020
 30
1.0000000000000000E+020
  9
$PEXTMAX
 10
-1.0000000000000000E+020
 20
-1.0000000000000000E+020
 30
-1.0000000000000000E+020
  9
$PLIMMIN
 10
0.0
 20
0.0
  9
$PLIMMAX
 10
12.0
 20
9.0
  9
$UNITMODE
 70
     0
  9
$VISRETAIN
 70
     0
  9
$PLINEGEN
 70
     0
  9
$PSLTSCALE
 70
     1
  0
ENDSEC
  0
SECTION
  2
TABLES
  0
TABLE
  2
VPORT
 70
     2
  0
VPORT
  2
*ACTIVE
 70
     0
 10
0.0
 20
0.0
 11
1.0
 21
1.0
 12
12006.13601405078
 22
3774.1105058473122
 13
0.0
 23
0.0
 14
10.0
 24
10.0
 15
10.0
 25
10.0
 16
0.0
 26
0.0
 36
1.0
 17
0.0
 27
0.0
 37
0.0
 40
9426.2922791947003
 41
3.1666666666666661
 42
50.0
 43
0.0
 44
0.0
 50
0.0
 51
0.0
 71
     0
 72
   100
 73
     1
 74
     0
 75
     0
 76
     0
 77
     0
 78
     0
  0
ENDTAB
  0
TABLE
  2
LTYPE
 70
     2
  0
LTYPE
  2
CONTINUOUS
 70
     0
  3
Solid line
 72
    65
 73
     0
 40
0.0
  0
LTYPE
  2
CENTER
 70
     0
  3
____ _ ____ _ ____ _ ____ _ ____ _ ____ _ ____ 
 72
    65
 73
     4
 40
2.0
 49
1.25
 49
-0.25
 49
0.25
 49
-0.25
  0
ENDTAB
  0
TABLE
  2
LAYER
 70
     6
  0
LAYER
  2
0
 70
     0
 62
     7
  6
CONTINUOUS
  0
LAYER
  2
3
 70
     0
 62
     2
  6
CONTINUOUS
  0
LAYER
  2
2
 70
     0
 62
     3
  6
CENTER
  0
LAYER
  2
1
 70
     0
 62
     4
  6
CONTINUOUS
  0
LAYER
  2
4
 70
     0
 62
     7
  6
CONTINUOUS
  0
LAYER
  2
DEFPOINTS
 70
     0
 62
     7
  6
CONTINUOUS
  0
ENDTAB
  0
TABLE
  2
STYLE
 70
     1
  0
STYLE
  2
STANDARD
 70
     0
 40
0.0
 41
1.0
 50
0.0
 71
     0
 42
180.0
  3
simplex.shx
  4
extfont.shx
  0
ENDTAB
  0
TABLE
  2
VIEW
 70
     0
  0
ENDTAB
  0
TABLE
  2
UCS
 70
     0
  0
ENDTAB
  0
TABLE
  2
APPID
 70
     1
  0
APPID
  2
ACAD
 70
     0
  0
ENDTAB
  0
TABLE
  2
DIMSTYLE
 70
     1
  0
DIMSTYLE
  2
IGA
 70
     0
  3

  4

  5

  6
OPEN
  7
OPEN
 40
2.0
 41
2.0
 42
0.5
 43
10.0
 44
1.0
 45
0.0
 46
0.0
 47
1.0
 48
1.0
140
3.0
141
0.0
142
0.0
143
0.03937
144
1.0
145
0.0
146
10.0
147
1.0
 71
     0
 72
     0
 73
     0
 74
     0
 75
     0
 76
     0
 77
     1
 78
     8
170
     0
171
     2
172
     0
173
     1
174
     0
175
     0
176
     0
177
     0
178
     0
  0
ENDTAB
  0
ENDSEC
  0
SECTION
  2
BLOCKS
  0
BLOCK
  8
0
  2
$MODEL_SPACE
 70
     0
 10
0.0
 20
0.0
 30
0.0
  3
$MODEL_SPACE
  1

  0
ENDBLK
  5
1B
  8
0
  0
BLOCK
 67
     1
  8
0
  2
$PAPER_SPACE
 70
     0
 10
0.0
 20
0.0
 30
0.0
  3
$PAPER_SPACE
  1

  0
ENDBLK
  5
18
 67
     1
  8
0
  0
BLOCK
  8
0
  2
_OPEN
 70
     0
 10
0.0
 20
0.0
 30
0.0
  3
_OPEN
  1

  0
LINE
  5
7AF5
  8
0
  6
BYBLOCK
 62
     0
 10
-1.0
 20
0.166667
 30
0.0
 11
0.0
 21
0.0
 31
0.0
  0
LINE
  5
7AF6
  8
0
  6
BYBLOCK
 62
     0
 10
0.0
 20
0.0
 30
0.0
 11
-1.0
 21
-0.166667
 31
0.0
  0
LINE
  5
7AF7
  8
0
  6
BYBLOCK
 62
     0
 10
0.0
 20
0.0
 30
0.0
 11
-1.0
 21
0.0
 31
0.0
  0
ENDBLK
  5
7AF8
  8
0
  0
BLOCK
  8
0
  2
*D1
 70
     1
 10
0.0
 20
0.0
 30
0.0
  3
*D1
  1

  0
LINE
  5
8026
  8
3
 62
     0
 10
1158.8300311770811
 20
2698.2858567729982
 30
0.0
 11
1158.8300311770811
 21
2461.5405379007561
 31
0.0
  0
LINE
  5
8027
  8
3
 62
     0
 10
2083.8300311770822
 20
2597.1694067729982
 30
0.0
 11
2083.8300311770822
 21
2461.5405379007561
 31
0.0
  0
LINE
  5
8028
  8
3
 62
     0
 10
1218.8300311770811
 20
2491.5405379007561
 30
0.0
 11
2023.830031177082
 21
2491.5405379007561
 31
0.0
  0
INSERT
  5
8029
  8
3
 62
     0
  2
_OPEN
 10
1158.8300311770811
 20
2491.5405379007561
 30
0.0
 41
60.0
 42
60.0
 43
60.0
 50
180.0
  0
INSERT
  5
802A
  8
3
 62
     0
  2
_OPEN
 10
2083.8300311770822
 20
2491.5405379007561
 30
0.0
 41
60.0
 42
60.0
 43
60.0
  0
TEXT
  8
3
  40
90
  5
8089
  62
0
  72
0
  71
0
 10
1436.12
 20
2407.24
 30
0.000000
  1
925
  0
POINT
  5
802C
  8
DEFPOINTS
 62
     0
 10
1158.8300311770811
 20
2713.2858567729982
 30
0.0
  0
POINT
  5
802D
  8
DEFPOINTS
 62
     0
 10
2083.8300311770822
 20
2612.1694067729991
 30
0.0
  0
POINT
  5
802E
  8
DEFPOINTS
 62
     0
 10
2083.8300311770822
 20
2491.5405379007561
 30
0.0
  0
ENDBLK
  5
7ED0
  8
0
  0
BLOCK
  8
0
  2
*D2
 70
     1
 10
0.0
 20
0.0
 30
0.0
  3
*D2
  1

  0
LINE
  5
7ED2
  8
0
  6
BYBLOCK
 62
     0
 10
2083.8300311770822
 20
2597.1694067729982
 30
0.0
 11
2083.8300311770822
 21
2461.2837689007561
 31
0.0
  0
LINE
  5
7ED3
  8
0
  6
BYBLOCK
 62
     0
 10
2438.8300311770822
 20
2698.2858567729982
 30
0.0
 11
2438.8300311770822
 21
2461.2837689007561
 31
0.0
  0
LINE
  5
7ED4
  8
0
  6
BYBLOCK
 62
     0
 10
2143.8300311770809
 20
2491.2837689007561
 30
0.0
 11
2378.8300311770822
 21
2491.2837689007561
 31
0.0
  0
TEXT
  5
7ED5
  8
3
 62
     0
 10
2154.3299971341798
 20
2532.687216187383
 30
0.0
 40
90.0
  1
355
  0
INSERT
  5
7ED6
  8
0
  6
BYBLOCK
 62
     0
  2
_OPEN
 10
2083.8300311770822
 20
2491.2837689007561
 30
0.0
 41
60.0
 42
60.0
 43
60.0
 50
180.0
  0
INSERT
  5
7ED7
  8
0
  6
BYBLOCK
 62
     0
  2
_OPEN
 10
2438.8300311770822
 20
2491.2837689007561
 30
0.0
 41
60.0
 42
60.0
 43
60.0
  0
POINT
  5
7ED8
  8
DEFPOINTS
  6
BYBLOCK
 62
     0
 10
2083.8300311770822
 20
2612.1694067729991
 30
0.0
  0
POINT
  5
7ED9
  8
DEFPOINTS
  6
BYBLOCK
 62
     0
 10
2438.8300311770822
 20
2713.2858567729982
 30
0.0
  0
POINT
  5
7EDA
  8
DEFPOINTS
  6
BYBLOCK
 62
     0
 10
2438.8300311770822
 20
2491.2837689007561
 30
0.0
  0
ENDBLK
  5
7EDB
  8
0
  0
BLOCK
  8
0
  2
*D3
 70
     1
 10
0.0
 20
0.0
 30
0.0
  3
*D3
  1

  0
LINE
  5
802F
  8
3
 62
     0
 10
2488.8300311770822
 20
3783.2858567729982
 30
0.0
 11
2780.3146691770821
 21
3783.2858567729982
 31
0.0
  0
LINE
  5
8030
  8
3
 62
     0
 10
2488.8300311770822
 20
3203.2858567729982
 30
0.0
 11
2780.3146691770821
 21
3203.2858567729982
 31
0.0
  0
LINE
  5
8031
  8
3
 62
     0
 10
2750.314669177083
 20
3723.2858567729982
 30
0.0
 11
2750.314669177083
 21
3263.2858567729982
 31
0.0
  0
INSERT
  5
8032
  8
3
 62
     0
  2
_OPEN
 10
2750.314669177083
 20
3783.2858567729982
 30
0.0
 41
60.0
 42
60.0
 43
60.0
 50
90.0
  0
INSERT
  5
8033
  8
3
 62
     0
  2
_OPEN
 10
2750.314669177083
 20
3203.2858567729982
 30
0.0
 41
60.0
 42
60.0
 43
60.0
 50
270.0
  0
TEXT
  8
3
  40
90
  5
808A
  62
0
  72
0
  71
0
 10
2495.31
 20
3336.43
 30
0.000000
  1
580
  0
POINT
  5
8035
  8
DEFPOINTS
 62
     0
 10
2473.8300311770809
 20
3783.2858567729982
 30
0.0
  0
POINT
  5
8036
  8
DEFPOINTS
 62
     0
 10
2473.8300311770809
 20
3203.2858567729982
 30
0.0
  0
POINT
  5
8037
  8
DEFPOINTS
 62
     0
 10
2750.314669177083
 20
3203.2858567729982
 30
0.0
  0
ENDBLK
  5
7CDD
  8
0
  0
BLOCK
  8
0
  2
*D4
 70
     1
 10
0.0
 20
0.0
 30
0.0
  3
*D4
  1

  0
LINE
  5
8038
  8
3
 62
     0
 10
2488.8300311770822
 20
3783.2858567729982
 30
0.0
 11
2999.9195231770841
 21
3783.2858567729982
 31
0.0
  0
LINE
  5
8039
  8
3
 62
     0
 10
2431.3433681770821
 20
3183.2858567729982
 30
0.0
 11
2999.9195231770841
 21
3183.2858567729982
 31
0.0
  0
LINE
  5
803A
  8
3
 62
     0
 10
2969.9195231770832
 20
3723.2858567729982
 30
0.0
 11
2969.9195231770832
 21
3243.2858567729982
 31
0.0
  0
INSERT
  5
803B
  8
3
 62
     0
  2
_OPEN
 10
2969.9195231770832
 20
3783.2858567729982
 30
0.0
 41
60.0
 42
60.0
 43
60.0
 50
90.0
  0
INSERT
  5
803C
  8
3
 62
     0
  2
_OPEN
 10
2969.9195231770832
 20
3183.2858567729982
 30
0.0
 41
60.0
 42
60.0
 43
60.0
 50
270.0
  0
TEXT
  8
3
  40
90
  5
808B
  62
0
  72
0
  71
0
 10
2714.92
 20
3333.85
 30
0.000000
  1
600
  0
POINT
  5
803E
  8
DEFPOINTS
 62
     0
 10
2473.8300311770809
 20
3783.2858567729982
 30
0.0
  0
POINT
  5
803F
  8
DEFPOINTS
 62
     0
 10
2416.3433681770821
 20
3183.2858567729982
 30
0.0
  0
POINT
  5
8040
  8
DEFPOINTS
 62
     0
 10
2969.9195231770832
 20
3183.2858567729982
 30
0.0
  0
ENDBLK
  5
7CD2
  8
0
  0
BLOCK
  8
0
  2
*D5
 70
     1
 10
0.0
 20
0.0
 30
0.0
  3
*D5
  1

  0
LINE
  5
8041
  8
3
 62
     0
 10
2431.3433681770821
 20
3183.2858567729982
 30
0.0
 11
3002.503128177083
 21
3183.2858567729982
 31
0.0
  0
LINE
  5
8042
  8
3
 62
     0
 10
2453.8300311770822
 20
2713.2858567729982
 30
0.0
 11
3002.503128177083
 21
2713.2858567729982
 31
0.0
  0
LINE
  5
8043
  8
3
 62
     0
 10
2972.503128177083
 20
3123.2858567729982
 30
0.0
 11
2972.503128177083
 21
2773.2858567729982
 31
0.0
  0
INSERT
  5
8044
  8
3
 62
     0
  2
_OPEN
 10
2972.503128177083
 20
3183.2858567729982
 30
0.0
 41
60.0
 42
60.0
 43
60.0
 50
90.0
  0
INSERT
  5
8045
  8
3
 62
     0
  2
_OPEN
 10
2972.503128177083
 20
2713.2858567729982
 30
0.0
 41
60.0
 42
60.0
 43
60.0
 50
270.0
  0
TEXT
  8
3
  40
90
  5
808C
  62
0
  72
0
  71
0
 10
2717.50
 20
2818.27
 30
0.000000
  1
470
  0
POINT
  5
8047
  8
DEFPOINTS
 62
     0
 10
2416.3433681770821
 20
3183.2858567729982
 30
0.0
  0
POINT
  5
8048
  8
DEFPOINTS
 62
     0
 10
2438.8300311770822
 20
2713.2858567729982
 30
0.0
  0
POINT
  5
8049
  8
DEFPOINTS
 62
     0
 10
2972.503128177083
 20
2713.2858567729982
 30
0.0
  0
ENDBLK
  5
7CC7
  8
0
  0
BLOCK
  8
0
  2
*D6
 70
     1
 10
0.0
 20
0.0
 30
0.0
  3
*D6
  1

  0
LINE
  5
804A
  8
3
 62
     0
 10
1601.509518177083
 20
3198.2858567729982
 30
0.0
 11
1601.509518177083
 21
3898.2794557729981
 31
0.0
  0
LINE
  5
804B
  8
3
 62
     0
 10
2083.8300311770822
 20
3764.6063697729978
 30
0.0
 11
2083.8300311770822
 21
3898.2794557729981
 31
0.0
  0
LINE
  5
804C
  8
3
 62
     0
 10
1661.509518177083
 20
3868.2794557729981
 30
0.0
 11
2023.830031177082
 21
3868.2794557729981
 31
0.0
  0
INSERT
  5
804D
  8
3
 62
     0
  2
_OPEN
 10
1601.509518177083
 20
3868.2794557729981
 30
0.0
 41
60.0
 42
60.0
 43
60.0
 50
180.0
  0
INSERT
  5
804E
  8
3
 62
     0
  2
_OPEN
 10
2083.8300311770822
 20
3868.2794557729981
 30
0.0
 41
60.0
 42
60.0
 43
60.0
  0
TEXT
  8
3
  40
90
  5
808D
  62
0
  72
0
  71
0
 10
1663.83
 20
3783.98
 30
0.000000
  1
484
  0
POINT
  5
8050
  8
DEFPOINTS
 62
     0
 10
1601.509518177083
 20
3183.2858567729982
 30
0.0
  0
POINT
  5
8051
  8
DEFPOINTS
 62
     0
 10
2083.8300311770822
 20
3749.6063697729978
 30
0.0
  0
POINT
  5
8052
  8
DEFPOINTS
 62
     0
 10
2083.8300311770822
 20
3868.2794557729981
 30
0.0
  0
ENDBLK
  5
7DF7
  8
0
  0
BLOCK
  8
0
  2
*D7
 70
     1
 10
0.0
 20
0.0
 30
0.0
  3
*D7
  1

  0
LINE
  5
7D44
  8
0
  6
BYBLOCK
 62
     0
 10
2083.8300311770822
 20
3443.1880492404421
 30
0.0
 11
2083.8300311770822
 21
3576.8611352404409
 31
0.0
  0
LINE
  5
7D45
  8
0
  6
BYBLOCK
 62
     0
 10
2473.8300311770809
 20
3506.867536240441
 30
0.0
 11
2473.8300311770809
 21
3576.8611352404409
 31
0.0
  0
LINE
  5
7D46
  8
0
  6
BYBLOCK
 62
     0
 10
2143.8300311770809
 20
3546.8611352404409
 30
0.0
 11
2413.8300311770822
 21
3546.8611352404409
 31
0.0
  0
TEXT
  5
7D47
  8
3
 62
     0
 10
2170.51001344102
 20
3567.4592586892718
 30
0.0
 40
90.0
  1
390
  0
INSERT
  5
7D48
  8
0
  6
BYBLOCK
 62
     0
  2
_OPEN
 10
2083.8300311770822
 20
3546.8611352404409
 30
0.0
 41
60.0
 42
60.0
 43
60.0
 50
180.0
  0
INSERT
  5
7D49
  8
0
  6
BYBLOCK
 62
     0
  2
_OPEN
 10
2473.8300311770809
 20
3546.8611352404409
 30
0.0
 41
60.0
 42
60.0
 43
60.0
  0
POINT
  5
7D4A
  8
DEFPOINTS
  6
BYBLOCK
 62
     0
 10
2083.8300311770822
 20
3428.1880492404412
 30
0.0
  0
POINT
  5
7D4B
  8
DEFPOINTS
  6
BYBLOCK
 62
     0
 10
2473.8300311770809
 20
3491.867536240441
 30
0.0
  0
POINT
  5
7D4C
  8
DEFPOINTS
  6
BYBLOCK
 62
     0
 10
2473.8300311770809
 20
3546.8611352404409
 30
0.0
  0
ENDBLK
  5
7D4D
  8
0
  0
BLOCK
  8
0
  2
*D8
 70
     1
 10
0.0
 20
0.0
 30
0.0
  3
*D8
  1

  0
LINE
  5
8053
  8
3
 62
     0
 10
1158.8300311770811
 20
5313.7013998020584
 30
0.0
 11
1158.8300311770811
 21
4930.8407488020584
 31
0.0
  0
LINE
  5
8054
  8
3
 62
     0
 10
2438.8300311770822
 20
5313.7013998020584
 30
0.0
 11
2438.8300311770822
 21
4930.8407488020584
 31
0.0
  0
LINE
  5
8055
  8
3
 62
     0
 10
1218.8300311770811
 20
4960.8407488020566
 30
0.0
 11
2378.8300311770822
 21
4960.8407488020566
 31
0.0
  0
INSERT
  5
8056
  8
3
 62
     0
  2
_OPEN
 10
1158.8300311770811
 20
4960.8407488020566
 30
0.0
 41
60.0
 42
60.0
 43
60.0
 50
180.0
  0
INSERT
  5
8057
  8
3
 62
     0
  2
_OPEN
 10
2438.8300311770822
 20
4960.8407488020566
 30
0.0
 41
60.0
 42
60.0
 43
60.0
  0
TEXT
  8
3
  40
90
  5
808E
  62
0
  72
0
  71
0
 10
1622.14
 20
4876.54
 30
0.000000
  1
1280
  0
POINT
  5
8059
  8
DEFPOINTS
 62
     0
 10
1158.8300311770811
 20
5328.7013998020566
 30
0.0
  0
POINT
  5
805A
  8
DEFPOINTS
 62
     0
 10
2438.8300311770822
 20
5328.7013998020566
 30
0.0
  0
POINT
  5
805B
  8
DEFPOINTS
 62
     0
 10
2438.8300311770822
 20
4960.8407488020566
 30
0.0
  0
ENDBLK
  5
7CA4
  8
0
  0
BLOCK
  8
0
  2
*D9
 70
     1
 10
0.0
 20
0.0
 30
0.0
  3
*D9
  1

  0
LINE
  5
805C
  8
3
 62
     0
 10
2453.8300311770822
 20
5938.7013998020584
 30
0.0
 11
2800.9833561770838
 21
5938.7013998020584
 31
0.0
  0
LINE
  5
805D
  8
3
 62
     0
 10
2453.8300311770822
 20
5328.7013998020566
 30
0.0
 11
2800.9833561770838
 21
5328.7013998020566
 31
0.0
  0
LINE
  5
805E
  8
3
 62
     0
 10
2770.9833561770838
 20
5878.7013998020566
 30
0.0
 11
2770.9833561770838
 21
5388.7013998020584
 31
0.0
  0
INSERT
  5
805F
  8
3
 62
     0
  2
_OPEN
 10
2770.9833561770838
 20
5938.7013998020584
 30
0.0
 41
60.0
 42
60.0
 43
60.0
 50
90.0
  0
INSERT
  5
8060
  8
3
 62
     0
  2
_OPEN
 10
2770.9833561770838
 20
5328.7013998020566
 30
0.0
 41
60.0
 42
60.0
 43
60.0
 50
270.0
  0
TEXT
  8
3
  40
90
  5
808F
  62
0
  72
0
  71
0
 10
2515.98
 20
5485.72
 30
0.000000
  1
610
  0
POINT
  5
8062
  8
DEFPOINTS
 62
     0
 10
2438.8300311770822
 20
5938.7013998020584
 30
0.0
  0
POINT
  5
8063
  8
DEFPOINTS
 62
     0
 10
2438.8300311770822
 20
5328.7013998020566
 30
0.0
  0
POINT
  5
8064
  8
DEFPOINTS
 62
     0
 10
2770.9833561770838
 20
5328.7013998020566
 30
0.0
  0
ENDBLK
  5
7C99
  8
0
  0
BLOCK
  8
0
  2
*D10
 70
     1
 10
0.0
 20
0.0
 30
0.0
  3
*D10
  1

  0
LINE
  5
8065
  8
3
 62
     0
 10
4157.2894353200236
 20
3798.2858567729982
 30
0.0
 11
4157.2894353200236
 21
3941.9041027729982
 31
0.0
  0
LINE
  5
8066
  8
3
 62
     0
 10
4582.2894353200236
 20
3798.2858567729982
 30
0.0
 11
4582.2894353200236
 21
3941.9041027729982
 31
0.0
  0
LINE
  5
8067
  8
3
 62
     0
 10
4217.2894353200254
 20
3911.9041027729982
 30
0.0
 11
4522.2894353200254
 21
3911.9041027729982
 31
0.0
  0
INSERT
  5
8068
  8
3
 62
     0
  2
_OPEN
 10
4157.2894353200236
 20
3911.9041027729982
 30
0.0
 41
60.0
 42
60.0
 43
60.0
 50
180.0
  0
INSERT
  5
8069
  8
3
 62
     0
  2
_OPEN
 10
4582.2894353200236
 20
3911.9041027729982
 30
0.0
 41
60.0
 42
60.0
 43
60.0
  0
TEXT
  8
3
  40
90
  5
8090
  62
0
  72
0
  71
0
 10
4183.00
 20
3827.60
 30
0.000000
  1
425
  0
POINT
  5
806B
  8
DEFPOINTS
 62
     0
 10
4157.2894353200236
 20
3783.2858567729982
 30
0.0
  0
POINT
  5
806C
  8
DEFPOINTS
 62
     0
 10
4582.2894353200236
 20
3783.2858567729982
 30
0.0
  0
POINT
  5
806D
  8
DEFPOINTS
 62
     0
 10
4582.2894353200236
 20
3911.9041027729982
 30
0.0
  0
ENDBLK
  5
7C8E
  8
0
  0
BLOCK
  8
0
  2
*D11
 70
     1
 10
0.0
 20
0.0
 30
0.0
  3
*D11
  1

  0
LINE
  5
806E
  8
3
 62
     0
 10
3909.789435320024
 20
3362.5858567729979
 30
0.0
 11
3909.789435320024
 21
4186.8295171237824
 31
0.0
  0
LINE
  5
806F
  8
3
 62
     0
 10
4369.7894353200254
 20
4086.1012789168781
 30
0.0
 11
4369.7894353200254
 21
4186.8295171237824
 31
0.0
  0
LINE
  5
8070
  8
3
 62
     0
 10
3969.789435320024
 20
4156.8295171237814
 30
0.0
 11
4309.7894353200236
 21
4156.8295171237814
 31
0.0
  0
INSERT
  5
8071
  8
3
 62
     0
  2
_OPEN
 10
3909.789435320024
 20
4156.8295171237814
 30
0.0
 41
60.0
 42
60.0
 43
60.0
 50
180.0
  0
INSERT
  5
8072
  8
3
 62
     0
  2
_OPEN
 10
4369.7894353200254
 20
4156.8295171237814
 30
0.0
 41
60.0
 42
60.0
 43
60.0
  0
TEXT
  8
3
  40
90
  5
8091
  62
0
  72
0
  71
0
 10
3948.36
 20
4147.53
 30
0.000000
  1
MAX
  0
TEXT
  8
3
  40
90
  5
8092
  62
0
  72
0
  71
0
 10
3948.36
 20
4030.53
 30
0.000000
  1
510
  0
POINT
  5
8074
  8
DEFPOINTS
 62
     0
 10
3909.789435320024
 20
3347.5858567729979
 30
0.0
  0
POINT
  5
8075
  8
DEFPOINTS
 62
     0
 10
4369.7894353200254
 20
4071.1012789168781
 30
0.0
  0
POINT
  5
8076
  8
DEFPOINTS
 62
     0
 10
4369.7894353200254
 20
4156.8295171237814
 30
0.0
  0
ENDBLK
  5
7EC5
  8
0
  0
BLOCK
  8
0
  2
*D12
 70
     1
 10
0.0
 20
0.0
 30
0.0
  3
*D12
  1

  0
LINE
  5
7DC9
  8
0
  6
BYBLOCK
 62
     0
 10
4768.0645951770821
 20
3764.68295838432
 30
0.0
 11
4768.0645951770821
 21
3865.6679645912241
 31
0.0
  0
LINE
  5
7DCA
  8
0
  6
BYBLOCK
 62
     0
 10
5044.0645951770821
 20
3186.867536240441
 30
0.0
 11
5044.0645951770821
 21
3865.6679645912241
 31
0.0
  0
LINE
  5
7DCB
  8
0
  6
BYBLOCK
 62
     0
 10
4828.0645951770821
 20
3835.6679645912241
 30
0.0
 11
4984.0645951770821
 21
3835.6679645912241
 31
0.0
  0
TEXT
  5
7DCC
  8
3
 62
     0
 10
4793.2626791649
 20
3876.0963238627592
 30
0.0
 40
90.0
  1
276
  0
INSERT
  5
7DCD
  8
0
  6
BYBLOCK
 62
     0
  2
_OPEN
 10
4768.0645951770821
 20
3835.6679645912241
 30
0.0
 41
60.0
 42
60.0
 43
60.0
 50
180.0
  0
INSERT
  5
7DCE
  8
0
  6
BYBLOCK
 62
     0
  2
_OPEN
 10
5044.0645951770821
 20
3835.6679645912241
 30
0.0
 41
60.0
 42
60.0
 43
60.0
  0
POINT
  5
7DCF
  8
DEFPOINTS
  6
BYBLOCK
 62
     0
 10
4768.0645951770821
 20
3749.682958384321
 30
0.0
  0
POINT
  5
7DD0
  8
DEFPOINTS
  6
BYBLOCK
 62
     0
 10
5044.0645951770821
 20
3171.867536240441
 30
0.0
  0
POINT
  5
7DD1
  8
DEFPOINTS
  6
BYBLOCK
 62
     0
 10
5044.0645951770821
 20
3835.6679645912241
 30
0.0
  0
ENDBLK
  5
7DD2
  8
0
  0
BLOCK
  8
0
  2
*D13
 70
     1
 10
0.0
 20
0.0
 30
0.0
  3
*D13
  1

  0
LINE
  5
8077
  8
3
 62
     0
 10
4660.7894353200236
 20
3463.2858567729982
 30
0.0
 11
4924.5387603200261
 21
3463.2858567729982
 31
0.0
  0
LINE
  5
8078
  8
3
 62
     0
 10
4660.7894353200236
 20
2903.2858567729982
 30
0.0
 11
4924.5387603200261
 21
2903.2858567729982
 31
0.0
  0
LINE
  5
8079
  8
3
 62
     0
 10
4894.5387603200261
 20
3403.2858567729982
 30
0.0
 11
4894.5387603200261
 21
2963.2858567729982
 31
0.0
  0
INSERT
  5
807A
  8
3
 62
     0
  2
_OPEN
 10
4894.5387603200261
 20
3463.2858567729982
 30
0.0
 41
60.0
 42
60.0
 43
60.0
 50
90.0
  0
INSERT
  5
807B
  8
3
 62
     0
  2
_OPEN
 10
4894.5387603200261
 20
2903.2858567729982
 30
0.0
 41
60.0
 42
60.0
 43
60.0
 50
270.0
  0
TEXT
  8
3
  40
90
  5
8093
  62
0
  72
0
  71
0
 10
4639.54
 20
3044.27
 30
0.000000
  1
φ560
  0
POINT
  5
807D
  8
DEFPOINTS
 62
     0
 10
4645.7894353200254
 20
3463.2858567729982
 30
0.0
  0
POINT
  5
807E
  8
DEFPOINTS
 62
     0
 10
4645.7894353200254
 20
2903.2858567729982
 30
0.0
  0
POINT
  5
807F
  8
DEFPOINTS
 62
     0
 10
4894.5387603200261
 20
2903.2858567729982
 30
0.0
  0
ENDBLK
  5
7D58
  8
0
  0
BLOCK
  8
0
  2
*D14
 70
     1
 10
0.0
 20
0.0
 30
0.0
  3
*D14
  1

  0
LINE
  5
7DDF
  8
0
  6
BYBLOCK
 62
     0
 10
4413.0645951770821
 20
2376.867536240441
 30
0.0
 11
4413.0645951770821
 21
2134.557349240441
 31
0.0
  0
LINE
  5
7DE0
  8
0
  6
BYBLOCK
 62
     0
 10
4768.0645951770821
 20
2342.9360712404409
 30
0.0
 11
4768.0645951770821
 21
2134.557349240441
 31
0.0
  0
LINE
  5
7DE1
  8
0
  6
BYBLOCK
 62
     0
 10
4473.0645951770821
 20
2164.5573492404419
 30
0.0
 11
4708.0645951770821
 21
2164.5573492404419
 31
0.0
  0
TEXT
  5
7DE2
  8
3
 62
     0
 10
4475.6379183272484
 20
2192.5146969831908
 30
0.0
 40
90.0
  1
355
  0
INSERT
  5
7DE3
  8
0
  6
BYBLOCK
 62
     0
  2
_OPEN
 10
4413.0645951770821
 20
2164.5573492404419
 30
0.0
 41
60.0
 42
60.0
 43
60.0
 50
180.0
  0
INSERT
  5
7DE4
  8
0
  6
BYBLOCK
 62
     0
  2
_OPEN
 10
4768.0645951770821
 20
2164.5573492404419
 30
0.0
 41
60.0
 42
60.0
 43
60.0
  0
POINT
  5
7DE5
  8
DEFPOINTS
  6
BYBLOCK
 62
     0
 10
4413.0645951770821
 20
2391.867536240441
 30
0.0
  0
POINT
  5
7DE6
  8
DEFPOINTS
  6
BYBLOCK
 62
     0
 10
4768.0645951770821
 20
2357.9360712404409
 30
0.0
  0
POINT
  5
7DE7
  8
DEFPOINTS
  6
BYBLOCK
 62
     0
 10
4768.0645951770821
 20
2164.5573492404419
 30
0.0
  0
ENDBLK
  5
7DE8
  8
0
  0
BLOCK
  8
0
  2
*D15
 70
     1
 10
0.0
 20
0.0
 30
0.0
  3
*D15
  1

  0
LINE
  5
7DD4
  8
0
  6
BYBLOCK
 62
     0
 10
4768.0645951770821
 20
2342.9360712404409
 30
0.0
 11
4768.0645951770821
 21
2134.557349240441
 31
0.0
  0
LINE
  5
7DD5
  8
0
  6
BYBLOCK
 62
     0
 10
5023.0645951770821
 20
2376.867536240441
 30
0.0
 11
5023.0645951770821
 21
2134.557349240441
 31
0.0
  0
LINE
  5
7DD6
  8
0
  6
BYBLOCK
 62
     0
 10
4828.0645951770821
 20
2164.5573492404419
 30
0.0
 11
4963.0645951770821
 21
2164.5573492404419
 31
0.0
  0
TEXT
  5
7DD7
  8
3
 62
     0
 10
4782.0034374127827
 20
2200.7803056437042
 30
0.0
 40
90.0
  1
255
  0
INSERT
  5
7DD8
  8
0
  6
BYBLOCK
 62
     0
  2
_OPEN
 10
4768.0645951770821
 20
2164.5573492404419
 30
0.0
 41
60.0
 42
60.0
 43
60.0
 50
180.0
  0
INSERT
  5
7DD9
  8
0
  6
BYBLOCK
 62
     0
  2
_OPEN
 10
5023.0645951770821
 20
2164.5573492404419
 30
0.0
 41
60.0
 42
60.0
 43
60.0
  0
POINT
  5
7DDA
  8
DEFPOINTS
  6
BYBLOCK
 62
     0
 10
4768.0645951770821
 20
2357.9360712404409
 30
0.0
  0
POINT
  5
7DDB
  8
DEFPOINTS
  6
BYBLOCK
 62
     0
 10
5023.0645951770821
 20
2391.867536240441
 30
0.0
  0
POINT
  5
7DDC
  8
DEFPOINTS
  6
BYBLOCK
 62
     0
 10
5023.0645951770821
 20
2164.5573492404419
 30
0.0
  0
ENDBLK
  5
7DDD
  8
0
  0
BLOCK
  8
0
  2
*D16
 70
     1
 10
0.0
 20
0.0
 30
0.0
  3
*D16
  1

  0
LINE
  5
8080
  8
3
 62
     0
 10
2473.8300311770809
 20
3843.2858567729982
 30
0.0
 11
2473.8300311770809
 21
4086.2206285072489
 31
0.0
  0
LINE
  5
8081
  8
3
 62
     0
 10
1158.8300311770811
 20
2803.2858567729982
 30
0.0
 11
1158.8300311770811
 21
4086.2206285072489
 31
0.0
  0
LINE
  5
8082
  8
3
 62
     0
 10
2413.8300311770822
 20
4056.2206285072498
 30
0.0
 11
1218.8300311770811
 21
4056.2206285072498
 31
0.0
  0
INSERT
  5
8083
  8
3
 62
     0
  2
_OPEN
 10
2473.8300311770809
 20
4056.2206285072498
 30
0.0
 41
60.0
 42
60.0
 43
60.0
  0
INSERT
  5
8084
  8
3
 62
     0
  2
_OPEN
 10
1158.8300311770811
 20
4056.2206285072498
 30
0.0
 41
60.0
 42
60.0
 43
60.0
 50
180.0
  0
TEXT
  8
3
  40
90
  5
8094
  62
0
  72
0
  71
0
 10
1559.66
 20
3971.92
 30
0.000000
  1
1315
  0
POINT
  5
8086
  8
DEFPOINTS
 62
     0
 10
2473.8300311770809
 20
3828.2858567729982
 30
0.0
  0
POINT
  5
8087
  8
DEFPOINTS
 62
     0
 10
1158.8300311770811
 20
2788.2858567729982
 30
0.0
  0
POINT
  5
8088
  8
DEFPOINTS
 62
     0
 10
1158.8300311770811
 20
4056.2206285072498
 30
0.0
  0
ENDBLK
  5
7EB9
  8
0
  0
ENDSEC
  0
SECTION
  2
ENTITIES
  0
LINE
  5
7A6E
  8
1
 10
1219.530031177082
 20
5318.7013998020584
 30
0.0
 11
2248.1300311770829
 21
5318.7013998020584
 31
0.0
  0
LINE
  5
7A6F
  8
1
 10
1219.530031177082
 20
5223.7013998020584
 30
0.0
 11
2248.1300311770829
 21
5223.7013998020584
 31
0.0
  0
LINE
  5
7A70
  8
1
 10
1402.830031177082
 20
5328.7013998020566
 30
0.0
 11
2063.8300311770809
 21
5328.7013998020566
 31
0.0
  0
LINE
  5
7A71
  8
1
 10
1773.8300311770811
 20
5959.7013998020584
 30
0.0
 11
2393.8300311770809
 21
5959.7013998020584
 31
0.0
  0
LINE
  5
7A72
  8
1
 10
1599.8300311770811
 20
5471.2013998020566
 30
0.0
 11
2473.8300311770809
 21
5471.2013998020566
 31
0.0
  0
LINE
  5
7A73
  8
1
 10
1599.8300311770811
 20
5896.2013998020566
 30
0.0
 11
2473.8300311770809
 21
5896.2013998020566
 31
0.0
  0
LINE
  5
7A74
  8
1
 10
1417.816324177081
 20
2856.155558772999
 30
0.0
 11
2117.8163241770808
 21
3074.155558772999
 31
0.0
  0
LINE
  5
7A75
  8
1
 10
1349.8437391770819
 20
3074.4161547729991
 30
0.0
 11
2049.8437391770822
 21
3292.4161547729991
 31
0.0
  0
LINE
  5
7A76
  8
1
 10
1432.6834691770821
 20
2808.4170207729981
 30
0.0
 11
2132.6834691770819
 21
3026.4170207729981
 31
0.0
  0
LINE
  5
7A77
  8
1
 10
1334.976594177082
 20
3122.1546927729992
 30
0.0
 11
2034.976594177082
 21
3340.1546927729992
 31
0.0
  0
CIRCLE
  5
7A78
  8
1
 10
2083.8300311770822
 20
3183.2858567729982
 30
0.0
 40
310.0
  0
LINE
  5
7A79
  8
1
 10
1158.8300311770811
 20
2788.2858567729982
 30
0.0
 11
2438.8300311770822
 21
2788.2858567729982
 31
0.0
  0
LINE
  5
7A7A
  8
1
 10
1158.8300311770811
 20
2713.2858567729982
 30
0.0
 11
2438.8300311770822
 21
2713.2858567729982
 31
0.0
  0
CIRCLE
  5
7A7B
  8
1
 10
2083.8300311770822
 20
3183.2858567729982
 30
0.0
 40
280.0
  0
ARC
  5
7A7C
  8
1
 10
2041.8300311770811
 20
3225.2858567729982
 30
0.0
 40
442.0
 50
185.45262199999991
 51
261.37375600000001
  0
ARC
  5
7A7D
  8
1
 10
2125.8300311770809
 20
3225.2858567729982
 30
0.0
 40
526.0
 50
94.579824000000002
 51
184.579824
  0
LINE
  5
7A7E
  8
2
 10
1383.8300311770811
 20
2845.985856772998
 30
0.0
 11
1383.8300311770811
 21
3084.5858567729979
 31
0.0
  0
ARC
  5
7A7F
  8
1
 10
1383.8300311770811
 20
2965.2858567729982
 30
0.0
 40
164.30000000000001
 50
107.298081
 51
287.29808100000002
  0
CIRCLE
  5
7A80
  8
1
 10
1383.8300311770811
 20
2965.2858567729982
 30
0.0
 40
114.3
  0
ARC
  5
7A81
  8
1
 10
1383.8300311770811
 20
2965.2858567729982
 30
0.0
 40
143.0
 50
324.34590999999989
 51
215.65408999999991
  0
LINE
  5
7A82
  8
2
 10
1264.530031177082
 20
2965.2858567729982
 30
0.0
 11
1503.1300311770819
 21
2965.2858567729982
 31
0.0
  0
LINE
  5
7A83
  8
1
 10
1208.8300311770811
 20
2788.2858567729982
 30
0.0
 11
1558.8300311770811
 21
2788.2858567729982
 31
0.0
  0
LINE
  5
7A84
  8
1
 10
1218.8300311770811
 20
2833.2858567729982
 30
0.0
 11
1208.8300311770811
 21
2788.2858567729982
 31
0.0
  0
LINE
  5
7A85
  8
1
 10
1253.830031177082
 20
2848.2858567729982
 30
0.0
 11
1267.8593091770811
 21
2882.478601772998
 31
0.0
  0
LINE
  5
7A86
  8
1
 10
1253.830031177082
 20
2833.2858567729982
 30
0.0
 11
1253.830031177082
 21
2848.2858567729982
 31
0.0
  0
LINE
  5
7A87
  8
1
 10
1218.8300311770811
 20
2833.2858567729982
 30
0.0
 11
1253.830031177082
 21
2833.2858567729982
 31
0.0
  0
LINE
  5
7A88
  8
1
 10
1158.8300311770811
 20
2788.2858567729982
 30
0.0
 11
1158.8300311770811
 21
2713.2858567729982
 31
0.0
  0
LINE
  5
7A89
  8
1
 10
1513.8300311770811
 20
2833.2858567729982
 30
0.0
 11
1548.8300311770811
 21
2833.2858567729982
 31
0.0
  0
LINE
  5
7A8A
  8
1
 10
1558.8300311770811
 20
2788.2858567729982
 30
0.0
 11
1548.8300311770811
 21
2833.2858567729982
 31
0.0
  0
LINE
  5
7A8B
  8
1
 10
1513.8300311770811
 20
2833.2858567729982
 30
0.0
 11
1513.8300311770811
 21
2848.2858567729982
 31
0.0
  0
LINE
  5
7A8C
  8
1
 10
1513.8300311770811
 20
2848.2858567729982
 30
0.0
 11
1499.8007541770819
 21
2882.478601772998
 31
0.0
  0
LINE
  5
7A8D
  8
1
 10
1526.8300311770811
 20
5338.7013998020584
 30
0.0
 11
1526.8300311770811
 21
5707.7013998020584
 31
0.0
  0
LINE
  5
7A8E
  8
1
 10
1240.8300311770811
 20
5338.7013998020584
 30
0.0
 11
1240.8300311770811
 21
5707.7013998020584
 31
0.0
  0
LINE
  5
7A8F
  8
1
 10
1599.8300311770811
 20
5471.2013998020566
 30
0.0
 11
1599.8300311770811
 21
5896.2013998020566
 31
0.0
  0
LINE
  5
7A90
  8
1
 10
1158.8300311770811
 20
5328.7013998020566
 30
0.0
 11
1158.8300311770811
 21
5938.7013998020584
 31
0.0
  0
LINE
  5
7A91
  8
1
 10
1269.530031177082
 20
5238.7013998020566
 30
0.0
 11
1498.1300311770819
 21
5238.7013998020566
 31
0.0
  0
LINE
  5
7A92
  8
1
 10
1269.530031177082
 20
5301.7013998020566
 30
0.0
 11
1498.1300311770819
 21
5301.7013998020566
 31
0.0
  0
LINE
  5
7A93
  8
1
 10
1526.8300311770811
 20
5338.7013998020584
 30
0.0
 11
1240.8300311770811
 21
5338.7013998020584
 31
0.0
  0
LINE
  5
7A94
  8
1
 10
1219.530031177082
 20
5223.7013998020584
 30
0.0
 11
1219.530031177082
 21
5318.7013998020584
 31
0.0
  0
LINE
  5
7A95
  8
1
 10
1269.530031177082
 20
5238.7013998020566
 30
0.0
 11
1269.530031177082
 21
5301.7013998020566
 31
0.0
  0
LINE
  5
7A96
  8
1
 10
1364.8300311770811
 20
5301.7013998020566
 30
0.0
 11
1364.8300311770811
 21
5338.7013998020584
 31
0.0
  0
LINE
  5
7A97
  8
1
 10
1402.830031177082
 20
5301.7013998020566
 30
0.0
 11
1402.830031177082
 21
5338.7013998020584
 31
0.0
  0
LINE
  5
7A98
  8
1
 10
1158.8300311770811
 20
5328.7013998020566
 30
0.0
 11
1364.8300311770811
 21
5328.7013998020566
 31
0.0
  0
LINE
  5
7A99
  8
1
 10
1498.1300311770819
 20
5238.7013998020566
 30
0.0
 11
1498.1300311770819
 21
5301.7013998020566
 31
0.0
  0
LINE
  5
7A9A
  8
1
 10
1240.8300311770811
 20
5707.7013998020584
 30
0.0
 11
1526.8300311770811
 21
5707.7013998020584
 31
0.0
  0
LINE
  5
7A9B
  8
1
 10
1158.8300311770811
 20
5938.7013998020584
 30
0.0
 11
1803.8300311770811
 21
5938.7013998020584
 31
0.0
  0
LINE
  5
7A9C
  8
1
 10
1803.8300311770811
 20
5896.2013998020566
 30
0.0
 11
1803.8300311770811
 21
5959.7013998020584
 31
0.0
  0
ARC
  5
7A9D
  8
1
 10
2083.8300311770822
 20
3183.2858567729982
 30
0.0
 40
164.30000000000001
 50
287.29808100000002
 51
107.298081
  0
ARC
  5
7A9E
  8
1
 10
2050.8300311770809
 20
3150.2858567729982
 30
0.0
 40
367.0
 50
279.46855899999991
 51
5.1589039999999997
  0
LINE
  5
7A9F
  8
1
 10
4024.789435320024
 20
3108.2858567729982
 30
0.0
 11
4024.789435320024
 21
2788.2858567729982
 31
0.0
  0
LINE
  5
7AA0
  8
1
 10
3987.789435320024
 20
3297.5858567729979
 30
0.0
 11
3987.789435320024
 21
2850.985856772998
 31
0.0
  0
LINE
  5
7AA1
  8
1
 10
3924.789435320024
 20
3297.5858567729979
 30
0.0
 11
3924.789435320024
 21
2850.985856772998
 31
0.0
  0
LINE
  5
7AA2
  8
1
 10
4004.7894353200249
 20
3347.5858567729979
 30
0.0
 11
4004.7894353200249
 21
2800.985856772998
 31
0.0
  0
LINE
  5
7AA3
  8
1
 10
3909.789435320024
 20
3347.5858567729979
 30
0.0
 11
3909.789435320024
 21
2800.985856772998
 31
0.0
  0
LINE
  5
7AA4
  8
1
 10
4645.7894353200254
 20
3493.2858567729982
 30
0.0
 11
4645.7894353200254
 21
2873.2858567729982
 31
0.0
  0
LINE
  5
7AA5
  8
1
 10
4157.2894353200236
 20
3783.2858567729982
 30
0.0
 11
4157.2894353200236
 21
2788.2858567729982
 31
0.0
  0
LINE
  5
7AA6
  8
1
 10
4582.2894353200236
 20
3783.2858567729982
 30
0.0
 11
4582.2894353200236
 21
2788.2858567729982
 31
0.0
  0
LINE
  5
7AA7
  8
1
 10
4582.2894353200236
 20
2903.2858567729982
 30
0.0
 11
4645.7894353200254
 21
2903.2858567729982
 31
0.0
  0
LINE
  5
7AA8
  8
1
 10
4014.789435320024
 20
2788.2858567729982
 30
0.0
 11
4624.7894353200236
 21
2788.2858567729982
 31
0.0
  0
LINE
  5
7AA9
  8
1
 10
4014.789435320024
 20
2713.2858567729982
 30
0.0
 11
4624.7894353200236
 21
2713.2858567729982
 31
0.0
  0
LINE
  5
7AAA
  8
1
 10
2438.8300311770822
 20
2788.2858567729982
 30
0.0
 11
2438.8300311770822
 21
2713.2858567729982
 31
0.0
  0
LINE
  5
7AAB
  8
1
 10
3987.789435320024
 20
2946.2858567729982
 30
0.0
 11
4024.789435320024
 21
2946.2858567729982
 31
0.0
  0
LINE
  5
7AAC
  8
1
 10
3987.789435320024
 20
2984.2858567729982
 30
0.0
 11
4024.789435320024
 21
2984.2858567729982
 31
0.0
  0
LINE
  5
7AAD
  8
1
 10
3924.789435320024
 20
2850.985856772998
 30
0.0
 11
3987.789435320024
 21
2850.985856772998
 31
0.0
  0
LINE
  5
7AAE
  8
1
 10
4024.789435320024
 20
2833.2858567729982
 30
0.0
 11
4157.2894353200236
 21
2833.2858567729982
 31
0.0
  0
LINE
  5
7AAF
  8
1
 10
3909.789435320024
 20
2800.985856772998
 30
0.0
 11
4004.7894353200249
 21
2800.985856772998
 31
0.0
  0
LINE
  5
7AB0
  8
1
 10
4014.789435320024
 20
2788.2858567729982
 30
0.0
 11
4014.789435320024
 21
2713.2858567729982
 31
0.0
  0
LINE
  5
7AB1
  8
1
 10
4624.7894353200236
 20
2788.2858567729982
 30
0.0
 11
4624.7894353200236
 21
2713.2858567729982
 31
0.0
  0
LINE
  5
7AB2
  8
1
 10
4582.2894353200236
 20
3463.2858567729982
 30
0.0
 11
4645.7894353200254
 21
3463.2858567729982
 31
0.0
  0
LINE
  5
7AB3
  8
1
 10
2443.8300311770809
 20
3780.6951267729978
 30
0.0
 11
2443.8300311770809
 21
3203.2858567729982
 31
0.0
  0
LINE
  5
7AB4
  8
1
 10
2473.8300311770809
 20
3813.2858567729982
 30
0.0
 11
2473.8300311770809
 21
3173.2858567729982
 31
0.0
  0
LINE
  5
7AB5
  8
1
 10
2083.8300311770822
 20
6059.4353138020579
 30
0.0
 11
2083.8300311770822
 21
6059.4353138020579
 31
0.0
  0
LINE
  5
7AB6
  8
2
 10
1434.894799177081
 20
3183.2858567729982
 30
0.0
 11
2545.8217061770829
 21
3183.2858567729982
 31
0.0
  0
LINE
  5
7AB7
  8
2
 10
2083.8300311770822
 20
2612.1694067729991
 30
0.0
 11
2083.8300311770822
 21
3836.0233327729989
 31
0.0
  0
CIRCLE
  5
7AB8
  8
1
 10
2083.8300311770822
 20
3183.2858567729982
 30
0.0
 40
114.3
  0
LINE
  5
7AB9
  8
1
 10
2413.1271801770808
 20
3203.2858567729982
 30
0.0
 11
2473.8300311770809
 21
3203.2858567729982
 31
0.0
  0
ARC
  5
7ABA
  8
1
 10
2116.8300311770822
 20
3150.2858567729982
 30
0.0
 40
301.0
 50
6.294249999999999
 51
10.14149799999999
  0
LINE
  5
7ABB
  8
1
 10
2083.8300311770822
 20
3749.6063697729978
 30
0.0
 11
2473.8300311770809
 21
3783.2858567729982
 31
0.0
  0
LINE
  5
7ABC
  8
1
 10
4582.2894353200236
 20
3783.2858567729982
 30
0.0
 11
4157.2894353200236
 21
3203.2858567729982
 31
0.0
  0
LINE
  5
7ABD
  8
1
 10
4157.2894353200236
 20
3783.2858567729982
 30
0.0
 11
4582.2894353200236
 21
3203.2858567729982
 31
0.0
  0
LINE
  5
7ABE
  8
1
 10
4157.2894353200236
 20
3203.2858567729982
 30
0.0
 11
4582.2894353200236
 21
3203.2858567729982
 31
0.0
  0
LINE
  5
7ABF
  8
1
 10
4024.789435320024
 20
3108.2858567729982
 30
0.0
 11
4157.2894353200236
 21
3108.2858567729982
 31
0.0
  0
LINE
  5
7AC0
  8
1
 10
3909.789435320024
 20
3347.5858567729979
 30
0.0
 11
4004.7894353200249
 21
3347.5858567729979
 31
0.0
  0
LINE
  5
7AC1
  8
1
 10
3924.789435320024
 20
3068.985856772998
 30
0.0
 11
3987.789435320024
 21
3068.985856772998
 31
0.0
  0
LINE
  5
7AC2
  8
1
 10
3924.789435320024
 20
3297.5858567729979
 30
0.0
 11
3987.789435320024
 21
3297.5858567729979
 31
0.0
  0
LINE
  5
7AC3
  8
1
 10
3987.789435320024
 20
3163.2858567729982
 30
0.0
 11
4157.2894353200236
 21
3163.2858567729982
 31
0.0
  0
LINE
  5
7AC4
  8
1
 10
3987.789435320024
 20
3203.2858567729982
 30
0.0
 11
4157.2894353200236
 21
3203.2858567729982
 31
0.0
  0
LINE
  5
7AC5
  8
1
 10
4157.2894353200236
 20
3783.2858567729982
 30
0.0
 11
4582.2894353200236
 21
3783.2858567729982
 31
0.0
  0
LINE
  5
7AC6
  8
1
 10
2443.8300311770809
 20
5471.2013998020566
 30
0.0
 11
2443.8300311770809
 21
5896.2013998020566
 31
0.0
  0
LINE
  5
7AC7
  8
1
 10
2473.8300311770809
 20
5441.2013998020566
 30
0.0
 11
2473.8300311770809
 21
5926.2013998020566
 31
0.0
  0
LINE
  5
7AC8
  8
1
 10
2103.8300311770822
 20
5328.7013998020566
 30
0.0
 11
2438.8300311770822
 21
5328.7013998020566
 31
0.0
  0
LINE
  5
7AC9
  8
1
 10
1969.530031177082
 20
5238.7013998020566
 30
0.0
 11
1969.530031177082
 21
5301.7013998020566
 31
0.0
  0
LINE
  5
7ACA
  8
1
 10
2198.1300311770829
 20
5238.7013998020566
 30
0.0
 11
2198.1300311770829
 21
5301.7013998020566
 31
0.0
  0
LINE
  5
7ACB
  8
1
 10
1969.530031177082
 20
5238.7013998020566
 30
0.0
 11
2198.1300311770829
 21
5238.7013998020566
 31
0.0
  0
LINE
  5
7ACC
  8
1
 10
1969.530031177082
 20
5301.7013998020566
 30
0.0
 11
2198.1300311770829
 21
5301.7013998020566
 31
0.0
  0
LINE
  5
7ACD
  8
1
 10
2063.8300311770809
 20
5301.7013998020566
 30
0.0
 11
2063.8300311770809
 21
5471.2013998020566
 31
0.0
  0
LINE
  5
7ACE
  8
1
 10
2103.8300311770822
 20
5301.7013998020566
 30
0.0
 11
2103.8300311770822
 21
5471.2013998020566
 31
0.0
  0
LINE
  5
7ACF
  8
1
 10
2248.1300311770829
 20
5223.7013998020584
 30
0.0
 11
2248.1300311770829
 21
5318.7013998020584
 31
0.0
  0
LINE
  5
7AD0
  8
1
 10
2438.8300311770822
 20
5328.7013998020566
 30
0.0
 11
2438.8300311770822
 21
5471.2013998020566
 31
0.0
  0
LINE
  5
7AD1
  8
1
 10
2363.8300311770809
 20
5938.7013998020584
 30
0.0
 11
2438.8300311770822
 21
5938.7013998020584
 31
0.0
  0
LINE
  5
7AD2
  8
1
 10
2363.8300311770809
 20
5896.2013998020566
 30
0.0
 11
2363.8300311770809
 21
5959.7013998020584
 31
0.0
  0
LINE
  5
7AD3
  8
1
 10
2438.8300311770822
 20
5896.2013998020566
 30
0.0
 11
2438.8300311770822
 21
5938.7013998020584
 31
0.0
  0
LINE
  5
7AD4
  8
4
 10
5550.0
 20
1500.0
 30
0.0
 11
5550.0
 21
900.0
 31
0.0
  0
LINE
  5
7AD5
  8
4
 10
3450.0
 20
1500.0
 30
0.0
 11
3450.0
 21
900.0
 31
0.0
  0
LINE
  5
7AD6
  8
4
 10
1950.0
 20
1500.0
 30
0.0
 11
1950.0
 21
900.0
 31
0.0
  0
LINE
  5
7AD9
  8
4
 10
1950.0
 20
900.0
 30
0.0
 11
5550.0
 21
900.0
 31
0.0
  0
LINE
  5
7ADA
  8
4
 10
1950.0
 20
1200.0
 30
0.0
 11
5550.0
 21
1200.0
 31
0.0
  0
TEXT
  5
7ADB
  8
4
 10
2065.50624225
 20
1294.6290779999999
 30
0.0
 40
150.0
  1
機器名称
  0
TEXT
  5
7ADC
  8
4
 10
2058.7743179999989
 20
964.93547024999998
 30
0.0
 40
150.0
  1
機器型番
  0
TEXT
  5
7ADD
  8
4
 10
3533.0362365000001
 20
1267.715306249999
 30
0.0
 40
120.0
  1
ミツヤリミットロードファン
  0
TEXT
  5
7ADE
  8
4
 10
3559.9634872500001
 20
951.4787527499999
 30
0.0
 40
150.0
  1
LLE#3 1/2-4
  0
TEXT
  5
7AE0
  8
4
 10
2714.3572964999998
 20
7150.2865245000012
 30
0.0
 40
162.0
  1
床置ベット
  0
TEXT
  5
7AE1
  8
4
 10
948.50278049999986
 20
7601.6429287499996
 30
0.0
 40
180.0
  1
ベルト駆動式片吸込両持排煙ファン
  0
LINE
  5
7AE2
  8
4
 10
750.0
 20
7408.2262627500004
 30
0.0
 11
5550.0
 21
7408.2262627500004
 31
0.0
  0
LINE
  5
7AE3
  8
4
 10
750.0
 20
8008.2262627500004
 30
0.0
 11
5550.0
 21
8008.2262627500004
 31
0.0
  0
LINE
  5
7AE4
  8
4
 10
1950.0
 20
1500.0
 30
0.0
 11
5550.0
 21
1500.0
 31
0.0
  0
LINE
  5
7AE5
  8
4
 10
750.0
 20
8008.2262627500004
 30
0.0
 11
750.0
 21
7408.2262627500004
 31
0.0
  0
TEXT
  5
7AE6
  8
4
 10
1406.780799749999
 20
7146.9584324999987
 30
0.0
 40
162.0
  1
右回転右横向
  0
TEXT
  5
7AE7
  8
4
 10
4406.9086777499988
 20
8118.1832445
 30
0.0
 40
168.0
  1
No.
  0
TEXT
  5
7AE8
  8
4
 10
3933.8881875000002
 20
7150.2865245000012
 30
0.0
 40
162.0
  1
縮尺：1/30
  0
LINE
  5
7AE9
  8
4
 10
5550.0
 20
8008.2262627500004
 30
0.0
 11
5550.0
 21
7408.2262627500004
 31
0.0
  0
LINE
  5
7AEB
  8
4
 10
4321.8522667500001
 20
8043.79074975
 30
0.0
 11
4321.8522667500001
 21
8359.9567845000001
 31
0.0
  0
LINE
  5
7AEC
  8
4
 10
4321.8522667500001
 20
8359.9567845000001
 30
0.0
 11
5550.0
 21
8359.9567845000001
 31
0.0
  0
LINE
  5
7AED
  8
4
 10
5550.0
 20
8359.9567845000001
 30
0.0
 11
5550.0
 21
8043.79074975
 31
0.0
  0
LINE
  5
7AEE
  8
4
 10
5550.0
 20
8043.79074975
 30
0.0
 11
4321.8522667500001
 21
8043.79074975
 31
0.0
  0
DIMENSION
  5
7B06
  8
3
  2
*D1
 10
2083.8300311770822
 20
2491.5405379007561
 30
0.0
 11
1616.1201581770811
 21
2491.5405379007561
 31
0.0
 70
   128
 13
1158.8300311770811
 23
2713.2858567729982
 33
0.0
 14
2083.8300311770822
 24
2612.1694067729991
 34
0.0
1001
ACAD
1000
DSTYLE
1002
{
1070
   287
1070
     3
1070
   287
1070
     3
1070
    40
1040
30.0
1070
   143
1040
0.039
1070
   172
1070
     1
1070
   271
1070
     0
1070
   279
1070
     0
1070
   288
1070
     1
1002
}
  0
DIMENSION
  5
7B14
  8
3
  2
*D2
 10
2438.8300311770822
 20
2491.2837689007561
 30
0.0
 11
2270.0442828484661
 21
2577.687216187383
 31
0.0
 70
   128
 13
2083.8300311770822
 23
2612.1694067729991
 33
0.0
 14
2438.8300311770822
 24
2713.2858567729982
 34
0.0
1001
ACAD
1000
DSTYLE
1002
{
1070
   288
1070
     1
1070
   172
1070
     1
1070
    40
1040
30.0
1070
   271
1070
     0
1070
   143
1040
0.039
1002
}
  0
DIMENSION
  5
7B37
  8
3
  2
*D3
 10
2750.314669177083
 20
3203.2858567729982
 30
0.0
 11
2750.3146691770812
 21
3495.7288147729992
 31
0.0
 70
   128
 13
2473.8300311770809
 23
3783.2858567729982
 33
0.0
 14
2473.8300311770809
 24
3203.2858567729982
 34
0.0
 50
90.0
1001
ACAD
1000
DSTYLE
1002
{
1070
   287
1070
     3
1070
   287
1070
     3
1070
    40
1040
30.0
1070
   143
1040
0.039
1070
   172
1070
     1
1070
   271
1070
     0
1070
   279
1070
     0
1070
   288
1070
     1
1002
}
  0
DIMENSION
  5
7B44
  8
3
  2
*D4
 10
2969.9195231770832
 20
3183.2858567729982
 30
0.0
 11
2969.9195231770818
 21
3493.1469917729978
 31
0.0
 70
   128
 13
2473.8300311770809
 23
3783.2858567729982
 33
0.0
 14
2416.3433681770821
 24
3183.2858567729982
 34
0.0
 50
90.0
1001
ACAD
1000
DSTYLE
1002
{
1070
   287
1070
     3
1070
   287
1070
     3
1070
    40
1040
30.0
1070
   143
1040
0.039
1070
   172
1070
     1
1070
   271
1070
     0
1070
   279
1070
     0
1070
   288
1070
     1
1002
}
  0
DIMENSION
  5
7B52
  8
3
  2
*D5
 10
2972.503128177083
 20
2713.2858567729982
 30
0.0
 11
2972.5031281770821
 21
2977.5715710587119
 31
0.0
 70
   128
 13
2416.3433681770821
 23
3183.2858567729982
 33
0.0
 14
2438.8300311770822
 24
2713.2858567729982
 34
0.0
 50
90.0
1001
ACAD
1000
DSTYLE
1002
{
1070
   287
1070
     3
1070
   287
1070
     3
1070
    40
1040
30.0
1070
   143
1040
0.039
1070
   172
1070
     1
1070
   271
1070
     0
1070
   279
1070
     0
1070
   288
1070
     1
1002
}
  0
DIMENSION
  5
7B75
  8
3
  2
*D6
 10
2083.8300311770822
 20
3868.2794557729981
 30
0.0
 11
1843.8300311770811
 21
3868.2794557729981
 31
0.0
 70
   128
  1
484
 13
1601.509518177083
 23
3183.2858567729982
 33
0.0
 14
2083.8300311770822
 24
3749.6063697729978
 34
0.0
1001
ACAD
1000
DSTYLE
1002
{
1070
   287
1070
     3
1070
   287
1070
     3
1070
    40
1040
30.0
1070
   143
1040
0.039
1070
   172
1070
     1
1070
   271
1070
     0
1070
   279
1070
     0
1070
   288
1070
     1
1002
}
  0
DIMENSION
  5
7B83
  8
3
  2
*D7
 10
2473.8300311770809
 20
3868.2794557729981
 30
0.0
 11
2286.2242991553071
 21
3933.8775792218289
 31
0.0
 12
0.0
 22
321.41832053255712
 32
0.0
 70
   128
 13
2083.8300311770822
 23
3749.6063697729978
 33
0.0
 14
2473.8300311770809
 24
3813.2858567729982
 34
0.0
1001
ACAD
1000
DSTYLE
1002
{
1070
   288
1070
     1
1070
   172
1070
     1
1070
    40
1040
30.0
1070
   271
1070
     0
1070
   143
1040
0.039
1002
}
  0
DIMENSION
  5
7BA6
  8
3
  2
*D8
 10
2438.8300311770822
 20
4960.8407488020566
 30
0.0
 11
1802.1384151770831
 21
4960.8407488020566
 31
0.0
 70
   128
 13
1158.8300311770811
 23
5328.7013998020566
 33
0.0
 14
2438.8300311770822
 24
5328.7013998020566
 34
0.0
1001
ACAD
1000
DSTYLE
1002
{
1070
   287
1070
     3
1070
   287
1070
     3
1070
    40
1040
30.0
1070
   143
1040
0.039
1070
   172
1070
     1
1070
   271
1070
     0
1070
   279
1070
     0
1070
   288
1070
     1
1002
}
  0
DIMENSION
  5
7BB3
  8
3
  2
*D9
 10
2770.9833561770838
 20
5328.7013998020566
 30
0.0
 11
2770.9833561770829
 21
5645.0199558020568
 31
0.0
 70
   128
 13
2438.8300311770822
 23
5938.7013998020584
 33
0.0
 14
2438.8300311770822
 24
5328.7013998020566
 34
0.0
 50
90.0
1001
ACAD
1000
DSTYLE
1002
{
1070
   287
1070
     3
1070
   287
1070
     3
1070
    40
1040
30.0
1070
   143
1040
0.039
1070
   172
1070
     1
1070
   271
1070
     0
1070
   279
1070
     0
1070
   288
1070
     1
1002
}
  0
LINE
  5
7BB4
  8
2
 10
1406.061035177082
 20
5683.7013998020566
 30
0.0
 11
2510.4895381770821
 21
5683.7013998020566
 31
0.0
  0
LINE
  5
7BB5
  8
2
 10
4369.7894353200254
 20
3929.3480447729989
 30
0.0
 11
4369.7894353200254
 21
2679.354391772998
 31
0.0
  0
DIMENSION
  5
7BC5
  8
3
  2
*D10
 10
4582.2894353200236
 20
3911.9041027729982
 30
0.0
 11
4363.0037210343089
 21
3911.9041027729982
 31
0.0
 70
   128
 13
4157.2894353200236
 23
3783.2858567729982
 33
0.0
 14
4582.2894353200236
 24
3783.2858567729982
 34
0.0
1001
ACAD
1000
DSTYLE
1002
{
1070
   287
1070
     3
1070
   287
1070
     3
1070
    40
1040
30.0
1070
   143
1040
0.039
1070
   172
1070
     1
1070
   271
1070
     0
1070
   279
1070
     0
1070
   288
1070
     1
1002
}
  0
DIMENSION
  5
7BD4
  8
3
  2
*D11
 10
4369.7894353200254
 20
4156.8295171237814
 30
0.0
 11
4128.3608638914529
 21
4156.8295171237814
 31
0.0
 70
   128
  1
MAX\P510
 13
3909.789435320024
 23
3347.5858567729979
 33
0.0
 14
4369.7894353200254
 24
4071.1012789168781
 34
0.0
1001
ACAD
1000
DSTYLE
1002
{
1070
   287
1070
     3
1070
   287
1070
     3
1070
    40
1040
30.0
1070
   143
1040
0.039
1070
   172
1070
     1
1070
   271
1070
     0
1070
   279
1070
     0
1070
   288
1070
     1
1002
}
  0
DIMENSION
  5
7BE2
  8
3
  2
*D12
 10
4645.7894353200254
 20
4157.0862851237807
 30
0.0
 11
4508.5589478792708
 21
4242.5146443953163
 31
0.0
 12
-398.27515985705759
 22
321.41832053255712
 32
0.0
 70
   128
 13
4369.7894353200254
 23
4071.1012789168781
 33
0.0
 14
4645.7894353200254
 24
3493.2858567729982
 34
0.0
1001
ACAD
1000
DSTYLE
1002
{
1070
   288
1070
     1
1070
   172
1070
     1
1070
    40
1040
30.0
1070
   271
1070
     0
1070
   143
1040
0.039
1002
}
  0
DIMENSION
  5
7C05
  8
3
  2
*D13
 10
4894.5387603200261
 20
2903.2858567729982
 30
0.0
 11
4894.5387603200252
 21
3203.5715710587119
 31
0.0
 70
   128
 13
4645.7894353200254
 23
3463.2858567729982
 33
0.0
 14
4645.7894353200254
 24
2903.2858567729982
 34
0.0
 50
90.0
1001
ACAD
1000
DSTYLE
1002
{
1070
   287
1070
     3
1070
   287
1070
     3
1070
     3
1000
φ<>
1070
    40
1040
30.0
1070
   143
1040
0.039
1070
   172
1070
     1
1070
   271
1070
     0
1070
   279
1070
     0
1070
   288
1070
     1
1002
}
  0
DIMENSION
  5
7C14
  8
3
  2
*D14
 10
4369.7894353200254
 20
2485.975669772999
 30
0.0
 11
4193.0770441844761
 21
2558.9330175157479
 31
0.0
 12
-398.27515985705759
 22
321.41832053255712
 32
0.0
 70
   128
 13
4014.789435320024
 23
2713.2858567729982
 33
0.0
 14
4369.7894353200254
 24
2679.354391772998
 34
0.0
1001
ACAD
1000
DSTYLE
1002
{
1070
   288
1070
     1
1070
   172
1070
     1
1070
    40
1040
30.0
1070
   271
1070
     0
1070
   143
1040
0.039
1002
}
  0
DIMENSION
  5
7C22
  8
3
  2
*D15
 10
4624.7894353200236
 20
2485.975669772999
 30
0.0
 11
4499.4425632700113
 21
2567.1986261762609
 31
0.0
 12
-398.27515985705759
 22
321.41832053255712
 32
0.0
 70
   128
 13
4369.7894353200254
 23
2679.354391772998
 33
0.0
 14
4624.7894353200236
 24
2713.2858567729982
 34
0.0
1001
ACAD
1000
DSTYLE
1002
{
1070
   288
1070
     1
1070
   172
1070
     1
1070
    40
1040
30.0
1070
   271
1070
     0
1070
   143
1040
0.039
1002
}
  0
LINE
  5
7C39
  8
2
 10
3761.9389423200241
 20
3183.2858567729982
 30
0.0
 11
4677.2674063200247
 21
3183.2858567729982
 31
0.0
  0
LINE
  5
7C3A
  8
2
 10
2083.8300311770822
 20
5180.5764068020571
 30
0.0
 11
2083.8300311770822
 21
6014.435313802057
 31
0.0
  0
DIMENSION
  5
7EBA
  8
3
  2
*D16
 10
1158.8300311770811
 20
4056.2206285072498
 30
0.0
 11
1739.660283168912
 21
4056.2206285072498
 31
0.0
 70
   128
 13
2473.8300311770809
 23
3828.2858567729982
 33
0.0
 14
1158.8300311770811
 24
2788.2858567729982
 34
0.0
1001
ACAD
1000
DSTYLE
1002
{
1070
   287
1070
     3
1070
   287
1070
     3
1070
    40
1040
30.0
1070
   143
1040
0.039
1070
   172
1070
     1
1070
   271
1070
     0
1070
   279
1070
     0
1070
   288
1070
     1
1002
}
  0
ENDSEC
  0
EOF
