  0
SECTION
  2
HEADER
  9
$ACADVER
  1
AC1009
  9
$INSBASE
 10
0.0
 20
0.0
 30
0.0
  9
$EXTMIN
 10
750.0
 20
900.0
 30
0.0
  9
$EXTMAX
 10
5550.0
 20
8359.9567845000001
 30
0.0
  9
$LIMMIN
 10
0.0
 20
0.0
  9
$LIMMAX
 10
297.0
 20
210.0
  9
$ORTHOMODE
 70
     0
  9
$REGENMODE
 70
     1
  9
$FILLMODE
 70
     0
  9
$QTEXTMODE
 70
     0
  9
$MIRRTEXT
 70
     1
  9
$DRAGMODE
 70
     2
  9
$LTSCALE
 40
100.0
  9
$OSMODE
 70
    37
  9
$ATTMODE
 70
     1
  9
$TEXTSIZE
 40
180.0
  9
$TRACEWID
 40
0.05
  9
$TEXTSTYLE
  7
STANDARD
  9
$CLAYER
  8
3
  9
$CELTYPE
  6
BYLAYER
  9
$CECOLOR
 62
   256
  9
$DIMSCALE
 40
30.0
  9
$DIMASZ
 40
2.0
  9
$DIMEXO
 40
0.5
  9
$DIMDLI
 40
10.0
  9
$DIMRND
 40
0.0
  9
$DIMDLE
 40
0.0
  9
$DIMEXE
 40
1.0
  9
$DIMTP
 40
1.0
  9
$DIMTM
 40
1.0
  9
$DIMTXT
 40
3.0
  9
$DIMCEN
 40
0.0
  9
$DIMTSZ
 40
0.0
  9
$DIMTOL
 70
     0
  9
$DIMLIM
 70
     0
  9
$DIMTIH
 70
     0
  9
$DIMTOH
 70
     0
  9
$DIMSE1
 70
     0
  9
$DIMSE2
 70
     0
  9
$DIMTAD
 70
     1
  9
$DIMZIN
 70
     8
  9
$DIMBLK
  1

  9
$DIMASO
 70
     1
  9
$DIMSHO
 70
     1
  9
$DIMPOST
  1

  9
$DIMAPOST
  1

  9
$DIMALT
 70
     0
  9
$DIMALTD
 70
     2
  9
$DIMALTF
 40
0.039
  9
$DIMLFAC
 40
1.0
  9
$DIMTOFL
 70
     1
  9
$DIMTVP
 40
0.0
  9
$DIMTIX
 70
     0
  9
$DIMSOXD
 70
     0
  9
$DIMSAH
 70
     1
  9
$DIMBLK1
  1
OPEN
  9
$DIMBLK2
  1
OPEN
  9
$DIMSTYLE
  2
IGA
  9
$DIMCLRD
 70
     0
  9
$DIMCLRE
 70
     0
  9
$DIMCLRT
 70
     0
  9
$DIMTFAC
 40
10.0
  9
$DIMGAP
 40
1.0
  9
$LUNITS
 70
     2
  9
$LUPREC
 70
     3
  9
$SKETCHINC
 40
0.1
  9
$FILLETRAD
 40
50.0
  9
$AUNITS
 70
     0
  9
$AUPREC
 70
     0
  9
$MENU
  1
acad
  9
$ELEVATION
 40
0.0
  9
$PELEVATION
 40
0.0
  9
$THICKNESS
 40
0.0
  9
$LIMCHECK
 70
     0
  9
$BLIPMODE
 70
     0
  9
$CHAMFERA
 40
0.5
  9
$CHAMFERB
 40
0.5
  9
$SKPOLY
 70
     0
  9
$TDCREATE
 40
2450760.3522128472
  9
$TDUPDATE
 40
2454953.6820688648
  9
$TDINDWG
 40
0.0056837731
  9
$TDUSRTIMER
 40
0.0056837731
  9
$USRTIMER
 70
     1
  9
$ANGBASE
 50
0.0
  9
$ANGDIR
 70
     0
  9
$PDMODE
 70
     0
  9
$PDSIZE
 40
0.0
  9
$PLINEWID
 40
0.0
  9
$COORDS
 70
     1
  9
$SPLFRAME
 70
     0
  9
$SPLINETYPE
 70
     6
  9
$SPLINESEGS
 70
     8
  9
$ATTDIA
 70
     0
  9
$ATTREQ
 70
     1
  9
$HANDLING
 70
 10241
  9
$HANDSEED
  5
7EF7
  9
$SURFTAB1
 70
     6
  9
$SURFTAB2
 70
     6
  9
$SURFTYPE
 70
     6
  9
$SURFU
 70
     6
  9
$SURFV
 70
     6
  9
$UCSNAME
  2

  9
$UCSORG
 10
0.0
 20
0.0
 30
0.0
  9
$UCSXDIR
 10
1.0
 20
0.0
 30
0.0
  9
$UCSYDIR
 10
0.0
 20
1.0
 30
0.0
  9
$PUCSNAME
  2

  9
$PUCSORG
 10
0.0
 20
0.0
 30
0.0
  9
$PUCSXDIR
 10
1.0
 20
0.0
 30
0.0
  9
$PUCSYDIR
 10
0.0
 20
1.0
 30
0.0
  9
$USERI1
 70
     0
  9
$USERI2
 70
     0
  9
$USERI3
 70
     0
  9
$USERI4
 70
     0
  9
$USERI5
 70
     0
  9
$USERR1
 40
0.0
  9
$USERR2
 40
0.0
  9
$USERR3
 40
0.0
  9
$USERR4
 40
0.0
  9
$USERR5
 40
0.0
  9
$WORLDVIEW
 70
     1
  9
$SHADEDGE
 70
     3
  9
$SHADEDIF
 70
    70
  9
$TILEMODE
 70
     1
  9
$MAXACTVP
 70
    16
  9
$PLIMCHECK
 70
     0
  9
$PEXTMIN
 10
1.0000000000000000E+020
 20
1.0000000000000000E+020
 30
1.0000000000000000E+020
  9
$PEXTMAX
 10
-1.0000000000000000E+020
 20
-1.0000000000000000E+020
 30
-1.0000000000000000E+020
  9
$PLIMMIN
 10
0.0
 20
0.0
  9
$PLIMMAX
 10
12.0
 20
9.0
  9
$UNITMODE
 70
     0
  9
$VISRETAIN
 70
     0
  9
$PLINEGEN
 70
     0
  9
$PSLTSCALE
 70
     1
  0
ENDSEC
  0
SECTION
  2
TABLES
  0
TABLE
  2
VPORT
 70
     2
  0
VPORT
  2
*ACTIVE
 70
     0
 10
0.0
 20
0.0
 11
1.0
 21
1.0
 12
12800.764150014131
 22
3615.0576124839581
 13
0.0
 23
0.0
 14
10.0
 24
10.0
 15
10.0
 25
10.0
 16
0.0
 26
0.0
 36
1.0
 17
0.0
 27
0.0
 37
0.0
 40
9470.0390365612639
 41
3.1666666666666661
 42
50.0
 43
0.0
 44
0.0
 50
0.0
 51
0.0
 71
     0
 72
   100
 73
     1
 74
     0
 75
     0
 76
     0
 77
     0
 78
     0
  0
ENDTAB
  0
TABLE
  2
LTYPE
 70
     2
  0
LTYPE
  2
CONTINUOUS
 70
     0
  3
Solid line
 72
    65
 73
     0
 40
0.0
  0
LTYPE
  2
CENTER
 70
     0
  3
____ _ ____ _ ____ _ ____ _ ____ _ ____ _ ____ 
 72
    65
 73
     4
 40
2.0
 49
1.25
 49
-0.25
 49
0.25
 49
-0.25
  0
ENDTAB
  0
TABLE
  2
LAYER
 70
     6
  0
LAYER
  2
0
 70
     0
 62
     7
  6
CONTINUOUS
  0
LAYER
  2
3
 70
     0
 62
     2
  6
CONTINUOUS
  0
LAYER
  2
2
 70
     0
 62
     3
  6
CENTER
  0
LAYER
  2
1
 70
     0
 62
     4
  6
CONTINUOUS
  0
LAYER
  2
4
 70
     0
 62
     7
  6
CONTINUOUS
  0
LAYER
  2
DEFPOINTS
 70
     0
 62
     7
  6
CONTINUOUS
  0
ENDTAB
  0
TABLE
  2
STYLE
 70
     1
  0
STYLE
  2
STANDARD
 70
     0
 40
0.0
 41
1.0
 50
0.0
 71
     0
 42
180.0
  3
simplex.shx
  4
extfont.shx
  0
ENDTAB
  0
TABLE
  2
VIEW
 70
     0
  0
ENDTAB
  0
TABLE
  2
UCS
 70
     0
  0
ENDTAB
  0
TABLE
  2
APPID
 70
     1
  0
APPID
  2
ACAD
 70
     0
  0
ENDTAB
  0
TABLE
  2
DIMSTYLE
 70
     1
  0
DIMSTYLE
  2
IGA
 70
     0
  3

  4

  5

  6
OPEN
  7
OPEN
 40
2.0
 41
2.0
 42
0.5
 43
10.0
 44
1.0
 45
0.0
 46
0.0
 47
1.0
 48
1.0
140
3.0
141
0.0
142
0.0
143
0.03937
144
1.0
145
0.0
146
10.0
147
1.0
 71
     0
 72
     0
 73
     0
 74
     0
 75
     0
 76
     0
 77
     1
 78
     8
170
     0
171
     2
172
     0
173
     1
174
     0
175
     0
176
     0
177
     0
178
     0
  0
ENDTAB
  0
ENDSEC
  0
SECTION
  2
BLOCKS
  0
BLOCK
  8
0
  2
$MODEL_SPACE
 70
     0
 10
0.0
 20
0.0
 30
0.0
  3
$MODEL_SPACE
  1

  0
ENDBLK
  5
1B
  8
0
  0
BLOCK
 67
     1
  8
0
  2
$PAPER_SPACE
 70
     0
 10
0.0
 20
0.0
 30
0.0
  3
$PAPER_SPACE
  1

  0
ENDBLK
  5
18
 67
     1
  8
0
  0
BLOCK
  8
0
  2
_OPEN
 70
     0
 10
0.0
 20
0.0
 30
0.0
  3
_OPEN
  1

  0
LINE
  5
7AD6
  8
0
  6
BYBLOCK
 62
     0
 10
-1.0
 20
0.166667
 30
0.0
 11
0.0
 21
0.0
 31
0.0
  0
LINE
  5
7AD7
  8
0
  6
BYBLOCK
 62
     0
 10
0.0
 20
0.0
 30
0.0
 11
-1.0
 21
-0.166667
 31
0.0
  0
LINE
  5
7AD8
  8
0
  6
BYBLOCK
 62
     0
 10
0.0
 20
0.0
 30
0.0
 11
-1.0
 21
0.0
 31
0.0
  0
ENDBLK
  5
7AD9
  8
0
  0
BLOCK
  8
0
  2
*D1
 70
     1
 10
0.0
 20
0.0
 30
0.0
  3
*D1
  1

  0
LINE
  5
7E7E
  8
3
 62
     0
 10
2046.020951
 20
3686.8963395327878
 30
0.0
 11
1834.5391629999999
 21
3686.8963395327878
 31
0.0
  0
LINE
  5
7E7F
  8
3
 62
     0
 10
2046.020951
 20
3106.8963395327878
 30
0.0
 11
1834.539162999999
 21
3106.8963395327878
 31
0.0
  0
LINE
  5
7E80
  8
3
 62
     0
 10
1864.5391629999999
 20
3626.8963395327878
 30
0.0
 11
1864.539162999999
 21
3166.8963395327878
 31
0.0
  0
INSERT
  5
7E81
  8
3
 62
     0
  2
_OPEN
 10
1864.5391629999999
 20
3686.8963395327878
 30
0.0
 41
60.0
 42
60.0
 43
60.0
 50
90.0
  0
INSERT
  5
7E82
  8
3
 62
     0
  2
_OPEN
 10
1864.539162999999
 20
3106.8963395327878
 30
0.0
 41
60.0
 42
60.0
 43
60.0
 50
270.0
  0
TEXT
  8
3
  40
90
  5
7EEA
  62
0
  72
0
  71
0
 10
1609.54
 20
3250.68
 30
0.000000
  1
580
  0
POINT
  5
7E84
  8
DEFPOINTS
 62
     0
 10
2061.020951
 20
3686.8963395327878
 30
0.0
  0
POINT
  5
7E85
  8
DEFPOINTS
 62
     0
 10
2061.020951
 20
3106.8963395327878
 30
0.0
  0
POINT
  5
7E86
  8
DEFPOINTS
 62
     0
 10
1864.539162999999
 20
3106.8963395327878
 30
0.0
  0
ENDBLK
  5
7CE2
  8
0
  0
BLOCK
  8
0
  2
*D2
 70
     1
 10
0.0
 20
0.0
 30
0.0
  3
*D2
  1

  0
LINE
  5
7E87
  8
3
 62
     0
 10
2046.020951
 20
3686.8963395327878
 30
0.0
 11
1646.3562830000019
 21
3686.8963395327878
 31
0.0
  0
LINE
  5
7E88
  8
3
 62
     0
 10
2103.5076129999989
 20
3086.8963395327878
 30
0.0
 11
1646.356283000001
 21
3086.8963395327878
 31
0.0
  0
LINE
  5
7E89
  8
3
 62
     0
 10
1676.356283000001
 20
3626.8963395327878
 30
0.0
 11
1676.356283000001
 21
3146.8963395327878
 31
0.0
  0
INSERT
  5
7E8A
  8
3
 62
     0
  2
_OPEN
 10
1676.356283000001
 20
3686.8963395327878
 30
0.0
 41
60.0
 42
60.0
 43
60.0
 50
90.0
  0
INSERT
  5
7E8B
  8
3
 62
     0
  2
_OPEN
 10
1676.356283000001
 20
3086.8963395327878
 30
0.0
 41
60.0
 42
60.0
 43
60.0
 50
270.0
  0
TEXT
  8
3
  40
90
  5
7EEB
  62
0
  72
0
  71
0
 10
1421.36
 20
3243.35
 30
0.000000
  1
600
  0
POINT
  5
7E8D
  8
DEFPOINTS
 62
     0
 10
2061.020951
 20
3686.8963395327878
 30
0.0
  0
POINT
  5
7E8E
  8
DEFPOINTS
 62
     0
 10
2118.5076129999989
 20
3086.8963395327878
 30
0.0
  0
POINT
  5
7E8F
  8
DEFPOINTS
 62
     0
 10
1676.356283000001
 20
3086.8963395327878
 30
0.0
  0
ENDBLK
  5
7CD7
  8
0
  0
BLOCK
  8
0
  2
*D3
 70
     1
 10
0.0
 20
0.0
 30
0.0
  3
*D3
  1

  0
LINE
  5
7E90
  8
3
 62
     0
 10
2103.5076129999989
 20
3086.8963395327878
 30
0.0
 11
1648.965058
 21
3086.8963395327878
 31
0.0
  0
LINE
  5
7E91
  8
3
 62
     0
 10
2081.020951
 20
2616.8963395327878
 30
0.0
 11
1648.965058
 21
2616.8963395327878
 31
0.0
  0
LINE
  5
7E92
  8
3
 62
     0
 10
1678.965058
 20
3026.8963395327878
 30
0.0
 11
1678.965058
 21
2676.8963395327878
 31
0.0
  0
INSERT
  5
7E93
  8
3
 62
     0
  2
_OPEN
 10
1678.965058
 20
3086.8963395327878
 30
0.0
 41
60.0
 42
60.0
 43
60.0
 50
90.0
  0
INSERT
  5
7E94
  8
3
 62
     0
  2
_OPEN
 10
1678.965058
 20
2616.8963395327878
 30
0.0
 41
60.0
 42
60.0
 43
60.0
 50
270.0
  0
TEXT
  8
3
  40
90
  5
7EEC
  62
0
  72
0
  71
0
 10
1423.97
 20
2721.88
 30
0.000000
  1
470
  0
POINT
  5
7E96
  8
DEFPOINTS
 62
     0
 10
2118.5076129999989
 20
3086.8963395327878
 30
0.0
  0
POINT
  5
7E97
  8
DEFPOINTS
 62
     0
 10
2096.020951
 20
2616.8963395327878
 30
0.0
  0
POINT
  5
7E98
  8
DEFPOINTS
 62
     0
 10
1678.965058
 20
2616.8963395327878
 30
0.0
  0
ENDBLK
  5
7CCC
  8
0
  0
BLOCK
  8
0
  2
*D4
 70
     1
 10
0.0
 20
0.0
 30
0.0
  3
*D4
  1

  0
LINE
  5
7D73
  8
0
  6
BYBLOCK
 62
     0
 10
2061.020951
 20
3731.8963395327878
 30
0.0
 11
2061.020951
 21
3843.1921275327882
 31
0.0
  0
LINE
  5
7D74
  8
0
  6
BYBLOCK
 62
     0
 10
2451.020951
 20
3668.2168525327879
 30
0.0
 11
2451.020951
 21
3843.1921275327882
 31
0.0
  0
LINE
  5
7D75
  8
0
  6
BYBLOCK
 62
     0
 10
2121.020951
 20
3813.1921275327868
 30
0.0
 11
2391.020951
 21
3813.1921275327868
 31
0.0
  0
TEXT
  5
7D76
  8
3
 62
     0
 10
2145.5831671574961
 20
3844.6699643596621
 30
0.0
 40
90.0
  1
390
  0
INSERT
  5
7D77
  8
0
  6
BYBLOCK
 62
     0
  2
_OPEN
 10
2061.020951
 20
3813.1921275327868
 30
0.0
 41
60.0
 42
60.0
 43
60.0
 50
180.0
  0
INSERT
  5
7D78
  8
0
  6
BYBLOCK
 62
     0
  2
_OPEN
 10
2451.020951
 20
3813.1921275327868
 30
0.0
 41
60.0
 42
60.0
 43
60.0
  0
POINT
  5
7D79
  8
DEFPOINTS
  6
BYBLOCK
 62
     0
 10
2061.020951
 20
3716.8963395327878
 30
0.0
  0
POINT
  5
7D7A
  8
DEFPOINTS
  6
BYBLOCK
 62
     0
 10
2451.020951
 20
3653.2168525327879
 30
0.0
  0
POINT
  5
7D7B
  8
DEFPOINTS
  6
BYBLOCK
 62
     0
 10
2451.020951
 20
3813.1921275327868
 30
0.0
  0
ENDBLK
  5
7D7C
  8
0
  0
BLOCK
  8
0
  2
*D5
 70
     1
 10
0.0
 20
0.0
 30
0.0
  3
*D5
  1

  0
LINE
  5
7E99
  8
3
 62
     0
 10
2451.020951
 20
3668.2168525327879
 30
0.0
 11
2451.020951
 21
3843.1921275327882
 31
0.0
  0
LINE
  5
7E9A
  8
3
 62
     0
 10
2933.020951
 20
3101.8963395327878
 30
0.0
 11
2933.020951
 21
3843.1921275327882
 31
0.0
  0
LINE
  5
7E9B
  8
3
 62
     0
 10
2511.020951
 20
3813.1921275327868
 30
0.0
 11
2873.020951
 21
3813.1921275327868
 31
0.0
  0
INSERT
  5
7E9C
  8
3
 62
     0
  2
_OPEN
 10
2451.020951
 20
3813.1921275327868
 30
0.0
 41
60.0
 42
60.0
 43
60.0
 50
180.0
  0
INSERT
  5
7E9D
  8
3
 62
     0
  2
_OPEN
 10
2933.020951
 20
3813.1921275327868
 30
0.0
 41
60.0
 42
60.0
 43
60.0
  0
TEXT
  8
3
  40
90
  5
7EED
  62
0
  72
0
  71
0
 10
2512.02
 20
3728.89
 30
0.000000
  1
484
  0
POINT
  5
7E9F
  8
DEFPOINTS
 62
     0
 10
2451.020951
 20
3653.2168525327879
 30
0.0
  0
POINT
  5
7EA0
  8
DEFPOINTS
 62
     0
 10
2933.020951
 20
3086.8963395327878
 30
0.0
  0
POINT
  5
7EA1
  8
DEFPOINTS
 62
     0
 10
2933.020951
 20
3813.1921275327868
 30
0.0
  0
ENDBLK
  5
7D8B
  8
0
  0
BLOCK
  8
0
  2
*D6
 70
     1
 10
0.0
 20
0.0
 30
0.0
  3
*D6
  1

  0
LINE
  5
7D10
  8
0
  6
BYBLOCK
 62
     0
 10
2096.020951
 20
2601.8963395327878
 30
0.0
 11
2096.020951
 21
2337.8539175327869
 31
0.0
  0
LINE
  5
7D11
  8
0
  6
BYBLOCK
 62
     0
 10
2451.020951
 20
2522.760166532787
 30
0.0
 11
2451.020951
 21
2337.8539175327869
 31
0.0
  0
LINE
  5
7D12
  8
0
  6
BYBLOCK
 62
     0
 10
2156.020951
 20
2367.8539175327869
 30
0.0
 11
2391.020951
 21
2367.8539175327869
 31
0.0
  0
TEXT
  5
7D13
  8
3
 62
     0
 10
2157.8066652857142
 20
2397.0648273218499
 30
0.0
 40
90.0
  1
355
  0
INSERT
  5
7D14
  8
0
  6
BYBLOCK
 62
     0
  2
_OPEN
 10
2096.020951
 20
2367.8539175327869
 30
0.0
 41
60.0
 42
60.0
 43
60.0
 50
180.0
  0
INSERT
  5
7D15
  8
0
  6
BYBLOCK
 62
     0
  2
_OPEN
 10
2451.020951
 20
2367.8539175327869
 30
0.0
 41
60.0
 42
60.0
 43
60.0
  0
POINT
  5
7D16
  8
DEFPOINTS
  6
BYBLOCK
 62
     0
 10
2096.020951
 20
2616.8963395327878
 30
0.0
  0
POINT
  5
7D17
  8
DEFPOINTS
  6
BYBLOCK
 62
     0
 10
2451.020951
 20
2537.7601665327879
 30
0.0
  0
POINT
  5
7D18
  8
DEFPOINTS
  6
BYBLOCK
 62
     0
 10
2451.020951
 20
2367.8539175327869
 30
0.0
  0
ENDBLK
  5
7D19
  8
0
  0
BLOCK
  8
0
  2
*D7
 70
     1
 10
0.0
 20
0.0
 30
0.0
  3
*D7
  1

  0
LINE
  5
7EA2
  8
3
 62
     0
 10
2451.020951
 20
2522.760166532787
 30
0.0
 11
2451.020951
 21
2337.8539175327869
 31
0.0
  0
LINE
  5
7EA3
  8
3
 62
     0
 10
3376.020951
 20
2601.8963395327878
 30
0.0
 11
3376.020951
 21
2337.8539175327869
 31
0.0
  0
LINE
  5
7EA4
  8
3
 62
     0
 10
2511.020951
 20
2367.8539175327869
 30
0.0
 11
3316.020951
 21
2367.8539175327869
 31
0.0
  0
INSERT
  5
7EA5
  8
3
 62
     0
  2
_OPEN
 10
2451.020951
 20
2367.8539175327869
 30
0.0
 41
60.0
 42
60.0
 43
60.0
 50
180.0
  0
INSERT
  5
7EA6
  8
3
 62
     0
  2
_OPEN
 10
3376.020951
 20
2367.8539175327869
 30
0.0
 41
60.0
 42
60.0
 43
60.0
  0
TEXT
  8
3
  40
90
  5
7EEE
  62
0
  72
0
  71
0
 10
2733.52
 20
2283.55
 30
0.000000
  1
925
  0
POINT
  5
7EA8
  8
DEFPOINTS
 62
     0
 10
2451.020951
 20
2537.7601665327879
 30
0.0
  0
POINT
  5
7EA9
  8
DEFPOINTS
 62
     0
 10
3376.020951
 20
2616.8963395327878
 30
0.0
  0
POINT
  5
7EAA
  8
DEFPOINTS
 62
     0
 10
3376.020951
 20
2367.8539175327869
 30
0.0
  0
ENDBLK
  5
7C9C
  8
0
  0
BLOCK
  8
0
  2
*D8
 70
     1
 10
0.0
 20
0.0
 30
0.0
  3
*D8
  1

  0
LINE
  5
7EAB
  8
3
 62
     0
 10
2096.020951
 20
5345.2582765327879
 30
0.0
 11
2096.020951
 21
4904.4412645327884
 31
0.0
  0
LINE
  5
7EAC
  8
3
 62
     0
 10
3376.020951
 20
5345.2582765327879
 30
0.0
 11
3376.020951
 21
4904.4412645327884
 31
0.0
  0
LINE
  5
7EAD
  8
3
 62
     0
 10
2156.020951
 20
4934.4412645327893
 30
0.0
 11
3316.020951
 21
4934.4412645327893
 31
0.0
  0
INSERT
  5
7EAE
  8
3
 62
     0
  2
_OPEN
 10
2096.020951
 20
4934.4412645327893
 30
0.0
 41
60.0
 42
60.0
 43
60.0
 50
180.0
  0
INSERT
  5
7EAF
  8
3
 62
     0
  2
_OPEN
 10
3376.020951
 20
4934.4412645327893
 30
0.0
 41
60.0
 42
60.0
 43
60.0
  0
TEXT
  8
3
  40
90
  5
7EEF
  62
0
  72
0
  71
0
 10
2567.56
 20
4850.14
 30
0.000000
  1
1280
  0
POINT
  5
7EB1
  8
DEFPOINTS
 62
     0
 10
2096.020951
 20
5360.2582765327888
 30
0.0
  0
POINT
  5
7EB2
  8
DEFPOINTS
 62
     0
 10
3376.020951
 20
5360.2582765327888
 30
0.0
  0
POINT
  5
7EB3
  8
DEFPOINTS
 62
     0
 10
3376.020951
 20
4934.4412645327893
 30
0.0
  0
ENDBLK
  5
7C91
  8
0
  0
BLOCK
  8
0
  2
*D9
 70
     1
 10
0.0
 20
0.0
 30
0.0
  3
*D9
  1

  0
LINE
  5
7EB4
  8
3
 62
     0
 10
3391.020951
 20
5970.2582765327879
 30
0.0
 11
3684.602061
 21
5970.2582765327879
 31
0.0
  0
LINE
  5
7EB5
  8
3
 62
     0
 10
3391.020951
 20
5360.2582765327888
 30
0.0
 11
3684.602061
 21
5360.2582765327888
 31
0.0
  0
LINE
  5
7EB6
  8
3
 62
     0
 10
3654.602061
 20
5910.2582765327888
 30
0.0
 11
3654.602061
 21
5420.2582765327888
 31
0.0
  0
INSERT
  5
7EB7
  8
3
 62
     0
  2
_OPEN
 10
3654.602061
 20
5970.2582765327879
 30
0.0
 41
60.0
 42
60.0
 43
60.0
 50
90.0
  0
INSERT
  5
7EB8
  8
3
 62
     0
  2
_OPEN
 10
3654.602061
 20
5360.2582765327888
 30
0.0
 41
60.0
 42
60.0
 43
60.0
 50
270.0
  0
TEXT
  8
3
  40
90
  5
7EF0
  62
0
  72
0
  71
0
 10
3399.60
 20
5489.33
 30
0.000000
  1
610
  0
POINT
  5
7EBA
  8
DEFPOINTS
 62
     0
 10
3376.020951
 20
5970.2582765327879
 30
0.0
  0
POINT
  5
7EBB
  8
DEFPOINTS
 62
     0
 10
3376.020951
 20
5360.2582765327888
 30
0.0
  0
POINT
  5
7EBC
  8
DEFPOINTS
 62
     0
 10
3654.602061
 20
5360.2582765327888
 30
0.0
  0
ENDBLK
  5
7C86
  8
0
  0
BLOCK
  8
0
  2
*D10
 70
     1
 10
0.0
 20
0.0
 30
0.0
  3
*D10
  1

  0
LINE
  5
7EBD
  8
3
 62
     0
 10
4647.6358851641244
 20
3701.8963395327878
 30
0.0
 11
4647.6358851641244
 21
3823.539788532788
 31
0.0
  0
LINE
  5
7EBE
  8
3
 62
     0
 10
5072.6358851641253
 20
3701.8963395327878
 30
0.0
 11
5072.6358851641253
 21
3823.539788532788
 31
0.0
  0
LINE
  5
7EBF
  8
3
 62
     0
 10
4707.6358851641244
 20
3793.539788532788
 30
0.0
 11
5012.6358851641244
 21
3793.539788532788
 31
0.0
  0
INSERT
  5
7EC0
  8
3
 62
     0
  2
_OPEN
 10
4647.6358851641244
 20
3793.539788532788
 30
0.0
 41
60.0
 42
60.0
 43
60.0
 50
180.0
  0
INSERT
  5
7EC1
  8
3
 62
     0
  2
_OPEN
 10
5072.6358851641253
 20
3793.539788532788
 30
0.0
 41
60.0
 42
60.0
 43
60.0
  0
TEXT
  8
3
  40
90
  5
7EF1
  62
0
  72
0
  71
0
 10
4673.35
 20
3709.24
 30
0.000000
  1
425
  0
POINT
  5
7EC3
  8
DEFPOINTS
 62
     0
 10
4647.6358851641244
 20
3686.8963395327878
 30
0.0
  0
POINT
  5
7EC4
  8
DEFPOINTS
 62
     0
 10
5072.6358851641253
 20
3686.8963395327878
 30
0.0
  0
POINT
  5
7EC5
  8
DEFPOINTS
 62
     0
 10
5072.6358851641253
 20
3793.539788532788
 30
0.0
  0
ENDBLK
  5
7C7B
  8
0
  0
BLOCK
  8
0
  2
*D11
 70
     1
 10
0.0
 20
0.0
 30
0.0
  3
*D11
  1

  0
LINE
  5
7EC6
  8
3
 62
     0
 10
4400.1358851641244
 20
3266.196339532788
 30
0.0
 11
4400.1358851641244
 21
4016.4983915327871
 31
0.0
  0
LINE
  5
7EC7
  8
3
 62
     0
 10
4860.1358851641244
 20
3939.0922226750658
 30
0.0
 11
4860.1358851641244
 21
4016.4983915327871
 31
0.0
  0
LINE
  5
7EC8
  8
3
 62
     0
 10
4460.1358851641244
 20
3986.4983915327871
 30
0.0
 11
4800.1358851641244
 21
3986.4983915327871
 31
0.0
  0
INSERT
  5
7EC9
  8
3
 62
     0
  2
_OPEN
 10
4400.1358851641244
 20
3986.4983915327871
 30
0.0
 41
60.0
 42
60.0
 43
60.0
 50
180.0
  0
INSERT
  5
7ECA
  8
3
 62
     0
  2
_OPEN
 10
4860.1358851641244
 20
3986.4983915327871
 30
0.0
 41
60.0
 42
60.0
 43
60.0
  0
TEXT
  8
3
  40
90
  5
7EF2
  62
0
  72
0
  71
0
 10
4438.71
 20
3977.20
 30
0.000000
  1
MAX
  0
TEXT
  8
3
  40
90
  5
7EF3
  62
0
  72
0
  71
0
 10
4438.71
 20
3860.20
 30
0.000000
  1
510
  0
POINT
  5
7ECC
  8
DEFPOINTS
 62
     0
 10
4400.1358851641244
 20
3251.196339532788
 30
0.0
  0
POINT
  5
7ECD
  8
DEFPOINTS
 62
     0
 10
4860.1358851641244
 20
3924.0922226750658
 30
0.0
  0
POINT
  5
7ECE
  8
DEFPOINTS
 62
     0
 10
4860.1358851641244
 20
3986.4983915327871
 30
0.0
  0
ENDBLK
  5
7DB2
  8
0
  0
BLOCK
  8
0
  2
*D12
 70
     1
 10
0.0
 20
0.0
 30
0.0
  3
*D12
  1

  0
LINE
  5
7DB4
  8
0
  6
BYBLOCK
 62
     0
 10
4860.1358851641244
 20
3939.0922226750658
 30
0.0
 11
4860.1358851641244
 21
4016.4983915327871
 31
0.0
  0
LINE
  5
7DB5
  8
0
  6
BYBLOCK
 62
     0
 10
5136.1358851641244
 20
3411.8963395327878
 30
0.0
 11
5136.1358851641244
 21
4016.4983915327871
 31
0.0
  0
LINE
  5
7DB6
  8
0
  6
BYBLOCK
 62
     0
 10
4920.1358851641253
 20
3986.4983915327871
 30
0.0
 11
5076.1358851641244
 21
3986.4983915327871
 31
0.0
  0
TEXT
  5
7DB7
  8
3
 62
     0
 10
4875.6481144667978
 20
4033.7715152988781
 30
0.0
 40
90.0
  1
276
  0
INSERT
  5
7DB8
  8
0
  6
BYBLOCK
 62
     0
  2
_OPEN
 10
4860.1358851641244
 20
3986.4983915327871
 30
0.0
 41
60.0
 42
60.0
 43
60.0
 50
180.0
  0
INSERT
  5
7DB9
  8
0
  6
BYBLOCK
 62
     0
  2
_OPEN
 10
5136.1358851641244
 20
3986.4983915327871
 30
0.0
 41
60.0
 42
60.0
 43
60.0
  0
POINT
  5
7DBA
  8
DEFPOINTS
  6
BYBLOCK
 62
     0
 10
4860.1358851641244
 20
3924.0922226750658
 30
0.0
  0
POINT
  5
7DBB
  8
DEFPOINTS
  6
BYBLOCK
 62
     0
 10
5136.1358851641244
 20
3396.8963395327878
 30
0.0
  0
POINT
  5
7DBC
  8
DEFPOINTS
  6
BYBLOCK
 62
     0
 10
5136.1358851641244
 20
3986.4983915327871
 30
0.0
  0
ENDBLK
  5
7DBD
  8
0
  0
BLOCK
  8
0
  2
*D13
 70
     1
 10
0.0
 20
0.0
 30
0.0
  3
*D13
  1

  0
LINE
  5
7ECF
  8
3
 62
     0
 10
5151.1358851641253
 20
3366.8963395327878
 30
0.0
 11
5404.845261164126
 21
3366.8963395327878
 31
0.0
  0
LINE
  5
7ED0
  8
3
 62
     0
 10
5151.1358851641253
 20
2806.8963395327878
 30
0.0
 11
5404.845261164126
 21
2806.8963395327878
 31
0.0
  0
LINE
  5
7ED1
  8
3
 62
     0
 10
5374.845261164126
 20
3306.8963395327878
 30
0.0
 11
5374.845261164126
 21
2866.8963395327878
 31
0.0
  0
INSERT
  5
7ED2
  8
3
 62
     0
  2
_OPEN
 10
5374.845261164126
 20
3366.8963395327878
 30
0.0
 41
60.0
 42
60.0
 43
60.0
 50
90.0
  0
INSERT
  5
7ED3
  8
3
 62
     0
  2
_OPEN
 10
5374.845261164126
 20
2806.8963395327878
 30
0.0
 41
60.0
 42
60.0
 43
60.0
 50
270.0
  0
TEXT
  8
3
  40
90
  5
7EF4
  62
0
  72
0
  71
0
 10
5119.85
 20
2947.88
 30
0.000000
  1
φ560
  0
POINT
  5
7ED5
  8
DEFPOINTS
 62
     0
 10
5136.1358851641244
 20
3366.8963395327878
 30
0.0
  0
POINT
  5
7ED6
  8
DEFPOINTS
 62
     0
 10
5136.1358851641244
 20
2806.8963395327878
 30
0.0
  0
POINT
  5
7ED7
  8
DEFPOINTS
 62
     0
 10
5374.845261164126
 20
2806.8963395327878
 30
0.0
  0
ENDBLK
  5
7D5B
  8
0
  0
BLOCK
  8
0
  2
*D14
 70
     1
 10
0.0
 20
0.0
 30
0.0
  3
*D14
  1

  0
LINE
  5
7D31
  8
0
  6
BYBLOCK
 62
     0
 10
4505.1358851641253
 20
2601.8963395327878
 30
0.0
 11
4505.1358851641253
 21
2365.4502205327881
 31
0.0
  0
LINE
  5
7D32
  8
0
  6
BYBLOCK
 62
     0
 10
4860.1358851641244
 20
2556.0683405327882
 30
0.0
 11
4860.1358851641244
 21
2365.4502205327881
 31
0.0
  0
LINE
  5
7D33
  8
0
  6
BYBLOCK
 62
     0
 10
4565.1358851641226
 20
2395.4502205327881
 30
0.0
 11
4800.1358851641244
 21
2395.4502205327881
 31
0.0
  0
TEXT
  5
7D34
  8
3
 62
     0
 10
4573.3033167362491
 20
2423.147784623699
 30
0.0
 40
90.0
  1
355
  0
INSERT
  5
7D35
  8
0
  6
BYBLOCK
 62
     0
  2
_OPEN
 10
4505.1358851641253
 20
2395.4502205327881
 30
0.0
 41
60.0
 42
60.0
 43
60.0
 50
180.0
  0
INSERT
  5
7D36
  8
0
  6
BYBLOCK
 62
     0
  2
_OPEN
 10
4860.1358851641244
 20
2395.4502205327881
 30
0.0
 41
60.0
 42
60.0
 43
60.0
  0
POINT
  5
7D37
  8
DEFPOINTS
  6
BYBLOCK
 62
     0
 10
4505.1358851641253
 20
2616.8963395327878
 30
0.0
  0
POINT
  5
7D38
  8
DEFPOINTS
  6
BYBLOCK
 62
     0
 10
4860.1358851641244
 20
2571.0683405327882
 30
0.0
  0
POINT
  5
7D39
  8
DEFPOINTS
  6
BYBLOCK
 62
     0
 10
4860.1358851641244
 20
2395.4502205327881
 30
0.0
  0
ENDBLK
  5
7D3A
  8
0
  0
BLOCK
  8
0
  2
*D15
 70
     1
 10
0.0
 20
0.0
 30
0.0
  3
*D15
  1

  0
LINE
  5
7D68
  8
0
  6
BYBLOCK
 62
     0
 10
4860.1358851641244
 20
2556.0683405327882
 30
0.0
 11
4860.1358851641244
 21
2365.2073225327872
 31
0.0
  0
LINE
  5
7D69
  8
0
  6
BYBLOCK
 62
     0
 10
5115.1358851641253
 20
2601.8963395327878
 30
0.0
 11
5115.1358851641253
 21
2365.2073225327872
 31
0.0
  0
LINE
  5
7D6A
  8
0
  6
BYBLOCK
 62
     0
 10
4920.1358851641253
 20
2395.2073225327872
 30
0.0
 11
5055.1358851641253
 21
2395.2073225327872
 31
0.0
  0
TEXT
  5
7D6B
  8
3
 62
     0
 10
4881.8520918031909
 20
2428.433259839599
 30
0.0
 40
90.0
  1
255
  0
INSERT
  5
7D6C
  8
0
  6
BYBLOCK
 62
     0
  2
_OPEN
 10
4860.1358851641244
 20
2395.2073225327872
 30
0.0
 41
60.0
 42
60.0
 43
60.0
 50
180.0
  0
INSERT
  5
7D6D
  8
0
  6
BYBLOCK
 62
     0
  2
_OPEN
 10
5115.1358851641253
 20
2395.2073225327872
 30
0.0
 41
60.0
 42
60.0
 43
60.0
  0
POINT
  5
7D6E
  8
DEFPOINTS
  6
BYBLOCK
 62
     0
 10
4860.1358851641244
 20
2571.0683405327882
 30
0.0
  0
POINT
  5
7D6F
  8
DEFPOINTS
  6
BYBLOCK
 62
     0
 10
5115.1358851641253
 20
2616.8963395327878
 30
0.0
  0
POINT
  5
7D70
  8
DEFPOINTS
  6
BYBLOCK
 62
     0
 10
5115.1358851641253
 20
2395.2073225327872
 30
0.0
  0
ENDBLK
  5
7D71
  8
0
  0
BLOCK
  8
0
  2
*D16
 70
     1
 10
0.0
 20
0.0
 30
0.0
  3
*D16
  1

  0
LINE
  5
7ED8
  8
3
 62
     0
 10
2046.020951
 20
3716.8963395327878
 30
0.0
 11
1426.5013120000001
 21
3716.8963395327878
 31
0.0
  0
LINE
  5
7ED9
  8
3
 62
     0
 10
2081.020951
 20
2616.8963395327878
 30
0.0
 11
1426.5013120000001
 21
2616.8963395327878
 31
0.0
  0
LINE
  5
7EDA
  8
3
 62
     0
 10
1456.501312000001
 20
3656.8963395327878
 30
0.0
 11
1456.501312000001
 21
2676.8963395327878
 31
0.0
  0
INSERT
  5
7EDB
  8
3
 62
     0
  2
_OPEN
 10
1456.501312000001
 20
3716.8963395327878
 30
0.0
 41
60.0
 42
60.0
 43
60.0
 50
90.0
  0
INSERT
  5
7EDC
  8
3
 62
     0
  2
_OPEN
 10
1456.501312000001
 20
2616.8963395327878
 30
0.0
 41
60.0
 42
60.0
 43
60.0
 50
270.0
  0
TEXT
  8
3
  40
90
  5
7EF5
  62
0
  72
0
  71
0
 10
1201.50
 20
2954.22
 30
0.000000
  1
1100
  0
POINT
  5
7EDE
  8
DEFPOINTS
 62
     0
 10
2061.020951
 20
3716.8963395327878
 30
0.0
  0
POINT
  5
7EDF
  8
DEFPOINTS
 62
     0
 10
2096.020951
 20
2616.8963395327878
 30
0.0
  0
POINT
  5
7EE0
  8
DEFPOINTS
 62
     0
 10
1456.501312000001
 20
2616.8963395327878
 30
0.0
  0
ENDBLK
  5
7C35
  8
0
  0
BLOCK
  8
0
  2
*D17
 70
     1
 10
0.0
 20
0.0
 30
0.0
  3
*D17
  1

  0
LINE
  5
7EE1
  8
3
 62
     0
 10
2061.020951
 20
3731.8963395327878
 30
0.0
 11
2061.020951
 21
4028.2584591384871
 31
0.0
  0
LINE
  5
7EE2
  8
3
 62
     0
 10
3376.020951
 20
2706.8963395327878
 30
0.0
 11
3376.020951
 21
4028.2584591384871
 31
0.0
  0
LINE
  5
7EE3
  8
3
 62
     0
 10
2121.020951
 20
3998.2584591384871
 30
0.0
 11
3316.020951
 21
3998.2584591384871
 31
0.0
  0
INSERT
  5
7EE4
  8
3
 62
     0
  2
_OPEN
 10
2061.020951
 20
3998.2584591384871
 30
0.0
 41
60.0
 42
60.0
 43
60.0
 50
180.0
  0
INSERT
  5
7EE5
  8
3
 62
     0
  2
_OPEN
 10
3376.020951
 20
3998.2584591384871
 30
0.0
 41
60.0
 42
60.0
 43
60.0
  0
TEXT
  8
3
  40
90
  5
7EF6
  62
0
  72
0
  71
0
 10
2545.02
 20
3913.96
 30
0.000000
  1
1315
  0
POINT
  5
7EE7
  8
DEFPOINTS
 62
     0
 10
2061.020951
 20
3716.8963395327878
 30
0.0
  0
POINT
  5
7EE8
  8
DEFPOINTS
 62
     0
 10
3376.020951
 20
2691.8963395327878
 30
0.0
  0
POINT
  5
7EE9
  8
DEFPOINTS
 62
     0
 10
3376.020951
 20
3998.2584591384871
 30
0.0
  0
ENDBLK
  5
7D9B
  8
0
  0
ENDSEC
  0
SECTION
  2
ENTITIES
  0
ARC
  5
7A6E
  8
1
 10
2493.020951
 20
3128.8963395327878
 30
0.0
 40
442.0
 50
278.62624399999987
 51
354.54737799999998
  0
ARC
  5
7A6F
  8
1
 10
2484.020951
 20
3053.8963395327878
 30
0.0
 40
367.0
 50
174.84109599999999
 51
260.53144099999997
  0
CIRCLE
  5
7A70
  8
1
 10
2451.020951
 20
3086.8963395327878
 30
0.0
 40
280.0
  0
ARC
  5
7A71
  8
1
 10
3151.020951
 20
2868.8963395327878
 30
0.0
 40
143.0
 50
324.34590999999989
 51
215.65408999999991
  0
CIRCLE
  5
7A72
  8
1
 10
2451.020951
 20
3086.8963395327878
 30
0.0
 40
310.0
  0
CIRCLE
  5
7A73
  8
1
 10
3151.020951
 20
2868.8963395327878
 30
0.0
 40
114.3
  0
ARC
  5
7A74
  8
1
 10
3151.020951
 20
2868.8963395327878
 30
0.0
 40
164.30000000000001
 50
252.70191899999989
 51
72.70191899999999
  0
ARC
  5
7A75
  8
1
 10
2451.020951
 20
3086.8963395327878
 30
0.0
 40
164.30000000000001
 50
72.70191899999999
 51
252.70191899999989
  0
LINE
  5
7A76
  8
1
 10
3117.034658
 20
2759.7660415327869
 30
0.0
 11
2417.034658
 21
2977.7660415327869
 31
0.0
  0
LINE
  5
7A77
  8
2
 10
3151.020951
 20
2749.5963395327881
 30
0.0
 11
3151.020951
 21
2988.196339532788
 31
0.0
  0
LINE
  5
7A78
  8
1
 10
3376.020951
 20
2616.8963395327878
 30
0.0
 11
2096.020951
 21
2616.8963395327878
 31
0.0
  0
LINE
  5
7A79
  8
1
 10
3376.020951
 20
2691.8963395327878
 30
0.0
 11
2096.020951
 21
2691.8963395327878
 31
0.0
  0
LINE
  5
7A7A
  8
1
 10
3102.1675129999999
 20
2712.0275035327882
 30
0.0
 11
2402.1675129999999
 21
2930.0275035327882
 31
0.0
  0
LINE
  5
7A7B
  8
1
 10
2096.020951
 20
2691.8963395327878
 30
0.0
 11
2096.020951
 21
2616.8963395327878
 31
0.0
  0
LINE
  5
7A7C
  8
1
 10
3326.020951
 20
2691.8963395327878
 30
0.0
 11
2976.020951
 21
2691.8963395327878
 31
0.0
  0
LINE
  5
7A7D
  8
2
 10
3270.3209510000002
 20
2868.8963395327878
 30
0.0
 11
3031.7209509999998
 21
2868.8963395327878
 31
0.0
  0
LINE
  5
7A7E
  8
1
 10
3021.020951
 20
2751.8963395327878
 30
0.0
 11
3035.0502280000001
 21
2786.0890845327872
 31
0.0
  0
LINE
  5
7A7F
  8
1
 10
3021.020951
 20
2736.8963395327878
 30
0.0
 11
3021.020951
 21
2751.8963395327878
 31
0.0
  0
LINE
  5
7A80
  8
1
 10
2976.020951
 20
2691.8963395327878
 30
0.0
 11
2986.020951
 21
2736.8963395327878
 31
0.0
  0
LINE
  5
7A81
  8
1
 10
3021.020951
 20
2736.8963395327878
 30
0.0
 11
2986.020951
 21
2736.8963395327878
 31
0.0
  0
LINE
  5
7A82
  8
1
 10
3376.020951
 20
2691.8963395327878
 30
0.0
 11
3376.020951
 21
2616.8963395327878
 31
0.0
  0
LINE
  5
7A83
  8
1
 10
3316.020951
 20
2736.8963395327878
 30
0.0
 11
3281.020951
 21
2736.8963395327878
 31
0.0
  0
LINE
  5
7A84
  8
1
 10
3281.020951
 20
2736.8963395327878
 30
0.0
 11
3281.020951
 21
2751.8963395327878
 31
0.0
  0
LINE
  5
7A85
  8
1
 10
3281.020951
 20
2751.8963395327878
 30
0.0
 11
3266.991673
 21
2786.0890845327872
 31
0.0
  0
LINE
  5
7A86
  8
1
 10
3316.020951
 20
2736.8963395327878
 30
0.0
 11
3326.020951
 21
2691.8963395327878
 31
0.0
  0
ARC
  5
7A87
  8
1
 10
2409.020951
 20
3128.8963395327878
 30
0.0
 40
526.0
 50
355.42017599999991
 51
85.420175999999984
  0
LINE
  5
7A88
  8
1
 10
3199.8743880000002
 20
3025.7651755327879
 30
0.0
 11
2499.8743880000002
 21
3243.7651755327879
 31
0.0
  0
LINE
  5
7A89
  8
1
 10
3185.007243
 20
2978.0266375327869
 30
0.0
 11
2485.007243
 21
3196.0266375327869
 31
0.0
  0
LINE
  5
7A8A
  8
1
 10
3376.020951
 20
5970.2582765327879
 30
0.0
 11
2731.020951
 21
5970.2582765327879
 31
0.0
  0
LINE
  5
7A8B
  8
1
 10
2935.020951
 20
5927.7582765327888
 30
0.0
 11
2061.020951
 21
5927.7582765327888
 31
0.0
  0
LINE
  5
7A8C
  8
1
 10
2935.020951
 20
5502.7582765327888
 30
0.0
 11
2061.020951
 21
5502.7582765327888
 31
0.0
  0
LINE
  5
7A8D
  8
1
 10
2761.020951
 20
5991.2582765327888
 30
0.0
 11
2141.020951
 21
5991.2582765327888
 31
0.0
  0
LINE
  5
7A8E
  8
1
 10
3132.020951
 20
5360.2582765327888
 30
0.0
 11
2471.020951
 21
5360.2582765327888
 31
0.0
  0
LINE
  5
7A8F
  8
1
 10
3315.3209509999988
 20
5255.2582765327888
 30
0.0
 11
2286.7209509999989
 21
5255.2582765327888
 31
0.0
  0
LINE
  5
7A90
  8
1
 10
3315.3209509999988
 20
5350.2582765327879
 30
0.0
 11
2286.7209509999989
 21
5350.2582765327879
 31
0.0
  0
LINE
  5
7A91
  8
1
 10
2061.020951
 20
3716.8963395327878
 30
0.0
 11
2061.020951
 21
3076.8963395327878
 31
0.0
  0
LINE
  5
7A92
  8
1
 10
2091.020951
 20
3684.305609532787
 30
0.0
 11
2091.020951
 21
3106.8963395327878
 31
0.0
  0
CIRCLE
  5
7A93
  8
1
 10
2451.020951
 20
3086.8963395327878
 30
0.0
 40
114.3
  0
LINE
  5
7A94
  8
2
 10
5172.3773791641242
 20
3086.8963395327878
 30
0.0
 11
4255.0240351641251
 21
3086.8963395327878
 31
0.0
  0
ARC
  5
7A95
  8
1
 10
2418.020951
 20
3053.8963395327878
 30
0.0
 40
301.0
 50
169.85850199999999
 51
173.70574999999991
  0
LINE
  5
7A96
  8
1
 10
2121.723802
 20
3106.8963395327878
 30
0.0
 11
2061.020951
 21
3106.8963395327878
 31
0.0
  0
LINE
  5
7A97
  8
2
 10
2451.020951
 20
2537.7601665327879
 30
0.0
 11
2451.020951
 21
3739.6338155327871
 31
0.0
  0
LINE
  5
7A98
  8
1
 10
2451.020951
 20
3251.196339532788
 30
0.0
 11
2451.020951
 21
3251.196339532788
 31
0.0
  0
LINE
  5
7A99
  8
1
 10
2451.020951
 20
3653.2168525327879
 30
0.0
 11
2061.020951
 21
3686.8963395327878
 31
0.0
  0
LINE
  5
7A9A
  8
1
 10
2061.020951
 20
5472.7582765327888
 30
0.0
 11
2061.020951
 21
5957.7582765327888
 31
0.0
  0
LINE
  5
7A9B
  8
1
 10
2091.020951
 20
5502.7582765327888
 30
0.0
 11
2091.020951
 21
5927.7582765327888
 31
0.0
  0
LINE
  5
7A9C
  8
1
 10
2431.020951
 20
5360.2582765327888
 30
0.0
 11
2096.020951
 21
5360.2582765327888
 31
0.0
  0
LINE
  5
7A9D
  8
1
 10
2565.3209509999988
 20
5333.2582765327888
 30
0.0
 11
2336.7209509999989
 21
5333.2582765327888
 31
0.0
  0
LINE
  5
7A9E
  8
1
 10
2565.3209509999988
 20
5270.2582765327888
 30
0.0
 11
2336.7209509999989
 21
5270.2582765327888
 31
0.0
  0
LINE
  5
7A9F
  8
1
 10
2096.020951
 20
5360.2582765327888
 30
0.0
 11
2096.020951
 21
5502.7582765327888
 31
0.0
  0
LINE
  5
7AA0
  8
1
 10
2336.7209509999989
 20
5270.2582765327888
 30
0.0
 11
2336.7209509999989
 21
5333.2582765327888
 31
0.0
  0
LINE
  5
7AA1
  8
1
 10
2286.7209509999989
 20
5255.2582765327888
 30
0.0
 11
2286.7209509999989
 21
5350.2582765327879
 31
0.0
  0
LINE
  5
7AA2
  8
1
 10
2431.020951
 20
5333.2582765327888
 30
0.0
 11
2431.020951
 21
5502.7582765327888
 31
0.0
  0
LINE
  5
7AA3
  8
1
 10
2471.020951
 20
5333.2582765327888
 30
0.0
 11
2471.020951
 21
5502.7582765327888
 31
0.0
  0
LINE
  5
7AA4
  8
1
 10
2565.3209509999988
 20
5270.2582765327888
 30
0.0
 11
2565.3209509999988
 21
5333.2582765327888
 31
0.0
  0
LINE
  5
7AA5
  8
1
 10
2096.020951
 20
5927.7582765327888
 30
0.0
 11
2096.020951
 21
5970.2582765327879
 31
0.0
  0
LINE
  5
7AA6
  8
1
 10
2171.020951
 20
5927.7582765327888
 30
0.0
 11
2171.020951
 21
5991.2582765327888
 31
0.0
  0
LINE
  5
7AA7
  8
1
 10
2171.020951
 20
5970.2582765327879
 30
0.0
 11
2096.020951
 21
5970.2582765327879
 31
0.0
  0
LINE
  5
7AA8
  8
1
 10
2731.020951
 20
5927.7582765327888
 30
0.0
 11
2731.020951
 21
5991.2582765327888
 31
0.0
  0
LINE
  5
7AA9
  8
1
 10
3376.020951
 20
5360.2582765327888
 30
0.0
 11
3376.020951
 21
5970.2582765327879
 31
0.0
  0
LINE
  5
7AAA
  8
1
 10
2935.020951
 20
5502.7582765327888
 30
0.0
 11
2935.020951
 21
5927.7582765327888
 31
0.0
  0
LINE
  5
7AAB
  8
1
 10
3294.020951
 20
5370.2582765327888
 30
0.0
 11
3294.020951
 21
5739.2582765327888
 31
0.0
  0
LINE
  5
7AAC
  8
1
 10
3008.020951
 20
5370.2582765327888
 30
0.0
 11
3008.020951
 21
5739.2582765327888
 31
0.0
  0
LINE
  5
7AAD
  8
1
 10
3008.020951
 20
5370.2582765327888
 30
0.0
 11
3294.020951
 21
5370.2582765327888
 31
0.0
  0
LINE
  5
7AAE
  8
1
 10
3265.3209509999988
 20
5333.2582765327888
 30
0.0
 11
3036.7209509999998
 21
5333.2582765327888
 31
0.0
  0
LINE
  5
7AAF
  8
1
 10
3265.3209509999988
 20
5270.2582765327888
 30
0.0
 11
3036.7209509999998
 21
5270.2582765327888
 31
0.0
  0
LINE
  5
7AB0
  8
1
 10
3132.020951
 20
5333.2582765327888
 30
0.0
 11
3132.020951
 21
5370.2582765327888
 31
0.0
  0
LINE
  5
7AB1
  8
1
 10
3036.7209509999998
 20
5270.2582765327888
 30
0.0
 11
3036.7209509999998
 21
5333.2582765327888
 31
0.0
  0
LINE
  5
7AB2
  8
1
 10
3376.020951
 20
5360.2582765327888
 30
0.0
 11
3170.020951
 21
5360.2582765327888
 31
0.0
  0
LINE
  5
7AB3
  8
1
 10
3170.020951
 20
5333.2582765327888
 30
0.0
 11
3170.020951
 21
5370.2582765327888
 31
0.0
  0
LINE
  5
7AB4
  8
1
 10
3265.3209509999988
 20
5270.2582765327888
 30
0.0
 11
3265.3209509999988
 21
5333.2582765327888
 31
0.0
  0
LINE
  5
7AB5
  8
1
 10
3315.3209509999988
 20
5255.2582765327888
 30
0.0
 11
3315.3209509999988
 21
5350.2582765327879
 31
0.0
  0
LINE
  5
7AB6
  8
1
 10
3294.020951
 20
5739.2582765327888
 30
0.0
 11
3008.020951
 21
5739.2582765327888
 31
0.0
  0
LINE
  5
7AB7
  8
1
 10
4515.1358851641244
 20
3011.8963395327878
 30
0.0
 11
4515.1358851641244
 21
2691.8963395327878
 31
0.0
  0
LINE
  5
7AB8
  8
1
 10
4478.1358851641244
 20
3201.196339532788
 30
0.0
 11
4478.1358851641244
 21
2754.5963395327881
 31
0.0
  0
LINE
  5
7AB9
  8
1
 10
4415.1358851641244
 20
3201.196339532788
 30
0.0
 11
4415.1358851641244
 21
2754.5963395327881
 31
0.0
  0
LINE
  5
7ABA
  8
1
 10
4495.1358851641244
 20
3251.196339532788
 30
0.0
 11
4495.1358851641244
 21
2704.5963395327881
 31
0.0
  0
LINE
  5
7ABB
  8
1
 10
4400.1358851641244
 20
3251.196339532788
 30
0.0
 11
4400.1358851641244
 21
2704.5963395327881
 31
0.0
  0
LINE
  5
7ABC
  8
1
 10
5136.1358851641244
 20
3396.8963395327878
 30
0.0
 11
5136.1358851641244
 21
2776.8963395327878
 31
0.0
  0
LINE
  5
7ABD
  8
1
 10
4647.6358851641244
 20
3686.8963395327878
 30
0.0
 11
4647.6358851641244
 21
2691.8963395327878
 31
0.0
  0
LINE
  5
7ABE
  8
1
 10
5072.6358851641253
 20
3686.8963395327878
 30
0.0
 11
5072.6358851641253
 21
2691.8963395327878
 31
0.0
  0
LINE
  5
7ABF
  8
1
 10
5072.6358851641253
 20
2806.8963395327878
 30
0.0
 11
5136.1358851641244
 21
2806.8963395327878
 31
0.0
  0
LINE
  5
7AC0
  8
1
 10
4505.1358851641253
 20
2691.8963395327878
 30
0.0
 11
5115.1358851641253
 21
2691.8963395327878
 31
0.0
  0
LINE
  5
7AC1
  8
1
 10
4505.1358851641253
 20
2616.8963395327878
 30
0.0
 11
5115.1358851641253
 21
2616.8963395327878
 31
0.0
  0
LINE
  5
7AC2
  8
1
 10
4478.1358851641244
 20
2849.8963395327878
 30
0.0
 11
4515.1358851641244
 21
2849.8963395327878
 31
0.0
  0
LINE
  5
7AC3
  8
1
 10
4478.1358851641244
 20
2887.8963395327878
 30
0.0
 11
4515.1358851641244
 21
2887.8963395327878
 31
0.0
  0
LINE
  5
7AC4
  8
1
 10
4415.1358851641244
 20
2754.5963395327881
 30
0.0
 11
4478.1358851641244
 21
2754.5963395327881
 31
0.0
  0
LINE
  5
7AC5
  8
1
 10
4515.1358851641244
 20
2736.8963395327878
 30
0.0
 11
4647.6358851641244
 21
2736.8963395327878
 31
0.0
  0
LINE
  5
7AC6
  8
1
 10
4400.1358851641244
 20
2704.5963395327881
 30
0.0
 11
4495.1358851641244
 21
2704.5963395327881
 31
0.0
  0
LINE
  5
7AC7
  8
1
 10
4505.1358851641253
 20
2691.8963395327878
 30
0.0
 11
4505.1358851641253
 21
2616.8963395327878
 31
0.0
  0
LINE
  5
7AC8
  8
1
 10
5115.1358851641253
 20
2691.8963395327878
 30
0.0
 11
5115.1358851641253
 21
2616.8963395327878
 31
0.0
  0
LINE
  5
7AC9
  8
1
 10
5072.6358851641253
 20
3366.8963395327878
 30
0.0
 11
5136.1358851641244
 21
3366.8963395327878
 31
0.0
  0
LINE
  5
7ACA
  8
1
 10
5072.6358851641253
 20
3686.8963395327878
 30
0.0
 11
4647.6358851641244
 21
3106.8963395327878
 31
0.0
  0
LINE
  5
7ACB
  8
1
 10
4647.6358851641244
 20
3686.8963395327878
 30
0.0
 11
5072.6358851641253
 21
3106.8963395327878
 31
0.0
  0
LINE
  5
7ACC
  8
1
 10
4647.6358851641244
 20
3106.8963395327878
 30
0.0
 11
5072.6358851641253
 21
3106.8963395327878
 31
0.0
  0
LINE
  5
7ACD
  8
1
 10
4515.1358851641244
 20
3011.8963395327878
 30
0.0
 11
4647.6358851641244
 21
3011.8963395327878
 31
0.0
  0
LINE
  5
7ACE
  8
1
 10
4400.1358851641244
 20
3251.196339532788
 30
0.0
 11
4495.1358851641244
 21
3251.196339532788
 31
0.0
  0
LINE
  5
7ACF
  8
1
 10
4415.1358851641244
 20
2972.5963395327881
 30
0.0
 11
4478.1358851641244
 21
2972.5963395327881
 31
0.0
  0
LINE
  5
7AD0
  8
1
 10
4415.1358851641244
 20
3201.196339532788
 30
0.0
 11
4478.1358851641244
 21
3201.196339532788
 31
0.0
  0
LINE
  5
7AD1
  8
1
 10
4478.1358851641244
 20
3066.8963395327878
 30
0.0
 11
4647.6358851641244
 21
3066.8963395327878
 31
0.0
  0
LINE
  5
7AD2
  8
1
 10
4478.1358851641244
 20
3106.8963395327878
 30
0.0
 11
4647.6358851641244
 21
3106.8963395327878
 31
0.0
  0
LINE
  5
7AD3
  8
1
 10
4647.6358851641244
 20
3686.8963395327878
 30
0.0
 11
5072.6358851641253
 21
3686.8963395327878
 31
0.0
  0
DIMENSION
  5
7AE7
  8
3
  2
*D1
 10
1864.539162999999
 20
3106.8963395327878
 30
0.0
 11
1864.539162999999
 21
3409.977757532788
 31
0.0
 70
   128
 13
2061.020951
 23
3686.8963395327878
 33
0.0
 14
2061.020951
 24
3106.8963395327878
 34
0.0
 50
90.0
1001
ACAD
1000
DSTYLE
1002
{
1070
   287
1070
     3
1070
   287
1070
     3
1070
    40
1040
30.0
1070
   143
1040
0.039
1070
   172
1070
     1
1070
   271
1070
     0
1070
   279
1070
     0
1070
   288
1070
     1
1002
}
  0
DIMENSION
  5
7AF4
  8
3
  2
*D2
 10
1676.356283000001
 20
3086.8963395327878
 30
0.0
 11
1676.3562830000001
 21
3402.6510145327879
 31
0.0
 70
   128
 13
2061.020951
 23
3686.8963395327878
 33
0.0
 14
2118.5076129999989
 24
3086.8963395327878
 34
0.0
 50
90.0
1001
ACAD
1000
DSTYLE
1002
{
1070
   287
1070
     3
1070
   287
1070
     3
1070
    40
1040
30.0
1070
   143
1040
0.039
1070
   172
1070
     1
1070
   271
1070
     0
1070
   279
1070
     0
1070
   288
1070
     1
1002
}
  0
DIMENSION
  5
7B02
  8
3
  2
*D3
 10
1678.965058
 20
2616.8963395327878
 30
0.0
 11
1678.9650579999991
 21
2881.182053818502
 31
0.0
 70
   128
 13
2118.5076129999989
 23
3086.8963395327878
 33
0.0
 14
2096.020951
 24
2616.8963395327878
 34
0.0
 50
90.0
1001
ACAD
1000
DSTYLE
1002
{
1070
   287
1070
     3
1070
   287
1070
     3
1070
    40
1040
30.0
1070
   143
1040
0.039
1070
   172
1070
     1
1070
   271
1070
     0
1070
   279
1070
     0
1070
   288
1070
     1
1002
}
  0
DIMENSION
  5
7B11
  8
3
  2
*D4
 10
2451.020951
 20
3813.1921275327868
 30
0.0
 11
2261.2974528717818
 21
3889.6699643596612
 31
0.0
 70
   128
 13
2061.020951
 23
3716.8963395327878
 33
0.0
 14
2451.020951
 24
3653.2168525327879
 34
0.0
1001
ACAD
1000
DSTYLE
1002
{
1070
   288
1070
     1
1070
   172
1070
     1
1070
    40
1040
30.0
1070
   271
1070
     0
1070
   143
1040
0.039
1002
}
  0
DIMENSION
  5
7B1D
  8
3
  2
*D5
 10
2933.020951
 20
3813.1921275327868
 30
0.0
 11
2692.020951
 21
3888.1921275327868
 31
0.0
 70
     0
  1
484
 13
2451.020951
 23
3653.2168525327879
 33
0.0
 14
2933.020951
 24
3086.8963395327878
 34
0.0
1001
ACAD
1000
DSTYLE
1002
{
1070
   287
1070
     3
1070
   287
1070
     3
1070
    40
1040
30.0
1070
   143
1040
0.039
1070
   172
1070
     1
1070
   271
1070
     0
1070
   279
1070
     0
1070
   288
1070
     1
1002
}
  0
DIMENSION
  5
7B2C
  8
3
  2
*D6
 10
2451.020951
 20
2367.8539175327869
 30
0.0
 11
2273.520951
 21
2442.0648273218499
 31
0.0
 70
   128
 13
2096.020951
 23
2616.8963395327878
 33
0.0
 14
2451.020951
 24
2537.7601665327879
 34
0.0
1001
ACAD
1000
DSTYLE
1002
{
1070
   288
1070
     1
1070
   172
1070
     1
1070
    40
1040
30.0
1070
   271
1070
     0
1070
   143
1040
0.039
1002
}
  0
DIMENSION
  5
7B38
  8
3
  2
*D7
 10
3376.020951
 20
2367.8539175327869
 30
0.0
 11
2913.520951
 21
2442.8539175327869
 31
0.0
 70
     0
 13
2451.020951
 23
2537.7601665327879
 33
0.0
 14
3376.020951
 24
2616.8963395327878
 34
0.0
1001
ACAD
1000
DSTYLE
1002
{
1070
   287
1070
     3
1070
   287
1070
     3
1070
    40
1040
30.0
1070
   143
1040
0.039
1070
   172
1070
     1
1070
   271
1070
     0
1070
   279
1070
     0
1070
   288
1070
     1
1002
}
  0
DIMENSION
  5
7B5B
  8
3
  2
*D8
 10
3376.020951
 20
4934.4412645327893
 30
0.0
 11
2747.5630849999989
 21
4934.4412645327893
 31
0.0
 70
   128
 13
2096.020951
 23
5360.2582765327888
 33
0.0
 14
3376.020951
 24
5360.2582765327888
 34
0.0
1001
ACAD
1000
DSTYLE
1002
{
1070
   287
1070
     3
1070
   287
1070
     3
1070
    40
1040
30.0
1070
   143
1040
0.039
1070
   172
1070
     1
1070
   271
1070
     0
1070
   279
1070
     0
1070
   288
1070
     1
1002
}
  0
DIMENSION
  5
7B68
  8
3
  2
*D9
 10
3654.602061
 20
5360.2582765327888
 30
0.0
 11
3654.602061
 21
5648.6269535327883
 31
0.0
 70
   128
 13
3376.020951
 23
5970.2582765327879
 33
0.0
 14
3376.020951
 24
5360.2582765327888
 34
0.0
 50
90.0
1001
ACAD
1000
DSTYLE
1002
{
1070
   287
1070
     3
1070
   287
1070
     3
1070
    40
1040
30.0
1070
   143
1040
0.039
1070
   172
1070
     1
1070
   271
1070
     0
1070
   279
1070
     0
1070
   288
1070
     1
1002
}
  0
LINE
  5
7B69
  8
2
 10
3040.1213990000001
 20
5715.2582765327888
 30
0.0
 11
1894.780737999999
 21
5715.2582765327888
 31
0.0
  0
LINE
  5
7B6A
  8
2
 10
4860.1358851641244
 20
3814.7642295327869
 30
0.0
 11
4860.1358851641244
 21
2571.0683405327882
 31
0.0
  0
DIMENSION
  5
7B79
  8
3
  2
*D10
 10
5072.6358851641253
 20
3793.539788532788
 30
0.0
 11
4853.3501708784097
 21
3793.539788532788
 31
0.0
 70
   128
 13
4647.6358851641244
 23
3686.8963395327878
 33
0.0
 14
5072.6358851641253
 24
3686.8963395327878
 34
0.0
1001
ACAD
1000
DSTYLE
1002
{
1070
   287
1070
     3
1070
   287
1070
     3
1070
    40
1040
30.0
1070
   143
1040
0.039
1070
   172
1070
     1
1070
   271
1070
     0
1070
   279
1070
     0
1070
   288
1070
     1
1002
}
  0
DIMENSION
  5
7B88
  8
3
  2
*D11
 10
4860.1358851641244
 20
3986.4983915327871
 30
0.0
 11
4618.7073137355519
 21
3986.4983915327871
 31
0.0
 70
   128
  1
MAX\P510
 13
4400.1358851641244
 23
3251.196339532788
 33
0.0
 14
4860.1358851641244
 24
3924.0922226750658
 34
0.0
1001
ACAD
1000
DSTYLE
1002
{
1070
   287
1070
     3
1070
   287
1070
     3
1070
    40
1040
30.0
1070
   143
1040
0.039
1070
   172
1070
     1
1070
   271
1070
     0
1070
   279
1070
     0
1070
   288
1070
     1
1002
}
  0
DIMENSION
  5
7B96
  8
3
  2
*D12
 10
5136.1358851641244
 20
3986.4983915327871
 30
0.0
 11
4989.219543038228
 21
4078.7715152988781
 31
0.0
 70
   128
 13
4860.1358851641244
 23
3924.0922226750658
 33
0.0
 14
5136.1358851641244
 24
3396.8963395327878
 34
0.0
1001
ACAD
1000
DSTYLE
1002
{
1070
   288
1070
     1
1070
   172
1070
     1
1070
    40
1040
30.0
1070
   271
1070
     0
1070
   143
1040
0.039
1002
}
  0
DIMENSION
  5
7BA3
  8
3
  2
*D13
 10
5374.845261164126
 20
2806.8963395327878
 30
0.0
 11
5374.8452611641251
 21
3107.182053818502
 31
0.0
 70
   128
 13
5136.1358851641244
 23
3366.8963395327878
 33
0.0
 14
5136.1358851641244
 24
2806.8963395327878
 34
0.0
 50
90.0
1001
ACAD
1000
DSTYLE
1002
{
1070
   287
1070
     3
1070
   287
1070
     3
1070
     3
1000
φ<>
1070
    40
1040
30.0
1070
   143
1040
0.039
1070
   172
1070
     1
1070
   271
1070
     0
1070
   279
1070
     0
1070
   288
1070
     1
1002
}
  0
DIMENSION
  5
7BB2
  8
3
  2
*D14
 10
4860.1358851641244
 20
2395.4502205327881
 30
0.0
 11
4689.0176024505336
 21
2468.147784623699
 31
0.0
 70
   128
 13
4505.1358851641253
 23
2616.8963395327878
 33
0.0
 14
4860.1358851641244
 24
2571.0683405327882
 34
0.0
1001
ACAD
1000
DSTYLE
1002
{
1070
   288
1070
     1
1070
   172
1070
     1
1070
    40
1040
30.0
1070
   271
1070
     0
1070
   143
1040
0.039
1002
}
  0
DIMENSION
  5
7BC0
  8
3
  2
*D15
 10
5115.1358851641253
 20
2395.2073225327872
 30
0.0
 11
4997.5663775174762
 21
2473.433259839599
 31
0.0
 70
   128
 13
4860.1358851641244
 23
2571.0683405327882
 33
0.0
 14
5115.1358851641253
 24
2616.8963395327878
 34
0.0
1001
ACAD
1000
DSTYLE
1002
{
1070
   288
1070
     1
1070
   172
1070
     1
1070
    40
1040
30.0
1070
   271
1070
     0
1070
   143
1040
0.039
1002
}
  0
LINE
  5
7BD7
  8
2
 10
3276.266916
 20
3086.8963395327878
 30
0.0
 11
1965.130979999999
 21
3086.8963395327878
 31
0.0
  0
LINE
  5
7BD8
  8
2
 10
2451.020951
 20
5068.2183925327881
 30
0.0
 11
2451.020951
 21
6109.7631455327883
 31
0.0
  0
LINE
  5
7BD9
  8
4
 10
5550.0
 20
1500.0
 30
0.0
 11
5550.0
 21
900.0
 31
0.0
  0
LINE
  5
7BDA
  8
4
 10
3450.0
 20
1500.0
 30
0.0
 11
3450.0
 21
900.0
 31
0.0
  0
LINE
  5
7BDB
  8
4
 10
1950.0
 20
1500.0
 30
0.0
 11
1950.0
 21
900.0
 31
0.0
  0
LINE
  5
7BDE
  8
4
 10
1950.0
 20
900.0
 30
0.0
 11
5550.0
 21
900.0
 31
0.0
  0
LINE
  5
7BDF
  8
4
 10
1950.0
 20
1200.0
 30
0.0
 11
5550.0
 21
1200.0
 31
0.0
  0
TEXT
  5
7BE0
  8
4
 10
2065.50624225
 20
1294.6290779999999
 30
0.0
 40
150.0
  1
機器名称
  0
TEXT
  5
7BE1
  8
4
 10
2058.7743179999989
 20
964.93547024999998
 30
0.0
 40
150.0
  1
機器型番
  0
TEXT
  5
7BE2
  8
4
 10
3533.0362365000001
 20
1267.715306249999
 30
0.0
 40
120.0
  1
ミツヤリミットロードファン
  0
TEXT
  5
7BE3
  8
4
 10
3559.9634872500001
 20
951.4787527499999
 30
0.0
 40
150.0
  1
LLE#3 1/2-4
  0
TEXT
  5
7BE5
  8
4
 10
2714.3572964999998
 20
7150.2865245000012
 30
0.0
 40
162.0
  1
床置ベット
  0
TEXT
  5
7BE6
  8
4
 10
948.50278049999986
 20
7601.6429287499996
 30
0.0
 40
180.0
  1
ベルト駆動式片吸込両持排煙ファン
  0
LINE
  5
7BE7
  8
4
 10
750.0
 20
7408.2262627500004
 30
0.0
 11
5550.0
 21
7408.2262627500004
 31
0.0
  0
LINE
  5
7BE8
  8
4
 10
750.0
 20
8008.2262627500004
 30
0.0
 11
5550.0
 21
8008.2262627500004
 31
0.0
  0
LINE
  5
7BE9
  8
4
 10
1950.0
 20
1500.0
 30
0.0
 11
5550.0
 21
1500.0
 31
0.0
  0
LINE
  5
7BEA
  8
4
 10
750.0
 20
8008.2262627500004
 30
0.0
 11
750.0
 21
7408.2262627500004
 31
0.0
  0
TEXT
  5
7BEB
  8
4
 10
1406.780799749999
 20
7146.9584324999987
 30
0.0
 40
162.0
  1
左回転左横向
  0
TEXT
  5
7BEC
  8
4
 10
4406.9086777499988
 20
8118.1832445
 30
0.0
 40
168.0
  1
No.
  0
TEXT
  5
7BED
  8
4
 10
3933.8881875000002
 20
7150.2865245000012
 30
0.0
 40
162.0
  1
縮尺：1/30
  0
LINE
  5
7BEE
  8
4
 10
5550.0
 20
8008.2262627500004
 30
0.0
 11
5550.0
 21
7408.2262627500004
 31
0.0
  0
LINE
  5
7BF0
  8
4
 10
4321.8522667500001
 20
8043.79074975
 30
0.0
 11
4321.8522667500001
 21
8359.9567845000001
 31
0.0
  0
LINE
  5
7BF1
  8
4
 10
4321.8522667500001
 20
8359.9567845000001
 30
0.0
 11
5550.0
 21
8359.9567845000001
 31
0.0
  0
LINE
  5
7BF2
  8
4
 10
5550.0
 20
8359.9567845000001
 30
0.0
 11
5550.0
 21
8043.79074975
 31
0.0
  0
LINE
  5
7BF3
  8
4
 10
5550.0
 20
8043.79074975
 30
0.0
 11
4321.8522667500001
 21
8043.79074975
 31
0.0
  0
DIMENSION
  5
7C20
  8
3
  2
*D16
 10
1456.501312000001
 20
2616.8963395327878
 30
0.0
 11
1456.5013120000001
 21
3113.5227515327879
 31
0.0
 70
   128
 13
2061.020951
 23
3716.8963395327878
 33
0.0
 14
2096.020951
 24
2616.8963395327878
 34
0.0
 50
90.0
1001
ACAD
1000
DSTYLE
1002
{
1070
   287
1070
     3
1070
   287
1070
     3
1070
    40
1040
30.0
1070
   143
1040
0.039
1070
   172
1070
     1
1070
   271
1070
     0
1070
   279
1070
     0
1070
   288
1070
     1
1002
}
  0
DIMENSION
  5
7D9C
  8
3
  2
*D17
 10
3376.020951
 20
3998.2584591384871
 30
0.0
 11
2725.0152032147671
 21
3998.2584591384871
 31
0.0
 70
   128
 13
2061.020951
 23
3716.8963395327878
 33
0.0
 14
3376.020951
 24
2691.8963395327878
 34
0.0
1001
ACAD
1000
DSTYLE
1002
{
1070
   287
1070
     3
1070
   287
1070
     3
1070
    40
1040
30.0
1070
   143
1040
0.039
1070
   172
1070
     1
1070
   271
1070
     0
1070
   279
1070
     0
1070
   288
1070
     1
1002
}
  0
ENDSEC
  0
EOF
