  0
SECTION
  2
HEADER
  9
$ACADVER
  1
AC1009
  9
$INSBASE
 10
0.0
 20
0.0
 30
0.0
  9
$EXTMIN
 10
500.0
 20
600.0
 30
0.0
  9
$EXTMAX
 10
3700.0
 20
5573.3045233333341
 30
0.0
  9
$LIMMIN
 10
0.0
 20
0.0
  9
$LIMMAX
 10
297.0
 20
210.0
  9
$ORTHOMODE
 70
     0
  9
$REGENMODE
 70
     1
  9
$FILLMODE
 70
     0
  9
$QTEXTMODE
 70
     0
  9
$MIRRTEXT
 70
     1
  9
$DRAGMODE
 70
     2
  9
$LTSCALE
 40
100.0
  9
$OSMODE
 70
    37
  9
$ATTMODE
 70
     1
  9
$TEXTSIZE
 40
180.0
  9
$TRACEWID
 40
0.05
  9
$TEXTSTYLE
  7
STANDARD
  9
$CLAYER
  8
3
  9
$CELTYPE
  6
BYLAYER
  9
$CECOLOR
 62
   256
  9
$DIMSCALE
 40
20.0
  9
$DIMASZ
 40
2.0
  9
$DIMEXO
 40
0.5
  9
$DIMDLI
 40
10.0
  9
$DIMRND
 40
0.0
  9
$DIMDLE
 40
0.0
  9
$DIMEXE
 40
1.0
  9
$DIMTP
 40
1.0
  9
$DIMTM
 40
1.0
  9
$DIMTXT
 40
3.0
  9
$DIMCEN
 40
0.0
  9
$DIMTSZ
 40
0.0
  9
$DIMTOL
 70
     0
  9
$DIMLIM
 70
     0
  9
$DIMTIH
 70
     0
  9
$DIMTOH
 70
     0
  9
$DIMSE1
 70
     0
  9
$DIMSE2
 70
     0
  9
$DIMTAD
 70
     1
  9
$DIMZIN
 70
     8
  9
$DIMBLK
  1

  9
$DIMASO
 70
     1
  9
$DIMSHO
 70
     1
  9
$DIMPOST
  1
(<>)
  9
$DIMAPOST
  1

  9
$DIMALT
 70
     0
  9
$DIMALTD
 70
     2
  9
$DIMALTF
 40
0.039
  9
$DIMLFAC
 40
1.0
  9
$DIMTOFL
 70
     1
  9
$DIMTVP
 40
0.0
  9
$DIMTIX
 70
     0
  9
$DIMSOXD
 70
     0
  9
$DIMSAH
 70
     1
  9
$DIMBLK1
  1
OPEN
  9
$DIMBLK2
  1
OPEN
  9
$DIMSTYLE
  2
IGA
  9
$DIMCLRD
 70
     0
  9
$DIMCLRE
 70
     0
  9
$DIMCLRT
 70
     0
  9
$DIMTFAC
 40
10.0
  9
$DIMGAP
 40
1.0
  9
$LUNITS
 70
     2
  9
$LUPREC
 70
     3
  9
$SKETCHINC
 40
0.1
  9
$FILLETRAD
 40
50.0
  9
$AUNITS
 70
     0
  9
$AUPREC
 70
     0
  9
$MENU
  1
acad
  9
$ELEVATION
 40
0.0
  9
$PELEVATION
 40
0.0
  9
$THICKNESS
 40
0.0
  9
$LIMCHECK
 70
     0
  9
$BLIPMODE
 70
     0
  9
$CHAMFERA
 40
0.5
  9
$CHAMFERB
 40
0.5
  9
$SKPOLY
 70
     0
  9
$TDCREATE
 40
2450763.5421304391
  9
$TDUPDATE
 40
2454953.6819686689
  9
$TDINDWG
 40
0.0101729167
  9
$TDUSRTIMER
 40
0.0101729167
  9
$USRTIMER
 70
     1
  9
$ANGBASE
 50
0.0
  9
$ANGDIR
 70
     0
  9
$PDMODE
 70
     0
  9
$PDSIZE
 40
0.0
  9
$PLINEWID
 40
0.0
  9
$COORDS
 70
     1
  9
$SPLFRAME
 70
     0
  9
$SPLINETYPE
 70
     6
  9
$SPLINESEGS
 70
     8
  9
$ATTDIA
 70
     0
  9
$ATTREQ
 70
     1
  9
$HANDLING
 70
 10241
  9
$HANDSEED
  5
81AE
  9
$SURFTAB1
 70
     6
  9
$SURFTAB2
 70
     6
  9
$SURFTYPE
 70
     6
  9
$SURFU
 70
     6
  9
$SURFV
 70
     6
  9
$UCSNAME
  2

  9
$UCSORG
 10
0.0
 20
0.0
 30
0.0
  9
$UCSXDIR
 10
1.0
 20
0.0
 30
0.0
  9
$UCSYDIR
 10
0.0
 20
1.0
 30
0.0
  9
$PUCSNAME
  2

  9
$PUCSORG
 10
0.0
 20
0.0
 30
0.0
  9
$PUCSXDIR
 10
1.0
 20
0.0
 30
0.0
  9
$PUCSYDIR
 10
0.0
 20
1.0
 30
0.0
  9
$USERI1
 70
     0
  9
$USERI2
 70
     0
  9
$USERI3
 70
     0
  9
$USERI4
 70
     0
  9
$USERI5
 70
     0
  9
$USERR1
 40
0.0
  9
$USERR2
 40
0.0
  9
$USERR3
 40
0.0
  9
$USERR4
 40
0.0
  9
$USERR5
 40
0.0
  9
$WORLDVIEW
 70
     1
  9
$SHADEDGE
 70
     3
  9
$SHADEDIF
 70
    70
  9
$TILEMODE
 70
     1
  9
$MAXACTVP
 70
    16
  9
$PLIMCHECK
 70
     0
  9
$PEXTMIN
 10
1.0000000000000000E+020
 20
1.0000000000000000E+020
 30
1.0000000000000000E+020
  9
$PEXTMAX
 10
-1.0000000000000000E+020
 20
-1.0000000000000000E+020
 30
-1.0000000000000000E+020
  9
$PLIMMIN
 10
0.0
 20
0.0
  9
$PLIMMAX
 10
12.0
 20
9.0
  9
$UNITMODE
 70
     0
  9
$VISRETAIN
 70
     0
  9
$PLINEGEN
 70
     0
  9
$PSLTSCALE
 70
     1
  0
ENDSEC
  0
SECTION
  2
TABLES
  0
TABLE
  2
VPORT
 70
     2
  0
VPORT
  2
*ACTIVE
 70
     0
 10
0.0
 20
0.0
 11
1.0
 21
1.0
 12
9605.8292187220723
 22
2672.843430545724
 13
0.0
 23
0.0
 14
10.0
 24
10.0
 15
10.0
 25
10.0
 16
0.0
 26
0.0
 36
1.0
 17
0.0
 27
0.0
 37
0.0
 40
7559.9189887385864
 41
3.1666666666666661
 42
50.0
 43
0.0
 44
0.0
 50
0.0
 51
0.0
 71
     0
 72
   100
 73
     1
 74
     0
 75
     0
 76
     0
 77
     0
 78
     0
  0
ENDTAB
  0
TABLE
  2
LTYPE
 70
     2
  0
LTYPE
  2
CONTINUOUS
 70
     0
  3
Solid line
 72
    65
 73
     0
 40
0.0
  0
LTYPE
  2
CENTER
 70
     0
  3
____ _ ____ _ ____ _ ____ _ ____ _ ____ _ ____ 
 72
    65
 73
     4
 40
2.0
 49
1.25
 49
-0.25
 49
0.25
 49
-0.25
  0
ENDTAB
  0
TABLE
  2
LAYER
 70
     6
  0
LAYER
  2
0
 70
     0
 62
     7
  6
CONTINUOUS
  0
LAYER
  2
3
 70
     0
 62
     2
  6
CONTINUOUS
  0
LAYER
  2
2
 70
     0
 62
     3
  6
CENTER
  0
LAYER
  2
1
 70
     0
 62
     4
  6
CONTINUOUS
  0
LAYER
  2
4
 70
     0
 62
     7
  6
CONTINUOUS
  0
LAYER
  2
DEFPOINTS
 70
     0
 62
     7
  6
CONTINUOUS
  0
ENDTAB
  0
TABLE
  2
STYLE
 70
     1
  0
STYLE
  2
STANDARD
 70
     0
 40
0.0
 41
1.0
 50
0.0
 71
     0
 42
180.0
  3
simplex.shx
  4
extfont.shx
  0
ENDTAB
  0
TABLE
  2
VIEW
 70
     0
  0
ENDTAB
  0
TABLE
  2
UCS
 70
     0
  0
ENDTAB
  0
TABLE
  2
APPID
 70
     1
  0
APPID
  2
ACAD
 70
     0
  0
ENDTAB
  0
TABLE
  2
DIMSTYLE
 70
     1
  0
DIMSTYLE
  2
IGA
 70
     0
  3

  4

  5

  6
OPEN
  7
OPEN
 40
2.0
 41
2.0
 42
0.5
 43
10.0
 44
1.0
 45
0.0
 46
0.0
 47
1.0
 48
1.0
140
3.0
141
0.0
142
0.0
143
0.03937
144
1.0
145
0.0
146
10.0
147
1.0
 71
     0
 72
     0
 73
     0
 74
     0
 75
     0
 76
     0
 77
     1
 78
     8
170
     0
171
     2
172
     0
173
     1
174
     0
175
     0
176
     0
177
     0
178
     0
  0
ENDTAB
  0
ENDSEC
  0
SECTION
  2
BLOCKS
  0
BLOCK
  8
0
  2
$MODEL_SPACE
 70
     0
 10
0.0
 20
0.0
 30
0.0
  3
$MODEL_SPACE
  1

  0
ENDBLK
  5
1B
  8
0
  0
BLOCK
 67
     1
  8
0
  2
$PAPER_SPACE
 70
     0
 10
0.0
 20
0.0
 30
0.0
  3
$PAPER_SPACE
  1

  0
ENDBLK
  5
18
 67
     1
  8
0
  0
BLOCK
  8
0
  2
_OPEN
 70
     0
 10
0.0
 20
0.0
 30
0.0
  3
_OPEN
  1

  0
LINE
  5
7AF6
  8
0
  6
BYBLOCK
 62
     0
 10
-1.0
 20
0.166667
 30
0.0
 11
0.0
 21
0.0
 31
0.0
  0
LINE
  5
7AF7
  8
0
  6
BYBLOCK
 62
     0
 10
0.0
 20
0.0
 30
0.0
 11
-1.0
 21
-0.166667
 31
0.0
  0
LINE
  5
7AF8
  8
0
  6
BYBLOCK
 62
     0
 10
0.0
 20
0.0
 30
0.0
 11
-1.0
 21
0.0
 31
0.0
  0
ENDBLK
  5
7AF9
  8
0
  0
BLOCK
  8
0
  2
*D1
 70
     1
 10
0.0
 20
0.0
 30
0.0
  3
*D1
  1

  0
LINE
  5
80EB
  8
3
 62
     0
 10
881.71732019056799
 20
2683.1760737007362
 30
0.0
 11
881.71732019056799
 21
2854.3661987007358
 31
0.0
  0
LINE
  5
80EC
  8
3
 62
     0
 10
1393.7173201905671
 20
2683.1760737007362
 30
0.0
 11
1393.7173201905671
 21
2854.3661987007358
 31
0.0
  0
LINE
  5
80ED
  8
3
 62
     0
 10
921.71732019056799
 20
2834.3661987007358
 30
0.0
 11
1353.717320190568
 21
2834.3661987007358
 31
0.0
  0
INSERT
  5
80EE
  8
3
 62
     0
  2
_OPEN
 10
881.71732019056799
 20
2834.3661987007358
 30
0.0
 41
40.0
 42
40.0
 43
40.0
 50
180.0
  0
INSERT
  5
80EF
  8
3
 62
     0
  2
_OPEN
 10
1393.7173201905671
 20
2834.3661987007358
 30
0.0
 41
40.0
 42
40.0
 43
40.0
  0
TEXT
  8
3
  40
60
  5
819B
  62
0
  72
0
  71
0
 10
1015.77
 20
2778.17
 30
0.000000
  1
512
  0
POINT
  5
80F1
  8
DEFPOINTS
 62
     0
 10
881.71732019056799
 20
2673.1760737007362
 30
0.0
  0
POINT
  5
80F2
  8
DEFPOINTS
 62
     0
 10
1393.7173201905671
 20
2673.1760737007362
 30
0.0
  0
POINT
  5
80F3
  8
DEFPOINTS
 62
     0
 10
1393.7173201905671
 20
2834.3661987007358
 30
0.0
  0
ENDBLK
  5
7DF3
  8
0
  0
BLOCK
  8
0
  2
*D2
 70
     1
 10
0.0
 20
0.0
 30
0.0
  3
*D2
  1

  0
LINE
  5
80F4
  8
3
 62
     0
 10
881.71732019056799
 20
2683.1760737007362
 30
0.0
 11
881.71732019056799
 21
2971.380244999591
 31
0.0
  0
LINE
  5
80F5
  8
3
 62
     0
 10
1419.717320190568
 20
2621.5688797007369
 30
0.0
 11
1419.717320190568
 21
2971.380244999591
 31
0.0
  0
LINE
  5
80F6
  8
3
 62
     0
 10
921.71732019056799
 20
2951.380244999591
 30
0.0
 11
1379.717320190568
 21
2951.380244999591
 31
0.0
  0
INSERT
  5
80F7
  8
3
 62
     0
  2
_OPEN
 10
881.71732019056799
 20
2951.380244999591
 30
0.0
 41
40.0
 42
40.0
 43
40.0
 50
180.0
  0
INSERT
  5
80F8
  8
3
 62
     0
  2
_OPEN
 10
1419.717320190568
 20
2951.380244999591
 30
0.0
 41
40.0
 42
40.0
 43
40.0
  0
TEXT
  8
3
  40
60
  5
819C
  62
0
  72
0
  71
0
 10
1002.75
 20
2895.18
 30
0.000000
  1
538
  0
POINT
  5
80FA
  8
DEFPOINTS
 62
     0
 10
881.71732019056799
 20
2673.1760737007362
 30
0.0
  0
POINT
  5
80FB
  8
DEFPOINTS
 62
     0
 10
1419.717320190568
 20
2611.568879700736
 30
0.0
  0
POINT
  5
80FC
  8
DEFPOINTS
 62
     0
 10
1419.717320190568
 20
2951.380244999591
 30
0.0
  0
ENDBLK
  5
7EF2
  8
0
  0
BLOCK
  8
0
  2
*D3
 70
     1
 10
0.0
 20
0.0
 30
0.0
  3
*D3
  1

  0
LINE
  5
80FD
  8
3
 62
     0
 10
1419.717320190568
 20
2621.5688797007369
 30
0.0
 11
1419.717320190568
 21
2971.380244999591
 31
0.0
  0
LINE
  5
80FE
  8
3
 62
     0
 10
1780.4470711905669
 20
2323.1760737007362
 30
0.0
 11
1780.4470711905669
 21
2971.380244999591
 31
0.0
  0
LINE
  5
80FF
  8
3
 62
     0
 10
1459.7173201905671
 20
2951.380244999591
 30
0.0
 11
1740.4470711905669
 21
2951.380244999591
 31
0.0
  0
INSERT
  5
8100
  8
3
 62
     0
  2
_OPEN
 10
1419.717320190568
 20
2951.380244999591
 30
0.0
 41
40.0
 42
40.0
 43
40.0
 50
180.0
  0
INSERT
  5
8101
  8
3
 62
     0
  2
_OPEN
 10
1780.4470711905669
 20
2951.380244999591
 30
0.0
 41
40.0
 42
40.0
 43
40.0
  0
TEXT
  8
3
  40
60
  5
819D
  62
0
  72
0
  71
0
 10
1455.77
 20
2895.18
 30
0.000000
  1
361
  0
POINT
  5
8103
  8
DEFPOINTS
 62
     0
 10
1419.717320190568
 20
2611.568879700736
 30
0.0
  0
POINT
  5
8104
  8
DEFPOINTS
 62
     0
 10
1780.4470711905669
 20
2313.1760737007362
 30
0.0
  0
POINT
  5
8105
  8
DEFPOINTS
 62
     0
 10
1780.4470711905669
 20
2951.380244999591
 30
0.0
  0
ENDBLK
  5
7EFD
  8
0
  0
BLOCK
  8
0
  2
*D4
 70
     1
 10
0.0
 20
0.0
 30
0.0
  3
*D4
  1

  0
LINE
  5
8106
  8
3
 62
     0
 10
1435.3173201905679
 20
2673.1760737007362
 30
0.0
 11
1996.174168229682
 21
2673.1760737007362
 31
0.0
  0
LINE
  5
8107
  8
3
 62
     0
 10
1868.5024326492819
 20
2313.1760737007362
 30
0.0
 11
1996.1741682296811
 21
2313.1760737007362
 31
0.0
  0
LINE
  5
8108
  8
3
 62
     0
 10
1976.174168229682
 20
2633.1760737007362
 30
0.0
 11
1976.174168229682
 21
2353.1760737007362
 31
0.0
  0
INSERT
  5
8109
  8
3
 62
     0
  2
_OPEN
 10
1976.174168229682
 20
2673.1760737007362
 30
0.0
 41
40.0
 42
40.0
 43
40.0
 50
90.0
  0
INSERT
  5
810A
  8
3
 62
     0
  2
_OPEN
 10
1976.174168229682
 20
2313.1760737007362
 30
0.0
 41
40.0
 42
40.0
 43
40.0
 50
270.0
  0
TEXT
  8
3
  40
60
  5
819E
  62
0
  72
0
  71
0
 10
1806.17
 20
2386.98
 30
0.000000
  1
360
  0
POINT
  5
810C
  8
DEFPOINTS
 62
     0
 10
1425.3173201905679
 20
2673.1760737007362
 30
0.0
  0
POINT
  5
810D
  8
DEFPOINTS
 62
     0
 10
1858.5024326492819
 20
2313.1760737007362
 30
0.0
  0
POINT
  5
810E
  8
DEFPOINTS
 62
     0
 10
1976.174168229682
 20
2313.1760737007362
 30
0.0
  0
ENDBLK
  5
7F77
  8
0
  0
BLOCK
  8
0
  2
*D5
 70
     1
 10
0.0
 20
0.0
 30
0.0
  3
*D5
  1

  0
LINE
  5
810F
  8
3
 62
     0
 10
554.71732019056788
 20
3650.810670477656
 30
0.0
 11
554.71732019056788
 21
3380.236556715045
 31
0.0
  0
LINE
  5
8110
  8
3
 62
     0
 10
1734.717320190568
 20
3650.810670477656
 30
0.0
 11
1734.717320190568
 21
3380.236556715045
 31
0.0
  0
LINE
  5
8111
  8
3
 62
     0
 10
594.71732019056788
 20
3400.236556715045
 30
0.0
 11
1694.717320190568
 21
3400.236556715045
 31
0.0
  0
INSERT
  5
8112
  8
3
 62
     0
  2
_OPEN
 10
554.71732019056788
 20
3400.236556715045
 30
0.0
 41
40.0
 42
40.0
 43
40.0
 50
180.0
  0
INSERT
  5
8113
  8
3
 62
     0
  2
_OPEN
 10
1734.717320190568
 20
3400.236556715045
 30
0.0
 41
40.0
 42
40.0
 43
40.0
  0
TEXT
  8
3
  40
60
  5
819F
  62
0
  72
0
  71
0
 10
984.788
 20
3344.04
 30
0.000000
  1
1180
  0
POINT
  5
8115
  8
DEFPOINTS
 62
     0
 10
554.71732019056788
 20
3660.8106704776569
 30
0.0
  0
POINT
  5
8116
  8
DEFPOINTS
 62
     0
 10
1734.717320190568
 20
3660.8106704776569
 30
0.0
  0
POINT
  5
8117
  8
DEFPOINTS
 62
     0
 10
1734.717320190568
 20
3400.236556715045
 30
0.0
  0
ENDBLK
  5
7F13
  8
0
  0
BLOCK
  8
0
  2
*D6
 70
     1
 10
0.0
 20
0.0
 30
0.0
  3
*D6
  1

  0
LINE
  5
8118
  8
3
 62
     0
 10
1744.717320190568
 20
4220.8106704776555
 30
0.0
 11
2024.0178595498271
 21
4220.8106704776555
 31
0.0
  0
LINE
  5
8119
  8
3
 62
     0
 10
1744.717320190568
 20
3660.8106704776569
 30
0.0
 11
2024.0178595498271
 21
3660.8106704776569
 31
0.0
  0
LINE
  5
811A
  8
3
 62
     0
 10
2004.0178595498271
 20
4180.8106704776555
 30
0.0
 11
2004.0178595498271
 21
3700.810670477656
 31
0.0
  0
INSERT
  5
811B
  8
3
 62
     0
  2
_OPEN
 10
2004.0178595498271
 20
4220.8106704776555
 30
0.0
 41
40.0
 42
40.0
 43
40.0
 50
90.0
  0
INSERT
  5
811C
  8
3
 62
     0
  2
_OPEN
 10
2004.0178595498271
 20
3660.8106704776569
 30
0.0
 41
40.0
 42
40.0
 43
40.0
 50
270.0
  0
TEXT
  8
3
  40
60
  5
81A0
  62
0
  72
0
  71
0
 10
1834.02
 20
3823.41
 30
0.000000
  1
560
  0
POINT
  5
811E
  8
DEFPOINTS
 62
     0
 10
1734.717320190568
 20
4220.8106704776555
 30
0.0
  0
POINT
  5
811F
  8
DEFPOINTS
 62
     0
 10
1734.717320190568
 20
3660.8106704776569
 30
0.0
  0
POINT
  5
8120
  8
DEFPOINTS
 62
     0
 10
2004.0178595498271
 20
3660.8106704776569
 30
0.0
  0
ENDBLK
  5
7F08
  8
0
  0
BLOCK
  8
0
  2
*D7
 70
     1
 10
0.0
 20
0.0
 30
0.0
  3
*D7
  1

  0
LINE
  5
8121
  8
3
 62
     0
 10
3435.0110426052279
 20
2563.1760737007362
 30
0.0
 11
3598.3217024760602
 21
2563.1760737007362
 31
0.0
  0
LINE
  5
8122
  8
3
 62
     0
 10
3435.0110426052279
 20
2063.1760737007362
 30
0.0
 11
3598.3217024760602
 21
2063.1760737007362
 31
0.0
  0
LINE
  5
8123
  8
3
 62
     0
 10
3578.3217024760602
 20
2523.1760737007362
 30
0.0
 11
3578.3217024760602
 21
2103.1760737007371
 31
0.0
  0
INSERT
  5
8124
  8
3
 62
     0
  2
_OPEN
 10
3578.3217024760602
 20
2563.1760737007362
 30
0.0
 41
40.0
 42
40.0
 43
40.0
 50
90.0
  0
INSERT
  5
8125
  8
3
 62
     0
  2
_OPEN
 10
3578.3217024760602
 20
2063.1760737007362
 30
0.0
 41
40.0
 42
40.0
 43
40.0
 50
270.0
  0
TEXT
  8
3
  40
60
  5
81A1
  62
0
  72
0
  71
0
 10
3408.32
 20
2206.98
 30
0.000000
  1
φ500
  0
POINT
  5
8127
  8
DEFPOINTS
 62
     0
 10
3425.0110426052279
 20
2563.1760737007362
 30
0.0
  0
POINT
  5
8128
  8
DEFPOINTS
 62
     0
 10
3425.0110426052279
 20
2063.1760737007362
 30
0.0
  0
POINT
  5
8129
  8
DEFPOINTS
 62
     0
 10
3578.3217024760602
 20
2063.1760737007362
 30
0.0
  0
ENDBLK
  5
7E6C
  8
0
  0
BLOCK
  8
0
  2
*D8
 70
     1
 10
0.0
 20
0.0
 30
0.0
  3
*D8
  1

  0
LINE
  5
812A
  8
3
 62
     0
 10
2986.511042605227
 20
2683.1760737007362
 30
0.0
 11
2986.511042605227
 21
2792.4958967314851
 31
0.0
  0
LINE
  5
812B
  8
3
 62
     0
 10
3361.5110426052279
 20
2683.1760737007362
 30
0.0
 11
3361.5110426052279
 21
2792.4958967314851
 31
0.0
  0
LINE
  5
812C
  8
3
 62
     0
 10
3026.511042605227
 20
2772.4958967314851
 30
0.0
 11
3321.511042605227
 21
2772.4958967314851
 31
0.0
  0
INSERT
  5
812D
  8
3
 62
     0
  2
_OPEN
 10
2986.511042605227
 20
2772.4958967314851
 30
0.0
 41
40.0
 42
40.0
 43
40.0
 50
180.0
  0
INSERT
  5
812E
  8
3
 62
     0
  2
_OPEN
 10
3361.5110426052279
 20
2772.4958967314851
 30
0.0
 41
40.0
 42
40.0
 43
40.0
  0
TEXT
  8
3
  40
60
  5
81A2
  62
0
  72
0
  71
0
 10
3054.01
 20
2716.30
 30
0.000000
  1
375
  0
POINT
  5
8130
  8
DEFPOINTS
 62
     0
 10
2986.511042605227
 20
2673.1760737007362
 30
0.0
  0
POINT
  5
8131
  8
DEFPOINTS
 62
     0
 10
3361.5110426052279
 20
2673.1760737007362
 30
0.0
  0
POINT
  5
8132
  8
DEFPOINTS
 62
     0
 10
3361.5110426052279
 20
2772.4958967314851
 30
0.0
  0
ENDBLK
  5
7E98
  8
0
  0
BLOCK
  8
0
  2
*D9
 70
     1
 10
0.0
 20
0.0
 30
0.0
  3
*D9
  1

  0
LINE
  5
8133
  8
3
 62
     0
 10
2779.0110426052279
 20
2448.1760737007362
 30
0.0
 11
2779.0110426052279
 21
2965.5125392597979
 31
0.0
  0
LINE
  5
8134
  8
3
 62
     0
 10
3174.011042605227
 20
2883.0388406757152
 30
0.0
 11
3174.011042605227
 21
2965.5125392597979
 31
0.0
  0
LINE
  5
8135
  8
3
 62
     0
 10
2819.011042605227
 20
2945.5125392597979
 30
0.0
 11
3134.0110426052279
 21
2945.5125392597979
 31
0.0
  0
INSERT
  5
8136
  8
3
 62
     0
  2
_OPEN
 10
2779.0110426052279
 20
2945.5125392597979
 30
0.0
 41
40.0
 42
40.0
 43
40.0
 50
180.0
  0
INSERT
  5
8137
  8
3
 62
     0
  2
_OPEN
 10
3174.011042605227
 20
2945.5125392597979
 30
0.0
 41
40.0
 42
40.0
 43
40.0
  0
TEXT
  8
3
  40
60
  5
81A3
  62
0
  72
0
  71
0
 10
2856.51
 20
2939.31
 30
0.000000
  1
MAX
  0
TEXT
  8
3
  40
60
  5
81A4
  62
0
  72
0
  71
0
 10
2856.51
 20
2861.31
 30
0.000000
  1
450
  0
POINT
  5
8139
  8
DEFPOINTS
 62
     0
 10
2779.0110426052279
 20
2438.1760737007362
 30
0.0
  0
POINT
  5
813A
  8
DEFPOINTS
 62
     0
 10
3174.011042605227
 20
2873.0388406757152
 30
0.0
  0
POINT
  5
813B
  8
DEFPOINTS
 62
     0
 10
3174.011042605227
 20
2945.5125392597979
 30
0.0
  0
ENDBLK
  5
7F1E
  8
0
  0
BLOCK
  8
0
  2
*D10
 70
     1
 10
0.0
 20
0.0
 30
0.0
  3
*D10
  1

  0
LINE
  5
813C
  8
3
 62
     0
 10
3174.011042605227
 20
2883.0388406757152
 30
0.0
 11
3174.011042605227
 21
2963.3919534929719
 31
0.0
  0
LINE
  5
813D
  8
3
 62
     0
 10
3425.0110426052279
 20
2603.1760737007362
 30
0.0
 11
3425.0110426052279
 21
2963.3919534929719
 31
0.0
  0
LINE
  5
813E
  8
3
 62
     0
 10
3214.0110426052279
 20
2943.391953492971
 30
0.0
 11
3385.0110426052279
 21
2943.391953492971
 31
0.0
  0
INSERT
  5
813F
  8
3
 62
     0
  2
_OPEN
 10
3174.011042605227
 20
2943.391953492971
 30
0.0
 41
40.0
 42
40.0
 43
40.0
 50
180.0
  0
INSERT
  5
8140
  8
3
 62
     0
  2
_OPEN
 10
3425.0110426052279
 20
2943.391953492971
 30
0.0
 41
40.0
 42
40.0
 43
40.0
  0
TEXT
  8
3
  40
60
  5
81A5
  62
0
  72
0
  71
0
 10
3178.30
 20
2887.19
 30
0.000000
  1
251
  0
POINT
  5
8142
  8
DEFPOINTS
 62
     0
 10
3174.011042605227
 20
2873.0388406757152
 30
0.0
  0
POINT
  5
8143
  8
DEFPOINTS
 62
     0
 10
3425.0110426052279
 20
2593.1760737007362
 30
0.0
  0
POINT
  5
8144
  8
DEFPOINTS
 62
     0
 10
3425.0110426052279
 20
2943.391953492971
 30
0.0
  0
ENDBLK
  5
7F40
  8
0
  0
BLOCK
  8
0
  2
*D11
 70
     1
 10
0.0
 20
0.0
 30
0.0
  3
*D11
  1

  0
LINE
  5
8145
  8
3
 62
     0
 10
1868.5024326492819
 20
2313.1760737007362
 30
0.0
 11
1996.11194246585
 21
2313.1760737007362
 31
0.0
  0
LINE
  5
8146
  8
3
 62
     0
 10
1744.717320190568
 20
1813.176073700736
 30
0.0
 11
1996.11194246585
 21
1813.176073700736
 31
0.0
  0
LINE
  5
8147
  8
3
 62
     0
 10
1976.1119424658491
 20
2273.1760737007362
 30
0.0
 11
1976.1119424658491
 21
1853.176073700736
 31
0.0
  0
INSERT
  5
8148
  8
3
 62
     0
  2
_OPEN
 10
1976.1119424658491
 20
2313.1760737007362
 30
0.0
 41
40.0
 42
40.0
 43
40.0
 50
90.0
  0
INSERT
  5
8149
  8
3
 62
     0
  2
_OPEN
 10
1976.1119424658491
 20
1813.176073700736
 30
0.0
 41
40.0
 42
40.0
 43
40.0
 50
270.0
  0
TEXT
  8
3
  40
60
  5
81A6
  62
0
  72
0
  71
0
 10
1806.11
 20
1956.98
 30
0.000000
  1
500
  0
POINT
  5
814B
  8
DEFPOINTS
 62
     0
 10
1858.5024326492819
 20
2313.1760737007362
 30
0.0
  0
POINT
  5
814C
  8
DEFPOINTS
 62
     0
 10
1734.717320190568
 20
1813.176073700736
 30
0.0
  0
POINT
  5
814D
  8
DEFPOINTS
 62
     0
 10
1976.1119424658491
 20
1813.176073700736
 30
0.0
  0
ENDBLK
  5
7F6C
  8
0
  0
BLOCK
  8
0
  2
*D12
 70
     1
 10
0.0
 20
0.0
 30
0.0
  3
*D12
  1

  0
LINE
  5
8157
  8
3
 62
     0
 10
1780.4470711905669
 20
2333.1760737007362
 30
0.0
 11
1780.4470711905669
 21
3104.2219074211798
 31
0.0
  0
LINE
  5
8158
  8
3
 62
     0
 10
554.71732019056788
 20
1898.176073700736
 30
0.0
 11
554.7173201905681
 21
3104.2219074211798
 31
0.0
  0
LINE
  5
8159
  8
3
 62
     0
 10
1740.4470711905669
 20
3084.2219074211812
 30
0.0
 11
594.71732019056799
 21
3084.2219074211812
 31
0.0
  0
INSERT
  5
815A
  8
3
 62
     0
  2
_OPEN
 10
1780.4470711905669
 20
3084.2219074211812
 30
0.0
 41
40.0
 42
40.0
 43
40.0
  0
INSERT
  5
815B
  8
3
 62
     0
  2
_OPEN
 10
554.7173201905681
 20
3084.2219074211812
 30
0.0
 41
40.0
 42
40.0
 43
40.0
 50
180.0
  0
TEXT
  8
3
  40
60
  5
81A7
  62
0
  72
0
  71
0
 10
1105.88
 20
3028.02
 30
0.000000
  1
1226
  0
POINT
  5
815D
  8
DEFPOINTS
 62
     0
 10
1780.4470711905669
 20
2323.1760737007362
 30
0.0
  0
POINT
  5
815E
  8
DEFPOINTS
 62
     0
 10
554.71732019056788
 20
1888.176073700736
 30
0.0
  0
POINT
  5
815F
  8
DEFPOINTS
 62
     0
 10
554.7173201905681
 20
3084.2219074211812
 30
0.0
  0
ENDBLK
  5
7F2F
  8
0
  0
BLOCK
  8
0
  2
*D13
 70
     1
 10
0.0
 20
0.0
 30
0.0
  3
*D13
  1

  0
LINE
  5
8160
  8
3
 62
     0
 10
554.71732019056788
 20
1643.176073700736
 30
0.0
 11
554.71732019056788
 21
1495.081918195446
 31
0.0
  0
LINE
  5
8161
  8
3
 62
     0
 10
1419.7173201905671
 20
1643.1760737007371
 30
0.0
 11
1419.7173201905671
 21
1495.081918195446
 31
0.0
  0
LINE
  5
8162
  8
3
 62
     0
 10
594.71732019056788
 20
1515.081918195446
 30
0.0
 11
1379.7173201905671
 21
1515.081918195446
 31
0.0
  0
INSERT
  5
8163
  8
3
 62
     0
  2
_OPEN
 10
554.71732019056788
 20
1515.081918195446
 30
0.0
 41
40.0
 42
40.0
 43
40.0
 50
180.0
  0
INSERT
  5
8164
  8
3
 62
     0
  2
_OPEN
 10
1419.7173201905671
 20
1515.081918195446
 30
0.0
 41
40.0
 42
40.0
 43
40.0
  0
TEXT
  8
3
  40
60
  5
81A8
  62
0
  72
0
  71
0
 10
867.217
 20
1458.88
 30
0.000000
  1
865
  0
POINT
  5
8166
  8
DEFPOINTS
 62
     0
 10
554.71732019056788
 20
1653.176073700736
 30
0.0
  0
POINT
  5
8167
  8
DEFPOINTS
 62
     0
 10
1419.7173201905671
 20
1653.176073700736
 30
0.0
  0
POINT
  5
8168
  8
DEFPOINTS
 62
     0
 10
1419.7173201905671
 20
1515.081918195446
 30
0.0
  0
ENDBLK
  5
7F8F
  8
0
  0
BLOCK
  8
0
  2
*D14
 70
     1
 10
0.0
 20
0.0
 30
0.0
  3
*D14
  1

  0
LINE
  5
8169
  8
3
 62
     0
 10
1419.7173201905671
 20
1643.1760737007371
 30
0.0
 11
1419.7173201905671
 21
1495.081918195446
 31
0.0
  0
LINE
  5
816A
  8
3
 62
     0
 10
1734.717320190568
 20
1643.176073700736
 30
0.0
 11
1734.717320190568
 21
1495.081918195446
 31
0.0
  0
LINE
  5
816B
  8
3
 62
     0
 10
1459.7173201905671
 20
1515.081918195446
 30
0.0
 11
1694.717320190568
 21
1515.081918195446
 31
0.0
  0
INSERT
  5
816C
  8
3
 62
     0
  2
_OPEN
 10
1419.7173201905671
 20
1515.081918195446
 30
0.0
 41
40.0
 42
40.0
 43
40.0
 50
180.0
  0
INSERT
  5
816D
  8
3
 62
     0
  2
_OPEN
 10
1734.717320190568
 20
1515.081918195446
 30
0.0
 41
40.0
 42
40.0
 43
40.0
  0
TEXT
  8
3
  40
60
  5
81A9
  62
0
  72
0
  71
0
 10
1457.22
 20
1458.88
 30
0.000000
  1
315
  0
POINT
  5
816F
  8
DEFPOINTS
 62
     0
 10
1419.7173201905671
 20
1653.176073700736
 30
0.0
  0
POINT
  5
8170
  8
DEFPOINTS
 62
     0
 10
1734.717320190568
 20
1653.176073700736
 30
0.0
  0
POINT
  5
8171
  8
DEFPOINTS
 62
     0
 10
1734.717320190568
 20
1515.081918195446
 30
0.0
  0
ENDBLK
  5
7F9C
  8
0
  0
BLOCK
  8
0
  2
*D15
 70
     1
 10
0.0
 20
0.0
 30
0.0
  3
*D15
  1

  0
LINE
  5
8172
  8
3
 62
     0
 10
2844.011042605227
 20
1643.176073700736
 30
0.0
 11
2844.011042605227
 21
1495.081918195446
 31
0.0
  0
LINE
  5
8173
  8
3
 62
     0
 10
3174.011042605227
 20
1643.1760737007371
 30
0.0
 11
3174.011042605227
 21
1495.081918195446
 31
0.0
  0
LINE
  5
8174
  8
3
 62
     0
 10
2884.0110426052279
 20
1515.081918195446
 30
0.0
 11
3134.0110426052279
 21
1515.081918195446
 31
0.0
  0
INSERT
  5
8175
  8
3
 62
     0
  2
_OPEN
 10
2844.011042605227
 20
1515.081918195446
 30
0.0
 41
40.0
 42
40.0
 43
40.0
 50
180.0
  0
INSERT
  5
8176
  8
3
 62
     0
  2
_OPEN
 10
3174.011042605227
 20
1515.081918195446
 30
0.0
 41
40.0
 42
40.0
 43
40.0
  0
TEXT
  8
3
  40
60
  5
81AA
  62
0
  72
0
  71
0
 10
2889.01
 20
1458.88
 30
0.000000
  1
330
  0
POINT
  5
8178
  8
DEFPOINTS
 62
     0
 10
2844.011042605227
 20
1653.176073700736
 30
0.0
  0
POINT
  5
8179
  8
DEFPOINTS
 62
     0
 10
3174.011042605227
 20
1653.176073700736
 30
0.0
  0
POINT
  5
817A
  8
DEFPOINTS
 62
     0
 10
3174.011042605227
 20
1515.081918195446
 30
0.0
  0
ENDBLK
  5
7FA9
  8
0
  0
BLOCK
  8
0
  2
*D16
 70
     1
 10
0.0
 20
0.0
 30
0.0
  3
*D16
  1

  0
LINE
  5
817B
  8
3
 62
     0
 10
3174.011042605227
 20
1643.1760737007371
 30
0.0
 11
3174.011042605227
 21
1495.081918195446
 31
0.0
  0
LINE
  5
817C
  8
3
 62
     0
 10
3404.0110426052279
 20
1643.176073700736
 30
0.0
 11
3404.0110426052279
 21
1495.081918195446
 31
0.0
  0
LINE
  5
817D
  8
3
 62
     0
 10
3214.0110426052279
 20
1515.081918195446
 30
0.0
 11
3364.0110426052279
 21
1515.081918195446
 31
0.0
  0
INSERT
  5
817E
  8
3
 62
     0
  2
_OPEN
 10
3174.011042605227
 20
1515.081918195446
 30
0.0
 41
40.0
 42
40.0
 43
40.0
 50
180.0
  0
INSERT
  5
817F
  8
3
 62
     0
  2
_OPEN
 10
3404.0110426052279
 20
1515.081918195446
 30
0.0
 41
40.0
 42
40.0
 43
40.0
  0
TEXT
  8
3
  40
60
  5
81AB
  62
0
  72
0
  71
0
 10
3169.01
 20
1458.88
 30
0.000000
  1
230
  0
POINT
  5
8181
  8
DEFPOINTS
 62
     0
 10
3174.011042605227
 20
1653.176073700736
 30
0.0
  0
POINT
  5
8182
  8
DEFPOINTS
 62
     0
 10
3404.0110426052279
 20
1653.176073700736
 30
0.0
  0
POINT
  5
8183
  8
DEFPOINTS
 62
     0
 10
3404.0110426052279
 20
1515.081918195446
 30
0.0
  0
ENDBLK
  5
7FB8
  8
0
  0
BLOCK
  8
0
  2
_DOT
 70
     0
 10
0.0
 20
0.0
 30
0.0
  3
_DOT
  1

  0
POLYLINE
  5
7FBC
  8
0
  6
BYBLOCK
 62
     0
 66
     1
 10
0.0
 20
0.0
 30
0.0
 70
     1
 40
0.5
 41
0.5
  0
VERTEX
  5
8184
  8
0
  6
BYBLOCK
 62
     0
 10
-0.25
 20
0.0
 30
0.0
 42
1.0
  0
VERTEX
  5
8185
  8
0
  6
BYBLOCK
 62
     0
 10
0.25
 20
0.0
 30
0.0
 42
1.0
  0
SEQEND
  5
8186
  8
0
  6
BYBLOCK
 62
     0
  0
LINE
  5
7FC0
  8
0
  6
BYBLOCK
 62
     0
 10
-0.5
 20
0.0
 30
0.0
 11
-1.0
 21
0.0
 31
0.0
  0
ENDBLK
  5
7FC1
  8
0
  0
BLOCK
  8
0
  2
*D18
 70
     1
 10
0.0
 20
0.0
 30
0.0
  3
*D18
  1

  0
LINE
  5
8187
  8
3
 62
     0
 10
1744.717320190568
 20
1718.176073700736
 30
0.0
 11
1997.746587140201
 21
1718.176073700736
 31
0.0
  0
LINE
  5
8188
  8
3
 62
     0
 10
1744.717320190568
 20
1653.176073700736
 30
0.0
 11
1997.746587140201
 21
1653.176073700736
 31
0.0
  0
LINE
  5
8189
  8
3
 62
     0
 10
1977.7465871402021
 20
1758.176073700736
 30
0.0
 11
1977.7465871402021
 21
1798.176073700736
 31
0.0
  0
LINE
  5
818A
  8
3
 62
     0
 10
1977.7465871402021
 20
1613.176073700736
 30
0.0
 11
1977.7465871402021
 21
1436.0332165578791
 31
0.0
  0
LINE
  5
818B
  8
3
 62
     0
 10
1977.7465871402021
 20
1718.176073700736
 30
0.0
 11
1977.7465871402021
 21
1653.176073700736
 31
0.0
  0
INSERT
  5
818C
  8
3
 62
     0
  2
_DOT
 10
1977.7465871402021
 20
1718.176073700736
 30
0.0
 41
40.0
 42
40.0
 43
40.0
 50
270.0
  0
INSERT
  5
818D
  8
3
 62
     0
  2
_OPEN
 10
1977.7465871402021
 20
1653.176073700736
 30
0.0
 41
40.0
 42
40.0
 43
40.0
 50
90.0
  0
TEXT
  8
3
  40
60
  5
81AC
  62
0
  72
0
  71
0
 10
1807.75
 20
1398.40
 30
0.000000
  1
65
  0
POINT
  5
818F
  8
DEFPOINTS
 62
     0
 10
1734.717320190568
 20
1718.176073700736
 30
0.0
  0
POINT
  5
8190
  8
DEFPOINTS
 62
     0
 10
1734.717320190568
 20
1653.176073700736
 30
0.0
  0
POINT
  5
8191
  8
DEFPOINTS
 62
     0
 10
1977.7465871402021
 20
1653.176073700736
 30
0.0
  0
ENDBLK
  5
7FCF
  8
0
  0
BLOCK
  8
0
  2
*D19
 70
     1
 10
0.0
 20
0.0
 30
0.0
  3
*D19
  1

  0
LINE
  5
7FD3
  8
0
  6
BYBLOCK
 62
     0
 10
1744.717320190568
 20
1718.176073700736
 30
0.0
 11
1997.746587140201
 21
1718.176073700736
 31
0.0
  0
LINE
  5
7FD4
  8
0
  6
BYBLOCK
 62
     0
 10
1744.717320190568
 20
1813.176073700736
 30
0.0
 11
1997.746587140201
 21
1813.176073700736
 31
0.0
  0
LINE
  5
7FD5
  8
0
  6
BYBLOCK
 62
     0
 10
1977.7465871402021
 20
1678.176073700736
 30
0.0
 11
1977.7465871402021
 21
1638.176073700736
 31
0.0
  0
LINE
  5
7FD6
  8
0
  6
BYBLOCK
 62
     0
 10
1977.7465871402021
 20
1853.176073700736
 30
0.0
 11
1977.7465871402021
 21
1893.176073700736
 31
0.0
  0
TEXT
  5
7FD7
  8
3
 62
     0
 10
2093.4608728544872
 20
1678.5332165578791
 30
0.0
 40
60.0
  1
(95)
 50
90.0
  0
LINE
  5
7FD8
  8
0
  6
BYBLOCK
 62
     0
 10
1977.7465871402021
 20
1718.176073700736
 30
0.0
 11
1977.7465871402021
 21
1813.176073700736
 31
0.0
  0
INSERT
  5
7FD9
  8
0
  6
BYBLOCK
 62
     0
  2
_DOT
 10
1977.7465871402021
 20
1718.176073700736
 30
0.0
 41
40.0
 42
40.0
 43
40.0
 50
90.0
  0
INSERT
  5
7FDA
  8
0
  6
BYBLOCK
 62
     0
  2
_OPEN
 10
1977.7465871402021
 20
1813.176073700736
 30
0.0
 41
40.0
 42
40.0
 43
40.0
 50
270.0
  0
POINT
  5
7FDB
  8
DEFPOINTS
  6
BYBLOCK
 62
     0
 10
1734.717320190568
 20
1718.176073700736
 30
0.0
  0
POINT
  5
7FDC
  8
DEFPOINTS
  6
BYBLOCK
 62
     0
 10
1734.717320190568
 20
1813.176073700736
 30
0.0
  0
POINT
  5
7FDD
  8
DEFPOINTS
  6
BYBLOCK
 62
     0
 10
1977.7465871402021
 20
1813.176073700736
 30
0.0
  0
ENDBLK
  5
7FDE
  8
0
  0
BLOCK
  8
0
  2
*D20
 70
     1
 10
0.0
 20
0.0
 30
0.0
  3
*D20
  1

  0
LINE
  5
8192
  8
3
 62
     0
 10
1435.3173201905679
 20
2673.1760737007362
 30
0.0
 11
2176.9679628144399
 21
2673.1760737007362
 31
0.0
  0
LINE
  5
8193
  8
3
 62
     0
 10
1744.717320190568
 20
1653.176073700736
 30
0.0
 11
2176.9679628144399
 21
1653.176073700736
 31
0.0
  0
LINE
  5
8194
  8
3
 62
     0
 10
2156.9679628144399
 20
2633.1760737007362
 30
0.0
 11
2156.9679628144399
 21
1693.176073700736
 31
0.0
  0
INSERT
  5
8195
  8
3
 62
     0
  2
_OPEN
 10
2156.9679628144399
 20
2673.1760737007362
 30
0.0
 41
40.0
 42
40.0
 43
40.0
 50
90.0
  0
INSERT
  5
8196
  8
3
 62
     0
  2
_OPEN
 10
2156.9679628144399
 20
1653.176073700736
 30
0.0
 41
40.0
 42
40.0
 43
40.0
 50
270.0
  0
TEXT
  8
3
  40
60
  5
81AD
  62
0
  72
0
  71
0
 10
1971.25
 20
2056.98
 30
0.000000
  1
(1020)
  0
POINT
  5
8198
  8
DEFPOINTS
 62
     0
 10
1425.3173201905679
 20
2673.1760737007362
 30
0.0
  0
POINT
  5
8199
  8
DEFPOINTS
 62
     0
 10
1734.717320190568
 20
1653.176073700736
 30
0.0
  0
POINT
  5
819A
  8
DEFPOINTS
 62
     0
 10
2156.9679628144399
 20
1653.176073700736
 30
0.0
  0
ENDBLK
  5
7FEB
  8
0
  0
ENDSEC
  0
SECTION
  2
ENTITIES
  0
LINE
  5
7A7E
  8
1
 10
1782.1653111905689
 20
3803.310670477656
 30
0.0
 11
1782.1653111905689
 21
4178.3106704776555
 31
0.0
  0
LINE
  5
7A7F
  8
1
 10
1395.717320190568
 20
3803.310670477656
 30
0.0
 11
1395.717320190568
 21
4178.3106704776555
 31
0.0
  0
LINE
  5
7A80
  8
1
 10
879.71732019056799
 20
4178.3106704776555
 30
0.0
 11
879.71732019056799
 21
3803.310670477656
 31
0.0
  0
LINE
  5
7A81
  8
1
 10
879.71732019056799
 20
3803.310670477656
 30
0.0
 11
1395.717320190568
 21
4178.3106704776555
 31
0.0
  0
LINE
  5
7A82
  8
1
 10
1395.717320190568
 20
3803.310670477656
 30
0.0
 11
879.71732019056799
 21
4178.3106704776555
 31
0.0
  0
LINE
  5
7A83
  8
1
 10
554.71732019056788
 20
3660.8106704776569
 30
0.0
 11
554.71732019056788
 21
4220.8106704776555
 31
0.0
  0
LINE
  5
7A84
  8
1
 10
627.21732019056799
 20
3725.810670477656
 30
0.0
 11
627.21732019056799
 21
4125.8106704776555
 31
0.0
  0
LINE
  5
7A8D
  8
1
 10
1734.717320190568
 20
1718.176073700736
 30
0.0
 11
554.71732019056788
 21
1718.176073700736
 31
0.0
  0
LINE
  5
7A8E
  8
1
 10
1734.717320190568
 20
1653.176073700736
 30
0.0
 11
554.71732019056788
 21
1653.176073700736
 31
0.0
  0
LINE
  5
7A8F
  8
1
 10
554.71732019056788
 20
1718.176073700736
 30
0.0
 11
554.71732019056788
 21
1653.176073700736
 31
0.0
  0
LINE
  5
7A90
  8
1
 10
1734.717320190568
 20
1718.176073700736
 30
0.0
 11
1734.717320190568
 21
1653.176073700736
 31
0.0
  0
LINE
  5
7A91
  8
1
 10
809.46451519056791
 20
1986.6637937007361
 30
0.0
 11
1459.4645151905679
 21
2194.6637937007358
 31
0.0
  0
LINE
  5
7A92
  8
1
 10
729.97012419056773
 20
2223.6883537007361
 30
0.0
 11
1379.970124190567
 21
2431.6883537007361
 31
0.0
  0
LINE
  5
7A93
  8
1
 10
745.86900319056804
 20
2176.2834417007361
 30
0.0
 11
1395.869003190568
 21
2384.2834417007361
 31
0.0
  0
LINE
  5
7A94
  8
1
 10
793.56563719056794
 20
2034.068705700736
 30
0.0
 11
1443.5656371905679
 21
2242.0687057007358
 31
0.0
  0
LINE
  5
7A95
  8
1
 10
1425.3173201905679
 20
2673.1760737007362
 30
0.0
 11
850.11213719056821
 21
2673.1760737007362
 31
0.0
  0
LINE
  5
7A96
  8
1
 10
1734.717320190568
 20
1813.176073700736
 30
0.0
 11
554.71732019056788
 21
1813.176073700736
 31
0.0
  0
LINE
  5
7A98
  8
1
 10
899.71732019056788
 20
1973.176073700736
 30
0.0
 11
849.71732019056788
 21
1973.176073700736
 31
0.0
  0
ARC
  5
7A99
  8
1
 10
769.71732019056788
 20
2105.1760737007362
 30
0.0
 40
143.0
 50
324.34590999999989
 51
215.65408999999991
  0
LINE
  5
7A9A
  8
1
 10
934.71732019056788
 20
1973.176073700736
 30
0.0
 11
604.71732019056788
 21
1973.176073700736
 31
0.0
  0
ARC
  5
7A9B
  8
1
 10
769.71732019056788
 20
2105.1760737007362
 30
0.0
 40
125.0
 50
108.5406599999999
 51
288.54065999999989
  0
LINE
  5
7A9C
  8
1
 10
644.71732019056788
 20
3718.810670477656
 30
0.0
 11
1544.717320190568
 21
3718.810670477656
 31
0.0
  0
LINE
  5
7A9D
  8
1
 10
644.71732019056788
 20
3595.8106704776569
 30
0.0
 11
1544.717320190568
 21
3595.8106704776569
 31
0.0
  0
LINE
  5
7A9E
  8
1
 10
627.21732019056799
 20
3725.810670477656
 30
0.0
 11
912.21732019056788
 21
3725.810670477656
 31
0.0
  0
LINE
  5
7A9F
  8
1
 10
844.71732019056799
 20
3660.8106704776569
 30
0.0
 11
1344.717320190568
 21
3660.8106704776569
 31
0.0
  0
LINE
  5
7AA0
  8
1
 10
554.71732019056788
 20
1888.176073700736
 30
0.0
 11
554.71732019056788
 21
1813.176073700736
 31
0.0
  0
LINE
  5
7AA1
  8
1
 10
594.71732019056788
 20
1928.176073700736
 30
0.0
 11
594.71732019056788
 21
1888.176073700736
 31
0.0
  0
LINE
  5
7AA2
  8
1
 10
639.71732019056799
 20
1973.176073700736
 30
0.0
 11
689.71732019056799
 21
1973.176073700736
 31
0.0
  0
LINE
  5
7AA3
  8
1
 10
639.71732019056799
 20
1973.176073700736
 30
0.0
 11
639.71732019056799
 21
1988.176073700736
 31
0.0
  0
LINE
  5
7AA4
  8
1
 10
639.71732019056799
 20
1988.176073700736
 30
0.0
 11
653.74659719056763
 21
2022.3688177007371
 31
0.0
  0
LINE
  5
7AA5
  8
1
 10
604.71732019056788
 20
1973.176073700736
 30
0.0
 11
594.71732019056788
 21
1928.176073700736
 31
0.0
  0
CIRCLE
  5
7AA6
  8
1
 10
769.71732019056788
 20
2105.1760737007362
 30
0.0
 40
75.0
  0
LINE
  5
7AA7
  8
2
 10
769.71732019056788
 20
2025.176073700736
 30
0.0
 11
769.71732019056788
 21
2185.1760737007362
 31
0.0
  0
LINE
  5
7AA8
  8
2
 10
689.71732019056799
 20
2105.1760737007362
 30
0.0
 11
849.71732019056788
 21
2105.1760737007362
 31
0.0
  0
LINE
  5
7AA9
  8
1
 10
554.71732019056788
 20
3660.8106704776569
 30
0.0
 11
694.71732019056788
 21
3660.8106704776569
 31
0.0
  0
LINE
  5
7AAA
  8
1
 10
644.71732019056788
 20
3595.8106704776569
 30
0.0
 11
644.71732019056788
 21
3718.810670477656
 31
0.0
  0
LINE
  5
7AAB
  8
1
 10
750.71732019056788
 20
3688.8106704776569
 30
0.0
 11
750.71732019056788
 21
3725.810670477656
 31
0.0
  0
LINE
  5
7AAC
  8
1
 10
788.71732019056799
 20
3688.8106704776569
 30
0.0
 11
788.71732019056799
 21
3725.810670477656
 31
0.0
  0
LINE
  5
7AAD
  8
1
 10
694.71732019056788
 20
3625.810670477656
 30
0.0
 11
844.71732019056799
 21
3625.810670477656
 31
0.0
  0
LINE
  5
7AAE
  8
1
 10
694.71732019056788
 20
3688.8106704776569
 30
0.0
 11
844.71732019056799
 21
3688.8106704776569
 31
0.0
  0
LINE
  5
7AAF
  8
1
 10
844.71732019056799
 20
3688.8106704776569
 30
0.0
 11
844.71732019056799
 21
3625.810670477656
 31
0.0
  0
LINE
  5
7AB0
  8
1
 10
694.71732019056788
 20
3688.8106704776569
 30
0.0
 11
694.71732019056788
 21
3625.810670477656
 31
0.0
  0
CIRCLE
  5
7AB1
  8
1
 10
1419.717320190568
 20
2313.1760737007362
 30
0.0
 40
250.0
  0
CIRCLE
  5
7AB2
  8
1
 10
1419.717320190568
 20
2313.1760737007362
 30
0.0
 40
280.0
  0
CIRCLE
  5
7AB3
  8
1
 10
1419.717320190568
 20
2313.1760737007362
 30
0.0
 40
75.0
  0
ARC
  5
7AB4
  8
1
 10
1419.717320190568
 20
2313.1760737007362
 30
0.0
 40
125.0
 50
288.54065999999989
 51
108.5406599999999
  0
LINE
  5
7AB5
  8
2
 10
3463.4468396151128
 20
2313.1760737007362
 30
0.0
 11
2737.0322375930332
 21
2313.1760737007362
 31
0.0
  0
LINE
  5
7AB6
  8
2
 10
1419.7173201905671
 20
1653.176073700736
 30
0.0
 11
1419.717320190568
 21
2690.0786567007372
 31
0.0
  0
LINE
  5
7AB7
  8
1
 10
944.71732019056799
 20
1928.176073700736
 30
0.0
 11
944.71732019056799
 21
1888.176073700736
 31
0.0
  0
LINE
  5
7AB8
  8
1
 10
899.71732019056788
 20
1988.176073700736
 30
0.0
 11
885.68804219056801
 21
2022.3688177007371
 31
0.0
  0
LINE
  5
7AB9
  8
1
 10
899.71732019056788
 20
1973.176073700736
 30
0.0
 11
899.71732019056788
 21
1988.176073700736
 31
0.0
  0
LINE
  5
7ABA
  8
1
 10
944.71732019056799
 20
1928.176073700736
 30
0.0
 11
934.71732019056788
 21
1973.176073700736
 31
0.0
  0
LINE
  5
7ABB
  8
1
 10
1393.7173201905671
 20
2643.1760737007362
 30
0.0
 11
884.13398619056795
 21
2643.1760737007362
 31
0.0
  0
LINE
  5
7ABC
  8
1
 10
1393.7173201905671
 20
2607.2557517007358
 30
0.0
 11
1393.7173201905671
 21
2673.1760737007362
 31
0.0
  0
LINE
  5
7ABD
  8
1
 10
1734.717320190568
 20
1888.176073700736
 30
0.0
 11
1734.717320190568
 21
1813.176073700736
 31
0.0
  0
LINE
  5
7ABE
  8
1
 10
1395.717320190568
 20
3803.310670477656
 30
0.0
 11
1782.1653111905689
 21
3803.310670477656
 31
0.0
  0
LINE
  5
7ABF
  8
1
 10
1344.717320190568
 20
3688.8106704776569
 30
0.0
 11
1494.717320190568
 21
3688.8106704776569
 31
0.0
  0
LINE
  5
7AC0
  8
1
 10
1344.717320190568
 20
3625.810670477656
 30
0.0
 11
1494.717320190568
 21
3625.810670477656
 31
0.0
  0
LINE
  5
7AC1
  8
1
 10
879.71732019056799
 20
3803.310670477656
 30
0.0
 11
1395.717320190568
 21
3803.310670477656
 31
0.0
  0
LINE
  5
7AC2
  8
1
 10
912.21732019056788
 20
3725.810670477656
 30
0.0
 11
912.21732019056788
 21
3803.310670477656
 31
0.0
  0
LINE
  5
7AC3
  8
1
 10
1402.217320190568
 20
3803.310670477656
 30
0.0
 11
1402.217320190568
 21
3688.8106704776569
 31
0.0
  0
LINE
  5
7AC4
  8
1
 10
1437.2173201905671
 20
3803.310670477656
 30
0.0
 11
1437.2173201905671
 21
3688.8106704776569
 31
0.0
  0
LINE
  5
7AC5
  8
1
 10
1344.717320190568
 20
3688.8106704776569
 30
0.0
 11
1344.717320190568
 21
3625.810670477656
 31
0.0
  0
LINE
  5
7AC6
  8
1
 10
1734.717320190568
 20
3660.8106704776569
 30
0.0
 11
1734.717320190568
 21
3803.310670477656
 31
0.0
  0
LINE
  5
7AC7
  8
1
 10
1544.717320190568
 20
3595.8106704776569
 30
0.0
 11
1544.717320190568
 21
3718.810670477656
 31
0.0
  0
LINE
  5
7AC8
  8
1
 10
1494.717320190568
 20
3688.8106704776569
 30
0.0
 11
1494.717320190568
 21
3625.810670477656
 31
0.0
  0
LINE
  5
7AC9
  8
1
 10
1494.717320190568
 20
3660.8106704776569
 30
0.0
 11
1734.717320190568
 21
3660.8106704776569
 31
0.0
  0
LINE
  5
7ACA
  8
1
 10
554.71732019056788
 20
4220.8106704776555
 30
0.0
 11
1169.717320190568
 21
4220.8106704776555
 31
0.0
  0
LINE
  5
7ACB
  8
1
 10
627.21732019056799
 20
4125.8106704776555
 30
0.0
 11
879.71732019056799
 21
4125.8106704776555
 31
0.0
  0
LINE
  5
7ACC
  8
1
 10
1395.717320190568
 20
4178.3106704776555
 30
0.0
 11
1782.1653111905689
 21
4178.3106704776555
 31
0.0
  0
LINE
  5
7ACD
  8
1
 10
1699.717320190568
 20
4241.8106704776555
 30
0.0
 11
1139.717320190568
 21
4241.8106704776555
 31
0.0
  0
LINE
  5
7ACE
  8
1
 10
879.71732019056799
 20
4178.3106704776555
 30
0.0
 11
1395.717320190568
 21
4178.3106704776555
 31
0.0
  0
LINE
  5
7ACF
  8
1
 10
1169.717320190568
 20
4178.3106704776555
 30
0.0
 11
1169.717320190568
 21
4241.8106704776555
 31
0.0
  0
LINE
  5
7AD0
  8
1
 10
1669.717320190568
 20
4178.3106704776555
 30
0.0
 11
1669.717320190568
 21
4241.8106704776555
 31
0.0
  0
LINE
  5
7AD1
  8
1
 10
1669.717320190568
 20
4220.8106704776555
 30
0.0
 11
1734.717320190568
 21
4220.8106704776555
 31
0.0
  0
LINE
  5
7AD2
  8
1
 10
1734.717320190568
 20
4178.3106704776555
 30
0.0
 11
1734.717320190568
 21
4220.8106704776555
 31
0.0
  0
LINE
  5
7AD3
  8
1
 10
3404.0110426052279
 20
1718.176073700736
 30
0.0
 11
2844.011042605227
 21
1718.176073700736
 31
0.0
  0
LINE
  5
7AD4
  8
1
 10
3404.0110426052279
 20
1653.176073700736
 30
0.0
 11
2844.011042605227
 21
1653.176073700736
 31
0.0
  0
LINE
  5
7AD5
  8
1
 10
2844.011042605227
 20
1653.176073700736
 30
0.0
 11
2844.011042605227
 21
1718.176073700736
 31
0.0
  0
LINE
  5
7AD6
  8
1
 10
3404.0110426052279
 20
1653.176073700736
 30
0.0
 11
3404.0110426052279
 21
1718.176073700736
 31
0.0
  0
LINE
  5
7AD7
  8
1
 10
2986.511042605227
 20
2643.1760737007362
 30
0.0
 11
3361.5110426052279
 21
2643.1760737007362
 31
0.0
  0
LINE
  5
7AD8
  8
1
 10
2954.0110426052279
 20
2673.1760737007362
 30
0.0
 11
3394.0110426052279
 21
2673.1760737007362
 31
0.0
  0
LINE
  5
7AD9
  8
1
 10
3404.0110426052279
 20
1813.176073700736
 30
0.0
 11
2844.011042605227
 21
1813.176073700736
 31
0.0
  0
LINE
  5
7ADB
  8
1
 10
2986.511042605227
 20
2257.1760737007362
 30
0.0
 11
2986.511042605227
 21
1888.176073700736
 31
0.0
  0
LINE
  5
7ADC
  8
1
 10
2809.0110426052279
 20
2238.1760737007362
 30
0.0
 11
2809.0110426052279
 21
2388.1760737007362
 31
0.0
  0
LINE
  5
7ADD
  8
1
 10
2872.0110426052279
 20
2238.1760737007362
 30
0.0
 11
2872.0110426052279
 21
2388.1760737007362
 31
0.0
  0
LINE
  5
7ADE
  8
1
 10
2779.0110426052279
 20
1980.176073700736
 30
0.0
 11
2779.0110426052279
 21
2438.1760737007362
 31
0.0
  0
LINE
  5
7ADF
  8
1
 10
2902.0110426052279
 20
1980.176073700736
 30
0.0
 11
2902.0110426052279
 21
2045.428932435779
 31
0.0
  0
LINE
  5
7AE0
  8
1
 10
2872.0110426052279
 20
2238.1760737007362
 30
0.0
 11
2809.0110426052279
 21
2238.1760737007362
 31
0.0
  0
LINE
  5
7AE1
  8
1
 10
2872.0110426052279
 20
2030.176073700736
 30
0.0
 11
2809.0110426052279
 21
2030.176073700736
 31
0.0
  0
LINE
  5
7AE2
  8
1
 10
2872.0110426052279
 20
2180.1760737007348
 30
0.0
 11
2809.0110426052279
 21
2180.1760737007348
 31
0.0
  0
LINE
  5
7AE3
  8
1
 10
2779.0110426052279
 20
1980.176073700736
 30
0.0
 11
2902.0110426052279
 21
1980.176073700736
 31
0.0
  0
LINE
  5
7AE4
  8
1
 10
2809.0110426052279
 20
2030.176073700736
 30
0.0
 11
2809.0110426052279
 21
2180.1760737007348
 31
0.0
  0
LINE
  5
7AE5
  8
1
 10
2844.011042605227
 20
1813.176073700736
 30
0.0
 11
2844.011042605227
 21
1888.176073700736
 31
0.0
  0
LINE
  5
7AE6
  8
1
 10
2872.0110426052279
 20
2030.176073700736
 30
0.0
 11
2872.0110426052279
 21
2180.1760737007348
 31
0.0
  0
LINE
  5
7AE7
  8
1
 10
2872.0110426052279
 20
2124.1760737007362
 30
0.0
 11
2986.511042605227
 21
2124.1760737007362
 31
0.0
  0
LINE
  5
7AE8
  8
1
 10
2872.0110426052279
 20
2086.1760737007348
 30
0.0
 11
2986.511042605227
 21
2086.1760737007348
 31
0.0
  0
LINE
  5
7AE9
  8
1
 10
2872.0110426052279
 20
2388.1760737007362
 30
0.0
 11
2809.0110426052279
 21
2388.1760737007362
 31
0.0
  0
LINE
  5
7AEA
  8
1
 10
2779.0110426052279
 20
2438.1760737007362
 30
0.0
 11
2902.0110426052279
 21
2438.1760737007362
 31
0.0
  0
LINE
  5
7AEB
  8
1
 10
2986.511042605227
 20
2673.1760737007362
 30
0.0
 11
2986.511042605227
 21
2257.1760737007362
 31
0.0
  0
LINE
  5
7AEC
  8
1
 10
2986.511042605227
 20
2330.6760737007362
 30
0.0
 11
2872.0110426052279
 21
2330.6760737007362
 31
0.0
  0
LINE
  5
7AED
  8
1
 10
2986.511042605227
 20
2295.6760737007362
 30
0.0
 11
2872.0110426052279
 21
2295.6760737007362
 31
0.0
  0
LINE
  5
7AEE
  8
1
 10
3425.0110426052279
 20
2033.176073700736
 30
0.0
 11
3425.0110426052279
 21
2593.1760737007362
 31
0.0
  0
LINE
  5
7AEF
  8
1
 10
3361.5110426052279
 20
2337.1760737007362
 30
0.0
 11
3361.5110426052279
 21
1888.176073700736
 31
0.0
  0
LINE
  5
7AF0
  8
1
 10
3361.5110426052279
 20
2063.1760737007362
 30
0.0
 11
3425.0110426052279
 21
2063.1760737007362
 31
0.0
  0
LINE
  5
7AF1
  8
1
 10
3404.0110426052279
 20
1813.176073700736
 30
0.0
 11
3404.0110426052279
 21
1888.176073700736
 31
0.0
  0
LINE
  5
7AF2
  8
1
 10
3361.5110426052279
 20
2563.1760737007362
 30
0.0
 11
3425.0110426052279
 21
2563.1760737007362
 31
0.0
  0
LINE
  5
7AF3
  8
1
 10
3361.5110426052279
 20
2673.1760737007362
 30
0.0
 11
3361.5110426052279
 21
2337.1760737007362
 31
0.0
  0
DIMENSION
  5
7B38
  8
3
  2
*D1
 10
1393.7173201905671
 20
2834.3661987007358
 30
0.0
 11
1135.772223190568
 21
2834.3661987007358
 31
0.0
 70
   128
 13
881.71732019056799
 23
2673.1760737007362
 33
0.0
 14
1393.7173201905671
 24
2673.1760737007362
 34
0.0
1001
ACAD
1000
DSTYLE
1002
{
1070
   287
1070
     3
1070
   287
1070
     3
1070
    40
1040
20.0
1070
   143
1040
0.039
1070
   172
1070
     1
1070
   271
1070
     0
1070
   279
1070
     0
1070
   288
1070
     1
1002
}
  0
DIMENSION
  5
7B45
  8
3
  2
*D2
 10
1419.717320190568
 20
2951.380244999591
 30
0.0
 11
1122.7545481905679
 21
2951.380244999591
 31
0.0
 70
   128
 13
881.71732019056799
 23
2673.1760737007362
 33
0.0
 14
1419.717320190568
 24
2611.568879700736
 34
0.0
1001
ACAD
1000
DSTYLE
1002
{
1070
   287
1070
     3
1070
   287
1070
     3
1070
    40
1040
20.0
1070
   143
1040
0.039
1070
   172
1070
     1
1070
   271
1070
     0
1070
   279
1070
     0
1070
   288
1070
     1
1002
}
  0
DIMENSION
  5
7B53
  8
3
  2
*D3
 10
1780.4470711905669
 20
2951.380244999591
 30
0.0
 11
1575.7700171905681
 21
2951.380244999591
 31
0.0
 70
   128
 13
1419.717320190568
 23
2611.568879700736
 33
0.0
 14
1780.4470711905669
 24
2313.1760737007362
 34
0.0
1001
ACAD
1000
DSTYLE
1002
{
1070
   287
1070
     3
1070
   287
1070
     3
1070
    40
1040
20.0
1070
   143
1040
0.039
1070
   172
1070
     1
1070
   271
1070
     0
1070
   279
1070
     0
1070
   288
1070
     1
1002
}
  0
DIMENSION
  5
7B88
  8
3
  2
*D4
 10
1976.174168229682
 20
2313.1760737007362
 30
0.0
 11
1976.1741682296811
 21
2493.1760737007362
 31
0.0
 70
   128
 13
1425.3173201905679
 23
2673.1760737007362
 33
0.0
 14
1858.5024326492819
 24
2313.1760737007362
 34
0.0
 50
90.0
1001
ACAD
1000
DSTYLE
1002
{
1070
   287
1070
     3
1070
   287
1070
     3
1070
    40
1040
20.0
1070
   143
1040
0.039
1070
   172
1070
     1
1070
   271
1070
     0
1070
   279
1070
     0
1070
   288
1070
     1
1002
}
  0
DIMENSION
  5
7BAE
  8
3
  2
*D5
 10
1734.717320190568
 20
3400.236556715045
 30
0.0
 11
1104.7877041905681
 21
3400.236556715045
 31
0.0
 70
   128
 13
554.71732019056788
 23
3660.8106704776569
 33
0.0
 14
1734.717320190568
 24
3660.8106704776569
 34
0.0
1001
ACAD
1000
DSTYLE
1002
{
1070
   287
1070
     3
1070
   287
1070
     3
1070
    40
1040
20.0
1070
   143
1040
0.039
1070
   172
1070
     1
1070
   271
1070
     0
1070
   279
1070
     0
1070
   288
1070
     1
1002
}
  0
DIMENSION
  5
7BBB
  8
3
  2
*D6
 10
2004.0178595498271
 20
3660.8106704776569
 30
0.0
 11
2004.017859549826
 21
3929.610206477656
 31
0.0
 70
   128
 13
1734.717320190568
 23
4220.8106704776555
 33
0.0
 14
1734.717320190568
 24
3660.8106704776569
 34
0.0
 50
90.0
1001
ACAD
1000
DSTYLE
1002
{
1070
   287
1070
     3
1070
   287
1070
     3
1070
    40
1040
20.0
1070
   143
1040
0.039
1070
   172
1070
     1
1070
   271
1070
     0
1070
   279
1070
     0
1070
   288
1070
     1
1002
}
  0
LINE
  5
7BBC
  8
2
 10
752.14399219056759
 20
3990.810670477656
 30
0.0
 11
1818.843848190568
 21
3990.810670477656
 31
0.0
  0
LINE
  5
7BBD
  8
2
 10
3174.011042605227
 20
2774.1532347007369
 30
0.0
 11
3174.011042605227
 21
1653.176073700736
 31
0.0
  0
DIMENSION
  5
7BFD
  8
3
  2
*D7
 10
3578.3217024760602
 20
2063.1760737007362
 30
0.0
 11
3578.3217024760588
 21
2313.1760737007362
 31
0.0
 70
   128
 13
3425.0110426052279
 23
2563.1760737007362
 33
0.0
 14
3425.0110426052279
 24
2063.1760737007362
 34
0.0
 50
90.0
1001
ACAD
1000
DSTYLE
1002
{
1070
   287
1070
     3
1070
   287
1070
     3
1070
     3
1000
φ<>
1070
    40
1040
20.0
1070
   143
1040
0.039
1070
   172
1070
     1
1070
   271
1070
     0
1070
   279
1070
     0
1070
   288
1070
     1
1002
}
  0
DIMENSION
  5
7C0C
  8
3
  2
*D8
 10
3361.5110426052279
 20
2772.4958967314851
 30
0.0
 11
3174.011042605227
 21
2772.4958967314851
 31
0.0
 70
   128
 13
2986.511042605227
 23
2673.1760737007362
 33
0.0
 14
3361.5110426052279
 24
2673.1760737007362
 34
0.0
1001
ACAD
1000
DSTYLE
1002
{
1070
   287
1070
     3
1070
   287
1070
     3
1070
    40
1040
20.0
1070
   143
1040
0.039
1070
   172
1070
     1
1070
   271
1070
     0
1070
   279
1070
     0
1070
   288
1070
     1
1002
}
  0
DIMENSION
  5
7C1B
  8
3
  2
*D9
 10
3174.011042605227
 20
2945.5125392597979
 30
0.0
 11
2976.5110426052279
 21
2945.5125392597979
 31
0.0
 70
   128
  1
MAX\P450
 13
2779.0110426052279
 23
2438.1760737007362
 33
0.0
 14
3174.011042605227
 24
2873.0388406757152
 34
0.0
1001
ACAD
1000
DSTYLE
1002
{
1070
   287
1070
     3
1070
   287
1070
     3
1070
    40
1040
20.0
1070
   143
1040
0.039
1070
   172
1070
     1
1070
   271
1070
     0
1070
   279
1070
     0
1070
   288
1070
     1
1002
}
  0
DIMENSION
  5
7C29
  8
3
  2
*D10
 10
3425.0110426052279
 20
2943.391953492971
 30
0.0
 11
3298.2967568909421
 21
2943.391953492971
 31
0.0
 70
   128
 13
3174.011042605227
 23
2873.0388406757152
 33
0.0
 14
3425.0110426052279
 24
2593.1760737007362
 34
0.0
1001
ACAD
1000
DSTYLE
1002
{
1070
   287
1070
     3
1070
   287
1070
     3
1070
    40
1040
20.0
1070
   143
1040
0.039
1070
   172
1070
     1
1070
   271
1070
     0
1070
   279
1070
     0
1070
   288
1070
     1
1002
}
  0
DIMENSION
  5
7C4B
  8
3
  2
*D11
 10
1976.1119424658491
 20
1813.176073700736
 30
0.0
 11
1926.1119424658491
 21
2063.1760737007371
 31
0.0
 70
     0
 13
1858.5024326492819
 23
2313.1760737007362
 33
0.0
 14
1734.717320190568
 24
1813.176073700736
 34
0.0
 50
90.0
1001
ACAD
1000
DSTYLE
1002
{
1070
   287
1070
     3
1070
   287
1070
     3
1070
    40
1040
20.0
1070
   143
1040
0.039
1070
   172
1070
     1
1070
   271
1070
     0
1070
   279
1070
     0
1070
   288
1070
     1
1002
}
  0
LINE
  5
7C76
  8
2
 10
1419.717320190568
 20
3531.0136055774151
 30
0.0
 11
1419.717320190568
 21
4344.8924724776552
 31
0.0
  0
LINE
  5
7C77
  8
2
 10
1877.995464890123
 20
2313.1760737007362
 30
0.0
 11
852.85590219056746
 21
2313.1760737007362
 31
0.0
  0
LINE
  5
7C78
  8
4
 10
3700.0
 20
1000.0
 30
0.0
 11
3700.0
 21
600.0
 31
0.0
  0
LINE
  5
7C79
  8
4
 10
2300.0
 20
1000.0
 30
0.0
 11
2300.0
 21
600.0
 31
0.0
  0
LINE
  5
7C7A
  8
4
 10
1300.0
 20
1000.0
 30
0.0
 11
1300.0
 21
600.0
 31
0.0
  0
LINE
  5
7C7D
  8
4
 10
1300.0
 20
600.0
 30
0.0
 11
3700.0
 21
600.0
 31
0.0
  0
LINE
  5
7C7E
  8
4
 10
1300.0
 20
800.0
 30
0.0
 11
3700.0
 21
800.0
 31
0.0
  0
TEXT
  5
7C7F
  8
4
 10
1377.004161999999
 20
863.08605199999977
 30
0.0
 40
100.0
  1
機器名称
  0
TEXT
  5
7C80
  8
4
 10
1372.5162119999991
 20
643.29031333333319
 30
0.0
 40
100.0
  1
機器型番
  0
TEXT
  5
7C81
  8
4
 10
2355.3574906666659
 20
845.14353799999992
 30
0.0
 40
86.666666666666657
  1
ミツヤリミットロードファン
  0
TEXT
  5
7C82
  8
4
 10
2373.308991333332
 20
634.31916866666666
 30
0.0
 40
100.0
  1
LLE#3-4
  0
TEXT
  5
7C84
  8
4
 10
1505.6858999999999
 20
4766.8576826666658
 30
0.0
 40
108.0
  1
床置防振ベット
  0
TEXT
  5
7C85
  8
4
 10
632.33518666666669
 20
5067.7619526666667
 30
0.0
 40
120.0
  1
ベルト駆動式片吸込両持排煙ファン
  0
LINE
  5
7C86
  8
4
 10
500.0
 20
4938.8175086666661
 30
0.0
 11
3700.0
 21
4938.8175086666661
 31
0.0
  0
LINE
  5
7C87
  8
4
 10
500.0
 20
5338.8175086666661
 30
0.0
 11
3700.0
 21
5338.8175086666661
 31
0.0
  0
LINE
  5
7C88
  8
4
 10
1300.0
 20
1000.0
 30
0.0
 11
3700.0
 21
1000.0
 31
0.0
  0
LINE
  5
7C89
  8
4
 10
500.0
 20
5338.8175086666661
 30
0.0
 11
500.0
 21
4938.8175086666661
 31
0.0
  0
TEXT
  5
7C8A
  8
4
 10
633.96823533333327
 20
4764.6389553333329
 30
0.0
 40
108.0
  1
右回転上向
  0
TEXT
  5
7C8B
  8
4
 10
2937.9391186666662
 20
5412.1221626666656
 30
0.0
 40
112.0
  1
No.
  0
TEXT
  5
7C8C
  8
4
 10
2622.5921253333331
 20
4766.8576826666658
 30
0.0
 40
108.0
  1
縮尺：1/20
  0
LINE
  5
7C8D
  8
4
 10
3700.0
 20
5338.8175086666661
 30
0.0
 11
3700.0
 21
4938.8175086666661
 31
0.0
  0
LINE
  5
7C8F
  8
4
 10
2881.234844666666
 20
5362.5271659999999
 30
0.0
 11
2881.234844666666
 21
5573.3045233333341
 31
0.0
  0
LINE
  5
7C90
  8
4
 10
2881.234844666666
 20
5573.3045233333341
 30
0.0
 11
3700.0
 21
5573.3045233333341
 31
0.0
  0
LINE
  5
7C91
  8
4
 10
3700.0
 20
5573.3045233333341
 30
0.0
 11
3700.0
 21
5362.5271659999999
 31
0.0
  0
LINE
  5
7C92
  8
4
 10
3700.0
 20
5362.5271659999999
 30
0.0
 11
2881.234844666666
 21
5362.5271659999999
 31
0.0
  0
LINE
  5
7D3A
  8
1
 10
1734.717320190568
 20
1888.176073700736
 30
0.0
 11
554.71732019056788
 21
1888.176073700736
 31
0.0
  0
LINE
  5
7D3B
  8
1
 10
3404.0110426052279
 20
1888.176073700736
 30
0.0
 11
2844.011042605227
 21
1888.176073700736
 31
0.0
  0
POLYLINE
  5
7D3C
  8
1
 66
     1
 10
0.0
 20
0.0
 30
0.0
  0
VERTEX
  5
814E
  8
1
 10
881.71732019056799
 20
2673.1760737007362
 30
0.0
  0
VERTEX
  5
814F
  8
1
 10
910.71732019056788
 20
2313.1760737007362
 30
0.0
 42
0.3292299652895924
  0
VERTEX
  5
8150
  8
1
 10
1279.2328908977379
 20
1888.176073700736
 30
0.0
 42
0.440232
  0
SEQEND
  5
8151
  8
1
  0
POLYLINE
  5
7D41
  8
1
 66
     1
 10
0.0
 20
0.0
 30
0.0
  0
VERTEX
  5
8152
  8
1
 10
1477.6632961062271
 20
1888.176073700736
 30
0.0
 42
0.3703681346669945
  0
VERTEX
  5
8153
  8
1
 10
1780.619387190568
 20
2311.2850797007359
 30
0.0
 42
0.388666
  0
VERTEX
  5
8154
  8
1
 10
1450.717320190568
 20
2613.3598717007362
 30
0.0
 42
0.053392
  0
VERTEX
  5
8155
  8
1
 10
1393.7173201905671
 20
2607.2557517007358
 30
0.0
 42
0.393627
  0
SEQEND
  5
8156
  8
1
  0
LINE
  5
7F1F
  8
1
 10
2902.0110426052279
 20
2381.3562895709379
 30
0.0
 11
2902.0110426052279
 21
2438.1760737007362
 31
0.0
  0
DIMENSION
  5
7F30
  8
3
  2
*D12
 10
554.7173201905681
 20
3084.2219074211812
 30
0.0
 11
1225.8808077520371
 21
3084.2219074211812
 31
0.0
 70
   128
 13
1780.4470711905669
 23
2323.1760737007362
 33
0.0
 14
554.71732019056788
 24
1888.176073700736
 34
0.0
1001
ACAD
1000
DSTYLE
1002
{
1070
   287
1070
     3
1070
   287
1070
     3
1070
    40
1040
20.0
1070
   143
1040
0.039
1070
   172
1070
     1
1070
   271
1070
     0
1070
   279
1070
     0
1070
   288
1070
     1
1002
}
  0
DIMENSION
  5
7F90
  8
3
  2
*D13
 10
1419.7173201905671
 20
1515.081918195446
 30
0.0
 11
987.21732019056788
 21
1565.081918195446
 31
0.0
 70
     0
 13
554.71732019056788
 23
1653.176073700736
 33
0.0
 14
1419.7173201905671
 24
1653.176073700736
 34
0.0
1001
ACAD
1000
DSTYLE
1002
{
1070
   287
1070
     3
1070
   287
1070
     3
1070
    40
1040
20.0
1070
   143
1040
0.039
1070
   172
1070
     1
1070
   271
1070
     0
1070
   279
1070
     0
1002
}
  0
DIMENSION
  5
7F9D
  8
3
  2
*D14
 10
1734.717320190568
 20
1515.081918195446
 30
0.0
 11
1577.217320190568
 21
1565.081918195446
 31
0.0
 70
     0
 13
1419.7173201905671
 23
1653.176073700736
 33
0.0
 14
1734.717320190568
 24
1653.176073700736
 34
0.0
1001
ACAD
1000
DSTYLE
1002
{
1070
   287
1070
     3
1070
   287
1070
     3
1070
    40
1040
20.0
1070
   143
1040
0.039
1070
   172
1070
     1
1070
   271
1070
     0
1070
   279
1070
     0
1002
}
  0
DIMENSION
  5
7FAA
  8
3
  2
*D15
 10
3174.011042605227
 20
1515.081918195446
 30
0.0
 11
3009.0110426052279
 21
1565.081918195446
 31
0.0
 70
     0
 13
2844.011042605227
 23
1653.176073700736
 33
0.0
 14
3174.011042605227
 24
1653.176073700736
 34
0.0
1001
ACAD
1000
DSTYLE
1002
{
1070
   287
1070
     3
1070
   287
1070
     3
1070
    40
1040
20.0
1070
   143
1040
0.039
1070
   172
1070
     1
1070
   271
1070
     0
1070
   279
1070
     0
1002
}
  0
DIMENSION
  5
7FB9
  8
3
  2
*D16
 10
3404.0110426052279
 20
1515.081918195446
 30
0.0
 11
3289.0110426052279
 21
1565.081918195446
 31
0.0
 70
     0
 13
3174.011042605227
 23
1653.176073700736
 33
0.0
 14
3404.0110426052279
 24
1653.176073700736
 34
0.0
1001
ACAD
1000
DSTYLE
1002
{
1070
   287
1070
     3
1070
   287
1070
     3
1070
    40
1040
20.0
1070
   143
1040
0.039
1070
   172
1070
     1
1070
   271
1070
     0
1070
   279
1070
     0
1002
}
  0
DIMENSION
  5
7FD0
  8
3
  2
*D18
 10
1977.7465871402021
 20
1653.176073700736
 30
0.0
 11
1927.746587140201
 21
1504.604645129308
 31
0.0
 70
     0
 13
1734.717320190568
 23
1718.176073700736
 33
0.0
 14
1734.717320190568
 24
1653.176073700736
 34
0.0
 50
90.0
1001
ACAD
1000
DSTYLE
1002
{
1070
   287
1070
     3
1070
   287
1070
     3
1070
    40
1040
20.0
1070
   143
1040
0.039
1070
   172
1070
     1
1070
   271
1070
     0
1070
   279
1070
     0
1070
     6
1000
DOT
1002
}
  0
DIMENSION
  5
7FDF
  8
3
  2
*D19
 10
1977.7465871402021
 20
1813.176073700736
 30
0.0
 11
2073.4608728544872
 21
1765.676073700736
 31
0.0
 70
     0
 13
1734.717320190568
 23
1718.176073700736
 33
0.0
 14
1734.717320190568
 24
1813.176073700736
 34
0.0
 50
90.0
1001
ACAD
1000
DSTYLE
1002
{
1070
   172
1070
     1
1070
    40
1040
20.0
1070
     3
1000
(<>)
1070
   271
1070
     0
1070
     6
1000
_DOT
1070
   143
1040
0.039
1002
}
  0
DIMENSION
  5
7FEC
  8
3
  2
*D20
 10
2156.9679628144399
 20
1653.176073700736
 30
0.0
 11
2091.2536771001542
 21
2163.1760737007371
 31
0.0
 70
     0
 13
1425.3173201905679
 23
2673.1760737007362
 33
0.0
 14
1734.717320190568
 24
1653.176073700736
 34
0.0
 50
90.0
1001
ACAD
1000
DSTYLE
1002
{
1070
   287
1070
     3
1070
   287
1070
     3
1070
     3
1000
(<>)
1070
    40
1040
20.0
1070
   143
1040
0.039
1070
   172
1070
     1
1070
   271
1070
     0
1070
   279
1070
     0
1002
}
  0
ENDSEC
  0
EOF
