  0
SECTION
  2
HEADER
  9
$ACADVER
  1
AC1009
  9
$INSBASE
 10
0.0
 20
0.0
 30
0.0
  9
$EXTMIN
 10
500.0
 20
600.0
 30
0.0
  9
$EXTMAX
 10
3700.0
 20
5573.3045233333341
 30
0.0
  9
$LIMMIN
 10
0.0
 20
0.0
  9
$LIMMAX
 10
297.0
 20
210.0
  9
$ORTHOMODE
 70
     0
  9
$REGENMODE
 70
     1
  9
$FILLMODE
 70
     0
  9
$QTEXTMODE
 70
     0
  9
$MIRRTEXT
 70
     1
  9
$DRAGMODE
 70
     2
  9
$LTSCALE
 40
100.0
  9
$OSMODE
 70
    37
  9
$ATTMODE
 70
     1
  9
$TEXTSIZE
 40
180.0
  9
$TRACEWID
 40
0.05
  9
$TEXTSTYLE
  7
STANDARD
  9
$CLAYER
  8
3
  9
$CELTYPE
  6
BYLAYER
  9
$CECOLOR
 62
   256
  9
$DIMSCALE
 40
20.0
  9
$DIMASZ
 40
2.0
  9
$DIMEXO
 40
0.5
  9
$DIMDLI
 40
10.0
  9
$DIMRND
 40
0.0
  9
$DIMDLE
 40
0.0
  9
$DIMEXE
 40
1.0
  9
$DIMTP
 40
1.0
  9
$DIMTM
 40
1.0
  9
$DIMTXT
 40
3.0
  9
$DIMCEN
 40
0.0
  9
$DIMTSZ
 40
0.0
  9
$DIMTOL
 70
     0
  9
$DIMLIM
 70
     0
  9
$DIMTIH
 70
     0
  9
$DIMTOH
 70
     0
  9
$DIMSE1
 70
     0
  9
$DIMSE2
 70
     0
  9
$DIMTAD
 70
     1
  9
$DIMZIN
 70
     8
  9
$DIMBLK
  1

  9
$DIMASO
 70
     1
  9
$DIMSHO
 70
     1
  9
$DIMPOST
  1
(<>)
  9
$DIMAPOST
  1

  9
$DIMALT
 70
     0
  9
$DIMALTD
 70
     2
  9
$DIMALTF
 40
0.039
  9
$DIMLFAC
 40
1.0
  9
$DIMTOFL
 70
     1
  9
$DIMTVP
 40
0.0
  9
$DIMTIX
 70
     0
  9
$DIMSOXD
 70
     0
  9
$DIMSAH
 70
     1
  9
$DIMBLK1
  1
OPEN
  9
$DIMBLK2
  1
OPEN
  9
$DIMSTYLE
  2
IGA
  9
$DIMCLRD
 70
     0
  9
$DIMCLRE
 70
     0
  9
$DIMCLRT
 70
     0
  9
$DIMTFAC
 40
10.0
  9
$DIMGAP
 40
1.0
  9
$LUNITS
 70
     2
  9
$LUPREC
 70
     3
  9
$SKETCHINC
 40
0.1
  9
$FILLETRAD
 40
50.0
  9
$AUNITS
 70
     0
  9
$AUPREC
 70
     0
  9
$MENU
  1
acad
  9
$ELEVATION
 40
0.0
  9
$PELEVATION
 40
0.0
  9
$THICKNESS
 40
0.0
  9
$LIMCHECK
 70
     0
  9
$BLIPMODE
 70
     0
  9
$CHAMFERA
 40
0.5
  9
$CHAMFERB
 40
0.5
  9
$SKPOLY
 70
     0
  9
$TDCREATE
 40
2450763.4939962961
  9
$TDUPDATE
 40
2454953.6818617941
  9
$TDINDWG
 40
0.0121169792
  9
$TDUSRTIMER
 40
0.0121169792
  9
$USRTIMER
 70
     1
  9
$ANGBASE
 50
0.0
  9
$ANGDIR
 70
     0
  9
$PDMODE
 70
     0
  9
$PDSIZE
 40
0.0
  9
$PLINEWID
 40
0.0
  9
$COORDS
 70
     1
  9
$SPLFRAME
 70
     0
  9
$SPLINETYPE
 70
     6
  9
$SPLINESEGS
 70
     8
  9
$ATTDIA
 70
     0
  9
$ATTREQ
 70
     1
  9
$HANDLING
 70
 10241
  9
$HANDSEED
  5
825B
  9
$SURFTAB1
 70
     6
  9
$SURFTAB2
 70
     6
  9
$SURFTYPE
 70
     6
  9
$SURFU
 70
     6
  9
$SURFV
 70
     6
  9
$UCSNAME
  2

  9
$UCSORG
 10
0.0
 20
0.0
 30
0.0
  9
$UCSXDIR
 10
1.0
 20
0.0
 30
0.0
  9
$UCSYDIR
 10
0.0
 20
1.0
 30
0.0
  9
$PUCSNAME
  2

  9
$PUCSORG
 10
0.0
 20
0.0
 30
0.0
  9
$PUCSXDIR
 10
1.0
 20
0.0
 30
0.0
  9
$PUCSYDIR
 10
0.0
 20
1.0
 30
0.0
  9
$USERI1
 70
     0
  9
$USERI2
 70
     0
  9
$USERI3
 70
     0
  9
$USERI4
 70
     0
  9
$USERI5
 70
     0
  9
$USERR1
 40
0.0
  9
$USERR2
 40
0.0
  9
$USERR3
 40
0.0
  9
$USERR4
 40
0.0
  9
$USERR5
 40
0.0
  9
$WORLDVIEW
 70
     1
  9
$SHADEDGE
 70
     3
  9
$SHADEDIF
 70
    70
  9
$TILEMODE
 70
     1
  9
$MAXACTVP
 70
    16
  9
$PLIMCHECK
 70
     0
  9
$PEXTMIN
 10
1.0000000000000000E+020
 20
1.0000000000000000E+020
 30
1.0000000000000000E+020
  9
$PEXTMAX
 10
-1.0000000000000000E+020
 20
-1.0000000000000000E+020
 30
-1.0000000000000000E+020
  9
$PLIMMIN
 10
0.0
 20
0.0
  9
$PLIMMAX
 10
12.0
 20
9.0
  9
$UNITMODE
 70
     0
  9
$VISRETAIN
 70
     0
  9
$PLINEGEN
 70
     0
  9
$PSLTSCALE
 70
     1
  0
ENDSEC
  0
SECTION
  2
TABLES
  0
TABLE
  2
VPORT
 70
     2
  0
VPORT
  2
*ACTIVE
 70
     0
 10
0.0
 20
0.0
 11
1.0
 21
1.0
 12
9230.2735328767594
 22
2262.3806644525071
 13
0.0
 23
0.0
 14
10.0
 24
10.0
 15
10.0
 25
10.0
 16
0.0
 26
0.0
 36
1.0
 17
0.0
 27
0.0
 37
0.0
 40
6855.9152086444683
 41
3.1666666666666661
 42
50.0
 43
0.0
 44
0.0
 50
0.0
 51
0.0
 71
     0
 72
   100
 73
     1
 74
     0
 75
     0
 76
     0
 77
     0
 78
     0
  0
ENDTAB
  0
TABLE
  2
LTYPE
 70
     2
  0
LTYPE
  2
CONTINUOUS
 70
     0
  3
Solid line
 72
    65
 73
     0
 40
0.0
  0
LTYPE
  2
CENTER
 70
     0
  3
____ _ ____ _ ____ _ ____ _ ____ _ ____ _ ____ 
 72
    65
 73
     4
 40
2.0
 49
1.25
 49
-0.25
 49
0.25
 49
-0.25
  0
ENDTAB
  0
TABLE
  2
LAYER
 70
     6
  0
LAYER
  2
0
 70
     0
 62
     7
  6
CONTINUOUS
  0
LAYER
  2
3
 70
     0
 62
     2
  6
CONTINUOUS
  0
LAYER
  2
2
 70
     0
 62
     3
  6
CENTER
  0
LAYER
  2
1
 70
     0
 62
     4
  6
CONTINUOUS
  0
LAYER
  2
4
 70
     0
 62
     7
  6
CONTINUOUS
  0
LAYER
  2
DEFPOINTS
 70
     0
 62
     7
  6
CONTINUOUS
  0
ENDTAB
  0
TABLE
  2
STYLE
 70
     1
  0
STYLE
  2
STANDARD
 70
     0
 40
0.0
 41
1.0
 50
0.0
 71
     0
 42
180.0
  3
simplex.shx
  4
extfont.shx
  0
ENDTAB
  0
TABLE
  2
VIEW
 70
     0
  0
ENDTAB
  0
TABLE
  2
UCS
 70
     0
  0
ENDTAB
  0
TABLE
  2
APPID
 70
     1
  0
APPID
  2
ACAD
 70
     0
  0
ENDTAB
  0
TABLE
  2
DIMSTYLE
 70
     1
  0
DIMSTYLE
  2
IGA
 70
     0
  3

  4

  5

  6
OPEN
  7
OPEN
 40
2.0
 41
2.0
 42
0.5
 43
10.0
 44
1.0
 45
0.0
 46
0.0
 47
1.0
 48
1.0
140
3.0
141
0.0
142
0.0
143
0.03937
144
1.0
145
0.0
146
10.0
147
1.0
 71
     0
 72
     0
 73
     0
 74
     0
 75
     0
 76
     0
 77
     1
 78
     8
170
     0
171
     2
172
     0
173
     1
174
     0
175
     0
176
     0
177
     0
178
     0
  0
ENDTAB
  0
ENDSEC
  0
SECTION
  2
BLOCKS
  0
BLOCK
  8
0
  2
$MODEL_SPACE
 70
     0
 10
0.0
 20
0.0
 30
0.0
  3
$MODEL_SPACE
  1

  0
ENDBLK
  5
1B
  8
0
  0
BLOCK
 67
     1
  8
0
  2
$PAPER_SPACE
 70
     0
 10
0.0
 20
0.0
 30
0.0
  3
$PAPER_SPACE
  1

  0
ENDBLK
  5
18
 67
     1
  8
0
  0
BLOCK
  8
0
  2
_OPEN
 70
     0
 10
0.0
 20
0.0
 30
0.0
  3
_OPEN
  1

  0
LINE
  5
7B25
  8
0
  6
BYBLOCK
 62
     0
 10
-1.0
 20
0.166667
 30
0.0
 11
0.0
 21
0.0
 31
0.0
  0
LINE
  5
7B26
  8
0
  6
BYBLOCK
 62
     0
 10
0.0
 20
0.0
 30
0.0
 11
-1.0
 21
-0.166667
 31
0.0
  0
LINE
  5
7B27
  8
0
  6
BYBLOCK
 62
     0
 10
0.0
 20
0.0
 30
0.0
 11
-1.0
 21
0.0
 31
0.0
  0
ENDBLK
  5
7B28
  8
0
  0
BLOCK
  8
0
  2
*D1
 70
     1
 10
0.0
 20
0.0
 30
0.0
  3
*D1
  1

  0
LINE
  5
81A1
  8
3
 62
     0
 10
1567.190833974917
 20
2310.309105582317
 30
0.0
 11
2180.7510539749169
 21
2310.309105582317
 31
0.0
  0
LINE
  5
81A2
  8
3
 62
     0
 10
1923.190833974917
 20
1810.3091055823161
 30
0.0
 11
2180.7510539749169
 21
1810.3091055823161
 31
0.0
  0
LINE
  5
81A3
  8
3
 62
     0
 10
2160.7510539749169
 20
2270.3091055823161
 30
0.0
 11
2160.7510539749169
 21
1850.3091055823161
 31
0.0
  0
INSERT
  5
81A4
  8
3
 62
     0
  2
_OPEN
 10
2160.7510539749169
 20
2310.309105582317
 30
0.0
 41
40.0
 42
40.0
 43
40.0
 50
90.0
  0
INSERT
  5
81A5
  8
3
 62
     0
  2
_OPEN
 10
2160.7510539749169
 20
1810.3091055823161
 30
0.0
 41
40.0
 42
40.0
 43
40.0
 50
270.0
  0
TEXT
  8
3
  40
60
  5
8248
  62
0
  72
0
  71
0
 10
1990.75
 20
1954.11
 30
0.000000
  1
500
  0
POINT
  5
81A7
  8
DEFPOINTS
 62
     0
 10
1557.190833974917
 20
2310.309105582317
 30
0.0
  0
POINT
  5
81A8
  8
DEFPOINTS
 62
     0
 10
1913.190833974917
 20
1810.3091055823161
 30
0.0
  0
POINT
  5
81A9
  8
DEFPOINTS
 62
     0
 10
2160.7510539749169
 20
1810.3091055823161
 30
0.0
  0
ENDBLK
  5
7E24
  8
0
  0
BLOCK
  8
0
  2
*D2
 70
     1
 10
0.0
 20
0.0
 30
0.0
  3
*D2
  1

  0
LINE
  5
81AA
  8
3
 62
     0
 10
1074.190833974917
 20
2680.309105582317
 30
0.0
 11
1074.190833974917
 21
2831.2751585823162
 31
0.0
  0
LINE
  5
81AB
  8
3
 62
     0
 10
1586.190833974917
 20
2680.309105582317
 30
0.0
 11
1586.190833974917
 21
2831.2751585823162
 31
0.0
  0
LINE
  5
81AC
  8
3
 62
     0
 10
1114.190833974917
 20
2811.2751585823162
 30
0.0
 11
1546.190833974917
 21
2811.2751585823162
 31
0.0
  0
INSERT
  5
81AD
  8
3
 62
     0
  2
_OPEN
 10
1074.190833974917
 20
2811.2751585823162
 30
0.0
 41
40.0
 42
40.0
 43
40.0
 50
180.0
  0
INSERT
  5
81AE
  8
3
 62
     0
  2
_OPEN
 10
1586.190833974917
 20
2811.2751585823162
 30
0.0
 41
40.0
 42
40.0
 43
40.0
  0
TEXT
  8
3
  40
60
  5
8249
  62
0
  72
0
  71
0
 10
1204.93
 20
2755.08
 30
0.000000
  1
512
  0
POINT
  5
81B0
  8
DEFPOINTS
 62
     0
 10
1074.190833974917
 20
2670.309105582317
 30
0.0
  0
POINT
  5
81B1
  8
DEFPOINTS
 62
     0
 10
1586.190833974917
 20
2670.309105582317
 30
0.0
  0
POINT
  5
81B2
  8
DEFPOINTS
 62
     0
 10
1586.190833974917
 20
2811.2751585823162
 30
0.0
  0
ENDBLK
  5
7E01
  8
0
  0
BLOCK
  8
0
  2
*D3
 70
     1
 10
0.0
 20
0.0
 30
0.0
  3
*D3
  1

  0
LINE
  5
81B3
  8
3
 62
     0
 10
1586.190833974917
 20
2680.309105582317
 30
0.0
 11
1586.190833974917
 21
2948.5191525786108
 31
0.0
  0
LINE
  5
81B4
  8
3
 62
     0
 10
1048.190833974917
 20
2618.7019115823159
 30
0.0
 11
1048.190833974917
 21
2948.5191525786108
 31
0.0
  0
LINE
  5
81B5
  8
3
 62
     0
 10
1546.190833974917
 20
2928.5191525786108
 30
0.0
 11
1088.190833974917
 21
2928.5191525786108
 31
0.0
  0
INSERT
  5
81B6
  8
3
 62
     0
  2
_OPEN
 10
1586.190833974917
 20
2928.5191525786108
 30
0.0
 41
40.0
 42
40.0
 43
40.0
  0
INSERT
  5
81B7
  8
3
 62
     0
  2
_OPEN
 10
1048.190833974917
 20
2928.5191525786108
 30
0.0
 41
40.0
 42
40.0
 43
40.0
 50
180.0
  0
TEXT
  8
3
  40
60
  5
824A
  62
0
  72
0
  71
0
 10
1216.49
 20
2872.32
 30
0.000000
  1
538
  0
POINT
  5
81B9
  8
DEFPOINTS
 62
     0
 10
1586.190833974917
 20
2670.309105582317
 30
0.0
  0
POINT
  5
81BA
  8
DEFPOINTS
 62
     0
 10
1048.190833974917
 20
2608.7019115823159
 30
0.0
  0
POINT
  5
81BB
  8
DEFPOINTS
 62
     0
 10
1048.190833974917
 20
2928.5191525786108
 30
0.0
  0
ENDBLK
  5
7EBE
  8
0
  0
BLOCK
  8
0
  2
*D4
 70
     1
 10
0.0
 20
0.0
 30
0.0
  3
*D4
  1

  0
LINE
  5
81BC
  8
3
 62
     0
 10
1048.190833974917
 20
2618.7019115823159
 30
0.0
 11
1048.190833974917
 21
2951.3601375786102
 31
0.0
  0
LINE
  5
81BD
  8
3
 62
     0
 10
687.28876697491796
 20
2318.4181115823162
 30
0.0
 11
687.28876697491796
 21
2951.3601375786102
 31
0.0
  0
LINE
  5
81BE
  8
3
 62
     0
 10
1008.190833974917
 20
2931.3601375786102
 30
0.0
 11
727.28876697491785
 21
2931.3601375786102
 31
0.0
  0
INSERT
  5
81BF
  8
3
 62
     0
  2
_OPEN
 10
1048.190833974917
 20
2931.3601375786102
 30
0.0
 41
40.0
 42
40.0
 43
40.0
  0
INSERT
  5
81C0
  8
3
 62
     0
  2
_OPEN
 10
687.28876697491796
 20
2931.3601375786102
 30
0.0
 41
40.0
 42
40.0
 43
40.0
 50
180.0
  0
TEXT
  8
3
  40
60
  5
824B
  62
0
  72
0
  71
0
 10
753.088
 20
2875.16
 30
0.000000
  1
361
  0
POINT
  5
81C2
  8
DEFPOINTS
 62
     0
 10
1048.190833974917
 20
2608.7019115823159
 30
0.0
  0
POINT
  5
81C3
  8
DEFPOINTS
 62
     0
 10
687.28876697491796
 20
2308.4181115823162
 30
0.0
  0
POINT
  5
81C4
  8
DEFPOINTS
 62
     0
 10
687.28876697491796
 20
2931.3601375786102
 30
0.0
  0
ENDBLK
  5
7EB3
  8
0
  0
BLOCK
  8
0
  2
*D5
 70
     1
 10
0.0
 20
0.0
 30
0.0
  3
*D5
  1

  0
LINE
  5
81C5
  8
3
 62
     0
 10
733.19083397491704
 20
3797.2280505287408
 30
0.0
 11
733.19083397491704
 21
3451.1436855287411
 31
0.0
  0
LINE
  5
81C6
  8
3
 62
     0
 10
1913.190833974917
 20
3797.2280505287408
 30
0.0
 11
1913.190833974917
 21
3451.1436855287411
 31
0.0
  0
LINE
  5
81C7
  8
3
 62
     0
 10
773.19083397491704
 20
3471.1436855287402
 30
0.0
 11
1873.190833974917
 21
3471.1436855287402
 31
0.0
  0
INSERT
  5
81C8
  8
3
 62
     0
  2
_OPEN
 10
733.19083397491704
 20
3471.1436855287402
 30
0.0
 41
40.0
 42
40.0
 43
40.0
 50
180.0
  0
INSERT
  5
81C9
  8
3
 62
     0
  2
_OPEN
 10
1913.190833974917
 20
3471.1436855287402
 30
0.0
 41
40.0
 42
40.0
 43
40.0
  0
TEXT
  8
3
  40
60
  5
824C
  62
0
  72
0
  71
0
 10
1196.40
 20
3414.94
 30
0.000000
  1
1180
  0
POINT
  5
81CB
  8
DEFPOINTS
 62
     0
 10
733.19083397491704
 20
3807.2280505287422
 30
0.0
  0
POINT
  5
81CC
  8
DEFPOINTS
 62
     0
 10
1913.190833974917
 20
3807.2280505287422
 30
0.0
  0
POINT
  5
81CD
  8
DEFPOINTS
 62
     0
 10
1913.190833974917
 20
3471.1436855287402
 30
0.0
  0
ENDBLK
  5
7DE0
  8
0
  0
BLOCK
  8
0
  2
*D6
 70
     1
 10
0.0
 20
0.0
 30
0.0
  3
*D6
  1

  0
LINE
  5
81CE
  8
3
 62
     0
 10
1923.190833974917
 20
4367.2280505287408
 30
0.0
 11
2197.8087299749182
 21
4367.2280505287408
 31
0.0
  0
LINE
  5
81CF
  8
3
 62
     0
 10
1923.190833974917
 20
3807.2280505287422
 30
0.0
 11
2197.8087299749182
 21
3807.2280505287422
 31
0.0
  0
LINE
  5
81D0
  8
3
 62
     0
 10
2177.8087299749182
 20
4327.2280505287408
 30
0.0
 11
2177.8087299749182
 21
3847.2280505287408
 31
0.0
  0
INSERT
  5
81D1
  8
3
 62
     0
  2
_OPEN
 10
2177.8087299749182
 20
4367.2280505287408
 30
0.0
 41
40.0
 42
40.0
 43
40.0
 50
90.0
  0
INSERT
  5
81D2
  8
3
 62
     0
  2
_OPEN
 10
2177.8087299749182
 20
3807.2280505287422
 30
0.0
 41
40.0
 42
40.0
 43
40.0
 50
270.0
  0
TEXT
  8
3
  40
60
  5
824D
  62
0
  72
0
  71
0
 10
2007.81
 20
4010.70
 30
0.000000
  1
560
  0
POINT
  5
81D4
  8
DEFPOINTS
 62
     0
 10
1913.190833974917
 20
4367.2280505287408
 30
0.0
  0
POINT
  5
81D5
  8
DEFPOINTS
 62
     0
 10
1913.190833974917
 20
3807.2280505287422
 30
0.0
  0
POINT
  5
81D6
  8
DEFPOINTS
 62
     0
 10
2177.8087299749182
 20
3807.2280505287422
 30
0.0
  0
ENDBLK
  5
7DD5
  8
0
  0
BLOCK
  8
0
  2
*D7
 70
     1
 10
0.0
 20
0.0
 30
0.0
  3
*D7
  1

  0
LINE
  5
81D7
  8
3
 62
     0
 10
3440.3223188090928
 20
2560.309105582317
 30
0.0
 11
3618.0735318652082
 21
2560.309105582317
 31
0.0
  0
LINE
  5
81D8
  8
3
 62
     0
 10
3440.3223188090928
 20
2060.309105582317
 30
0.0
 11
3618.0735318652082
 21
2060.309105582317
 31
0.0
  0
LINE
  5
81D9
  8
3
 62
     0
 10
3598.0735318652082
 20
2520.309105582317
 30
0.0
 11
3598.0735318652082
 21
2100.3091055823161
 31
0.0
  0
INSERT
  5
81DA
  8
3
 62
     0
  2
_OPEN
 10
3598.0735318652082
 20
2560.309105582317
 30
0.0
 41
40.0
 42
40.0
 43
40.0
 50
90.0
  0
INSERT
  5
81DB
  8
3
 62
     0
  2
_OPEN
 10
3598.0735318652082
 20
2060.309105582317
 30
0.0
 41
40.0
 42
40.0
 43
40.0
 50
270.0
  0
TEXT
  8
3
  40
60
  5
824E
  62
0
  72
0
  71
0
 10
3428.07
 20
2204.11
 30
0.000000
  1
φ500
  0
POINT
  5
81DD
  8
DEFPOINTS
 62
     0
 10
3430.3223188090928
 20
2560.309105582317
 30
0.0
  0
POINT
  5
81DE
  8
DEFPOINTS
 62
     0
 10
3430.3223188090928
 20
2060.309105582317
 30
0.0
  0
POINT
  5
81DF
  8
DEFPOINTS
 62
     0
 10
3598.0735318652082
 20
2060.309105582317
 30
0.0
  0
ENDBLK
  5
7E92
  8
0
  0
BLOCK
  8
0
  2
*D8
 70
     1
 10
0.0
 20
0.0
 30
0.0
  3
*D8
  1

  0
LINE
  5
81E0
  8
3
 62
     0
 10
2991.8223188090928
 20
2680.309105582317
 30
0.0
 11
2991.8223188090928
 21
2789.4812632868739
 31
0.0
  0
LINE
  5
81E1
  8
3
 62
     0
 10
3366.8223188090928
 20
2680.309105582317
 30
0.0
 11
3366.8223188090928
 21
2789.4812632868739
 31
0.0
  0
LINE
  5
81E2
  8
3
 62
     0
 10
3031.8223188090928
 20
2769.4812632868739
 30
0.0
 11
3326.8223188090928
 21
2769.4812632868739
 31
0.0
  0
INSERT
  5
81E3
  8
3
 62
     0
  2
_OPEN
 10
2991.8223188090928
 20
2769.4812632868739
 30
0.0
 41
40.0
 42
40.0
 43
40.0
 50
180.0
  0
INSERT
  5
81E4
  8
3
 62
     0
  2
_OPEN
 10
3366.8223188090928
 20
2769.4812632868739
 30
0.0
 41
40.0
 42
40.0
 43
40.0
  0
TEXT
  8
3
  40
60
  5
824F
  62
0
  72
0
  71
0
 10
3059.32
 20
2713.28
 30
0.000000
  1
375
  0
POINT
  5
81E6
  8
DEFPOINTS
 62
     0
 10
2991.8223188090928
 20
2670.309105582317
 30
0.0
  0
POINT
  5
81E7
  8
DEFPOINTS
 62
     0
 10
3366.8223188090928
 20
2670.309105582317
 30
0.0
  0
POINT
  5
81E8
  8
DEFPOINTS
 62
     0
 10
3366.8223188090928
 20
2769.4812632868739
 30
0.0
  0
ENDBLK
  5
7F19
  8
0
  0
BLOCK
  8
0
  2
*D9
 70
     1
 10
0.0
 20
0.0
 30
0.0
  3
*D9
  1

  0
LINE
  5
81E9
  8
3
 62
     0
 10
2769.3223188090928
 20
2445.309105582317
 30
0.0
 11
2769.3223188090928
 21
2938.8750454177489
 31
0.0
  0
LINE
  5
81EA
  8
3
 62
     0
 10
3179.3223188090928
 20
2874.9403655551359
 30
0.0
 11
3179.3223188090928
 21
2938.8750454177489
 31
0.0
  0
LINE
  5
81EB
  8
3
 62
     0
 10
2809.3223188090928
 20
2918.8750454177489
 30
0.0
 11
3139.3223188090928
 21
2918.8750454177489
 31
0.0
  0
INSERT
  5
81EC
  8
3
 62
     0
  2
_OPEN
 10
2769.3223188090928
 20
2918.8750454177489
 30
0.0
 41
40.0
 42
40.0
 43
40.0
 50
180.0
  0
INSERT
  5
81ED
  8
3
 62
     0
  2
_OPEN
 10
3179.3223188090928
 20
2918.8750454177489
 30
0.0
 41
40.0
 42
40.0
 43
40.0
  0
TEXT
  8
3
  40
60
  5
8250
  62
0
  72
0
  71
0
 10
2862.18
 20
2912.68
 30
0.000000
  1
MAX
  0
TEXT
  8
3
  40
60
  5
8251
  62
0
  72
0
  71
0
 10
2862.18
 20
2834.68
 30
0.000000
  1
450
  0
POINT
  5
81EF
  8
DEFPOINTS
 62
     0
 10
2769.3223188090928
 20
2435.309105582317
 30
0.0
  0
POINT
  5
81F0
  8
DEFPOINTS
 62
     0
 10
3179.3223188090928
 20
2864.9403655551359
 30
0.0
  0
POINT
  5
81F1
  8
DEFPOINTS
 62
     0
 10
3179.3223188090928
 20
2918.8750454177489
 30
0.0
  0
ENDBLK
  5
7F03
  8
0
  0
BLOCK
  8
0
  2
*D10
 70
     1
 10
0.0
 20
0.0
 30
0.0
  3
*D10
  1

  0
LINE
  5
81F2
  8
3
 62
     0
 10
3179.3223188090928
 20
2879.6571299683492
 30
0.0
 11
3179.3223188090928
 21
2938.8750454177489
 31
0.0
  0
LINE
  5
81F3
  8
3
 62
     0
 10
3430.3223188090928
 20
2600.309105582317
 30
0.0
 11
3430.3223188090928
 21
2938.8750454177489
 31
0.0
  0
LINE
  5
81F4
  8
3
 62
     0
 10
3219.3223188090928
 20
2918.8750454177489
 30
0.0
 11
3390.3223188090928
 21
2918.8750454177489
 31
0.0
  0
INSERT
  5
81F5
  8
3
 62
     0
  2
_OPEN
 10
3179.3223188090928
 20
2918.8750454177489
 30
0.0
 41
40.0
 42
40.0
 43
40.0
 50
180.0
  0
INSERT
  5
81F6
  8
3
 62
     0
  2
_OPEN
 10
3430.3223188090928
 20
2918.8750454177489
 30
0.0
 41
40.0
 42
40.0
 43
40.0
  0
TEXT
  8
3
  40
60
  5
8252
  62
0
  72
0
  71
0
 10
3183.61
 20
2862.68
 30
0.000000
  1
251
  0
POINT
  5
81F8
  8
DEFPOINTS
 62
     0
 10
3179.3223188090928
 20
2869.6571299683492
 30
0.0
  0
POINT
  5
81F9
  8
DEFPOINTS
 62
     0
 10
3430.3223188090928
 20
2590.309105582317
 30
0.0
  0
POINT
  5
81FA
  8
DEFPOINTS
 62
     0
 10
3430.3223188090928
 20
2918.8750454177489
 30
0.0
  0
ENDBLK
  5
7F3F
  8
0
  0
BLOCK
  8
0
  2
*D11
 70
     1
 10
0.0
 20
0.0
 30
0.0
  3
*D11
  1

  0
LINE
  5
81FB
  8
3
 62
     0
 10
687.28876697491796
 20
2328.4181115823162
 30
0.0
 11
687.28876697491796
 21
3075.935183115098
 31
0.0
  0
LINE
  5
81FC
  8
3
 62
     0
 10
1913.190833974917
 20
1895.3091055823161
 30
0.0
 11
1913.190833974917
 21
3075.935183115098
 31
0.0
  0
LINE
  5
81FD
  8
3
 62
     0
 10
727.28876697491785
 20
3055.935183115098
 30
0.0
 11
1873.190833974917
 21
3055.935183115098
 31
0.0
  0
INSERT
  5
81FE
  8
3
 62
     0
  2
_OPEN
 10
687.28876697491796
 20
3055.935183115098
 30
0.0
 41
40.0
 42
40.0
 43
40.0
 50
180.0
  0
INSERT
  5
81FF
  8
3
 62
     0
  2
_OPEN
 10
1913.190833974917
 20
3055.935183115098
 30
0.0
 41
40.0
 42
40.0
 43
40.0
  0
TEXT
  8
3
  40
60
  5
8253
  62
0
  72
0
  71
0
 10
1287.55
 20
2999.74
 30
0.000000
  1
1226
  0
POINT
  5
8201
  8
DEFPOINTS
 62
     0
 10
687.28876697491796
 20
2318.4181115823162
 30
0.0
  0
POINT
  5
8202
  8
DEFPOINTS
 62
     0
 10
1913.190833974917
 20
1885.3091055823161
 30
0.0
  0
POINT
  5
8203
  8
DEFPOINTS
 62
     0
 10
1913.190833974917
 20
3055.935183115098
 30
0.0
  0
ENDBLK
  5
7ECA
  8
0
  0
BLOCK
  8
0
  2
*D12
 70
     1
 10
0.0
 20
0.0
 30
0.0
  3
*D12
  1

  0
LINE
  5
8204
  8
3
 62
     0
 10
733.19083397491704
 20
1640.3091055823161
 30
0.0
 11
733.19083397491704
 21
1498.1088844830681
 31
0.0
  0
LINE
  5
8205
  8
3
 62
     0
 10
1048.1908339749159
 20
1640.3091055823161
 30
0.0
 11
1048.1908339749159
 21
1498.1088844830681
 31
0.0
  0
LINE
  5
8206
  8
3
 62
     0
 10
773.19083397491704
 20
1518.1088844830681
 30
0.0
 11
1008.190833974916
 21
1518.1088844830681
 31
0.0
  0
INSERT
  5
8207
  8
3
 62
     0
  2
_OPEN
 10
733.19083397491704
 20
1518.1088844830681
 30
0.0
 41
40.0
 42
40.0
 43
40.0
 50
180.0
  0
INSERT
  5
8208
  8
3
 62
     0
  2
_OPEN
 10
1048.1908339749159
 20
1518.1088844830681
 30
0.0
 41
40.0
 42
40.0
 43
40.0
  0
TEXT
  8
3
  40
60
  5
8254
  62
0
  72
0
  71
0
 10
770.691
 20
1461.91
 30
0.000000
  1
315
  0
POINT
  5
820A
  8
DEFPOINTS
 62
     0
 10
733.19083397491704
 20
1650.3091055823161
 30
0.0
  0
POINT
  5
820B
  8
DEFPOINTS
 62
     0
 10
1048.1908339749159
 20
1650.3091055823161
 30
0.0
  0
POINT
  5
820C
  8
DEFPOINTS
 62
     0
 10
1048.1908339749159
 20
1518.1088844830681
 30
0.0
  0
ENDBLK
  5
7F57
  8
0
  0
BLOCK
  8
0
  2
*D13
 70
     1
 10
0.0
 20
0.0
 30
0.0
  3
*D13
  1

  0
LINE
  5
820D
  8
3
 62
     0
 10
1048.1908339749159
 20
1640.3091055823161
 30
0.0
 11
1048.1908339749159
 21
1498.1088844830681
 31
0.0
  0
LINE
  5
820E
  8
3
 62
     0
 10
1913.190833974917
 20
1640.3091055823161
 30
0.0
 11
1913.190833974917
 21
1498.1088844830681
 31
0.0
  0
LINE
  5
820F
  8
3
 62
     0
 10
1088.1908339749159
 20
1518.1088844830681
 30
0.0
 11
1873.190833974917
 21
1518.1088844830681
 31
0.0
  0
INSERT
  5
8210
  8
3
 62
     0
  2
_OPEN
 10
1048.1908339749159
 20
1518.1088844830681
 30
0.0
 41
40.0
 42
40.0
 43
40.0
 50
180.0
  0
INSERT
  5
8211
  8
3
 62
     0
  2
_OPEN
 10
1913.190833974917
 20
1518.1088844830681
 30
0.0
 41
40.0
 42
40.0
 43
40.0
  0
TEXT
  8
3
  40
60
  5
8255
  62
0
  72
0
  71
0
 10
1360.69
 20
1461.91
 30
0.000000
  1
865
  0
POINT
  5
8213
  8
DEFPOINTS
 62
     0
 10
1048.1908339749159
 20
1650.3091055823161
 30
0.0
  0
POINT
  5
8214
  8
DEFPOINTS
 62
     0
 10
1913.190833974917
 20
1650.3091055823161
 30
0.0
  0
POINT
  5
8215
  8
DEFPOINTS
 62
     0
 10
1913.190833974917
 20
1518.1088844830681
 30
0.0
  0
ENDBLK
  5
7F64
  8
0
  0
BLOCK
  8
0
  2
*D14
 70
     1
 10
0.0
 20
0.0
 30
0.0
  3
*D14
  1

  0
LINE
  5
8216
  8
3
 62
     0
 10
2849.3223188090928
 20
1640.3091055823161
 30
0.0
 11
2849.3223188090928
 21
1498.1088844830681
 31
0.0
  0
LINE
  5
8217
  8
3
 62
     0
 10
3179.3223188090928
 20
1640.3091055823161
 30
0.0
 11
3179.3223188090928
 21
1498.1088844830681
 31
0.0
  0
LINE
  5
8218
  8
3
 62
     0
 10
2889.3223188090928
 20
1518.1088844830681
 30
0.0
 11
3139.3223188090919
 21
1518.1088844830681
 31
0.0
  0
INSERT
  5
8219
  8
3
 62
     0
  2
_OPEN
 10
2849.3223188090928
 20
1518.1088844830681
 30
0.0
 41
40.0
 42
40.0
 43
40.0
 50
180.0
  0
INSERT
  5
821A
  8
3
 62
     0
  2
_OPEN
 10
3179.3223188090928
 20
1518.1088844830681
 30
0.0
 41
40.0
 42
40.0
 43
40.0
  0
TEXT
  8
3
  40
60
  5
8256
  62
0
  72
0
  71
0
 10
2894.32
 20
1461.91
 30
0.000000
  1
330
  0
POINT
  5
821C
  8
DEFPOINTS
 62
     0
 10
2849.3223188090928
 20
1650.3091055823161
 30
0.0
  0
POINT
  5
821D
  8
DEFPOINTS
 62
     0
 10
3179.3223188090928
 20
1650.3091055823161
 30
0.0
  0
POINT
  5
821E
  8
DEFPOINTS
 62
     0
 10
3179.3223188090928
 20
1518.1088844830681
 30
0.0
  0
ENDBLK
  5
7F71
  8
0
  0
BLOCK
  8
0
  2
*D15
 70
     1
 10
0.0
 20
0.0
 30
0.0
  3
*D15
  1

  0
LINE
  5
821F
  8
3
 62
     0
 10
3179.3223188090928
 20
1640.3091055823161
 30
0.0
 11
3179.3223188090928
 21
1498.1088844830681
 31
0.0
  0
LINE
  5
8220
  8
3
 62
     0
 10
3409.3223188090928
 20
1640.3091055823161
 30
0.0
 11
3409.3223188090928
 21
1498.1088844830681
 31
0.0
  0
LINE
  5
8221
  8
3
 62
     0
 10
3219.3223188090919
 20
1518.1088844830681
 30
0.0
 11
3369.3223188090928
 21
1518.1088844830681
 31
0.0
  0
INSERT
  5
8222
  8
3
 62
     0
  2
_OPEN
 10
3179.3223188090928
 20
1518.1088844830681
 30
0.0
 41
40.0
 42
40.0
 43
40.0
 50
180.0
  0
INSERT
  5
8223
  8
3
 62
     0
  2
_OPEN
 10
3409.3223188090928
 20
1518.1088844830681
 30
0.0
 41
40.0
 42
40.0
 43
40.0
  0
TEXT
  8
3
  40
60
  5
8257
  62
0
  72
0
  71
0
 10
3174.32
 20
1461.91
 30
0.000000
  1
230
  0
POINT
  5
8225
  8
DEFPOINTS
 62
     0
 10
3179.3223188090928
 20
1650.3091055823161
 30
0.0
  0
POINT
  5
8226
  8
DEFPOINTS
 62
     0
 10
3409.3223188090928
 20
1650.3091055823161
 30
0.0
  0
POINT
  5
8227
  8
DEFPOINTS
 62
     0
 10
3409.3223188090928
 20
1518.1088844830681
 30
0.0
  0
ENDBLK
  5
7F80
  8
0
  0
BLOCK
  8
0
  2
_DOT
 70
     0
 10
0.0
 20
0.0
 30
0.0
  3
_DOT
  1

  0
POLYLINE
  5
7F84
  8
0
  6
BYBLOCK
 62
     0
 66
     1
 10
0.0
 20
0.0
 30
0.0
 70
     1
 40
0.5
 41
0.5
  0
VERTEX
  5
8228
  8
0
  6
BYBLOCK
 62
     0
 10
-0.25
 20
0.0
 30
0.0
 42
1.0
  0
VERTEX
  5
8229
  8
0
  6
BYBLOCK
 62
     0
 10
0.25
 20
0.0
 30
0.0
 42
1.0
  0
SEQEND
  5
822A
  8
0
  6
BYBLOCK
 62
     0
  0
LINE
  5
7F88
  8
0
  6
BYBLOCK
 62
     0
 10
-0.5
 20
0.0
 30
0.0
 11
-1.0
 21
0.0
 31
0.0
  0
ENDBLK
  5
7F89
  8
0
  0
BLOCK
  8
0
  2
*D17
 70
     1
 10
0.0
 20
0.0
 30
0.0
  3
*D17
  1

  0
LINE
  5
822B
  8
3
 62
     0
 10
1923.190833974917
 20
1715.3091055823161
 30
0.0
 11
2179.9588420743271
 21
1715.3091055823161
 31
0.0
  0
LINE
  5
822C
  8
3
 62
     0
 10
1923.190833974917
 20
1650.3091055823161
 30
0.0
 11
2179.9588420743271
 21
1650.3091055823161
 31
0.0
  0
LINE
  5
822D
  8
3
 62
     0
 10
2159.9588420743271
 20
1755.3091055823161
 30
0.0
 11
2159.9588420743271
 21
1795.3091055823161
 31
0.0
  0
LINE
  5
822E
  8
3
 62
     0
 10
2159.9588420743271
 20
1610.3091055823161
 30
0.0
 11
2159.9588420743271
 21
1433.166248439459
 31
0.0
  0
LINE
  5
822F
  8
3
 62
     0
 10
2159.9588420743271
 20
1715.3091055823161
 30
0.0
 11
2159.9588420743271
 21
1650.3091055823161
 31
0.0
  0
INSERT
  5
8230
  8
3
 62
     0
  2
_DOT
 10
2159.9588420743271
 20
1715.3091055823161
 30
0.0
 41
40.0
 42
40.0
 43
40.0
 50
270.0
  0
INSERT
  5
8231
  8
3
 62
     0
  2
_OPEN
 10
2159.9588420743271
 20
1650.3091055823161
 30
0.0
 41
40.0
 42
40.0
 43
40.0
 50
90.0
  0
TEXT
  8
3
  40
60
  5
8258
  62
0
  72
0
  71
0
 10
1989.96
 20
1395.54
 30
0.000000
  1
65
  0
POINT
  5
8233
  8
DEFPOINTS
 62
     0
 10
1913.190833974917
 20
1715.3091055823161
 30
0.0
  0
POINT
  5
8234
  8
DEFPOINTS
 62
     0
 10
1913.190833974917
 20
1650.3091055823161
 30
0.0
  0
POINT
  5
8235
  8
DEFPOINTS
 62
     0
 10
2159.9588420743271
 20
1650.3091055823161
 30
0.0
  0
ENDBLK
  5
7F97
  8
0
  0
BLOCK
  8
0
  2
*D18
 70
     1
 10
0.0
 20
0.0
 30
0.0
  3
*D18
  1

  0
LINE
  5
7F9B
  8
0
  6
BYBLOCK
 62
     0
 10
1923.190833974917
 20
1715.3091055823161
 30
0.0
 11
2179.9588420743271
 21
1715.3091055823161
 31
0.0
  0
LINE
  5
7F9C
  8
0
  6
BYBLOCK
 62
     0
 10
1923.190833974917
 20
1810.3091055823161
 30
0.0
 11
2179.9588420743271
 21
1810.3091055823161
 31
0.0
  0
LINE
  5
7F9D
  8
0
  6
BYBLOCK
 62
     0
 10
2159.9588420743271
 20
1675.3091055823161
 30
0.0
 11
2159.9588420743271
 21
1635.3091055823161
 31
0.0
  0
LINE
  5
7F9E
  8
0
  6
BYBLOCK
 62
     0
 10
2159.9588420743271
 20
1850.3091055823161
 30
0.0
 11
2159.9588420743271
 21
1890.3091055823161
 31
0.0
  0
TEXT
  5
7F9F
  8
3
 62
     0
 10
2275.6731277886129
 20
1675.666248439459
 30
0.0
 40
60.0
  1
(95)
 50
90.0
  0
LINE
  5
7FA0
  8
0
  6
BYBLOCK
 62
     0
 10
2159.9588420743271
 20
1715.3091055823161
 30
0.0
 11
2159.9588420743271
 21
1810.3091055823161
 31
0.0
  0
INSERT
  5
7FA1
  8
0
  6
BYBLOCK
 62
     0
  2
_DOT
 10
2159.9588420743271
 20
1715.3091055823161
 30
0.0
 41
40.0
 42
40.0
 43
40.0
 50
90.0
  0
INSERT
  5
7FA2
  8
0
  6
BYBLOCK
 62
     0
  2
_OPEN
 10
2159.9588420743271
 20
1810.3091055823161
 30
0.0
 41
40.0
 42
40.0
 43
40.0
 50
270.0
  0
POINT
  5
7FA3
  8
DEFPOINTS
  6
BYBLOCK
 62
     0
 10
1913.190833974917
 20
1715.3091055823161
 30
0.0
  0
POINT
  5
7FA4
  8
DEFPOINTS
  6
BYBLOCK
 62
     0
 10
1913.190833974917
 20
1810.3091055823161
 30
0.0
  0
POINT
  5
7FA5
  8
DEFPOINTS
  6
BYBLOCK
 62
     0
 10
2159.9588420743271
 20
1810.3091055823161
 30
0.0
  0
ENDBLK
  5
7FA6
  8
0
  0
BLOCK
  8
0
  2
*D19
 70
     1
 10
0.0
 20
0.0
 30
0.0
  3
*D19
  1

  0
LINE
  5
8236
  8
3
 62
     0
 10
1627.7960169749169
 20
2670.309105582317
 30
0.0
 11
2179.9588420743271
 21
2670.309105582317
 31
0.0
  0
LINE
  5
8237
  8
3
 62
     0
 10
1567.190833974917
 20
2310.309105582317
 30
0.0
 11
2179.9588420743271
 21
2310.309105582317
 31
0.0
  0
LINE
  5
8238
  8
3
 62
     0
 10
2159.9588420743271
 20
2630.309105582317
 30
0.0
 11
2159.9588420743271
 21
2350.3091055823161
 31
0.0
  0
INSERT
  5
8239
  8
3
 62
     0
  2
_OPEN
 10
2159.9588420743271
 20
2670.309105582317
 30
0.0
 41
40.0
 42
40.0
 43
40.0
 50
90.0
  0
INSERT
  5
823A
  8
3
 62
     0
  2
_OPEN
 10
2159.9588420743271
 20
2310.309105582317
 30
0.0
 41
40.0
 42
40.0
 43
40.0
 50
270.0
  0
TEXT
  8
3
  40
60
  5
8259
  62
0
  72
0
  71
0
 10
1989.96
 20
2384.11
 30
0.000000
  1
360
  0
POINT
  5
823C
  8
DEFPOINTS
 62
     0
 10
1617.7960169749169
 20
2670.309105582317
 30
0.0
  0
POINT
  5
823D
  8
DEFPOINTS
 62
     0
 10
1557.190833974917
 20
2310.309105582317
 30
0.0
  0
POINT
  5
823E
  8
DEFPOINTS
 62
     0
 10
2159.9588420743271
 20
2310.309105582317
 30
0.0
  0
ENDBLK
  5
7FB3
  8
0
  0
BLOCK
  8
0
  2
*D20
 70
     1
 10
0.0
 20
0.0
 30
0.0
  3
*D20
  1

  0
LINE
  5
823F
  8
3
 62
     0
 10
1627.7960169749169
 20
2670.309105582317
 30
0.0
 11
2345.6730095412308
 21
2670.309105582317
 31
0.0
  0
LINE
  5
8240
  8
3
 62
     0
 10
1923.190833974917
 20
1650.3091055823161
 30
0.0
 11
2345.6730095412308
 21
1650.3091055823161
 31
0.0
  0
LINE
  5
8241
  8
3
 62
     0
 10
2325.6730095412308
 20
2630.309105582317
 30
0.0
 11
2325.6730095412308
 21
1690.3091055823161
 31
0.0
  0
INSERT
  5
8242
  8
3
 62
     0
  2
_OPEN
 10
2325.6730095412308
 20
2670.309105582317
 30
0.0
 41
40.0
 42
40.0
 43
40.0
 50
90.0
  0
INSERT
  5
8243
  8
3
 62
     0
  2
_OPEN
 10
2325.6730095412308
 20
1650.3091055823161
 30
0.0
 41
40.0
 42
40.0
 43
40.0
 50
270.0
  0
TEXT
  8
3
  40
60
  5
825A
  62
0
  72
0
  71
0
 10
2139.96
 20
2054.11
 30
0.000000
  1
(1020)
  0
POINT
  5
8245
  8
DEFPOINTS
 62
     0
 10
1617.7960169749169
 20
2670.309105582317
 30
0.0
  0
POINT
  5
8246
  8
DEFPOINTS
 62
     0
 10
1913.190833974917
 20
1650.3091055823161
 30
0.0
  0
POINT
  5
8247
  8
DEFPOINTS
 62
     0
 10
2325.6730095412308
 20
1650.3091055823161
 30
0.0
  0
ENDBLK
  5
7FC0
  8
0
  0
ENDSEC
  0
SECTION
  2
ENTITIES
  0
LINE
  5
7A95
  8
1
 10
1840.690833974917
 20
3872.2280505287408
 30
0.0
 11
1840.690833974917
 21
4272.2280505287408
 31
0.0
  0
LINE
  5
7A96
  8
1
 10
1913.190833974917
 20
3807.2280505287422
 30
0.0
 11
1913.190833974917
 21
4367.2280505287408
 31
0.0
  0
LINE
  5
7A97
  8
1
 10
1072.190833974917
 20
3949.7280505287422
 30
0.0
 11
1588.190833974917
 21
4324.7280505287417
 31
0.0
  0
LINE
  5
7A98
  8
1
 10
1588.190833974917
 20
3949.7280505287422
 30
0.0
 11
1072.190833974917
 21
4324.7280505287417
 31
0.0
  0
LINE
  5
7A99
  8
1
 10
1588.190833974917
 20
4324.7280505287417
 30
0.0
 11
1588.190833974917
 21
3949.7280505287422
 31
0.0
  0
LINE
  5
7A9A
  8
1
 10
1072.190833974917
 20
3949.7280505287422
 30
0.0
 11
1072.190833974917
 21
4324.7280505287417
 31
0.0
  0
LINE
  5
7A9B
  8
1
 10
685.74284297491795
 20
3949.7280505287422
 30
0.0
 11
685.74284297491795
 21
4324.7280505287417
 31
0.0
  0
LINE
  5
7A9C
  8
1
 10
1623.190833974917
 20
3807.2280505287422
 30
0.0
 11
1123.190833974917
 21
3807.2280505287422
 31
0.0
  0
LINE
  5
7A9D
  8
1
 10
1823.190833974917
 20
3742.2280505287408
 30
0.0
 11
923.19083397491693
 21
3742.2280505287408
 31
0.0
  0
LINE
  5
7A9E
  8
1
 10
1823.190833974917
 20
3865.2280505287408
 30
0.0
 11
923.19083397491693
 21
3865.2280505287408
 31
0.0
  0
LINE
  5
7A9F
  8
1
 10
733.19083397491704
 20
1650.3091055823161
 30
0.0
 11
1913.190833974917
 21
1650.3091055823161
 31
0.0
  0
LINE
  5
7AA0
  8
1
 10
733.19083397491704
 20
1715.3091055823161
 30
0.0
 11
1913.190833974917
 21
1715.3091055823161
 31
0.0
  0
LINE
  5
7AA2
  8
1
 10
733.19083397491704
 20
1810.3091055823161
 30
0.0
 11
1913.190833974917
 21
1810.3091055823161
 31
0.0
  0
POLYLINE
  5
7AA3
  8
1
 66
     1
 10
0.0
 20
0.0
 30
0.0
  0
VERTEX
  5
819A
  8
1
 10
1586.190833974917
 20
2670.309105582317
 30
0.0
  0
VERTEX
  5
819B
  8
1
 10
1557.190833974917
 20
2310.309105582317
 30
0.0
 42
-0.391482
  0
VERTEX
  5
819C
  8
1
 10
1085.190833974917
 20
1873.8611145823161
 30
0.0
 42
-0.440232
  0
VERTEX
  5
819D
  8
1
 10
687.28876697491796
 20
2308.4181115823162
 30
0.0
 42
-0.388666
  0
VERTEX
  5
819E
  8
1
 10
1017.190833974917
 20
2610.4929035823161
 30
0.0
 42
-0.053392
  0
VERTEX
  5
819F
  8
1
 10
1074.190833974917
 20
2604.3887835823161
 30
0.0
 42
-0.393627
  0
SEQEND
  5
81A0
  8
1
  0
LINE
  5
7AAB
  8
1
 10
1074.190833974917
 20
2640.309105582317
 30
0.0
 11
1583.7741669749171
 21
2640.309105582317
 31
0.0
  0
LINE
  5
7AAC
  8
1
 10
1042.5908339749169
 20
2670.309105582317
 30
0.0
 11
1617.7960169749169
 21
2670.309105582317
 31
0.0
  0
LINE
  5
7AAD
  8
1
 10
1674.3425169749171
 20
2031.201737582315
 30
0.0
 11
1024.3425169749171
 21
2239.2017375823161
 31
0.0
  0
LINE
  5
7AAE
  8
1
 10
1722.039150974917
 20
2173.416473582316
 30
0.0
 11
1072.0391509749161
 21
2381.4164735823169
 31
0.0
  0
LINE
  5
7AAF
  8
1
 10
1737.938028974917
 20
2220.821385582316
 30
0.0
 11
1087.9380289749161
 21
2428.821385582316
 31
0.0
  0
LINE
  5
7AB0
  8
1
 10
1658.443637974917
 20
1983.796825582315
 30
0.0
 11
1008.443637974916
 21
2191.7968255823162
 31
0.0
  0
LINE
  5
7AB1
  8
1
 10
1588.190833974917
 20
3949.7280505287422
 30
0.0
 11
1072.190833974917
 21
3949.7280505287422
 31
0.0
  0
LINE
  5
7AB2
  8
1
 10
733.19083397491704
 20
1715.3091055823161
 30
0.0
 11
733.19083397491704
 21
1650.3091055823161
 31
0.0
  0
LINE
  5
7AB3
  8
1
 10
733.19083397491704
 20
1885.3091055823161
 30
0.0
 11
733.19083397491704
 21
1810.3091055823161
 31
0.0
  0
LINE
  5
7AB4
  8
2
 10
1048.1908339749159
 20
1650.3091055823161
 30
0.0
 11
1048.190833974917
 21
2716.082823582316
 31
0.0
  0
ARC
  5
7AB5
  8
1
 10
1048.190833974917
 20
2310.309105582317
 30
0.0
 40
125.0
 50
71.459339999999997
 51
251.45934
  0
CIRCLE
  5
7AB6
  8
1
 10
1048.190833974917
 20
2310.309105582317
 30
0.0
 40
75.0
  0
CIRCLE
  5
7AB7
  8
1
 10
1048.190833974917
 20
2310.309105582317
 30
0.0
 40
280.0
  0
CIRCLE
  5
7AB8
  8
1
 10
1048.190833974917
 20
2310.309105582317
 30
0.0
 40
250.0
  0
LINE
  5
7AB9
  8
2
 10
533.22056897491711
 20
2310.309105582317
 30
0.0
 11
1700.6479889749171
 21
2310.309105582317
 31
0.0
  0
LINE
  5
7ABA
  8
1
 10
1074.190833974917
 20
2604.3887835823161
 30
0.0
 11
1074.190833974917
 21
2670.309105582317
 31
0.0
  0
LINE
  5
7ABB
  8
1
 10
973.19083397491693
 20
3807.2280505287422
 30
0.0
 11
733.19083397491704
 21
3807.2280505287422
 31
0.0
  0
LINE
  5
7ABC
  8
1
 10
1072.190833974917
 20
3949.7280505287422
 30
0.0
 11
685.74284297491795
 21
3949.7280505287422
 31
0.0
  0
LINE
  5
7ABD
  8
1
 10
733.19083397491704
 20
3807.2280505287422
 30
0.0
 11
733.19083397491704
 21
3949.7280505287422
 31
0.0
  0
LINE
  5
7ABE
  8
1
 10
1123.190833974917
 20
3772.2280505287408
 30
0.0
 11
973.19083397491693
 21
3772.2280505287408
 31
0.0
  0
LINE
  5
7ABF
  8
1
 10
1123.190833974917
 20
3835.2280505287408
 30
0.0
 11
973.19083397491693
 21
3835.2280505287408
 31
0.0
  0
LINE
  5
7AC0
  8
1
 10
973.19083397491693
 20
3835.2280505287408
 30
0.0
 11
973.19083397491693
 21
3772.2280505287408
 31
0.0
  0
LINE
  5
7AC1
  8
1
 10
923.19083397491693
 20
3742.2280505287408
 30
0.0
 11
923.19083397491693
 21
3865.2280505287408
 31
0.0
  0
LINE
  5
7AC2
  8
1
 10
1030.690833974917
 20
3949.7280505287422
 30
0.0
 11
1030.690833974917
 21
3835.2280505287408
 31
0.0
  0
LINE
  5
7AC3
  8
1
 10
1123.190833974917
 20
3835.2280505287408
 30
0.0
 11
1123.190833974917
 21
3772.2280505287408
 31
0.0
  0
LINE
  5
7AC4
  8
1
 10
1065.690833974917
 20
3949.7280505287422
 30
0.0
 11
1065.690833974917
 21
3835.2280505287408
 31
0.0
  0
LINE
  5
7AC5
  8
1
 10
1913.190833974917
 20
1715.3091055823161
 30
0.0
 11
1913.190833974917
 21
1650.3091055823161
 31
0.0
  0
LINE
  5
7AC6
  8
2
 10
1778.190833974917
 20
2102.3091055823161
 30
0.0
 11
1618.190833974917
 21
2102.3091055823161
 31
0.0
  0
CIRCLE
  5
7AC7
  8
1
 10
1698.190833974917
 20
2102.3091055823161
 30
0.0
 40
75.0
  0
LINE
  5
7AC8
  8
1
 10
1533.190833974917
 20
1970.3091055823161
 30
0.0
 11
1863.190833974917
 21
1970.3091055823161
 31
0.0
  0
ARC
  5
7AC9
  8
1
 10
1698.190833974917
 20
2102.3091055823161
 30
0.0
 40
143.0
 50
324.34590999999989
 51
215.65408999999991
  0
LINE
  5
7ACA
  8
1
 10
1523.190833974917
 20
1925.3091055823161
 30
0.0
 11
1533.190833974917
 21
1970.3091055823161
 31
0.0
  0
LINE
  5
7ACB
  8
1
 10
1568.190833974917
 20
1970.3091055823161
 30
0.0
 11
1618.190833974917
 21
1970.3091055823161
 31
0.0
  0
LINE
  5
7ACC
  8
1
 10
1568.190833974917
 20
1970.3091055823161
 30
0.0
 11
1568.190833974917
 21
1985.3091055823161
 31
0.0
  0
LINE
  5
7ACD
  8
1
 10
1568.190833974917
 20
1985.3091055823161
 30
0.0
 11
1582.2201109749169
 21
2019.501849582316
 31
0.0
  0
LINE
  5
7ACE
  8
1
 10
1523.190833974917
 20
1925.3091055823161
 30
0.0
 11
1523.190833974917
 21
1885.3091055823161
 31
0.0
  0
LINE
  5
7ACF
  8
2
 10
1698.190833974917
 20
2022.3091055823161
 30
0.0
 11
1698.190833974917
 21
2182.3091055823161
 31
0.0
  0
ARC
  5
7AD0
  8
1
 10
1698.190833974917
 20
2102.3091055823161
 30
0.0
 40
125.0
 50
251.45934
 51
71.459339999999997
  0
LINE
  5
7AD1
  8
1
 10
1863.190833974917
 20
1970.3091055823161
 30
0.0
 11
1873.190833974917
 21
1925.3091055823161
 31
0.0
  0
LINE
  5
7AD2
  8
1
 10
1828.190833974917
 20
1985.3091055823161
 30
0.0
 11
1814.1615559749171
 21
2019.501849582316
 31
0.0
  0
LINE
  5
7AD3
  8
1
 10
1828.190833974917
 20
1970.3091055823161
 30
0.0
 11
1828.190833974917
 21
1985.3091055823161
 31
0.0
  0
LINE
  5
7AD4
  8
1
 10
1828.190833974917
 20
1970.3091055823161
 30
0.0
 11
1778.190833974917
 21
1970.3091055823161
 31
0.0
  0
LINE
  5
7AD5
  8
1
 10
1873.190833974917
 20
1925.3091055823161
 30
0.0
 11
1873.190833974917
 21
1885.3091055823161
 31
0.0
  0
LINE
  5
7AD6
  8
1
 10
1913.190833974917
 20
1885.3091055823161
 30
0.0
 11
1913.190833974917
 21
1810.3091055823161
 31
0.0
  0
LINE
  5
7AD7
  8
1
 10
1840.690833974917
 20
3872.2280505287408
 30
0.0
 11
1555.690833974917
 21
3872.2280505287408
 31
0.0
  0
LINE
  5
7AD8
  8
1
 10
1773.190833974917
 20
3835.2280505287408
 30
0.0
 11
1623.190833974917
 21
3835.2280505287408
 31
0.0
  0
LINE
  5
7AD9
  8
1
 10
1773.190833974917
 20
3772.2280505287408
 30
0.0
 11
1623.190833974917
 21
3772.2280505287408
 31
0.0
  0
LINE
  5
7ADA
  8
1
 10
1555.690833974917
 20
3872.2280505287408
 30
0.0
 11
1555.690833974917
 21
3949.7280505287422
 31
0.0
  0
LINE
  5
7ADB
  8
1
 10
1623.190833974917
 20
3835.2280505287408
 30
0.0
 11
1623.190833974917
 21
3772.2280505287408
 31
0.0
  0
LINE
  5
7ADC
  8
1
 10
1773.190833974917
 20
3835.2280505287408
 30
0.0
 11
1773.190833974917
 21
3772.2280505287408
 31
0.0
  0
LINE
  5
7ADD
  8
1
 10
1679.190833974917
 20
3835.2280505287408
 30
0.0
 11
1679.190833974917
 21
3872.2280505287408
 31
0.0
  0
LINE
  5
7ADE
  8
1
 10
1717.190833974917
 20
3835.2280505287408
 30
0.0
 11
1717.190833974917
 21
3872.2280505287408
 31
0.0
  0
LINE
  5
7ADF
  8
1
 10
1823.190833974917
 20
3742.2280505287408
 30
0.0
 11
1823.190833974917
 21
3865.2280505287408
 31
0.0
  0
LINE
  5
7AE0
  8
1
 10
1913.190833974917
 20
3807.2280505287422
 30
0.0
 11
1773.190833974917
 21
3807.2280505287422
 31
0.0
  0
LINE
  5
7AE1
  8
1
 10
1913.190833974917
 20
4367.2280505287408
 30
0.0
 11
1298.190833974917
 21
4367.2280505287408
 31
0.0
  0
LINE
  5
7AE2
  8
1
 10
1588.190833974917
 20
4324.7280505287417
 30
0.0
 11
1072.190833974917
 21
4324.7280505287417
 31
0.0
  0
LINE
  5
7AE3
  8
1
 10
798.19083397491704
 20
4367.2280505287408
 30
0.0
 11
733.19083397491704
 21
4367.2280505287408
 31
0.0
  0
LINE
  5
7AE4
  8
1
 10
1072.190833974917
 20
4324.7280505287417
 30
0.0
 11
685.74284297491795
 21
4324.7280505287417
 31
0.0
  0
LINE
  5
7AE5
  8
1
 10
733.19083397491704
 20
4324.7280505287417
 30
0.0
 11
733.19083397491704
 21
4367.2280505287408
 31
0.0
  0
LINE
  5
7AE6
  8
1
 10
768.19083397491704
 20
4388.2280505287408
 30
0.0
 11
1328.190833974917
 21
4388.2280505287408
 31
0.0
  0
LINE
  5
7AE7
  8
1
 10
798.19083397491704
 20
4324.7280505287417
 30
0.0
 11
798.19083397491704
 21
4388.2280505287408
 31
0.0
  0
LINE
  5
7AE8
  8
1
 10
1298.190833974917
 20
4324.7280505287417
 30
0.0
 11
1298.190833974917
 21
4388.2280505287408
 31
0.0
  0
LINE
  5
7AE9
  8
1
 10
1840.690833974917
 20
4272.2280505287408
 30
0.0
 11
1588.190833974917
 21
4272.2280505287408
 31
0.0
  0
LINE
  5
7AEB
  8
1
 10
3409.3223188090928
 20
1715.3091055823161
 30
0.0
 11
2849.3223188090928
 21
1715.3091055823161
 31
0.0
  0
LINE
  5
7AEC
  8
1
 10
3409.3223188090928
 20
1650.3091055823161
 30
0.0
 11
2849.3223188090928
 21
1650.3091055823161
 31
0.0
  0
LINE
  5
7AED
  8
1
 10
2849.3223188090928
 20
1650.3091055823161
 30
0.0
 11
2849.3223188090928
 21
1715.3091055823161
 31
0.0
  0
LINE
  5
7AEE
  8
1
 10
3409.3223188090928
 20
1650.3091055823161
 30
0.0
 11
3409.3223188090928
 21
1715.3091055823161
 31
0.0
  0
LINE
  5
7AEF
  8
1
 10
2991.8223188090928
 20
2640.309105582317
 30
0.0
 11
3366.8223188090928
 21
2640.309105582317
 31
0.0
  0
LINE
  5
7AF0
  8
1
 10
2959.3223188090928
 20
2670.309105582317
 30
0.0
 11
3399.3223188090928
 21
2670.309105582317
 31
0.0
  0
LINE
  5
7AF1
  8
1
 10
3409.3223188090928
 20
1810.3091055823161
 30
0.0
 11
2849.3223188090928
 21
1810.3091055823161
 31
0.0
  0
LINE
  5
7AF3
  8
1
 10
2991.8223188090928
 20
2254.3091055823161
 30
0.0
 11
2991.8223188090928
 21
1885.3091055823161
 31
0.0
  0
LINE
  5
7AF4
  8
1
 10
2799.3223188090928
 20
2235.309105582317
 30
0.0
 11
2799.3223188090928
 21
2385.309105582317
 31
0.0
  0
LINE
  5
7AF5
  8
1
 10
2877.3223188090928
 20
2235.309105582317
 30
0.0
 11
2877.3223188090928
 21
2385.309105582317
 31
0.0
  0
LINE
  5
7AF6
  8
1
 10
2769.3223188090919
 20
1977.3091055823161
 30
0.0
 11
2769.3223188090928
 21
2435.309105582317
 31
0.0
  0
LINE
  5
7AF7
  8
1
 10
2907.3223188090928
 20
1977.3091055823161
 30
0.0
 11
2907.3223188090928
 21
2043.589695818509
 31
0.0
  0
LINE
  5
7AF8
  8
1
 10
2877.3223188090928
 20
2235.309105582317
 30
0.0
 11
2799.3223188090928
 21
2235.309105582317
 31
0.0
  0
LINE
  5
7AF9
  8
1
 10
2877.3223188090928
 20
2027.3091055823161
 30
0.0
 11
2799.3223188090928
 21
2027.3091055823161
 31
0.0
  0
LINE
  5
7AFA
  8
1
 10
2877.3223188090928
 20
2177.3091055823161
 30
0.0
 11
2799.3223188090928
 21
2177.3091055823161
 31
0.0
  0
LINE
  5
7AFB
  8
1
 10
2769.3223188090928
 20
1977.3091055823161
 30
0.0
 11
2907.3223188090928
 21
1977.3091055823161
 31
0.0
  0
LINE
  5
7AFC
  8
1
 10
2799.3223188090928
 20
2027.3091055823161
 30
0.0
 11
2799.3223188090928
 21
2177.3091055823161
 31
0.0
  0
LINE
  5
7AFD
  8
1
 10
2849.3223188090928
 20
1810.3091055823161
 30
0.0
 11
2849.3223188090942
 21
1885.3091055823161
 31
0.0
  0
LINE
  5
7AFE
  8
1
 10
2877.3223188090928
 20
2027.3091055823161
 30
0.0
 11
2877.3223188090928
 21
2177.3091055823161
 31
0.0
  0
LINE
  5
7AFF
  8
1
 10
2877.3223188090928
 20
2121.3091055823161
 30
0.0
 11
2991.8223188090928
 21
2121.3091055823161
 31
0.0
  0
LINE
  5
7B00
  8
1
 10
2877.3223188090928
 20
2083.3091055823161
 30
0.0
 11
2991.8223188090928
 21
2083.3091055823161
 31
0.0
  0
LINE
  5
7B01
  8
1
 10
2877.3223188090928
 20
2385.309105582317
 30
0.0
 11
2799.3223188090928
 21
2385.309105582317
 31
0.0
  0
LINE
  5
7B02
  8
1
 10
2769.3223188090928
 20
2435.309105582317
 30
0.0
 11
2907.3223188090928
 21
2435.309105582317
 31
0.0
  0
LINE
  5
7B03
  8
1
 10
2991.8223188090928
 20
2670.309105582317
 30
0.0
 11
2991.8223188090928
 21
2254.3091055823161
 31
0.0
  0
LINE
  5
7B04
  8
1
 10
2991.8223188090928
 20
2327.809105582317
 30
0.0
 11
2877.3223188090928
 21
2327.809105582317
 31
0.0
  0
LINE
  5
7B05
  8
1
 10
2991.8223188090928
 20
2292.809105582317
 30
0.0
 11
2877.3223188090928
 21
2292.809105582317
 31
0.0
  0
LINE
  5
7B06
  8
1
 10
3430.3223188090928
 20
2030.3091055823161
 30
0.0
 11
3430.3223188090928
 21
2590.309105582317
 31
0.0
  0
LINE
  5
7B07
  8
1
 10
3366.8223188090928
 20
2334.3091055823161
 30
0.0
 11
3366.8223188090928
 21
1885.3091055823161
 31
0.0
  0
LINE
  5
7B08
  8
1
 10
3366.8223188090928
 20
2060.309105582317
 30
0.0
 11
3430.3223188090928
 21
2060.309105582317
 31
0.0
  0
LINE
  5
7B09
  8
1
 10
3409.3223188090928
 20
1810.3091055823161
 30
0.0
 11
3409.3223188090942
 21
1885.3091055823161
 31
0.0
  0
LINE
  5
7B0A
  8
1
 10
3366.8223188090928
 20
2560.309105582317
 30
0.0
 11
3430.3223188090928
 21
2560.309105582317
 31
0.0
  0
LINE
  5
7B0B
  8
1
 10
3366.8223188090928
 20
2670.309105582317
 30
0.0
 11
3366.8223188090928
 21
2334.3091055823161
 31
0.0
  0
DIMENSION
  5
7B5F
  8
3
  2
*D1
 10
2160.7510539749169
 20
1810.3091055823161
 30
0.0
 11
2110.7510539749169
 21
2060.309105582317
 31
0.0
 70
     0
 13
1557.190833974917
 23
2310.309105582317
 33
0.0
 14
1913.190833974917
 24
1810.3091055823161
 34
0.0
 50
90.0
1001
ACAD
1000
DSTYLE
1002
{
1070
   287
1070
     3
1070
   287
1070
     3
1070
    40
1040
20.0
1070
   143
1040
0.039
1070
   172
1070
     1
1070
   271
1070
     0
1070
   279
1070
     0
1070
   288
1070
     1
1002
}
  0
DIMENSION
  5
7BA3
  8
3
  2
*D2
 10
1586.190833974917
 20
2811.2751585823162
 30
0.0
 11
1324.9259089749171
 21
2811.2751585823162
 31
0.0
 70
   128
 13
1074.190833974917
 23
2670.309105582317
 33
0.0
 14
1586.190833974917
 24
2670.309105582317
 34
0.0
1001
ACAD
1000
DSTYLE
1002
{
1070
   287
1070
     3
1070
   287
1070
     3
1070
    40
1040
20.0
1070
   143
1040
0.039
1070
   172
1070
     1
1070
   271
1070
     0
1070
   279
1070
     0
1070
   288
1070
     1
1002
}
  0
DIMENSION
  5
7BB0
  8
3
  2
*D3
 10
1048.190833974917
 20
2928.5191525786108
 30
0.0
 11
1336.4875478125689
 21
2928.5191525786108
 31
0.0
 70
   128
 13
1586.190833974917
 23
2670.309105582317
 33
0.0
 14
1048.190833974917
 24
2608.7019115823159
 34
0.0
1001
ACAD
1000
DSTYLE
1002
{
1070
   287
1070
     3
1070
   287
1070
     3
1070
    40
1040
20.0
1070
   143
1040
0.039
1070
   172
1070
     1
1070
   271
1070
     0
1070
   279
1070
     0
1070
   288
1070
     1
1002
}
  0
DIMENSION
  5
7BBE
  8
3
  2
*D4
 10
687.28876697491796
 20
2931.3601375786102
 30
0.0
 11
873.08789981256905
 21
2931.3601375786102
 31
0.0
 70
   128
 13
1048.190833974917
 23
2608.7019115823159
 33
0.0
 14
687.28876697491796
 24
2308.4181115823162
 34
0.0
1001
ACAD
1000
DSTYLE
1002
{
1070
   287
1070
     3
1070
   287
1070
     3
1070
    40
1040
20.0
1070
   143
1040
0.039
1070
   172
1070
     1
1070
   271
1070
     0
1070
   279
1070
     0
1070
   288
1070
     1
1002
}
  0
DIMENSION
  5
7BE1
  8
3
  2
*D5
 10
1913.190833974917
 20
3471.1436855287402
 30
0.0
 11
1316.397087974917
 21
3471.1436855287402
 31
0.0
 70
   128
 13
733.19083397491704
 23
3807.2280505287422
 33
0.0
 14
1913.190833974917
 24
3807.2280505287422
 34
0.0
1001
ACAD
1000
DSTYLE
1002
{
1070
   287
1070
     3
1070
   287
1070
     3
1070
    40
1040
20.0
1070
   143
1040
0.039
1070
   172
1070
     1
1070
   271
1070
     0
1070
   279
1070
     0
1070
   288
1070
     1
1002
}
  0
DIMENSION
  5
7BEE
  8
3
  2
*D6
 10
2177.8087299749182
 20
3807.2280505287422
 30
0.0
 11
2177.8087299749182
 21
4116.8950865287406
 31
0.0
 70
   128
 13
1913.190833974917
 23
4367.2280505287408
 33
0.0
 14
1913.190833974917
 24
3807.2280505287422
 34
0.0
 50
90.0
1001
ACAD
1000
DSTYLE
1002
{
1070
   287
1070
     3
1070
   287
1070
     3
1070
    40
1040
20.0
1070
   143
1040
0.039
1070
   172
1070
     1
1070
   271
1070
     0
1070
   279
1070
     0
1070
   288
1070
     1
1002
}
  0
LINE
  5
7BEF
  8
2
 10
577.71101497491691
 20
4137.2280505287417
 30
0.0
 11
1853.713244974917
 21
4137.2280505287417
 31
0.0
  0
LINE
  5
7BF0
  8
2
 10
3179.3223188090928
 20
2758.9620062206532
 30
0.0
 11
3179.3223188090928
 21
1650.3091055823161
 31
0.0
  0
DIMENSION
  5
7BFD
  8
3
  2
*D7
 10
3598.0735318652082
 20
2060.309105582317
 30
0.0
 11
3598.0735318652082
 21
2310.309105582317
 31
0.0
 70
   128
 13
3430.3223188090928
 23
2560.309105582317
 33
0.0
 14
3430.3223188090928
 24
2060.309105582317
 34
0.0
 50
90.0
1001
ACAD
1000
DSTYLE
1002
{
1070
   287
1070
     3
1070
   287
1070
     3
1070
     3
1000
φ<>
1070
    40
1040
20.0
1070
   143
1040
0.039
1070
   172
1070
     1
1070
   271
1070
     0
1070
   279
1070
     0
1070
   288
1070
     1
1002
}
  0
DIMENSION
  5
7C3F
  8
3
  2
*D8
 10
3366.8223188090928
 20
2769.4812632868739
 30
0.0
 11
3179.3223188090928
 21
2769.4812632868739
 31
0.0
 70
   128
 13
2991.8223188090928
 23
2670.309105582317
 33
0.0
 14
3366.8223188090928
 24
2670.309105582317
 34
0.0
1001
ACAD
1000
DSTYLE
1002
{
1070
   287
1070
     3
1070
   287
1070
     3
1070
    40
1040
20.0
1070
   143
1040
0.039
1070
   172
1070
     1
1070
   271
1070
     0
1070
   279
1070
     0
1070
   288
1070
     1
1002
}
  0
DIMENSION
  5
7C4C
  8
3
  2
*D9
 10
3179.3223188090928
 20
2918.8750454177489
 30
0.0
 11
2982.179461666236
 21
2918.8750454177489
 31
0.0
 70
   128
  1
MAX\P450
 13
2769.3223188090928
 23
2435.309105582317
 33
0.0
 14
3179.3223188090928
 24
2864.9403655551359
 34
0.0
1001
ACAD
1000
DSTYLE
1002
{
1070
   287
1070
     3
1070
   287
1070
     3
1070
    40
1040
20.0
1070
   143
1040
0.039
1070
   172
1070
     1
1070
   271
1070
     0
1070
   279
1070
     0
1070
   288
1070
     1
1002
}
  0
DIMENSION
  5
7C5A
  8
3
  2
*D10
 10
3430.3223188090928
 20
2918.8750454177489
 30
0.0
 11
3303.6080330948071
 21
2918.8750454177489
 31
0.0
 70
   128
 13
3179.3223188090928
 23
2869.6571299683492
 33
0.0
 14
3430.3223188090928
 24
2590.309105582317
 34
0.0
1001
ACAD
1000
DSTYLE
1002
{
1070
   287
1070
     3
1070
   287
1070
     3
1070
    40
1040
20.0
1070
   143
1040
0.039
1070
   172
1070
     1
1070
   271
1070
     0
1070
   279
1070
     0
1070
   288
1070
     1
1002
}
  0
LINE
  5
7C71
  8
2
 10
2706.3318758090932
 20
2310.309105582317
 30
0.0
 11
3474.9185078090932
 21
2310.309105582317
 31
0.0
  0
LINE
  5
7C72
  8
2
 10
1048.190833974917
 20
3587.2928975287409
 30
0.0
 11
1048.190833974917
 21
4443.9455075287406
 31
0.0
  0
LINE
  5
7C74
  8
4
 10
3700.0
 20
1000.0
 30
0.0
 11
3700.0
 21
600.0
 31
0.0
  0
LINE
  5
7C75
  8
4
 10
2300.0
 20
1000.0
 30
0.0
 11
2300.0
 21
600.0
 31
0.0
  0
LINE
  5
7C76
  8
4
 10
1300.0
 20
1000.0
 30
0.0
 11
1300.0
 21
600.0
 31
0.0
  0
LINE
  5
7C79
  8
4
 10
1300.0
 20
600.0
 30
0.0
 11
3700.0
 21
600.0
 31
0.0
  0
LINE
  5
7C7A
  8
4
 10
1300.0
 20
800.0
 30
0.0
 11
3700.0
 21
800.0
 31
0.0
  0
TEXT
  5
7C7B
  8
4
 10
1377.004161999999
 20
863.08605199999977
 30
0.0
 40
100.0
  1
機器名称
  0
TEXT
  5
7C7C
  8
4
 10
1372.5162119999991
 20
643.29031333333319
 30
0.0
 40
100.0
  1
機器型番
  0
TEXT
  5
7C7D
  8
4
 10
2355.3574906666659
 20
845.14353799999992
 30
0.0
 40
86.666666666666657
  1
ミツヤリミットロードファン
  0
TEXT
  5
7C7E
  8
4
 10
2373.308991333332
 20
634.31916866666666
 30
0.0
 40
100.0
  1
LLE#3-4
  0
TEXT
  5
7C80
  8
4
 10
1419.4032053333331
 20
4766.8576826666658
 30
0.0
 40
108.0
  1
床置防振ベット
  0
TEXT
  5
7C81
  8
4
 10
632.33518666666669
 20
5067.7619526666667
 30
0.0
 40
120.0
  1
ベルト駆動式片吸込両持排煙ファン
  0
LINE
  5
7C82
  8
4
 10
500.0
 20
4938.8175086666661
 30
0.0
 11
3700.0
 21
4938.8175086666661
 31
0.0
  0
LINE
  5
7C83
  8
4
 10
500.0
 20
5338.8175086666661
 30
0.0
 11
3700.0
 21
5338.8175086666661
 31
0.0
  0
LINE
  5
7C84
  8
4
 10
1300.0
 20
1000.0
 30
0.0
 11
3700.0
 21
1000.0
 31
0.0
  0
LINE
  5
7C85
  8
4
 10
500.0
 20
5338.8175086666661
 30
0.0
 11
500.0
 21
4938.8175086666661
 31
0.0
  0
TEXT
  5
7C86
  8
4
 10
547.68554133333316
 20
4764.6389553333329
 30
0.0
 40
108.0
  1
左回転上向
  0
TEXT
  5
7C87
  8
4
 10
2937.9391186666662
 20
5412.1221626666656
 30
0.0
 40
112.0
  1
No.
  0
TEXT
  5
7C88
  8
4
 10
2622.5921253333331
 20
4766.8576826666658
 30
0.0
 40
108.0
  1
縮尺：1/20
  0
LINE
  5
7C89
  8
4
 10
3700.0
 20
5338.8175086666661
 30
0.0
 11
3700.0
 21
4938.8175086666661
 31
0.0
  0
LINE
  5
7C8B
  8
4
 10
2881.234844666666
 20
5362.5271659999999
 30
0.0
 11
2881.234844666666
 21
5573.3045233333341
 31
0.0
  0
LINE
  5
7C8C
  8
4
 10
2881.234844666666
 20
5573.3045233333341
 30
0.0
 11
3700.0
 21
5573.3045233333341
 31
0.0
  0
LINE
  5
7C8D
  8
4
 10
3700.0
 20
5573.3045233333341
 30
0.0
 11
3700.0
 21
5362.5271659999999
 31
0.0
  0
LINE
  5
7C8E
  8
4
 10
3700.0
 20
5362.5271659999999
 30
0.0
 11
2881.234844666666
 21
5362.5271659999999
 31
0.0
  0
LINE
  5
7D81
  8
1
 10
733.19083397491704
 20
1885.3091055823161
 30
0.0
 11
1913.190833974917
 21
1885.3091055823161
 31
0.0
  0
LINE
  5
7D82
  8
1
 10
3409.3223188090928
 20
1885.3091055823161
 30
0.0
 11
2849.3223188090928
 21
1885.3091055823161
 31
0.0
  0
DIMENSION
  5
7ECB
  8
3
  2
*D11
 10
1913.190833974917
 20
3055.935183115098
 30
0.0
 11
1407.554948978915
 21
3055.935183115098
 31
0.0
 70
   128
 13
687.28876697491796
 23
2318.4181115823162
 33
0.0
 14
1913.190833974917
 24
1885.3091055823161
 34
0.0
1001
ACAD
1000
DSTYLE
1002
{
1070
   287
1070
     3
1070
   287
1070
     3
1070
    40
1040
20.0
1070
   143
1040
0.039
1070
   172
1070
     1
1070
   271
1070
     0
1070
   279
1070
     0
1070
   288
1070
     1
1002
}
  0
LINE
  5
7ED7
  8
1
 10
2907.3223188090928
 20
2368.5400870216049
 30
0.0
 11
2907.3223188090928
 21
2435.309105582317
 31
0.0
  0
DIMENSION
  5
7F58
  8
3
  2
*D12
 10
1048.1908339749159
 20
1518.1088844830681
 30
0.0
 11
890.69083397491681
 21
1568.1088844830681
 31
0.0
 70
     0
 13
733.19083397491704
 23
1650.3091055823161
 33
0.0
 14
1048.1908339749159
 24
1650.3091055823161
 34
0.0
1001
ACAD
1000
DSTYLE
1002
{
1070
   287
1070
     3
1070
   287
1070
     3
1070
    40
1040
20.0
1070
   143
1040
0.039
1070
   172
1070
     1
1070
   271
1070
     0
1070
   279
1070
     0
1002
}
  0
DIMENSION
  5
7F65
  8
3
  2
*D13
 10
1913.190833974917
 20
1518.1088844830681
 30
0.0
 11
1480.690833974917
 21
1568.1088844830681
 31
0.0
 70
     0
 13
1048.1908339749159
 23
1650.3091055823161
 33
0.0
 14
1913.190833974917
 24
1650.3091055823161
 34
0.0
1001
ACAD
1000
DSTYLE
1002
{
1070
   287
1070
     3
1070
   287
1070
     3
1070
    40
1040
20.0
1070
   143
1040
0.039
1070
   172
1070
     1
1070
   271
1070
     0
1070
   279
1070
     0
1002
}
  0
DIMENSION
  5
7F72
  8
3
  2
*D14
 10
3179.3223188090928
 20
1518.1088844830681
 30
0.0
 11
3014.3223188090928
 21
1568.1088844830681
 31
0.0
 70
     0
 13
2849.3223188090928
 23
1650.3091055823161
 33
0.0
 14
3179.3223188090928
 24
1650.3091055823161
 34
0.0
1001
ACAD
1000
DSTYLE
1002
{
1070
   287
1070
     3
1070
   287
1070
     3
1070
    40
1040
20.0
1070
   143
1040
0.039
1070
   172
1070
     1
1070
   271
1070
     0
1070
   279
1070
     0
1002
}
  0
DIMENSION
  5
7F81
  8
3
  2
*D15
 10
3409.3223188090928
 20
1518.1088844830681
 30
0.0
 11
3294.3223188090928
 21
1568.1088844830681
 31
0.0
 70
     0
 13
3179.3223188090928
 23
1650.3091055823161
 33
0.0
 14
3409.3223188090928
 24
1650.3091055823161
 34
0.0
1001
ACAD
1000
DSTYLE
1002
{
1070
   287
1070
     3
1070
   287
1070
     3
1070
    40
1040
20.0
1070
   143
1040
0.039
1070
   172
1070
     1
1070
   271
1070
     0
1070
   279
1070
     0
1002
}
  0
DIMENSION
  5
7F98
  8
3
  2
*D17
 10
2159.9588420743271
 20
1650.3091055823161
 30
0.0
 11
2109.9588420743262
 21
1501.7376770108881
 31
0.0
 70
     0
 13
1913.190833974917
 23
1715.3091055823161
 33
0.0
 14
1913.190833974917
 24
1650.3091055823161
 34
0.0
 50
90.0
1001
ACAD
1000
DSTYLE
1002
{
1070
   287
1070
     3
1070
   287
1070
     3
1070
    40
1040
20.0
1070
   143
1040
0.039
1070
   172
1070
     1
1070
   271
1070
     0
1070
   279
1070
     0
1070
     6
1000
DOT
1002
}
  0
DIMENSION
  5
7FA7
  8
3
  2
*D18
 10
2159.9588420743271
 20
1810.3091055823161
 30
0.0
 11
2255.6731277886129
 21
1762.8091055823161
 31
0.0
 70
     0
 13
1913.190833974917
 23
1715.3091055823161
 33
0.0
 14
1913.190833974917
 24
1810.3091055823161
 34
0.0
 50
90.0
1001
ACAD
1000
DSTYLE
1002
{
1070
   172
1070
     1
1070
    40
1040
20.0
1070
     3
1000
(<>)
1070
   271
1070
     0
1070
     6
1000
_DOT
1070
   143
1040
0.039
1002
}
  0
DIMENSION
  5
7FB4
  8
3
  2
*D19
 10
2159.9588420743271
 20
2310.309105582317
 30
0.0
 11
2109.9588420743262
 21
2490.309105582317
 31
0.0
 70
     0
 13
1617.7960169749169
 23
2670.309105582317
 33
0.0
 14
1557.190833974917
 24
2310.309105582317
 34
0.0
 50
90.0
1001
ACAD
1000
DSTYLE
1002
{
1070
   287
1070
     3
1070
   287
1070
     3
1070
    40
1040
20.0
1070
   143
1040
0.039
1070
   172
1070
     1
1070
   271
1070
     0
1070
   279
1070
     0
1002
}
  0
DIMENSION
  5
7FC1
  8
3
  2
*D20
 10
2325.6730095412308
 20
1650.3091055823161
 30
0.0
 11
2259.9587238269451
 21
2160.309105582317
 31
0.0
 70
     0
 13
1617.7960169749169
 23
2670.309105582317
 33
0.0
 14
1913.190833974917
 24
1650.3091055823161
 34
0.0
 50
90.0
1001
ACAD
1000
DSTYLE
1002
{
1070
   287
1070
     3
1070
   287
1070
     3
1070
     3
1000
(<>)
1070
    40
1040
20.0
1070
   143
1040
0.039
1070
   172
1070
     1
1070
   271
1070
     0
1070
   279
1070
     0
1002
}
  0
ENDSEC
  0
EOF
