  0
SECTION
  2
HEADER
  9
$ACADVER
  1
AC1009
  9
$INSBASE
 10
0.0
 20
0.0
 30
0.0
  9
$EXTMIN
 10
456.3345256394216
 20
600.0
 30
0.0
  9
$EXTMAX
 10
3700.0
 20
5573.3045233333341
 30
0.0
  9
$LIMMIN
 10
0.0
 20
0.0
  9
$LIMMAX
 10
297.0
 20
210.0
  9
$ORTHOMODE
 70
     0
  9
$REGENMODE
 70
     1
  9
$FILLMODE
 70
     0
  9
$QTEXTMODE
 70
     0
  9
$MIRRTEXT
 70
     1
  9
$DRAGMODE
 70
     2
  9
$LTSCALE
 40
100.0
  9
$OSMODE
 70
    37
  9
$ATTMODE
 70
     1
  9
$TEXTSIZE
 40
180.0
  9
$TRACEWID
 40
0.05
  9
$TEXTSTYLE
  7
STANDARD
  9
$CLAYER
  8
3
  9
$CELTYPE
  6
BYLAYER
  9
$CECOLOR
 62
   256
  9
$DIMSCALE
 40
20.0
  9
$DIMASZ
 40
2.0
  9
$DIMEXO
 40
0.5
  9
$DIMDLI
 40
10.0
  9
$DIMRND
 40
0.0
  9
$DIMDLE
 40
0.0
  9
$DIMEXE
 40
1.0
  9
$DIMTP
 40
1.0
  9
$DIMTM
 40
1.0
  9
$DIMTXT
 40
3.0
  9
$DIMCEN
 40
0.0
  9
$DIMTSZ
 40
0.0
  9
$DIMTOL
 70
     0
  9
$DIMLIM
 70
     0
  9
$DIMTIH
 70
     0
  9
$DIMTOH
 70
     0
  9
$DIMSE1
 70
     0
  9
$DIMSE2
 70
     0
  9
$DIMTAD
 70
     1
  9
$DIMZIN
 70
     8
  9
$DIMBLK
  1

  9
$DIMASO
 70
     1
  9
$DIMSHO
 70
     1
  9
$DIMPOST
  1
(<>)
  9
$DIMAPOST
  1

  9
$DIMALT
 70
     0
  9
$DIMALTD
 70
     2
  9
$DIMALTF
 40
0.039
  9
$DIMLFAC
 40
1.0
  9
$DIMTOFL
 70
     1
  9
$DIMTVP
 40
0.0
  9
$DIMTIX
 70
     0
  9
$DIMSOXD
 70
     0
  9
$DIMSAH
 70
     1
  9
$DIMBLK1
  1
OPEN
  9
$DIMBLK2
  1
OPEN
  9
$DIMSTYLE
  2
IGA
  9
$DIMCLRD
 70
     0
  9
$DIMCLRE
 70
     0
  9
$DIMCLRT
 70
     0
  9
$DIMTFAC
 40
10.0
  9
$DIMGAP
 40
1.0
  9
$LUNITS
 70
     2
  9
$LUPREC
 70
     3
  9
$SKETCHINC
 40
0.1
  9
$FILLETRAD
 40
50.0
  9
$AUNITS
 70
     0
  9
$AUPREC
 70
     0
  9
$MENU
  1
acad
  9
$ELEVATION
 40
0.0
  9
$PELEVATION
 40
0.0
  9
$THICKNESS
 40
0.0
  9
$LIMCHECK
 70
     0
  9
$BLIPMODE
 70
     0
  9
$CHAMFERA
 40
0.5
  9
$CHAMFERB
 40
0.5
  9
$SKPOLY
 70
     0
  9
$TDCREATE
 40
2450763.4596843752
  9
$TDUPDATE
 40
2454953.6818118752
  9
$TDINDWG
 40
0.0159591088
  9
$TDUSRTIMER
 40
0.0159591088
  9
$USRTIMER
 70
     1
  9
$ANGBASE
 50
0.0
  9
$ANGDIR
 70
     0
  9
$PDMODE
 70
     0
  9
$PDSIZE
 40
0.0
  9
$PLINEWID
 40
0.0
  9
$COORDS
 70
     1
  9
$SPLFRAME
 70
     0
  9
$SPLINETYPE
 70
     6
  9
$SPLINESEGS
 70
     8
  9
$ATTDIA
 70
     0
  9
$ATTREQ
 70
     1
  9
$HANDLING
 70
 10241
  9
$HANDSEED
  5
8164
  9
$SURFTAB1
 70
     6
  9
$SURFTAB2
 70
     6
  9
$SURFTYPE
 70
     6
  9
$SURFU
 70
     6
  9
$SURFV
 70
     6
  9
$UCSNAME
  2

  9
$UCSORG
 10
0.0
 20
0.0
 30
0.0
  9
$UCSXDIR
 10
1.0
 20
0.0
 30
0.0
  9
$UCSYDIR
 10
0.0
 20
1.0
 30
0.0
  9
$PUCSNAME
  2

  9
$PUCSORG
 10
0.0
 20
0.0
 30
0.0
  9
$PUCSXDIR
 10
1.0
 20
0.0
 30
0.0
  9
$PUCSYDIR
 10
0.0
 20
1.0
 30
0.0
  9
$USERI1
 70
     0
  9
$USERI2
 70
     0
  9
$USERI3
 70
     0
  9
$USERI4
 70
     0
  9
$USERI5
 70
     0
  9
$USERR1
 40
0.0
  9
$USERR2
 40
0.0
  9
$USERR3
 40
0.0
  9
$USERR4
 40
0.0
  9
$USERR5
 40
0.0
  9
$WORLDVIEW
 70
     1
  9
$SHADEDGE
 70
     3
  9
$SHADEDIF
 70
    70
  9
$TILEMODE
 70
     1
  9
$MAXACTVP
 70
    16
  9
$PLIMCHECK
 70
     0
  9
$PEXTMIN
 10
1.0000000000000000E+020
 20
1.0000000000000000E+020
 30
1.0000000000000000E+020
  9
$PEXTMAX
 10
-1.0000000000000000E+020
 20
-1.0000000000000000E+020
 30
-1.0000000000000000E+020
  9
$PLIMMIN
 10
0.0
 20
0.0
  9
$PLIMMAX
 10
12.0
 20
9.0
  9
$UNITMODE
 70
     0
  9
$VISRETAIN
 70
     0
  9
$PLINEGEN
 70
     0
  9
$PSLTSCALE
 70
     1
  0
ENDSEC
  0
SECTION
  2
TABLES
  0
TABLE
  2
VPORT
 70
     2
  0
VPORT
  2
*ACTIVE
 70
     0
 10
0.0
 20
0.0
 11
1.0
 21
1.0
 12
9039.1639654793962
 22
3502.8431429134962
 13
0.0
 23
0.0
 14
10.0
 24
10.0
 15
10.0
 25
10.0
 16
0.0
 26
0.0
 36
1.0
 17
0.0
 27
0.0
 37
0.0
 40
8361.6280966521699
 41
3.1666666666666661
 42
50.0
 43
0.0
 44
0.0
 50
0.0
 51
0.0
 71
     0
 72
   100
 73
     1
 74
     0
 75
     0
 76
     0
 77
     0
 78
     0
  0
ENDTAB
  0
TABLE
  2
LTYPE
 70
     2
  0
LTYPE
  2
CONTINUOUS
 70
     0
  3
Solid line
 72
    65
 73
     0
 40
0.0
  0
LTYPE
  2
CENTER
 70
     0
  3
____ _ ____ _ ____ _ ____ _ ____ _ ____ _ ____ 
 72
    65
 73
     4
 40
2.0
 49
1.25
 49
-0.25
 49
0.25
 49
-0.25
  0
ENDTAB
  0
TABLE
  2
LAYER
 70
     6
  0
LAYER
  2
0
 70
     0
 62
     7
  6
CONTINUOUS
  0
LAYER
  2
3
 70
     0
 62
     2
  6
CONTINUOUS
  0
LAYER
  2
2
 70
     0
 62
     3
  6
CENTER
  0
LAYER
  2
1
 70
     0
 62
     4
  6
CONTINUOUS
  0
LAYER
  2
4
 70
     0
 62
     7
  6
CONTINUOUS
  0
LAYER
  2
DEFPOINTS
 70
     0
 62
     7
  6
CONTINUOUS
  0
ENDTAB
  0
TABLE
  2
STYLE
 70
     1
  0
STYLE
  2
STANDARD
 70
     0
 40
0.0
 41
1.0
 50
0.0
 71
     0
 42
180.0
  3
simplex.shx
  4
extfont.shx
  0
ENDTAB
  0
TABLE
  2
VIEW
 70
     0
  0
ENDTAB
  0
TABLE
  2
UCS
 70
     0
  0
ENDTAB
  0
TABLE
  2
APPID
 70
     1
  0
APPID
  2
ACAD
 70
     0
  0
ENDTAB
  0
TABLE
  2
DIMSTYLE
 70
     1
  0
DIMSTYLE
  2
IGA
 70
     0
  3

  4

  5

  6
OPEN
  7
OPEN
 40
2.0
 41
2.0
 42
0.5
 43
10.0
 44
1.0
 45
0.0
 46
0.0
 47
1.0
 48
1.0
140
3.0
141
0.0
142
0.0
143
0.03937
144
1.0
145
0.0
146
10.0
147
1.0
 71
     0
 72
     0
 73
     0
 74
     0
 75
     0
 76
     0
 77
     1
 78
     8
170
     0
171
     2
172
     0
173
     1
174
     0
175
     0
176
     0
177
     0
178
     0
  0
ENDTAB
  0
ENDSEC
  0
SECTION
  2
BLOCKS
  0
BLOCK
  8
0
  2
$MODEL_SPACE
 70
     0
 10
0.0
 20
0.0
 30
0.0
  3
$MODEL_SPACE
  1

  0
ENDBLK
  5
1B
  8
0
  0
BLOCK
 67
     1
  8
0
  2
$PAPER_SPACE
 70
     0
 10
0.0
 20
0.0
 30
0.0
  3
$PAPER_SPACE
  1

  0
ENDBLK
  5
18
 67
     1
  8
0
  0
BLOCK
  8
0
  2
_OPEN
 70
     0
 10
0.0
 20
0.0
 30
0.0
  3
_OPEN
  1

  0
LINE
  5
7B29
  8
0
  6
BYBLOCK
 62
     0
 10
-1.0
 20
0.166667
 30
0.0
 11
0.0
 21
0.0
 31
0.0
  0
LINE
  5
7B2A
  8
0
  6
BYBLOCK
 62
     0
 10
0.0
 20
0.0
 30
0.0
 11
-1.0
 21
-0.166667
 31
0.0
  0
LINE
  5
7B2B
  8
0
  6
BYBLOCK
 62
     0
 10
0.0
 20
0.0
 30
0.0
 11
-1.0
 21
0.0
 31
0.0
  0
ENDBLK
  5
7B2C
  8
0
  0
BLOCK
  8
0
  2
*D1
 70
     1
 10
0.0
 20
0.0
 30
0.0
  3
*D1
  1

  0
LINE
  5
80AA
  8
3
 62
     0
 10
983.6326742333049
 20
2755.554619006457
 30
0.0
 11
861.1535241908482
 21
2755.554619006457
 31
0.0
  0
LINE
  5
80AB
  8
3
 62
     0
 10
983.6326742333049
 20
2243.554619006457
 30
0.0
 11
861.15352419084797
 21
2243.554619006457
 31
0.0
  0
LINE
  5
80AC
  8
3
 62
     0
 10
881.15352419084809
 20
2715.554619006457
 30
0.0
 11
881.15352419084809
 21
2283.554619006457
 31
0.0
  0
INSERT
  5
80AD
  8
3
 62
     0
  2
_OPEN
 10
881.15352419084809
 20
2755.554619006457
 30
0.0
 41
40.0
 42
40.0
 43
40.0
 50
90.0
  0
INSERT
  5
80AE
  8
3
 62
     0
  2
_OPEN
 10
881.15352419084809
 20
2243.554619006457
 30
0.0
 41
40.0
 42
40.0
 43
40.0
 50
270.0
  0
TEXT
  8
3
  40
60
  5
8151
  62
0
  72
0
  71
0
 10
711.154
 20
2413.98
 30
0.000000
  1
512
  0
POINT
  5
80B0
  8
DEFPOINTS
 62
     0
 10
993.6326742333049
 20
2755.554619006457
 30
0.0
  0
POINT
  5
80B1
  8
DEFPOINTS
 62
     0
 10
993.6326742333049
 20
2243.554619006457
 30
0.0
  0
POINT
  5
80B2
  8
DEFPOINTS
 62
     0
 10
881.15352419084809
 20
2243.554619006457
 30
0.0
  0
ENDBLK
  5
7EE8
  8
0
  0
BLOCK
  8
0
  2
*D2
 70
     1
 10
0.0
 20
0.0
 30
0.0
  3
*D2
  1

  0
LINE
  5
80B3
  8
3
 62
     0
 10
983.6326742333049
 20
2755.554619006457
 30
0.0
 11
735.71609010532518
 21
2755.554619006457
 31
0.0
  0
LINE
  5
80B4
  8
3
 62
     0
 10
1045.239867233304
 20
2217.554619006457
 30
0.0
 11
735.71609010532507
 21
2217.554619006457
 31
0.0
  0
LINE
  5
80B5
  8
3
 62
     0
 10
755.71609010532518
 20
2715.554619006457
 30
0.0
 11
755.71609010532518
 21
2257.554619006457
 31
0.0
  0
INSERT
  5
80B6
  8
3
 62
     0
  2
_OPEN
 10
755.71609010532518
 20
2755.554619006457
 30
0.0
 41
40.0
 42
40.0
 43
40.0
 50
90.0
  0
INSERT
  5
80B7
  8
3
 62
     0
  2
_OPEN
 10
755.71609010532518
 20
2217.554619006457
 30
0.0
 41
40.0
 42
40.0
 43
40.0
 50
270.0
  0
TEXT
  8
3
  40
60
  5
8152
  62
0
  72
0
  71
0
 10
585.716
 20
2367.95
 30
0.000000
  1
538
  0
POINT
  5
80B9
  8
DEFPOINTS
 62
     0
 10
993.6326742333049
 20
2755.554619006457
 30
0.0
  0
POINT
  5
80BA
  8
DEFPOINTS
 62
     0
 10
1055.239867233304
 20
2217.554619006457
 30
0.0
  0
POINT
  5
80BB
  8
DEFPOINTS
 62
     0
 10
755.71609010532518
 20
2217.554619006457
 30
0.0
  0
ENDBLK
  5
7EDD
  8
0
  0
BLOCK
  8
0
  2
*D3
 70
     1
 10
0.0
 20
0.0
 30
0.0
  3
*D3
  1

  0
LINE
  5
80BC
  8
3
 62
     0
 10
1045.239867233304
 20
2217.554619006457
 30
0.0
 11
735.71609010532484
 21
2217.554619006457
 31
0.0
  0
LINE
  5
80BD
  8
3
 62
     0
 10
1028.632674233304
 20
1797.554619006457
 30
0.0
 11
735.71609010532484
 21
1797.554619006457
 31
0.0
  0
LINE
  5
80BE
  8
3
 62
     0
 10
755.71609010532484
 20
2177.554619006457
 30
0.0
 11
755.71609010532484
 21
1837.554619006457
 31
0.0
  0
INSERT
  5
80BF
  8
3
 62
     0
  2
_OPEN
 10
755.71609010532484
 20
2217.554619006457
 30
0.0
 41
40.0
 42
40.0
 43
40.0
 50
90.0
  0
INSERT
  5
80C0
  8
3
 62
     0
  2
_OPEN
 10
755.71609010532484
 20
1797.554619006457
 30
0.0
 41
40.0
 42
40.0
 43
40.0
 50
270.0
  0
TEXT
  8
3
  40
60
  5
8153
  62
0
  72
0
  71
0
 10
585.716
 20
1901.35
 30
0.000000
  1
420
  0
POINT
  5
80C2
  8
DEFPOINTS
 62
     0
 10
1055.239867233304
 20
2217.554619006457
 30
0.0
  0
POINT
  5
80C3
  8
DEFPOINTS
 62
     0
 10
1038.632674233304
 20
1797.554619006457
 30
0.0
  0
POINT
  5
80C4
  8
DEFPOINTS
 62
     0
 10
755.71609010532484
 20
1797.554619006457
 30
0.0
  0
ENDBLK
  5
7ED2
  8
0
  0
BLOCK
  8
0
  2
*D4
 70
     1
 10
0.0
 20
0.0
 30
0.0
  3
*D4
  1

  0
LINE
  5
80C5
  8
3
 62
     0
 10
993.6326742333049
 20
2797.554619006457
 30
0.0
 11
993.6326742333049
 21
2901.344269055563
 31
0.0
  0
LINE
  5
80C6
  8
3
 62
     0
 10
1353.632674233304
 20
2736.554619006457
 30
0.0
 11
1353.632674233304
 21
2901.344269055563
 31
0.0
  0
LINE
  5
80C7
  8
3
 62
     0
 10
1033.6326742333049
 20
2881.344269055563
 30
0.0
 11
1313.632674233304
 21
2881.344269055563
 31
0.0
  0
INSERT
  5
80C8
  8
3
 62
     0
  2
_OPEN
 10
993.6326742333049
 20
2881.344269055563
 30
0.0
 41
40.0
 42
40.0
 43
40.0
 50
180.0
  0
INSERT
  5
80C9
  8
3
 62
     0
  2
_OPEN
 10
1353.632674233304
 20
2881.344269055563
 30
0.0
 41
40.0
 42
40.0
 43
40.0
  0
TEXT
  8
3
  40
60
  5
8154
  62
0
  72
0
  71
0
 10
1053.63
 20
2825.14
 30
0.000000
  1
360
  0
POINT
  5
80CB
  8
DEFPOINTS
 62
     0
 10
993.6326742333049
 20
2787.554619006457
 30
0.0
  0
POINT
  5
80CC
  8
DEFPOINTS
 62
     0
 10
1353.632674233304
 20
2726.554619006457
 30
0.0
  0
POINT
  5
80CD
  8
DEFPOINTS
 62
     0
 10
1353.632674233304
 20
2881.344269055563
 30
0.0
  0
ENDBLK
  5
7E81
  8
0
  0
BLOCK
  8
0
  2
*D5
 70
     1
 10
0.0
 20
0.0
 30
0.0
  3
*D5
  1

  0
LINE
  5
80CE
  8
3
 62
     0
 10
1353.632674233304
 20
2736.554619006457
 30
0.0
 11
1353.632674233304
 21
2899.9336830064572
 31
0.0
  0
LINE
  5
80CF
  8
3
 62
     0
 10
1788.3633792333051
 20
2227.554619006457
 30
0.0
 11
1788.3633792333051
 21
2899.9336830064572
 31
0.0
  0
LINE
  5
80D0
  8
3
 62
     0
 10
1393.632674233304
 20
2879.9336830064572
 30
0.0
 11
1748.3633792333039
 21
2879.9336830064572
 31
0.0
  0
INSERT
  5
80D1
  8
3
 62
     0
  2
_OPEN
 10
1353.632674233304
 20
2879.9336830064572
 30
0.0
 41
40.0
 42
40.0
 43
40.0
 50
180.0
  0
INSERT
  5
80D2
  8
3
 62
     0
  2
_OPEN
 10
1788.3633792333051
 20
2879.9336830064572
 30
0.0
 41
40.0
 42
40.0
 43
40.0
  0
TEXT
  8
3
  40
60
  5
8155
  62
0
  72
0
  71
0
 10
1451.00
 20
2823.73
 30
0.000000
  1
435
  0
POINT
  5
80D4
  8
DEFPOINTS
 62
     0
 10
1353.632674233304
 20
2726.554619006457
 30
0.0
  0
POINT
  5
80D5
  8
DEFPOINTS
 62
     0
 10
1788.3633792333051
 20
2217.554619006457
 30
0.0
  0
POINT
  5
80D6
  8
DEFPOINTS
 62
     0
 10
1788.3633792333051
 20
2879.9336830064572
 30
0.0
  0
ENDBLK
  5
7DD8
  8
0
  0
BLOCK
  8
0
  2
*D6
 70
     1
 10
0.0
 20
0.0
 30
0.0
  3
*D6
  1

  0
LINE
  5
80D7
  8
3
 62
     0
 10
1038.632674233304
 20
3667.3069659414259
 30
0.0
 11
1038.632674233304
 21
3400.048213307346
 31
0.0
  0
LINE
  5
80D8
  8
3
 62
     0
 10
2218.632674233304
 20
3667.3069659414259
 30
0.0
 11
2218.632674233304
 21
3400.048213307346
 31
0.0
  0
LINE
  5
80D9
  8
3
 62
     0
 10
1078.632674233304
 20
3420.048213307346
 30
0.0
 11
2178.6326742333049
 21
3420.048213307346
 31
0.0
  0
INSERT
  5
80DA
  8
3
 62
     0
  2
_OPEN
 10
1038.632674233304
 20
3420.048213307346
 30
0.0
 41
40.0
 42
40.0
 43
40.0
 50
180.0
  0
INSERT
  5
80DB
  8
3
 62
     0
  2
_OPEN
 10
2218.632674233304
 20
3420.048213307346
 30
0.0
 41
40.0
 42
40.0
 43
40.0
  0
TEXT
  8
3
  40
60
  5
8156
  62
0
  72
0
  71
0
 10
1483.93
 20
3363.85
 30
0.000000
  1
1180
  0
POINT
  5
80DD
  8
DEFPOINTS
 62
     0
 10
1038.632674233304
 20
3677.3069659414259
 30
0.0
  0
POINT
  5
80DE
  8
DEFPOINTS
 62
     0
 10
2218.632674233304
 20
3677.3069659414259
 30
0.0
  0
POINT
  5
80DF
  8
DEFPOINTS
 62
     0
 10
2218.632674233304
 20
3420.048213307346
 30
0.0
  0
ENDBLK
  5
7EF3
  8
0
  0
BLOCK
  8
0
  2
*D7
 70
     1
 10
0.0
 20
0.0
 30
0.0
  3
*D7
  1

  0
LINE
  5
80E0
  8
3
 62
     0
 10
2228.632674233304
 20
4237.3069659414259
 30
0.0
 11
2486.0912432333048
 21
4237.3069659414259
 31
0.0
  0
LINE
  5
80E1
  8
3
 62
     0
 10
2228.632674233304
 20
3677.3069659414259
 30
0.0
 11
2486.0912432333048
 21
3677.3069659414259
 31
0.0
  0
LINE
  5
80E2
  8
3
 62
     0
 10
2466.0912432333048
 20
4197.306965941425
 30
0.0
 11
2466.0912432333048
 21
3717.3069659414259
 31
0.0
  0
INSERT
  5
80E3
  8
3
 62
     0
  2
_OPEN
 10
2466.0912432333048
 20
4237.3069659414259
 30
0.0
 41
40.0
 42
40.0
 43
40.0
 50
90.0
  0
INSERT
  5
80E4
  8
3
 62
     0
  2
_OPEN
 10
2466.0912432333048
 20
3677.3069659414259
 30
0.0
 41
40.0
 42
40.0
 43
40.0
 50
270.0
  0
TEXT
  8
3
  40
60
  5
8157
  62
0
  72
0
  71
0
 10
2296.09
 20
3884.52
 30
0.000000
  1
560
  0
POINT
  5
80E6
  8
DEFPOINTS
 62
     0
 10
2218.632674233304
 20
4237.3069659414259
 30
0.0
  0
POINT
  5
80E7
  8
DEFPOINTS
 62
     0
 10
2218.632674233304
 20
3677.3069659414259
 30
0.0
  0
POINT
  5
80E8
  8
DEFPOINTS
 62
     0
 10
2466.0912432333048
 20
3677.3069659414259
 30
0.0
  0
ENDBLK
  5
7DC2
  8
0
  0
BLOCK
  8
0
  2
*D8
 70
     1
 10
0.0
 20
0.0
 30
0.0
  3
*D8
  1

  0
LINE
  5
80E9
  8
3
 62
     0
 10
2840.6988386821399
 20
2767.554619006457
 30
0.0
 11
2840.6988386821399
 21
2986.248557204879
 31
0.0
  0
LINE
  5
80EA
  8
3
 62
     0
 10
3215.6988386821399
 20
2767.554619006457
 30
0.0
 11
3215.6988386821399
 21
2986.248557204879
 31
0.0
  0
LINE
  5
80EB
  8
3
 62
     0
 10
2880.6988386821399
 20
2966.248557204879
 30
0.0
 11
3175.6988386821399
 21
2966.248557204879
 31
0.0
  0
INSERT
  5
80EC
  8
3
 62
     0
  2
_OPEN
 10
2840.6988386821399
 20
2966.248557204879
 30
0.0
 41
40.0
 42
40.0
 43
40.0
 50
180.0
  0
INSERT
  5
80ED
  8
3
 62
     0
  2
_OPEN
 10
3215.6988386821399
 20
2966.248557204879
 30
0.0
 41
40.0
 42
40.0
 43
40.0
  0
TEXT
  8
3
  40
60
  5
8158
  62
0
  72
0
  71
0
 10
2908.20
 20
2910.05
 30
0.000000
  1
375
  0
POINT
  5
80EF
  8
DEFPOINTS
 62
     0
 10
2840.6988386821399
 20
2757.554619006457
 30
0.0
  0
POINT
  5
80F0
  8
DEFPOINTS
 62
     0
 10
3215.6988386821399
 20
2757.554619006457
 30
0.0
  0
POINT
  5
80F1
  8
DEFPOINTS
 62
     0
 10
3215.6988386821399
 20
2966.248557204879
 30
0.0
  0
ENDBLK
  5
7DB7
  8
0
  0
BLOCK
  8
0
  2
*D9
 70
     1
 10
0.0
 20
0.0
 30
0.0
  3
*D9
  1

  0
LINE
  5
80F2
  8
3
 62
     0
 10
2618.1988386821399
 20
2352.554619006457
 30
0.0
 11
2618.1988386821399
 21
3133.279370584507
 31
0.0
  0
LINE
  5
80F3
  8
3
 62
     0
 10
3028.1988386821399
 20
3060.6452701919402
 30
0.0
 11
3028.1988386821399
 21
3133.279370584507
 31
0.0
  0
LINE
  5
80F4
  8
3
 62
     0
 10
2658.1988386821399
 20
3113.279370584507
 30
0.0
 11
2988.1988386821399
 21
3113.279370584507
 31
0.0
  0
INSERT
  5
80F5
  8
3
 62
     0
  2
_OPEN
 10
2618.1988386821399
 20
3113.279370584507
 30
0.0
 41
40.0
 42
40.0
 43
40.0
 50
180.0
  0
INSERT
  5
80F6
  8
3
 62
     0
  2
_OPEN
 10
3028.1988386821399
 20
3113.279370584507
 30
0.0
 41
40.0
 42
40.0
 43
40.0
  0
TEXT
  8
3
  40
60
  5
8159
  62
0
  72
0
  71
0
 10
2711.06
 20
3107.08
 30
0.000000
  1
MAX
  0
TEXT
  8
3
  40
60
  5
815A
  62
0
  72
0
  71
0
 10
2711.06
 20
3029.08
 30
0.000000
  1
450
  0
POINT
  5
80F8
  8
DEFPOINTS
 62
     0
 10
2618.1988386821399
 20
2342.554619006457
 30
0.0
  0
POINT
  5
80F9
  8
DEFPOINTS
 62
     0
 10
3028.1988386821399
 20
3050.6452701919411
 30
0.0
  0
POINT
  5
80FA
  8
DEFPOINTS
 62
     0
 10
3028.1988386821399
 20
3113.279370584507
 30
0.0
  0
ENDBLK
  5
7EFE
  8
0
  0
BLOCK
  8
0
  2
*D10
 70
     1
 10
0.0
 20
0.0
 30
0.0
  3
*D10
  1

  0
LINE
  5
80FB
  8
3
 62
     0
 10
3028.1988386821399
 20
3060.6452701919402
 30
0.0
 11
3028.1988386821399
 21
3133.279370584507
 31
0.0
  0
LINE
  5
80FC
  8
3
 62
     0
 10
3279.1988386821399
 20
2507.554619006457
 30
0.0
 11
3279.1988386821399
 21
3133.279370584507
 31
0.0
  0
LINE
  5
80FD
  8
3
 62
     0
 10
3068.1988386821399
 20
3113.279370584507
 30
0.0
 11
3239.1988386821399
 21
3113.279370584507
 31
0.0
  0
INSERT
  5
80FE
  8
3
 62
     0
  2
_OPEN
 10
3028.1988386821399
 20
3113.279370584507
 30
0.0
 41
40.0
 42
40.0
 43
40.0
 50
180.0
  0
INSERT
  5
80FF
  8
3
 62
     0
  2
_OPEN
 10
3279.1988386821399
 20
3113.279370584507
 30
0.0
 41
40.0
 42
40.0
 43
40.0
  0
TEXT
  8
3
  40
60
  5
815B
  62
0
  72
0
  71
0
 10
3034.91
 20
3057.08
 30
0.000000
  1
251
  0
POINT
  5
8101
  8
DEFPOINTS
 62
     0
 10
3028.1988386821399
 20
3050.6452701919411
 30
0.0
  0
POINT
  5
8102
  8
DEFPOINTS
 62
     0
 10
3279.1988386821399
 20
2497.554619006457
 30
0.0
  0
POINT
  5
8103
  8
DEFPOINTS
 62
     0
 10
3279.1988386821399
 20
3113.279370584507
 30
0.0
  0
ENDBLK
  5
7DA1
  8
0
  0
BLOCK
  8
0
  2
*D11
 70
     1
 10
0.0
 20
0.0
 30
0.0
  3
*D11
  1

  0
LINE
  5
8104
  8
3
 62
     0
 10
3289.1988386821399
 20
2467.554619006457
 30
0.0
 11
3429.7084180946108
 21
2467.554619006457
 31
0.0
  0
LINE
  5
8105
  8
3
 62
     0
 10
3289.1988386821399
 20
1967.554619006457
 30
0.0
 11
3429.7084180946108
 21
1967.554619006457
 31
0.0
  0
LINE
  5
8106
  8
3
 62
     0
 10
3409.7084180946122
 20
2427.554619006457
 30
0.0
 11
3409.7084180946122
 21
2007.554619006457
 31
0.0
  0
INSERT
  5
8107
  8
3
 62
     0
  2
_OPEN
 10
3409.7084180946122
 20
2467.554619006457
 30
0.0
 41
40.0
 42
40.0
 43
40.0
 50
90.0
  0
INSERT
  5
8108
  8
3
 62
     0
  2
_OPEN
 10
3409.7084180946122
 20
1967.554619006457
 30
0.0
 41
40.0
 42
40.0
 43
40.0
 50
270.0
  0
TEXT
  8
3
  40
60
  5
815C
  62
0
  72
0
  71
0
 10
3239.71
 20
2111.35
 30
0.000000
  1
φ500
  0
POINT
  5
810A
  8
DEFPOINTS
 62
     0
 10
3279.1988386821399
 20
2467.554619006457
 30
0.0
  0
POINT
  5
810B
  8
DEFPOINTS
 62
     0
 10
3279.1988386821399
 20
1967.554619006457
 30
0.0
  0
POINT
  5
810C
  8
DEFPOINTS
 62
     0
 10
3409.7084180946122
 20
1967.554619006457
 30
0.0
  0
ENDBLK
  5
7F0A
  8
0
  0
BLOCK
  8
0
  2
*D12
 70
     1
 10
0.0
 20
0.0
 30
0.0
  3
*D12
  1

  0
LINE
  5
810D
  8
3
 62
     0
 10
993.6326742333049
 20
2797.554619006457
 30
0.0
 11
993.6326742333049
 21
3027.200657244975
 31
0.0
  0
LINE
  5
810E
  8
3
 62
     0
 10
2218.632674233304
 20
1882.554619006457
 30
0.0
 11
2218.632674233304
 21
3027.200657244975
 31
0.0
  0
LINE
  5
810F
  8
3
 62
     0
 10
1033.6326742333049
 20
3007.200657244975
 30
0.0
 11
2178.6326742333049
 21
3007.200657244975
 31
0.0
  0
INSERT
  5
8110
  8
3
 62
     0
  2
_OPEN
 10
993.6326742333049
 20
3007.200657244975
 30
0.0
 41
40.0
 42
40.0
 43
40.0
 50
180.0
  0
INSERT
  5
8111
  8
3
 62
     0
  2
_OPEN
 10
2218.632674233304
 20
3007.200657244975
 30
0.0
 41
40.0
 42
40.0
 43
40.0
  0
TEXT
  8
3
  40
60
  5
815D
  62
0
  72
0
  71
0
 10
1470.27
 20
2951.00
 30
0.000000
  1
1225
  0
POINT
  5
8113
  8
DEFPOINTS
 62
     0
 10
993.6326742333049
 20
2787.554619006457
 30
0.0
  0
POINT
  5
8114
  8
DEFPOINTS
 62
     0
 10
2218.632674233304
 20
1872.554619006457
 30
0.0
  0
POINT
  5
8115
  8
DEFPOINTS
 62
     0
 10
2218.632674233304
 20
3007.200657244975
 30
0.0
  0
ENDBLK
  5
7F2C
  8
0
  0
BLOCK
  8
0
  2
*D13
 70
     1
 10
0.0
 20
0.0
 30
0.0
  3
*D13
  1

  0
LINE
  5
8116
  8
3
 62
     0
 10
1038.632674233304
 20
1627.554619006457
 30
0.0
 11
1038.632674233304
 21
1473.5846325728501
 31
0.0
  0
LINE
  5
8117
  8
3
 62
     0
 10
1353.632674233304
 20
1627.554619006457
 30
0.0
 11
1353.632674233304
 21
1473.5846325728501
 31
0.0
  0
LINE
  5
8118
  8
3
 62
     0
 10
1078.632674233304
 20
1493.5846325728501
 30
0.0
 11
1313.632674233304
 21
1493.5846325728501
 31
0.0
  0
INSERT
  5
8119
  8
3
 62
     0
  2
_OPEN
 10
1038.632674233304
 20
1493.5846325728501
 30
0.0
 41
40.0
 42
40.0
 43
40.0
 50
180.0
  0
INSERT
  5
811A
  8
3
 62
     0
  2
_OPEN
 10
1353.632674233304
 20
1493.5846325728501
 30
0.0
 41
40.0
 42
40.0
 43
40.0
  0
TEXT
  8
3
  40
60
  5
815E
  62
0
  72
0
  71
0
 10
1076.13
 20
1437.38
 30
0.000000
  1
315
  0
POINT
  5
811C
  8
DEFPOINTS
 62
     0
 10
1038.632674233304
 20
1637.554619006457
 30
0.0
  0
POINT
  5
811D
  8
DEFPOINTS
 62
     0
 10
1353.632674233304
 20
1637.554619006457
 30
0.0
  0
POINT
  5
811E
  8
DEFPOINTS
 62
     0
 10
1353.632674233304
 20
1493.5846325728501
 30
0.0
  0
ENDBLK
  5
7F4A
  8
0
  0
BLOCK
  8
0
  2
*D14
 70
     1
 10
0.0
 20
0.0
 30
0.0
  3
*D14
  1

  0
LINE
  5
811F
  8
3
 62
     0
 10
1353.632674233304
 20
1627.554619006457
 30
0.0
 11
1353.632674233304
 21
1473.5846325728501
 31
0.0
  0
LINE
  5
8120
  8
3
 62
     0
 10
2218.632674233304
 20
1627.554619006457
 30
0.0
 11
2218.632674233304
 21
1473.5846325728501
 31
0.0
  0
LINE
  5
8121
  8
3
 62
     0
 10
1393.632674233304
 20
1493.5846325728501
 30
0.0
 11
2178.6326742333049
 21
1493.5846325728501
 31
0.0
  0
INSERT
  5
8122
  8
3
 62
     0
  2
_OPEN
 10
1353.632674233304
 20
1493.5846325728501
 30
0.0
 41
40.0
 42
40.0
 43
40.0
 50
180.0
  0
INSERT
  5
8123
  8
3
 62
     0
  2
_OPEN
 10
2218.632674233304
 20
1493.5846325728501
 30
0.0
 41
40.0
 42
40.0
 43
40.0
  0
TEXT
  8
3
  40
60
  5
815F
  62
0
  72
0
  71
0
 10
1666.13
 20
1437.38
 30
0.000000
  1
865
  0
POINT
  5
8125
  8
DEFPOINTS
 62
     0
 10
1353.632674233304
 20
1637.554619006457
 30
0.0
  0
POINT
  5
8126
  8
DEFPOINTS
 62
     0
 10
2218.632674233304
 20
1637.554619006457
 30
0.0
  0
POINT
  5
8127
  8
DEFPOINTS
 62
     0
 10
2218.632674233304
 20
1493.5846325728501
 30
0.0
  0
ENDBLK
  5
7F57
  8
0
  0
BLOCK
  8
0
  2
*D15
 70
     1
 10
0.0
 20
0.0
 30
0.0
  3
*D15
  1

  0
LINE
  5
8128
  8
3
 62
     0
 10
2698.1988386821399
 20
1627.554619006457
 30
0.0
 11
2698.1988386821399
 21
1473.5846325728501
 31
0.0
  0
LINE
  5
8129
  8
3
 62
     0
 10
3028.1988386821399
 20
1627.554619006457
 30
0.0
 11
3028.1988386821399
 21
1473.5846325728501
 31
0.0
  0
LINE
  5
812A
  8
3
 62
     0
 10
2738.1988386821399
 20
1493.5846325728501
 30
0.0
 11
2988.1988386821399
 21
1493.5846325728501
 31
0.0
  0
INSERT
  5
812B
  8
3
 62
     0
  2
_OPEN
 10
2698.1988386821399
 20
1493.5846325728501
 30
0.0
 41
40.0
 42
40.0
 43
40.0
 50
180.0
  0
INSERT
  5
812C
  8
3
 62
     0
  2
_OPEN
 10
3028.1988386821399
 20
1493.5846325728501
 30
0.0
 41
40.0
 42
40.0
 43
40.0
  0
TEXT
  8
3
  40
60
  5
8160
  62
0
  72
0
  71
0
 10
2743.20
 20
1437.38
 30
0.000000
  1
330
  0
POINT
  5
812E
  8
DEFPOINTS
 62
     0
 10
2698.1988386821399
 20
1637.554619006457
 30
0.0
  0
POINT
  5
812F
  8
DEFPOINTS
 62
     0
 10
3028.1988386821399
 20
1637.554619006457
 30
0.0
  0
POINT
  5
8130
  8
DEFPOINTS
 62
     0
 10
3028.1988386821399
 20
1493.5846325728501
 30
0.0
  0
ENDBLK
  5
7F64
  8
0
  0
BLOCK
  8
0
  2
*D16
 70
     1
 10
0.0
 20
0.0
 30
0.0
  3
*D16
  1

  0
LINE
  5
8131
  8
3
 62
     0
 10
3028.1988386821399
 20
1627.554619006457
 30
0.0
 11
3028.1988386821399
 21
1473.5846325728501
 31
0.0
  0
LINE
  5
8132
  8
3
 62
     0
 10
3258.1988386821399
 20
1627.554619006457
 30
0.0
 11
3258.1988386821399
 21
1473.5846325728501
 31
0.0
  0
LINE
  5
8133
  8
3
 62
     0
 10
3068.1988386821399
 20
1493.5846325728501
 30
0.0
 11
3218.1988386821399
 21
1493.5846325728501
 31
0.0
  0
INSERT
  5
8134
  8
3
 62
     0
  2
_OPEN
 10
3028.1988386821399
 20
1493.5846325728501
 30
0.0
 41
40.0
 42
40.0
 43
40.0
 50
180.0
  0
INSERT
  5
8135
  8
3
 62
     0
  2
_OPEN
 10
3258.1988386821399
 20
1493.5846325728501
 30
0.0
 41
40.0
 42
40.0
 43
40.0
  0
TEXT
  8
3
  40
60
  5
8161
  62
0
  72
0
  71
0
 10
3023.20
 20
1437.38
 30
0.000000
  1
230
  0
POINT
  5
8137
  8
DEFPOINTS
 62
     0
 10
3028.1988386821399
 20
1637.554619006457
 30
0.0
  0
POINT
  5
8138
  8
DEFPOINTS
 62
     0
 10
3258.1988386821399
 20
1637.554619006457
 30
0.0
  0
POINT
  5
8139
  8
DEFPOINTS
 62
     0
 10
3258.1988386821399
 20
1493.5846325728501
 30
0.0
  0
ENDBLK
  5
7F73
  8
0
  0
BLOCK
  8
0
  2
_DOT
 70
     0
 10
0.0
 20
0.0
 30
0.0
  3
_DOT
  1

  0
POLYLINE
  5
7F77
  8
0
  6
BYBLOCK
 62
     0
 66
     1
 10
0.0
 20
0.0
 30
0.0
 70
     1
 40
0.5
 41
0.5
  0
VERTEX
  5
813A
  8
0
  6
BYBLOCK
 62
     0
 10
-0.25
 20
0.0
 30
0.0
 42
1.0
  0
VERTEX
  5
813B
  8
0
  6
BYBLOCK
 62
     0
 10
0.25
 20
0.0
 30
0.0
 42
1.0
  0
SEQEND
  5
813C
  8
0
  6
BYBLOCK
 62
     0
  0
LINE
  5
7F7B
  8
0
  6
BYBLOCK
 62
     0
 10
-0.5
 20
0.0
 30
0.0
 11
-1.0
 21
0.0
 31
0.0
  0
ENDBLK
  5
7F7C
  8
0
  0
BLOCK
  8
0
  2
*D18
 70
     1
 10
0.0
 20
0.0
 30
0.0
  3
*D18
  1

  0
LINE
  5
813D
  8
3
 62
     0
 10
1028.632674233304
 20
1702.554619006457
 30
0.0
 11
733.85652156701315
 21
1702.554619006457
 31
0.0
  0
LINE
  5
813E
  8
3
 62
     0
 10
1028.632674233304
 20
1637.554619006457
 30
0.0
 11
733.85652156701315
 21
1637.554619006457
 31
0.0
  0
LINE
  5
813F
  8
3
 62
     0
 10
753.85652156701315
 20
1742.554619006457
 30
0.0
 11
753.85652156701315
 21
1782.554619006457
 31
0.0
  0
LINE
  5
8140
  8
3
 62
     0
 10
753.85652156701315
 20
1597.554619006457
 30
0.0
 11
753.85652156701315
 21
1420.4117618636001
 31
0.0
  0
LINE
  5
8141
  8
3
 62
     0
 10
753.85652156701315
 20
1702.554619006457
 30
0.0
 11
753.85652156701315
 21
1637.554619006457
 31
0.0
  0
INSERT
  5
8142
  8
3
 62
     0
  2
_DOT
 10
753.85652156701315
 20
1702.554619006457
 30
0.0
 41
40.0
 42
40.0
 43
40.0
 50
270.0
  0
INSERT
  5
8143
  8
3
 62
     0
  2
_OPEN
 10
753.85652156701315
 20
1637.554619006457
 30
0.0
 41
40.0
 42
40.0
 43
40.0
 50
90.0
  0
TEXT
  8
3
  40
60
  5
8162
  62
0
  72
0
  71
0
 10
583.857
 20
1382.78
 30
0.000000
  1
65
  0
POINT
  5
8145
  8
DEFPOINTS
 62
     0
 10
1038.632674233304
 20
1702.554619006457
 30
0.0
  0
POINT
  5
8146
  8
DEFPOINTS
 62
     0
 10
1038.632674233304
 20
1637.554619006457
 30
0.0
  0
POINT
  5
8147
  8
DEFPOINTS
 62
     0
 10
753.85652156701315
 20
1637.554619006457
 30
0.0
  0
ENDBLK
  5
7F8A
  8
0
  0
BLOCK
  8
0
  2
*D19
 70
     1
 10
0.0
 20
0.0
 30
0.0
  3
*D19
  1

  0
LINE
  5
7F8E
  8
0
  6
BYBLOCK
 62
     0
 10
1028.632674233304
 20
1702.554619006457
 30
0.0
 11
733.85652156701315
 21
1702.554619006457
 31
0.0
  0
LINE
  5
7F8F
  8
0
  6
BYBLOCK
 62
     0
 10
1028.632674233304
 20
1797.554619006457
 30
0.0
 11
733.85652156701315
 21
1797.554619006457
 31
0.0
  0
LINE
  5
7F90
  8
0
  6
BYBLOCK
 62
     0
 10
753.85652156701315
 20
1662.554619006457
 30
0.0
 11
753.85652156701315
 21
1622.554619006457
 31
0.0
  0
LINE
  5
7F91
  8
0
  6
BYBLOCK
 62
     0
 10
753.85652156701315
 20
1837.554619006457
 30
0.0
 11
753.85652156701315
 21
1877.554619006457
 31
0.0
  0
TEXT
  5
7F92
  8
3
 62
     0
 10
678.14223585272759
 20
1662.9117618636001
 30
0.0
 40
60.0
  1
(95)
 50
90.0
  0
LINE
  5
7F93
  8
0
  6
BYBLOCK
 62
     0
 10
753.85652156701315
 20
1702.554619006457
 30
0.0
 11
753.85652156701315
 21
1797.554619006457
 31
0.0
  0
INSERT
  5
7F94
  8
0
  6
BYBLOCK
 62
     0
  2
_DOT
 10
753.85652156701315
 20
1702.554619006457
 30
0.0
 41
40.0
 42
40.0
 43
40.0
 50
90.0
  0
INSERT
  5
7F95
  8
0
  6
BYBLOCK
 62
     0
  2
_OPEN
 10
753.85652156701315
 20
1797.554619006457
 30
0.0
 41
40.0
 42
40.0
 43
40.0
 50
270.0
  0
POINT
  5
7F96
  8
DEFPOINTS
  6
BYBLOCK
 62
     0
 10
1038.632674233304
 20
1702.554619006457
 30
0.0
  0
POINT
  5
7F97
  8
DEFPOINTS
  6
BYBLOCK
 62
     0
 10
1038.632674233304
 20
1797.554619006457
 30
0.0
  0
POINT
  5
7F98
  8
DEFPOINTS
  6
BYBLOCK
 62
     0
 10
753.85652156701315
 20
1797.554619006457
 30
0.0
  0
ENDBLK
  5
7F99
  8
0
  0
BLOCK
  8
0
  2
*D20
 70
     1
 10
0.0
 20
0.0
 30
0.0
  3
*D20
  1

  0
LINE
  5
8148
  8
3
 62
     0
 10
983.6326742333049
 20
2787.554619006457
 30
0.0
 11
553.47738278227928
 21
2787.554619006457
 31
0.0
  0
LINE
  5
8149
  8
3
 62
     0
 10
1028.632674233304
 20
1637.554619006457
 30
0.0
 11
553.47738278227916
 21
1637.554619006457
 31
0.0
  0
LINE
  5
814A
  8
3
 62
     0
 10
573.47738278227928
 20
2747.554619006457
 30
0.0
 11
573.47738278227905
 21
1677.554619006457
 31
0.0
  0
INSERT
  5
814B
  8
3
 62
     0
  2
_OPEN
 10
573.47738278227928
 20
2787.554619006457
 30
0.0
 41
40.0
 42
40.0
 43
40.0
 50
90.0
  0
INSERT
  5
814C
  8
3
 62
     0
  2
_OPEN
 10
573.47738278227905
 20
1637.554619006457
 30
0.0
 41
40.0
 42
40.0
 43
40.0
 50
270.0
  0
TEXT
  8
3
  40
60
  5
8163
  62
0
  72
0
  71
0
 10
387.763
 20
2106.35
 30
0.000000
  1
(1150)
  0
POINT
  5
814E
  8
DEFPOINTS
 62
     0
 10
993.6326742333049
 20
2787.554619006457
 30
0.0
  0
POINT
  5
814F
  8
DEFPOINTS
 62
     0
 10
1038.632674233304
 20
1637.554619006457
 30
0.0
  0
POINT
  5
8150
  8
DEFPOINTS
 62
     0
 10
573.47738278227905
 20
1637.554619006457
 30
0.0
  0
ENDBLK
  5
7FA6
  8
0
  0
ENDSEC
  0
SECTION
  2
ENTITIES
  0
LINE
  5
7A94
  8
1
 10
1790.0806642333041
 20
3819.8069659414259
 30
0.0
 11
1790.0806642333041
 21
4194.8069659414259
 31
0.0
  0
LINE
  5
7A95
  8
1
 10
1023.632674233304
 20
3819.8069659414259
 30
0.0
 11
1023.632674233304
 21
4194.8069659414259
 31
0.0
  0
LINE
  5
7A96
  8
1
 10
993.6326742333049
 20
4196.806965941425
 30
0.0
 11
993.6326742333049
 21
3787.3069659414259
 31
0.0
  0
LINE
  5
7A97
  8
1
 10
2218.632674233304
 20
3677.3069659414259
 30
0.0
 11
2218.632674233304
 21
4237.3069659414259
 31
0.0
  0
LINE
  5
7A98
  8
1
 10
1861.1326742333049
 20
3742.3069659414259
 30
0.0
 11
1861.1326742333049
 21
4142.3069659414259
 31
0.0
  0
LINE
  5
7A99
  8
1
 10
2146.132674233304
 20
3742.3069659414259
 30
0.0
 11
2146.132674233304
 21
4142.3069659414259
 31
0.0
  0
LINE
  5
7A9A
  8
1
 10
993.6326742333049
 20
3819.8069659414259
 30
0.0
 11
1790.0806642333041
 21
3819.8069659414259
 31
0.0
  0
CIRCLE
  5
7A9B
  8
1
 10
1353.632674233304
 20
2217.554619006457
 30
0.0
 40
250.0
  0
POLYLINE
  5
7A9C
  8
1
 66
     1
 10
0.0
 20
0.0
 30
0.0
  0
VERTEX
  5
80A3
  8
1
 10
993.6326742333049
 20
2755.554619006457
 30
0.0
  0
VERTEX
  5
80A4
  8
1
 10
1353.632674233304
 20
2726.554619006457
 30
0.0
 42
-0.391482
  0
VERTEX
  5
80A5
  8
1
 10
1790.0806642333041
 20
2254.554619006457
 30
0.0
 42
-0.440232
  0
VERTEX
  5
80A6
  8
1
 10
1355.523668233305
 20
1856.652552006457
 30
0.0
 42
-0.388666
  0
VERTEX
  5
80A7
  8
1
 10
1053.448876233304
 20
2186.554619006457
 30
0.0
 42
-0.053392
  0
VERTEX
  5
80A8
  8
1
 10
1059.552995233305
 20
2243.554619006457
 30
0.0
 42
-0.393627
  0
SEQEND
  5
80A9
  8
1
  0
LINE
  5
7AA4
  8
1
 10
1038.632674233304
 20
1797.554619006457
 30
0.0
 11
2218.632674233304
 21
1797.554619006457
 31
0.0
  0
LINE
  5
7AA6
  8
1
 10
1038.632674233304
 20
1702.554619006457
 30
0.0
 11
2218.632674233304
 21
1702.554619006457
 31
0.0
  0
LINE
  5
7AA7
  8
1
 10
1038.632674233304
 20
1637.554619006457
 30
0.0
 11
2218.632674233304
 21
1637.554619006457
 31
0.0
  0
CIRCLE
  5
7AA8
  8
1
 10
1353.632674233304
 20
2217.554619006457
 30
0.0
 40
280.0
  0
LINE
  5
7AA9
  8
1
 10
2029.592519233305
 20
2211.8292540064572
 30
0.0
 11
1379.592519233305
 21
2339.8292540064572
 31
0.0
  0
LINE
  5
7AAA
  8
1
 10
1977.6728282333049
 20
1967.279984006457
 30
0.0
 11
1327.6728282333049
 21
2095.2799840064572
 31
0.0
  0
LINE
  5
7AAB
  8
1
 10
2019.2085812333039
 20
2162.9194000064572
 30
0.0
 11
1369.2085812333039
 21
2290.9194000064572
 31
0.0
  0
LINE
  5
7AAC
  8
1
 10
1988.056766233304
 20
2016.189838006457
 30
0.0
 11
1338.0567662333051
 21
2144.1898380064572
 31
0.0
  0
LINE
  5
7AAD
  8
1
 10
2128.632674233304
 20
3735.306965941425
 30
0.0
 11
1228.632674233304
 21
3735.306965941425
 31
0.0
  0
LINE
  5
7AAE
  8
1
 10
2128.632674233304
 20
3612.3069659414259
 30
0.0
 11
1228.632674233304
 21
3612.3069659414259
 31
0.0
  0
LINE
  5
7AAF
  8
1
 10
1928.6326742333049
 20
3677.3069659414259
 30
0.0
 11
1428.6326742333049
 21
3677.3069659414259
 31
0.0
  0
LINE
  5
7AB0
  8
1
 10
1038.632674233304
 20
1702.554619006457
 30
0.0
 11
1038.632674233304
 21
1637.554619006457
 31
0.0
  0
LINE
  5
7AB1
  8
1
 10
993.6326742333049
 20
2787.554619006457
 30
0.0
 11
993.6326742333049
 21
2211.554619006457
 31
0.0
  0
LINE
  5
7AB2
  8
1
 10
1023.632674233304
 20
2243.554619006457
 30
0.0
 11
1023.632674233304
 21
2753.137952006457
 31
0.0
  0
CIRCLE
  5
7AB3
  8
1
 10
1353.632674233304
 20
2217.554619006457
 30
0.0
 40
75.0
  0
ARC
  5
7AB4
  8
1
 10
1353.632674233304
 20
2217.554619006457
 30
0.0
 40
125.0
 50
78.013643000000002
 51
258.013643
  0
LINE
  5
7AB5
  8
2
 10
1353.632674233304
 20
1637.554619006457
 30
0.0
 11
1353.632674233304
 21
2787.3129980064568
 31
0.0
  0
LINE
  5
7AB6
  8
1
 10
1038.632674233304
 20
1872.554619006457
 30
0.0
 11
1038.632674233304
 21
1797.554619006457
 31
0.0
  0
LINE
  5
7AB7
  8
2
 10
3293.0061296821409
 20
2217.554619006457
 30
0.0
 11
2478.8430646821389
 21
2217.554619006457
 31
0.0
  0
LINE
  5
7AB8
  8
1
 10
1059.552995233305
 20
2243.554619006457
 30
0.0
 11
993.6326742333049
 21
2243.554619006457
 31
0.0
  0
LINE
  5
7AB9
  8
1
 10
1278.632674233304
 20
3677.3069659414259
 30
0.0
 11
1038.632674233304
 21
3677.3069659414259
 31
0.0
  0
LINE
  5
7ABA
  8
1
 10
1038.632674233304
 20
3677.3069659414259
 30
0.0
 11
1038.632674233304
 21
3819.8069659414259
 31
0.0
  0
LINE
  5
7ABB
  8
1
 10
1371.132674233304
 20
3819.8069659414259
 30
0.0
 11
1371.132674233304
 21
3705.3069659414259
 31
0.0
  0
LINE
  5
7ABC
  8
1
 10
1336.132674233304
 20
3819.8069659414259
 30
0.0
 11
1336.132674233304
 21
3705.3069659414259
 31
0.0
  0
LINE
  5
7ABD
  8
1
 10
1228.632674233304
 20
3612.3069659414259
 30
0.0
 11
1228.632674233304
 21
3735.306965941425
 31
0.0
  0
LINE
  5
7ABE
  8
1
 10
1428.6326742333049
 20
3705.3069659414259
 30
0.0
 11
1428.6326742333049
 21
3642.3069659414259
 31
0.0
  0
LINE
  5
7ABF
  8
1
 10
1278.632674233304
 20
3705.3069659414259
 30
0.0
 11
1278.632674233304
 21
3642.3069659414259
 31
0.0
  0
LINE
  5
7AC0
  8
1
 10
1428.6326742333049
 20
3705.3069659414259
 30
0.0
 11
1278.632674233304
 21
3705.3069659414259
 31
0.0
  0
LINE
  5
7AC1
  8
1
 10
1428.6326742333049
 20
3642.3069659414259
 30
0.0
 11
1278.632674233304
 21
3642.3069659414259
 31
0.0
  0
LINE
  5
7AC2
  8
1
 10
2218.632674233304
 20
1702.554619006457
 30
0.0
 11
2218.632674233304
 21
1637.554619006457
 31
0.0
  0
ARC
  5
7AC3
  8
1
 10
2003.632674233304
 20
2089.554619006457
 30
0.0
 40
143.0
 50
324.34590999999989
 51
215.65408999999991
  0
LINE
  5
7AC4
  8
1
 10
1838.6326742333049
 20
1957.554619006457
 30
0.0
 11
2168.632674233304
 21
1957.554619006457
 31
0.0
  0
CIRCLE
  5
7AC5
  8
1
 10
2003.632674233304
 20
2089.554619006457
 30
0.0
 40
75.0
  0
ARC
  5
7AC6
  8
1
 10
2003.632674233304
 20
2089.554619006457
 30
0.0
 40
125.0
 50
258.013643
 51
78.013643000000002
  0
LINE
  5
7AC7
  8
2
 10
2083.632674233304
 20
2089.554619006457
 30
0.0
 11
1923.6326742333049
 21
2089.554619006457
 31
0.0
  0
LINE
  5
7AC8
  8
1
 10
1828.632674233304
 20
1912.554619006457
 30
0.0
 11
1828.632674233304
 21
1872.554619006457
 31
0.0
  0
LINE
  5
7AC9
  8
1
 10
1873.632674233304
 20
1972.554619006457
 30
0.0
 11
1887.661951233305
 21
2006.7473630064569
 31
0.0
  0
LINE
  5
7ACA
  8
1
 10
1873.632674233304
 20
1957.554619006457
 30
0.0
 11
1873.632674233304
 21
1972.554619006457
 31
0.0
  0
LINE
  5
7ACB
  8
1
 10
1873.632674233304
 20
1957.554619006457
 30
0.0
 11
1923.6326742333049
 21
1957.554619006457
 31
0.0
  0
LINE
  5
7ACC
  8
1
 10
1828.632674233304
 20
1912.554619006457
 30
0.0
 11
1838.6326742333049
 21
1957.554619006457
 31
0.0
  0
LINE
  5
7ACD
  8
2
 10
2003.632674233304
 20
2009.554619006457
 30
0.0
 11
2003.632674233304
 21
2169.554619006457
 31
0.0
  0
LINE
  5
7ACE
  8
1
 10
2218.632674233304
 20
1872.554619006457
 30
0.0
 11
2218.632674233304
 21
1797.554619006457
 31
0.0
  0
LINE
  5
7ACF
  8
1
 10
2178.6326742333049
 20
1912.554619006457
 30
0.0
 11
2178.6326742333049
 21
1872.554619006457
 31
0.0
  0
LINE
  5
7AD0
  8
1
 10
2133.6326742333049
 20
1957.554619006457
 30
0.0
 11
2083.632674233304
 21
1957.554619006457
 31
0.0
  0
LINE
  5
7AD1
  8
1
 10
2133.6326742333049
 20
1957.554619006457
 30
0.0
 11
2133.6326742333049
 21
1972.554619006457
 31
0.0
  0
LINE
  5
7AD2
  8
1
 10
2133.6326742333049
 20
1972.554619006457
 30
0.0
 11
2119.603396233304
 21
2006.7473630064569
 31
0.0
  0
LINE
  5
7AD3
  8
1
 10
2168.632674233304
 20
1957.554619006457
 30
0.0
 11
2178.6326742333049
 21
1912.554619006457
 31
0.0
  0
LINE
  5
7AD4
  8
1
 10
2078.632674233304
 20
3642.3069659414259
 30
0.0
 11
1928.6326742333049
 21
3642.3069659414259
 31
0.0
  0
LINE
  5
7AD5
  8
1
 10
2078.632674233304
 20
3705.3069659414259
 30
0.0
 11
1928.6326742333049
 21
3705.3069659414259
 31
0.0
  0
LINE
  5
7AD6
  8
1
 10
2146.132674233304
 20
3742.3069659414259
 30
0.0
 11
1861.1326742333049
 21
3742.3069659414259
 31
0.0
  0
LINE
  5
7AD7
  8
1
 10
2022.632674233304
 20
3705.3069659414259
 30
0.0
 11
2022.632674233304
 21
3742.3069659414259
 31
0.0
  0
LINE
  5
7AD8
  8
1
 10
1984.632674233304
 20
3705.3069659414259
 30
0.0
 11
1984.632674233304
 21
3742.3069659414259
 31
0.0
  0
LINE
  5
7AD9
  8
1
 10
1928.6326742333049
 20
3705.3069659414259
 30
0.0
 11
1928.6326742333049
 21
3642.3069659414259
 31
0.0
  0
LINE
  5
7ADA
  8
1
 10
2218.632674233304
 20
3677.3069659414259
 30
0.0
 11
2078.632674233304
 21
3677.3069659414259
 31
0.0
  0
LINE
  5
7ADB
  8
1
 10
2128.632674233304
 20
3612.3069659414259
 30
0.0
 11
2128.632674233304
 21
3735.306965941425
 31
0.0
  0
LINE
  5
7ADC
  8
1
 10
2078.632674233304
 20
3705.3069659414259
 30
0.0
 11
2078.632674233304
 21
3642.3069659414259
 31
0.0
  0
LINE
  5
7ADD
  8
1
 10
993.6326742333049
 20
4194.8069659414259
 30
0.0
 11
1790.0806642333041
 21
4194.8069659414259
 31
0.0
  0
LINE
  5
7ADE
  8
1
 10
1073.632674233304
 20
4258.306965941425
 30
0.0
 11
1633.6326742333049
 21
4258.306965941425
 31
0.0
  0
LINE
  5
7ADF
  8
1
 10
993.6326742333049
 20
4197.306965941425
 30
0.0
 11
993.6326742333049
 21
4227.306965941425
 31
0.0
  0
LINE
  5
7AE0
  8
1
 10
1103.632674233304
 20
4194.8069659414259
 30
0.0
 11
1103.632674233304
 21
4258.306965941425
 31
0.0
  0
LINE
  5
7AE1
  8
1
 10
1103.632674233304
 20
4237.3069659414259
 30
0.0
 11
1038.632674233304
 21
4237.3069659414259
 31
0.0
  0
LINE
  5
7AE2
  8
1
 10
1038.632674233304
 20
4194.8069659414259
 30
0.0
 11
1038.632674233304
 21
4237.3069659414259
 31
0.0
  0
LINE
  5
7AE3
  8
1
 10
2218.632674233304
 20
4237.3069659414259
 30
0.0
 11
1603.632674233304
 21
4237.3069659414259
 31
0.0
  0
LINE
  5
7AE4
  8
1
 10
2146.132674233304
 20
4142.3069659414259
 30
0.0
 11
1861.1326742333049
 21
4142.3069659414259
 31
0.0
  0
LINE
  5
7AE5
  8
1
 10
1603.632674233304
 20
4194.8069659414259
 30
0.0
 11
1603.632674233304
 21
4258.306965941425
 31
0.0
  0
LINE
  5
7AE7
  8
1
 10
3258.1988386821399
 20
1637.554619006457
 30
0.0
 11
2698.1988386821399
 21
1637.554619006457
 31
0.0
  0
LINE
  5
7AE8
  8
1
 10
3258.1988386821399
 20
1702.554619006457
 30
0.0
 11
2698.1988386821399
 21
1702.554619006457
 31
0.0
  0
LINE
  5
7AE9
  8
1
 10
2698.1988386821399
 20
1637.554619006457
 30
0.0
 11
2698.1988386821399
 21
1702.554619006457
 31
0.0
  0
LINE
  5
7AEA
  8
1
 10
3258.1988386821399
 20
1637.554619006457
 30
0.0
 11
3258.1988386821399
 21
1702.554619006457
 31
0.0
  0
LINE
  5
7AEB
  8
1
 10
2840.6988386821399
 20
2241.554619006457
 30
0.0
 11
3215.6988386821399
 21
2757.554619006457
 31
0.0
  0
LINE
  5
7AEC
  8
1
 10
2840.6988386821399
 20
2757.554619006457
 30
0.0
 11
3215.6988386821399
 21
2241.554619006457
 31
0.0
  0
LINE
  5
7AED
  8
1
 10
3215.6988386821399
 20
2757.554619006457
 30
0.0
 11
3215.6988386821399
 21
2241.554619006457
 31
0.0
  0
LINE
  5
7AEE
  8
1
 10
2840.6988386821399
 20
2757.554619006457
 30
0.0
 11
2840.6988386821399
 21
2241.554619006457
 31
0.0
  0
LINE
  5
7AEF
  8
1
 10
2840.6988386821399
 20
2200.054619006457
 30
0.0
 11
2726.1988386821399
 21
2200.054619006457
 31
0.0
  0
LINE
  5
7AF0
  8
1
 10
2840.6988386821399
 20
2235.054619006457
 30
0.0
 11
2726.1988386821399
 21
2235.054619006457
 31
0.0
  0
LINE
  5
7AF1
  8
1
 10
2726.1988386821399
 20
2070.554619006457
 30
0.0
 11
2840.6988386821399
 21
2070.554619006457
 31
0.0
  0
LINE
  5
7AF2
  8
1
 10
2726.1988386821399
 20
2108.554619006457
 30
0.0
 11
2840.6988386821399
 21
2108.554619006457
 31
0.0
  0
LINE
  5
7AF4
  8
1
 10
3258.1988386821399
 20
1797.554619006457
 30
0.0
 11
2698.1988386821399
 21
1797.554619006457
 31
0.0
  0
LINE
  5
7AF5
  8
1
 10
2756.1988386821399
 20
1964.554619006457
 30
0.0
 11
2756.1988386821399
 21
2018.935647972133
 31
0.0
  0
LINE
  5
7AF6
  8
1
 10
2618.1988386821399
 20
1964.554619006457
 30
0.0
 11
2618.1988386821399
 21
2342.554619006457
 31
0.0
  0
LINE
  5
7AF7
  8
1
 10
2726.1988386821399
 20
2142.554619006457
 30
0.0
 11
2726.1988386821399
 21
2292.554619006457
 31
0.0
  0
LINE
  5
7AF8
  8
1
 10
2648.1988386821399
 20
2142.554619006457
 30
0.0
 11
2648.1988386821399
 21
2292.554619006457
 31
0.0
  0
LINE
  5
7AF9
  8
1
 10
2618.1988386821399
 20
1964.554619006457
 30
0.0
 11
2756.1988386821399
 21
1964.554619006457
 31
0.0
  0
LINE
  5
7AFA
  8
1
 10
2648.1988386821399
 20
2014.554619006457
 30
0.0
 11
2648.1988386821399
 21
2154.554619006457
 31
0.0
  0
LINE
  5
7AFB
  8
1
 10
2726.1988386821399
 20
2014.554619006457
 30
0.0
 11
2726.1988386821399
 21
2154.554619006457
 31
0.0
  0
LINE
  5
7AFC
  8
1
 10
2726.1988386821399
 20
2164.554619006457
 30
0.0
 11
2648.1988386821399
 21
2164.554619006457
 31
0.0
  0
LINE
  5
7AFD
  8
1
 10
2726.1988386821399
 20
2014.554619006457
 30
0.0
 11
2648.1988386821399
 21
2014.554619006457
 31
0.0
  0
LINE
  5
7AFE
  8
1
 10
2726.1988386821399
 20
2142.554619006457
 30
0.0
 11
2648.1988386821399
 21
2142.554619006457
 31
0.0
  0
LINE
  5
7AFF
  8
1
 10
2698.1988386821399
 20
1797.554619006457
 30
0.0
 11
2698.1988386821399
 21
1872.5546190064581
 31
0.0
  0
LINE
  5
7B00
  8
1
 10
2618.1988386821399
 20
2342.554619006457
 30
0.0
 11
2756.1988386821399
 21
2342.554619006457
 31
0.0
  0
LINE
  5
7B01
  8
1
 10
2726.1988386821399
 20
2292.554619006457
 30
0.0
 11
2648.1988386821399
 21
2292.554619006457
 31
0.0
  0
LINE
  5
7B02
  8
1
 10
3215.6988386821399
 20
2241.554619006457
 30
0.0
 11
3215.6988386821399
 21
1872.554619006457
 31
0.0
  0
LINE
  5
7B03
  8
1
 10
2840.6988386821399
 20
2241.554619006457
 30
0.0
 11
2840.6988386821399
 21
1872.554619006457
 31
0.0
  0
LINE
  5
7B04
  8
1
 10
3279.1988386821399
 20
1937.554619006457
 30
0.0
 11
3279.1988386821399
 21
2497.554619006457
 31
0.0
  0
LINE
  5
7B05
  8
1
 10
3258.1988386821399
 20
1797.554619006457
 30
0.0
 11
3258.1988386821399
 21
1872.5546190064581
 31
0.0
  0
LINE
  5
7B06
  8
1
 10
3215.6988386821399
 20
1967.554619006457
 30
0.0
 11
3279.1988386821399
 21
1967.554619006457
 31
0.0
  0
LINE
  5
7B07
  8
1
 10
2840.6988386821399
 20
2241.554619006457
 30
0.0
 11
3215.6988386821399
 21
2241.554619006457
 31
0.0
  0
LINE
  5
7B08
  8
1
 10
3215.6988386821399
 20
2467.554619006457
 30
0.0
 11
3279.1988386821399
 21
2467.554619006457
 31
0.0
  0
LINE
  5
7B09
  8
1
 10
3215.6988386821399
 20
2757.554619006457
 30
0.0
 11
2840.6988386821399
 21
2757.554619006457
 31
0.0
  0
DIMENSION
  5
7B54
  8
3
  2
*D1
 10
881.15352419084809
 20
2243.554619006457
 30
0.0
 11
881.15352419084775
 21
2520.1800500064569
 31
0.0
 70
   128
 13
993.6326742333049
 23
2755.554619006457
 33
0.0
 14
993.6326742333049
 24
2243.554619006457
 34
0.0
 50
90.0
1001
ACAD
1000
DSTYLE
1002
{
1070
   287
1070
     3
1070
   287
1070
     3
1070
    40
1040
20.0
1070
   143
1040
0.039
1070
   172
1070
     1
1070
   271
1070
     0
1070
   279
1070
     0
1070
   288
1070
     1
1002
}
  0
DIMENSION
  5
7B61
  8
3
  2
*D2
 10
755.71609010532518
 20
2217.554619006457
 30
0.0
 11
755.71609010532484
 21
2474.1533440267972
 31
0.0
 70
   128
 13
993.6326742333049
 23
2755.554619006457
 33
0.0
 14
1055.239867233304
 24
2217.554619006457
 34
0.0
 50
90.0
1001
ACAD
1000
DSTYLE
1002
{
1070
   287
1070
     3
1070
   287
1070
     3
1070
    40
1040
20.0
1070
   143
1040
0.039
1070
   172
1070
     1
1070
   271
1070
     0
1070
   279
1070
     0
1070
   288
1070
     1
1002
}
  0
DIMENSION
  5
7B6D
  8
3
  2
*D3
 10
755.71609010532484
 20
1797.554619006457
 30
0.0
 11
705.7160901053245
 21
2007.554619006457
 31
0.0
 70
     0
 13
1055.239867233304
 23
2217.554619006457
 33
0.0
 14
1038.632674233304
 24
1797.554619006457
 34
0.0
 50
90.0
1001
ACAD
1000
DSTYLE
1002
{
1070
   287
1070
     3
1070
   287
1070
     3
1070
    40
1040
20.0
1070
   143
1040
0.039
1070
   172
1070
     1
1070
   271
1070
     0
1070
   279
1070
     0
1070
   288
1070
     1
1002
}
  0
DIMENSION
  5
7BB3
  8
3
  2
*D4
 10
1353.632674233304
 20
2881.344269055563
 30
0.0
 11
1173.632674233304
 21
2881.344269055563
 31
0.0
 70
   128
 13
993.6326742333049
 23
2787.554619006457
 33
0.0
 14
1353.632674233304
 24
2726.554619006457
 34
0.0
1001
ACAD
1000
DSTYLE
1002
{
1070
   287
1070
     3
1070
   287
1070
     3
1070
    40
1040
20.0
1070
   143
1040
0.039
1070
   172
1070
     1
1070
   271
1070
     0
1070
   279
1070
     0
1070
   288
1070
     1
1002
}
  0
DIMENSION
  5
7BBF
  8
3
  2
*D5
 10
1788.3633792333051
 20
2879.9336830064572
 30
0.0
 11
1570.998026733304
 21
2929.9336830064572
 31
0.0
 70
     0
 13
1353.632674233304
 23
2726.554619006457
 33
0.0
 14
1788.3633792333051
 24
2217.554619006457
 34
0.0
1001
ACAD
1000
DSTYLE
1002
{
1070
   287
1070
     3
1070
   287
1070
     3
1070
    40
1040
20.0
1070
   143
1040
0.039
1070
   172
1070
     1
1070
   271
1070
     0
1070
   279
1070
     0
1070
   288
1070
     1
1002
}
  0
DIMENSION
  5
7BCC
  8
3
  2
*D6
 10
2218.632674233304
 20
3420.048213307346
 30
0.0
 11
1603.9341382333041
 21
3420.048213307346
 31
0.0
 70
   128
 13
1038.632674233304
 23
3677.3069659414259
 33
0.0
 14
2218.632674233304
 24
3677.3069659414259
 34
0.0
1001
ACAD
1000
DSTYLE
1002
{
1070
   287
1070
     3
1070
   287
1070
     3
1070
    40
1040
20.0
1070
   143
1040
0.039
1070
   172
1070
     1
1070
   271
1070
     0
1070
   279
1070
     0
1070
   288
1070
     1
1002
}
  0
DIMENSION
  5
7BD9
  8
3
  2
*D7
 10
2466.0912432333048
 20
3677.3069659414259
 30
0.0
 11
2466.0912432333039
 21
3990.7158769414259
 31
0.0
 70
   128
 13
2218.632674233304
 23
4237.3069659414259
 33
0.0
 14
2218.632674233304
 24
3677.3069659414259
 34
0.0
 50
90.0
1001
ACAD
1000
DSTYLE
1002
{
1070
   287
1070
     3
1070
   287
1070
     3
1070
    40
1040
20.0
1070
   143
1040
0.039
1070
   172
1070
     1
1070
   271
1070
     0
1070
   279
1070
     0
1070
   288
1070
     1
1002
}
  0
LINE
  5
7BDA
  8
2
 10
2173.1298352333051
 20
4007.3069659414259
 30
0.0
 11
927.1526937512607
 21
4007.3069659414259
 31
0.0
  0
LINE
  5
7BDB
  8
2
 10
3028.1988386821399
 20
2900.2385950064572
 30
0.0
 11
3028.1988386821399
 21
1637.554619006457
 31
0.0
  0
DIMENSION
  5
7BEA
  8
3
  2
*D8
 10
3215.6988386821399
 20
2966.248557204879
 30
0.0
 11
3028.1988386821399
 21
2966.248557204879
 31
0.0
 70
   128
 13
2840.6988386821399
 23
2757.554619006457
 33
0.0
 14
3215.6988386821399
 24
2757.554619006457
 34
0.0
1001
ACAD
1000
DSTYLE
1002
{
1070
   287
1070
     3
1070
   287
1070
     3
1070
    40
1040
20.0
1070
   143
1040
0.039
1070
   172
1070
     1
1070
   271
1070
     0
1070
   279
1070
     0
1070
   288
1070
     1
1002
}
  0
DIMENSION
  5
7C06
  8
3
  2
*D9
 10
3028.1988386821399
 20
3113.279370584507
 30
0.0
 11
2831.055981539283
 21
3113.279370584507
 31
0.0
 70
   128
  1
MAX\P450
 13
2618.1988386821399
 23
2342.554619006457
 33
0.0
 14
3028.1988386821399
 24
3050.6452701919411
 34
0.0
1001
ACAD
1000
DSTYLE
1002
{
1070
   287
1070
     3
1070
   287
1070
     3
1070
    40
1040
20.0
1070
   143
1040
0.039
1070
   172
1070
     1
1070
   271
1070
     0
1070
   279
1070
     0
1070
   288
1070
     1
1002
}
  0
DIMENSION
  5
7C14
  8
3
  2
*D10
 10
3279.1988386821399
 20
3113.279370584507
 30
0.0
 11
3154.9131243964262
 21
3113.279370584507
 31
0.0
 70
   128
 13
3028.1988386821399
 23
3050.6452701919411
 33
0.0
 14
3279.1988386821399
 24
2497.554619006457
 34
0.0
1001
ACAD
1000
DSTYLE
1002
{
1070
   287
1070
     3
1070
   287
1070
     3
1070
    40
1040
20.0
1070
   143
1040
0.039
1070
   172
1070
     1
1070
   271
1070
     0
1070
   279
1070
     0
1070
   288
1070
     1
1002
}
  0
DIMENSION
  5
7C37
  8
3
  2
*D11
 10
3409.7084180946122
 20
1967.554619006457
 30
0.0
 11
3409.7084180946108
 21
2217.554619006457
 31
0.0
 70
   128
 13
3279.1988386821399
 23
2467.554619006457
 33
0.0
 14
3279.1988386821399
 24
1967.554619006457
 34
0.0
 50
90.0
1001
ACAD
1000
DSTYLE
1002
{
1070
   287
1070
     3
1070
   287
1070
     3
1070
     3
1000
φ<>
1070
    40
1040
20.0
1070
   143
1040
0.039
1070
   172
1070
     1
1070
   271
1070
     0
1070
   279
1070
     0
1070
   288
1070
     1
1002
}
  0
LINE
  5
7C6B
  8
2
 10
1353.632674233304
 20
3488.6779823073471
 30
0.0
 11
1353.632674233304
 21
4348.2385949414256
 31
0.0
  0
LINE
  5
7C6C
  8
2
 10
2073.0767849059771
 20
2217.554619006457
 30
0.0
 11
1000.284607049347
 21
2217.554619006457
 31
0.0
  0
LINE
  5
7C6D
  8
4
 10
3700.0
 20
1000.0
 30
0.0
 11
3700.0
 21
600.0
 31
0.0
  0
LINE
  5
7C6E
  8
4
 10
2300.0
 20
1000.0
 30
0.0
 11
2300.0
 21
600.0
 31
0.0
  0
LINE
  5
7C6F
  8
4
 10
1300.0
 20
1000.0
 30
0.0
 11
1300.0
 21
600.0
 31
0.0
  0
LINE
  5
7C72
  8
4
 10
1300.0
 20
600.0
 30
0.0
 11
3700.0
 21
600.0
 31
0.0
  0
LINE
  5
7C73
  8
4
 10
1300.0
 20
800.0
 30
0.0
 11
3700.0
 21
800.0
 31
0.0
  0
TEXT
  5
7C74
  8
4
 10
1377.004161999999
 20
863.08605199999977
 30
0.0
 40
100.0
  1
機器名称
  0
TEXT
  5
7C75
  8
4
 10
1372.5162119999991
 20
643.29031333333319
 30
0.0
 40
100.0
  1
機器型番
  0
TEXT
  5
7C76
  8
4
 10
2355.3574906666659
 20
845.14353799999992
 30
0.0
 40
86.666666666666657
  1
ミツヤリミットロードファン
  0
TEXT
  5
7C77
  8
4
 10
2373.308991333332
 20
634.31916866666666
 30
0.0
 40
100.0
  1
LLE#3-4
  0
TEXT
  5
7C79
  8
4
 10
1559.95118
 20
4766.8576826666658
 30
0.0
 40
108.0
  1
床置防振ベット
  0
TEXT
  5
7C7A
  8
4
 10
632.33518666666669
 20
5067.7619526666667
 30
0.0
 40
120.0
  1
ベルト駆動式片吸込両持排煙ファン
  0
LINE
  5
7C7B
  8
4
 10
500.0
 20
4938.8175086666661
 30
0.0
 11
3700.0
 21
4938.8175086666661
 31
0.0
  0
LINE
  5
7C7C
  8
4
 10
500.0
 20
5338.8175086666661
 30
0.0
 11
3700.0
 21
5338.8175086666661
 31
0.0
  0
LINE
  5
7C7D
  8
4
 10
1300.0
 20
1000.0
 30
0.0
 11
3700.0
 21
1000.0
 31
0.0
  0
LINE
  5
7C7E
  8
4
 10
500.0
 20
5338.8175086666661
 30
0.0
 11
500.0
 21
4938.8175086666661
 31
0.0
  0
TEXT
  5
7C7F
  8
4
 10
688.23351533333334
 20
4764.6389553333329
 30
0.0
 40
108.0
  1
左回転左横向
  0
TEXT
  5
7C80
  8
4
 10
2937.9391186666662
 20
5412.1221626666656
 30
0.0
 40
112.0
  1
No.
  0
TEXT
  5
7C81
  8
4
 10
2622.5921253333331
 20
4766.8576826666658
 30
0.0
 40
108.0
  1
縮尺：1/20
  0
LINE
  5
7C82
  8
4
 10
3700.0
 20
5338.8175086666661
 30
0.0
 11
3700.0
 21
4938.8175086666661
 31
0.0
  0
LINE
  5
7C84
  8
4
 10
2881.234844666666
 20
5362.5271659999999
 30
0.0
 11
2881.234844666666
 21
5573.3045233333341
 31
0.0
  0
LINE
  5
7C85
  8
4
 10
2881.234844666666
 20
5573.3045233333341
 30
0.0
 11
3700.0
 21
5573.3045233333341
 31
0.0
  0
LINE
  5
7C86
  8
4
 10
3700.0
 20
5573.3045233333341
 30
0.0
 11
3700.0
 21
5362.5271659999999
 31
0.0
  0
LINE
  5
7C87
  8
4
 10
3700.0
 20
5362.5271659999999
 30
0.0
 11
2881.234844666666
 21
5362.5271659999999
 31
0.0
  0
LINE
  5
7D6E
  8
1
 10
1038.632674233304
 20
1872.554619006457
 30
0.0
 11
2218.632674233304
 21
1872.554619006457
 31
0.0
  0
LINE
  5
7D6F
  8
1
 10
3258.1988386821399
 20
1872.554619006457
 30
0.0
 11
2698.1988386821399
 21
1872.554619006457
 31
0.0
  0
LINE
  5
7EFF
  8
1
 10
2756.1988386821399
 20
2281.15407056098
 30
0.0
 11
2756.1988386821399
 21
2342.554619006457
 31
0.0
  0
DIMENSION
  5
7F2D
  8
3
  2
*D12
 10
2218.632674233304
 20
3007.200657244975
 30
0.0
 11
1590.2738828201141
 21
3007.200657244975
 31
0.0
 70
   128
 13
993.6326742333049
 23
2787.554619006457
 33
0.0
 14
2218.632674233304
 24
1872.554619006457
 34
0.0
1001
ACAD
1000
DSTYLE
1002
{
1070
   287
1070
     3
1070
   287
1070
     3
1070
    40
1040
20.0
1070
   143
1040
0.039
1070
   172
1070
     1
1070
   271
1070
     0
1070
   279
1070
     0
1070
   288
1070
     1
1002
}
  0
DIMENSION
  5
7F4B
  8
3
  2
*D13
 10
1353.632674233304
 20
1493.5846325728501
 30
0.0
 11
1196.132674233304
 21
1543.5846325728501
 31
0.0
 70
     0
 13
1038.632674233304
 23
1637.554619006457
 33
0.0
 14
1353.632674233304
 24
1637.554619006457
 34
0.0
1001
ACAD
1000
DSTYLE
1002
{
1070
   287
1070
     3
1070
   287
1070
     3
1070
    40
1040
20.0
1070
   143
1040
0.039
1070
   172
1070
     1
1070
   271
1070
     0
1070
   279
1070
     0
1002
}
  0
DIMENSION
  5
7F58
  8
3
  2
*D14
 10
2218.632674233304
 20
1493.5846325728501
 30
0.0
 11
1786.1326742333049
 21
1543.5846325728501
 31
0.0
 70
     0
 13
1353.632674233304
 23
1637.554619006457
 33
0.0
 14
2218.632674233304
 24
1637.554619006457
 34
0.0
1001
ACAD
1000
DSTYLE
1002
{
1070
   287
1070
     3
1070
   287
1070
     3
1070
    40
1040
20.0
1070
   143
1040
0.039
1070
   172
1070
     1
1070
   271
1070
     0
1070
   279
1070
     0
1002
}
  0
DIMENSION
  5
7F65
  8
3
  2
*D15
 10
3028.1988386821399
 20
1493.5846325728501
 30
0.0
 11
2863.1988386821399
 21
1543.5846325728501
 31
0.0
 70
     0
 13
2698.1988386821399
 23
1637.554619006457
 33
0.0
 14
3028.1988386821399
 24
1637.554619006457
 34
0.0
1001
ACAD
1000
DSTYLE
1002
{
1070
   287
1070
     3
1070
   287
1070
     3
1070
    40
1040
20.0
1070
   143
1040
0.039
1070
   172
1070
     1
1070
   271
1070
     0
1070
   279
1070
     0
1002
}
  0
DIMENSION
  5
7F74
  8
3
  2
*D16
 10
3258.1988386821399
 20
1493.5846325728501
 30
0.0
 11
3143.1988386821399
 21
1543.5846325728501
 31
0.0
 70
     0
 13
3028.1988386821399
 23
1637.554619006457
 33
0.0
 14
3258.1988386821399
 24
1637.554619006457
 34
0.0
1001
ACAD
1000
DSTYLE
1002
{
1070
   287
1070
     3
1070
   287
1070
     3
1070
    40
1040
20.0
1070
   143
1040
0.039
1070
   172
1070
     1
1070
   271
1070
     0
1070
   279
1070
     0
1002
}
  0
DIMENSION
  5
7F8B
  8
3
  2
*D18
 10
753.85652156701315
 20
1637.554619006457
 30
0.0
 11
703.85652156701303
 21
1488.9831904350281
 31
0.0
 70
     0
 13
1038.632674233304
 23
1702.554619006457
 33
0.0
 14
1038.632674233304
 24
1637.554619006457
 34
0.0
 50
90.0
1001
ACAD
1000
DSTYLE
1002
{
1070
   287
1070
     3
1070
   287
1070
     3
1070
    40
1040
20.0
1070
   143
1040
0.039
1070
   172
1070
     1
1070
   271
1070
     0
1070
   279
1070
     0
1070
     6
1000
DOT
1002
}
  0
DIMENSION
  5
7F9A
  8
3
  2
*D19
 10
753.85652156701315
 20
1797.554619006457
 30
0.0
 11
658.14223585272759
 21
1750.054619006457
 31
0.0
 70
     0
 13
1038.632674233304
 23
1702.554619006457
 33
0.0
 14
1038.632674233304
 24
1797.554619006457
 34
0.0
 50
90.0
1001
ACAD
1000
DSTYLE
1002
{
1070
   172
1070
     1
1070
    40
1040
20.0
1070
     3
1000
(<>)
1070
   271
1070
     0
1070
     6
1000
_DOT
1070
   143
1040
0.039
1002
}
  0
DIMENSION
  5
7FA7
  8
3
  2
*D20
 10
573.47738278227905
 20
1637.554619006457
 30
0.0
 11
507.76309706799321
 21
2212.554619006457
 31
0.0
 70
     0
 13
993.6326742333049
 23
2787.554619006457
 33
0.0
 14
1038.632674233304
 24
1637.554619006457
 34
0.0
 50
90.0
1001
ACAD
1000
DSTYLE
1002
{
1070
   287
1070
     3
1070
   287
1070
     3
1070
     3
1000
(<>)
1070
    40
1040
20.0
1070
   143
1040
0.039
1070
   172
1070
     1
1070
   271
1070
     0
1070
   279
1070
     0
1002
}
  0
ENDSEC
  0
EOF
