  0
SECTION
  2
HEADER
  9
$ACADVER
  1
AC1009
  9
$INSBASE
 10
0.0
 20
0.0
 30
0.0
  9
$EXTMIN
 10
500.0
 20
600.0
 30
0.0
  9
$EXTMAX
 10
3700.0
 20
5573.3045233333341
 30
0.0
  9
$LIMMIN
 10
0.0
 20
0.0
  9
$LIMMAX
 10
297.0
 20
210.0
  9
$ORTHOMODE
 70
     0
  9
$REGENMODE
 70
     1
  9
$FILLMODE
 70
     0
  9
$QTEXTMODE
 70
     0
  9
$MIRRTEXT
 70
     1
  9
$DRAGMODE
 70
     2
  9
$LTSCALE
 40
100.0
  9
$OSMODE
 70
    37
  9
$ATTMODE
 70
     1
  9
$TEXTSIZE
 40
180.0
  9
$TRACEWID
 40
0.05
  9
$TEXTSTYLE
  7
STANDARD
  9
$CLAYER
  8
3
  9
$CELTYPE
  6
BYLAYER
  9
$CECOLOR
 62
   256
  9
$DIMSCALE
 40
20.0
  9
$DIMASZ
 40
2.0
  9
$DIMEXO
 40
0.5
  9
$DIMDLI
 40
10.0
  9
$DIMRND
 40
0.0
  9
$DIMDLE
 40
0.0
  9
$DIMEXE
 40
1.0
  9
$DIMTP
 40
1.0
  9
$DIMTM
 40
1.0
  9
$DIMTXT
 40
3.0
  9
$DIMCEN
 40
0.0
  9
$DIMTSZ
 40
0.0
  9
$DIMTOL
 70
     0
  9
$DIMLIM
 70
     0
  9
$DIMTIH
 70
     0
  9
$DIMTOH
 70
     0
  9
$DIMSE1
 70
     0
  9
$DIMSE2
 70
     0
  9
$DIMTAD
 70
     1
  9
$DIMZIN
 70
     8
  9
$DIMBLK
  1

  9
$DIMASO
 70
     1
  9
$DIMSHO
 70
     1
  9
$DIMPOST
  1

  9
$DIMAPOST
  1

  9
$DIMALT
 70
     0
  9
$DIMALTD
 70
     2
  9
$DIMALTF
 40
0.039
  9
$DIMLFAC
 40
1.0
  9
$DIMTOFL
 70
     1
  9
$DIMTVP
 40
0.0
  9
$DIMTIX
 70
     0
  9
$DIMSOXD
 70
     0
  9
$DIMSAH
 70
     1
  9
$DIMBLK1
  1
OPEN
  9
$DIMBLK2
  1
OPEN
  9
$DIMSTYLE
  2
IGA
  9
$DIMCLRD
 70
     0
  9
$DIMCLRE
 70
     0
  9
$DIMCLRT
 70
     0
  9
$DIMTFAC
 40
10.0
  9
$DIMGAP
 40
1.0
  9
$LUNITS
 70
     2
  9
$LUPREC
 70
     3
  9
$SKETCHINC
 40
0.1
  9
$FILLETRAD
 40
50.0
  9
$AUNITS
 70
     0
  9
$AUPREC
 70
     0
  9
$MENU
  1
acad
  9
$ELEVATION
 40
0.0
  9
$PELEVATION
 40
0.0
  9
$THICKNESS
 40
0.0
  9
$LIMCHECK
 70
     0
  9
$BLIPMODE
 70
     0
  9
$CHAMFERA
 40
0.5
  9
$CHAMFERB
 40
0.5
  9
$SKPOLY
 70
     0
  9
$TDCREATE
 40
2450763.4741214118
  9
$TDUPDATE
 40
2454953.6816579858
  9
$TDINDWG
 40
0.0080978356
  9
$TDUSRTIMER
 40
0.0080978356
  9
$USRTIMER
 70
     1
  9
$ANGBASE
 50
0.0
  9
$ANGDIR
 70
     0
  9
$PDMODE
 70
     0
  9
$PDSIZE
 40
0.0
  9
$PLINEWID
 40
0.0
  9
$COORDS
 70
     1
  9
$SPLFRAME
 70
     0
  9
$SPLINETYPE
 70
     6
  9
$SPLINESEGS
 70
     8
  9
$ATTDIA
 70
     0
  9
$ATTREQ
 70
     1
  9
$HANDLING
 70
 10241
  9
$HANDSEED
  5
820C
  9
$SURFTAB1
 70
     6
  9
$SURFTAB2
 70
     6
  9
$SURFTYPE
 70
     6
  9
$SURFU
 70
     6
  9
$SURFV
 70
     6
  9
$UCSNAME
  2

  9
$UCSORG
 10
0.0
 20
0.0
 30
0.0
  9
$UCSXDIR
 10
1.0
 20
0.0
 30
0.0
  9
$UCSYDIR
 10
0.0
 20
1.0
 30
0.0
  9
$PUCSNAME
  2

  9
$PUCSORG
 10
0.0
 20
0.0
 30
0.0
  9
$PUCSXDIR
 10
1.0
 20
0.0
 30
0.0
  9
$PUCSYDIR
 10
0.0
 20
1.0
 30
0.0
  9
$USERI1
 70
     0
  9
$USERI2
 70
     0
  9
$USERI3
 70
     0
  9
$USERI4
 70
     0
  9
$USERI5
 70
     0
  9
$USERR1
 40
0.0
  9
$USERR2
 40
0.0
  9
$USERR3
 40
0.0
  9
$USERR4
 40
0.0
  9
$USERR5
 40
0.0
  9
$WORLDVIEW
 70
     1
  9
$SHADEDGE
 70
     3
  9
$SHADEDIF
 70
    70
  9
$TILEMODE
 70
     1
  9
$MAXACTVP
 70
    16
  9
$PLIMCHECK
 70
     0
  9
$PEXTMIN
 10
1.0000000000000000E+020
 20
1.0000000000000000E+020
 30
1.0000000000000000E+020
  9
$PEXTMAX
 10
-1.0000000000000000E+020
 20
-1.0000000000000000E+020
 30
-1.0000000000000000E+020
  9
$PLIMMIN
 10
0.0
 20
0.0
  9
$PLIMMAX
 10
12.0
 20
9.0
  9
$UNITMODE
 70
     0
  9
$VISRETAIN
 70
     0
  9
$PLINEGEN
 70
     0
  9
$PSLTSCALE
 70
     1
  0
ENDSEC
  0
SECTION
  2
TABLES
  0
TABLE
  2
VPORT
 70
     2
  0
VPORT
  2
*ACTIVE
 70
     0
 10
0.0
 20
0.0
 11
1.0
 21
1.0
 12
12153.770957549599
 22
1131.874148086913
 13
0.0
 23
0.0
 14
10.0
 24
10.0
 15
10.0
 25
10.0
 16
0.0
 26
0.0
 36
1.0
 17
0.0
 27
0.0
 37
0.0
 40
9642.6471819929156
 41
3.1666666666666661
 42
50.0
 43
0.0
 44
0.0
 50
0.0
 51
0.0
 71
     0
 72
   100
 73
     1
 74
     0
 75
     0
 76
     0
 77
     0
 78
     0
  0
ENDTAB
  0
TABLE
  2
LTYPE
 70
     2
  0
LTYPE
  2
CONTINUOUS
 70
     0
  3
Solid line
 72
    65
 73
     0
 40
0.0
  0
LTYPE
  2
CENTER
 70
     0
  3
____ _ ____ _ ____ _ ____ _ ____ _ ____ _ ____ 
 72
    65
 73
     4
 40
2.0
 49
1.25
 49
-0.25
 49
0.25
 49
-0.25
  0
ENDTAB
  0
TABLE
  2
LAYER
 70
     6
  0
LAYER
  2
0
 70
     0
 62
     7
  6
CONTINUOUS
  0
LAYER
  2
3
 70
     0
 62
     2
  6
CONTINUOUS
  0
LAYER
  2
2
 70
     0
 62
     3
  6
CENTER
  0
LAYER
  2
1
 70
     0
 62
     4
  6
CONTINUOUS
  0
LAYER
  2
4
 70
     0
 62
     7
  6
CONTINUOUS
  0
LAYER
  2
DEFPOINTS
 70
     0
 62
     7
  6
CONTINUOUS
  0
ENDTAB
  0
TABLE
  2
STYLE
 70
     1
  0
STYLE
  2
STANDARD
 70
     0
 40
0.0
 41
1.0
 50
0.0
 71
     0
 42
180.0
  3
simplex.shx
  4
extfont.shx
  0
ENDTAB
  0
TABLE
  2
VIEW
 70
     0
  0
ENDTAB
  0
TABLE
  2
UCS
 70
     0
  0
ENDTAB
  0
TABLE
  2
APPID
 70
     1
  0
APPID
  2
ACAD
 70
     0
  0
ENDTAB
  0
TABLE
  2
DIMSTYLE
 70
     1
  0
DIMSTYLE
  2
IGA
 70
     0
  3

  4

  5

  6
OPEN
  7
OPEN
 40
2.0
 41
2.0
 42
0.5
 43
10.0
 44
1.0
 45
0.0
 46
0.0
 47
1.0
 48
1.0
140
3.0
141
0.0
142
0.0
143
0.03937
144
1.0
145
0.0
146
10.0
147
1.0
 71
     0
 72
     0
 73
     0
 74
     0
 75
     0
 76
     0
 77
     1
 78
     8
170
     0
171
     2
172
     0
173
     1
174
     0
175
     0
176
     0
177
     0
178
     0
  0
ENDTAB
  0
ENDSEC
  0
SECTION
  2
BLOCKS
  0
BLOCK
  8
0
  2
$MODEL_SPACE
 70
     0
 10
0.0
 20
0.0
 30
0.0
  3
$MODEL_SPACE
  1

  0
ENDBLK
  5
1B
  8
0
  0
BLOCK
 67
     1
  8
0
  2
$PAPER_SPACE
 70
     0
 10
0.0
 20
0.0
 30
0.0
  3
$PAPER_SPACE
  1

  0
ENDBLK
  5
18
 67
     1
  8
0
  0
BLOCK
  8
0
  2
_OPEN
 70
     0
 10
0.0
 20
0.0
 30
0.0
  3
_OPEN
  1

  0
LINE
  5
7B23
  8
0
  6
BYBLOCK
 62
     0
 10
-1.0
 20
0.166667
 30
0.0
 11
0.0
 21
0.0
 31
0.0
  0
LINE
  5
7B24
  8
0
  6
BYBLOCK
 62
     0
 10
0.0
 20
0.0
 30
0.0
 11
-1.0
 21
-0.166667
 31
0.0
  0
LINE
  5
7B25
  8
0
  6
BYBLOCK
 62
     0
 10
0.0
 20
0.0
 30
0.0
 11
-1.0
 21
0.0
 31
0.0
  0
ENDBLK
  5
7B26
  8
0
  0
BLOCK
  8
0
  2
*D1
 70
     1
 10
0.0
 20
0.0
 30
0.0
  3
*D1
  1

  0
LINE
  5
815F
  8
3
 62
     0
 10
558.89597432803748
 20
1759.118031505549
 30
0.0
 11
558.89597432803748
 21
1582.619277428068
 31
0.0
  0
LINE
  5
8160
  8
3
 62
     0
 10
1423.895974328037
 20
1717.65518350555
 30
0.0
 11
1423.895974328037
 21
1582.619277428068
 31
0.0
  0
LINE
  5
8161
  8
3
 62
     0
 10
598.89597432803748
 20
1602.619277428068
 30
0.0
 11
1383.895974328037
 21
1602.619277428068
 31
0.0
  0
INSERT
  5
8162
  8
3
 62
     0
  2
_OPEN
 10
558.89597432803748
 20
1602.619277428068
 30
0.0
 41
40.0
 42
40.0
 43
40.0
 50
180.0
  0
INSERT
  5
8163
  8
3
 62
     0
  2
_OPEN
 10
1423.895974328037
 20
1602.619277428068
 30
0.0
 41
40.0
 42
40.0
 43
40.0
  0
TEXT
  8
3
  40
60
  5
81FA
  62
0
  72
0
  71
0
 10
871.176
 20
1546.42
 30
0.000000
  1
865
  0
POINT
  5
8165
  8
DEFPOINTS
 62
     0
 10
558.89597432803748
 20
1769.118031505549
 30
0.0
  0
POINT
  5
8166
  8
DEFPOINTS
 62
     0
 10
1423.895974328037
 20
1727.6551835055491
 30
0.0
  0
POINT
  5
8167
  8
DEFPOINTS
 62
     0
 10
1423.895974328037
 20
1602.619277428068
 30
0.0
  0
ENDBLK
  5
7E55
  8
0
  0
BLOCK
  8
0
  2
*D2
 70
     1
 10
0.0
 20
0.0
 30
0.0
  3
*D2
  1

  0
LINE
  5
8168
  8
3
 62
     0
 10
1423.895974328037
 20
1717.65518350555
 30
0.0
 11
1423.895974328037
 21
1582.619277428068
 31
0.0
  0
LINE
  5
8169
  8
3
 62
     0
 10
1738.895974328037
 20
1759.118031505549
 30
0.0
 11
1738.895974328037
 21
1582.619277428068
 31
0.0
  0
LINE
  5
816A
  8
3
 62
     0
 10
1463.895974328037
 20
1602.619277428068
 30
0.0
 11
1698.895974328037
 21
1602.619277428068
 31
0.0
  0
INSERT
  5
816B
  8
3
 62
     0
  2
_OPEN
 10
1423.895974328037
 20
1602.619277428068
 30
0.0
 41
40.0
 42
40.0
 43
40.0
 50
180.0
  0
INSERT
  5
816C
  8
3
 62
     0
  2
_OPEN
 10
1738.895974328037
 20
1602.619277428068
 30
0.0
 41
40.0
 42
40.0
 43
40.0
  0
TEXT
  8
3
  40
60
  5
81FB
  62
0
  72
0
  71
0
 10
1435.32
 20
1546.42
 30
0.000000
  1
315
  0
POINT
  5
816E
  8
DEFPOINTS
 62
     0
 10
1423.895974328037
 20
1727.6551835055491
 30
0.0
  0
POINT
  5
816F
  8
DEFPOINTS
 62
     0
 10
1738.895974328037
 20
1769.118031505549
 30
0.0
  0
POINT
  5
8170
  8
DEFPOINTS
 62
     0
 10
1738.895974328037
 20
1602.619277428068
 30
0.0
  0
ENDBLK
  5
7E60
  8
0
  0
BLOCK
  8
0
  2
*D3
 70
     1
 10
0.0
 20
0.0
 30
0.0
  3
*D3
  1

  0
LINE
  5
8171
  8
3
 62
     0
 10
1793.895974328037
 20
2830.1180315055499
 30
0.0
 11
1996.053824949935
 21
2830.1180315055499
 31
0.0
  0
LINE
  5
8172
  8
3
 62
     0
 10
1793.895974328037
 20
2318.118031505549
 30
0.0
 11
1996.053824949935
 21
2318.118031505549
 31
0.0
  0
LINE
  5
8173
  8
3
 62
     0
 10
1976.053824949935
 20
2790.118031505549
 30
0.0
 11
1976.053824949935
 21
2358.118031505549
 31
0.0
  0
INSERT
  5
8174
  8
3
 62
     0
  2
_OPEN
 10
1976.053824949935
 20
2830.1180315055499
 30
0.0
 41
40.0
 42
40.0
 43
40.0
 50
90.0
  0
INSERT
  5
8175
  8
3
 62
     0
  2
_OPEN
 10
1976.053824949935
 20
2318.118031505549
 30
0.0
 41
40.0
 42
40.0
 43
40.0
 50
270.0
  0
TEXT
  8
3
  40
60
  5
81FC
  62
0
  72
0
  71
0
 10
1806.05
 20
2473.63
 30
0.000000
  1
512
  0
POINT
  5
8177
  8
DEFPOINTS
 62
     0
 10
1783.895974328037
 20
2830.1180315055499
 30
0.0
  0
POINT
  5
8178
  8
DEFPOINTS
 62
     0
 10
1783.895974328037
 20
2318.118031505549
 30
0.0
  0
POINT
  5
8179
  8
DEFPOINTS
 62
     0
 10
1976.053824949935
 20
2318.118031505549
 30
0.0
  0
ENDBLK
  5
7EF3
  8
0
  0
BLOCK
  8
0
  2
*D4
 70
     1
 10
0.0
 20
0.0
 30
0.0
  3
*D4
  1

  0
LINE
  5
817A
  8
3
 62
     0
 10
1793.895974328037
 20
2830.1180315055499
 30
0.0
 11
2128.5326596473292
 21
2830.1180315055499
 31
0.0
  0
LINE
  5
817B
  8
3
 62
     0
 10
1732.288781328037
 20
2292.118031505549
 30
0.0
 11
2128.5326596473292
 21
2292.118031505549
 31
0.0
  0
LINE
  5
817C
  8
3
 62
     0
 10
2108.5326596473301
 20
2790.118031505549
 30
0.0
 11
2108.5326596473301
 21
2332.118031505549
 31
0.0
  0
INSERT
  5
817D
  8
3
 62
     0
  2
_OPEN
 10
2108.5326596473301
 20
2830.1180315055499
 30
0.0
 41
40.0
 42
40.0
 43
40.0
 50
90.0
  0
INSERT
  5
817E
  8
3
 62
     0
  2
_OPEN
 10
2108.5326596473301
 20
2292.118031505549
 30
0.0
 41
40.0
 42
40.0
 43
40.0
 50
270.0
  0
TEXT
  8
3
  40
60
  5
81FD
  62
0
  72
0
  71
0
 10
1938.53
 20
2463.94
 30
0.000000
  1
538
  0
POINT
  5
8180
  8
DEFPOINTS
 62
     0
 10
1783.895974328037
 20
2830.1180315055499
 30
0.0
  0
POINT
  5
8181
  8
DEFPOINTS
 62
     0
 10
1722.288781328037
 20
2292.118031505549
 30
0.0
  0
POINT
  5
8182
  8
DEFPOINTS
 62
     0
 10
2108.5326596473301
 20
2292.118031505549
 30
0.0
  0
ENDBLK
  5
7EDD
  8
0
  0
BLOCK
  8
0
  2
*D5
 70
     1
 10
0.0
 20
0.0
 30
0.0
  3
*D5
  1

  0
LINE
  5
8183
  8
3
 62
     0
 10
1732.288781328037
 20
2292.118031505549
 30
0.0
 11
2128.5326596473292
 21
2292.118031505549
 31
0.0
  0
LINE
  5
8184
  8
3
 62
     0
 10
1748.895974328037
 20
1872.118031505549
 30
0.0
 11
2128.5326596473292
 21
1872.118031505549
 31
0.0
  0
LINE
  5
8185
  8
3
 62
     0
 10
2108.5326596473292
 20
2252.118031505549
 30
0.0
 11
2108.5326596473292
 21
1912.118031505549
 31
0.0
  0
INSERT
  5
8186
  8
3
 62
     0
  2
_OPEN
 10
2108.5326596473292
 20
2292.118031505549
 30
0.0
 41
40.0
 42
40.0
 43
40.0
 50
90.0
  0
INSERT
  5
8187
  8
3
 62
     0
  2
_OPEN
 10
2108.5326596473292
 20
1872.118031505549
 30
0.0
 41
40.0
 42
40.0
 43
40.0
 50
270.0
  0
TEXT
  8
3
  40
60
  5
81FE
  62
0
  72
0
  71
0
 10
1938.53
 20
1975.92
 30
0.000000
  1
420
  0
POINT
  5
8189
  8
DEFPOINTS
 62
     0
 10
1722.288781328037
 20
2292.118031505549
 30
0.0
  0
POINT
  5
818A
  8
DEFPOINTS
 62
     0
 10
1738.895974328037
 20
1872.118031505549
 30
0.0
  0
POINT
  5
818B
  8
DEFPOINTS
 62
     0
 10
2108.5326596473292
 20
1872.118031505549
 30
0.0
  0
ENDBLK
  5
7ED2
  8
0
  0
BLOCK
  8
0
  2
*D6
 70
     1
 10
0.0
 20
0.0
 30
0.0
  3
*D6
  1

  0
LINE
  5
818C
  8
3
 62
     0
 10
1748.895974328037
 20
1872.118031505549
 30
0.0
 11
2128.8528866473298
 21
1872.118031505549
 31
0.0
  0
LINE
  5
818D
  8
3
 62
     0
 10
1748.895974328037
 20
1769.118031505549
 30
0.0
 11
2128.8528866473298
 21
1769.118031505549
 31
0.0
  0
LINE
  5
818E
  8
3
 62
     0
 10
2108.8528866473298
 20
1912.118031505549
 30
0.0
 11
2108.8528866473298
 21
1952.118031505549
 31
0.0
  0
LINE
  5
818F
  8
3
 62
     0
 10
2108.8528866473298
 20
1729.118031505549
 30
0.0
 11
2108.8528866473298
 21
1450.5466029341201
 31
0.0
  0
LINE
  5
8190
  8
3
 62
     0
 10
2108.8528866473298
 20
1872.118031505549
 30
0.0
 11
2108.8528866473298
 21
1769.118031505549
 31
0.0
  0
INSERT
  5
8191
  8
3
 62
     0
  2
_OPEN
 10
2108.8528866473298
 20
1872.118031505549
 30
0.0
 41
40.0
 42
40.0
 43
40.0
 50
270.0
  0
INSERT
  5
8192
  8
3
 62
     0
  2
_OPEN
 10
2108.8528866473298
 20
1769.118031505549
 30
0.0
 41
40.0
 42
40.0
 43
40.0
 50
90.0
  0
TEXT
  8
3
  40
60
  5
81FF
  62
0
  72
0
  71
0
 10
1938.85
 20
1435.78
 30
0.000000
  1
103
  0
POINT
  5
8194
  8
DEFPOINTS
 62
     0
 10
1738.895974328037
 20
1872.118031505549
 30
0.0
  0
POINT
  5
8195
  8
DEFPOINTS
 62
     0
 10
1738.895974328037
 20
1769.118031505549
 30
0.0
  0
POINT
  5
8196
  8
DEFPOINTS
 62
     0
 10
2108.8528866473298
 20
1769.118031505549
 30
0.0
  0
ENDBLK
  5
7EC7
  8
0
  0
BLOCK
  8
0
  2
*D7
 70
     1
 10
0.0
 20
0.0
 30
0.0
  3
*D7
  1

  0
LINE
  5
8197
  8
3
 62
     0
 10
1793.895974328037
 20
2862.1180315055499
 30
0.0
 11
2256.0441507607138
 21
2862.1180315055499
 31
0.0
  0
LINE
  5
8198
  8
3
 62
     0
 10
1748.895974328037
 20
1769.118031505549
 30
0.0
 11
2256.0441507607138
 21
1769.118031505549
 31
0.0
  0
LINE
  5
8199
  8
3
 62
     0
 10
2236.0441507607138
 20
2822.118031505549
 30
0.0
 11
2236.0441507607138
 21
1809.118031505549
 31
0.0
  0
INSERT
  5
819A
  8
3
 62
     0
  2
_OPEN
 10
2236.0441507607138
 20
2862.1180315055499
 30
0.0
 41
40.0
 42
40.0
 43
40.0
 50
90.0
  0
INSERT
  5
819B
  8
3
 62
     0
  2
_OPEN
 10
2236.0441507607138
 20
1769.118031505549
 30
0.0
 41
40.0
 42
40.0
 43
40.0
 50
270.0
  0
TEXT
  8
3
  40
60
  5
8200
  62
0
  72
0
  71
0
 10
2066.04
 20
2179.73
 30
0.000000
  1
1093
  0
POINT
  5
819D
  8
DEFPOINTS
 62
     0
 10
1783.895974328037
 20
2862.1180315055499
 30
0.0
  0
POINT
  5
819E
  8
DEFPOINTS
 62
     0
 10
1738.895974328037
 20
1769.118031505549
 30
0.0
  0
POINT
  5
819F
  8
DEFPOINTS
 62
     0
 10
2236.0441507607138
 20
1769.118031505549
 30
0.0
  0
ENDBLK
  5
7EE8
  8
0
  0
BLOCK
  8
0
  2
*D8
 70
     1
 10
0.0
 20
0.0
 30
0.0
  3
*D8
  1

  0
LINE
  5
81A0
  8
3
 62
     0
 10
989.16526832803709
 20
2302.118031505549
 30
0.0
 11
989.16526832803709
 21
2999.346620042224
 31
0.0
  0
LINE
  5
81A1
  8
3
 62
     0
 10
1423.895974328037
 20
2811.1180315055499
 30
0.0
 11
1423.895974328037
 21
2999.346620042224
 31
0.0
  0
LINE
  5
81A2
  8
3
 62
     0
 10
1029.165268328037
 20
2979.346620042224
 30
0.0
 11
1383.895974328037
 21
2979.346620042224
 31
0.0
  0
INSERT
  5
81A3
  8
3
 62
     0
  2
_OPEN
 10
989.16526832803709
 20
2979.346620042224
 30
0.0
 41
40.0
 42
40.0
 43
40.0
 50
180.0
  0
INSERT
  5
81A4
  8
3
 62
     0
  2
_OPEN
 10
1423.895974328037
 20
2979.346620042224
 30
0.0
 41
40.0
 42
40.0
 43
40.0
  0
TEXT
  8
3
  40
60
  5
8201
  62
0
  72
0
  71
0
 10
1074.88
 20
2923.15
 30
0.000000
  1
435
  0
POINT
  5
81A6
  8
DEFPOINTS
 62
     0
 10
989.16526832803709
 20
2292.118031505549
 30
0.0
  0
POINT
  5
81A7
  8
DEFPOINTS
 62
     0
 10
1423.895974328037
 20
2801.118031505549
 30
0.0
  0
POINT
  5
81A8
  8
DEFPOINTS
 62
     0
 10
1423.895974328037
 20
2979.346620042224
 30
0.0
  0
ENDBLK
  5
7E81
  8
0
  0
BLOCK
  8
0
  2
*D9
 70
     1
 10
0.0
 20
0.0
 30
0.0
  3
*D9
  1

  0
LINE
  5
81A9
  8
3
 62
     0
 10
1423.895974328037
 20
2811.1180315055499
 30
0.0
 11
1423.895974328037
 21
3001.0494557935731
 31
0.0
  0
LINE
  5
81AA
  8
3
 62
     0
 10
1783.895974328037
 20
2872.1180315055499
 30
0.0
 11
1783.895974328037
 21
3001.0494557935731
 31
0.0
  0
LINE
  5
81AB
  8
3
 62
     0
 10
1463.895974328037
 20
2981.049455793574
 30
0.0
 11
1743.895974328037
 21
2981.049455793574
 31
0.0
  0
INSERT
  5
81AC
  8
3
 62
     0
  2
_OPEN
 10
1423.895974328037
 20
2981.049455793574
 30
0.0
 41
40.0
 42
40.0
 43
40.0
 50
180.0
  0
INSERT
  5
81AD
  8
3
 62
     0
  2
_OPEN
 10
1783.895974328037
 20
2981.049455793574
 30
0.0
 41
40.0
 42
40.0
 43
40.0
  0
TEXT
  8
3
  40
60
  5
8202
  62
0
  72
0
  71
0
 10
1472.98
 20
2924.85
 30
0.000000
  1
360
  0
POINT
  5
81AF
  8
DEFPOINTS
 62
     0
 10
1423.895974328037
 20
2801.118031505549
 30
0.0
  0
POINT
  5
81B0
  8
DEFPOINTS
 62
     0
 10
1783.895974328037
 20
2862.1180315055499
 30
0.0
  0
POINT
  5
81B1
  8
DEFPOINTS
 62
     0
 10
1783.895974328037
 20
2981.049455793574
 30
0.0
  0
ENDBLK
  5
7E76
  8
0
  0
BLOCK
  8
0
  2
*D10
 70
     1
 10
0.0
 20
0.0
 30
0.0
  3
*D10
  1

  0
LINE
  5
81B2
  8
3
 62
     0
 10
558.89597432803748
 20
3697.0375559471772
 30
0.0
 11
558.89597432803748
 21
3421.7806717684161
 31
0.0
  0
LINE
  5
81B3
  8
3
 62
     0
 10
1738.895974328037
 20
3697.0375559471772
 30
0.0
 11
1738.895974328037
 21
3421.7806717684161
 31
0.0
  0
LINE
  5
81B4
  8
3
 62
     0
 10
598.89597432803748
 20
3441.7806717684171
 30
0.0
 11
1698.895974328037
 21
3441.7806717684171
 31
0.0
  0
INSERT
  5
81B5
  8
3
 62
     0
  2
_OPEN
 10
558.89597432803748
 20
3441.7806717684171
 30
0.0
 41
40.0
 42
40.0
 43
40.0
 50
180.0
  0
INSERT
  5
81B6
  8
3
 62
     0
  2
_OPEN
 10
1738.895974328037
 20
3441.7806717684171
 30
0.0
 41
40.0
 42
40.0
 43
40.0
  0
TEXT
  8
3
  40
60
  5
8203
  62
0
  72
0
  71
0
 10
1046.34
 20
3385.58
 30
0.000000
  1
1180
  0
POINT
  5
81B8
  8
DEFPOINTS
 62
     0
 10
558.89597432803748
 20
3707.0375559471772
 30
0.0
  0
POINT
  5
81B9
  8
DEFPOINTS
 62
     0
 10
1738.895974328037
 20
3707.0375559471772
 30
0.0
  0
POINT
  5
81BA
  8
DEFPOINTS
 62
     0
 10
1738.895974328037
 20
3441.7806717684171
 30
0.0
  0
ENDBLK
  5
7E4A
  8
0
  0
BLOCK
  8
0
  2
*D11
 70
     1
 10
0.0
 20
0.0
 30
0.0
  3
*D11
  1

  0
LINE
  5
81BB
  8
3
 62
     0
 10
1748.895974328037
 20
4267.0375559471768
 30
0.0
 11
1991.2766840783961
 21
4267.0375559471768
 31
0.0
  0
LINE
  5
81BC
  8
3
 62
     0
 10
1748.895974328037
 20
3707.0375559471772
 30
0.0
 11
1991.2766840783961
 21
3707.0375559471772
 31
0.0
  0
LINE
  5
81BD
  8
3
 62
     0
 10
1971.2766840783961
 20
4227.0375559471759
 30
0.0
 11
1971.2766840783961
 21
3747.0375559471759
 31
0.0
  0
INSERT
  5
81BE
  8
3
 62
     0
  2
_OPEN
 10
1971.2766840783961
 20
4267.0375559471768
 30
0.0
 41
40.0
 42
40.0
 43
40.0
 50
90.0
  0
INSERT
  5
81BF
  8
3
 62
     0
  2
_OPEN
 10
1971.2766840783961
 20
3707.0375559471772
 30
0.0
 41
40.0
 42
40.0
 43
40.0
 50
270.0
  0
TEXT
  8
3
  40
60
  5
8204
  62
0
  72
0
  71
0
 10
1801.28
 20
3955.12
 30
0.000000
  1
560
  0
POINT
  5
81C1
  8
DEFPOINTS
 62
     0
 10
1738.895974328037
 20
4267.0375559471768
 30
0.0
  0
POINT
  5
81C2
  8
DEFPOINTS
 62
     0
 10
1738.895974328037
 20
3707.0375559471772
 30
0.0
  0
POINT
  5
81C3
  8
DEFPOINTS
 62
     0
 10
1971.2766840783961
 20
3707.0375559471772
 30
0.0
  0
ENDBLK
  5
7E3F
  8
0
  0
BLOCK
  8
0
  2
*D12
 70
     1
 10
0.0
 20
0.0
 30
0.0
  3
*D12
  1

  0
LINE
  5
81C4
  8
3
 62
     0
 10
2779.6774849719709
 20
1759.118031505549
 30
0.0
 11
2779.6774849719709
 21
1587.438276375342
 31
0.0
  0
LINE
  5
81C5
  8
3
 62
     0
 10
3109.6774849719709
 20
1685.8219161887821
 30
0.0
 11
3109.6774849719709
 21
1587.438276375342
 31
0.0
  0
LINE
  5
81C6
  8
3
 62
     0
 10
2819.6774849719709
 20
1607.438276375342
 30
0.0
 11
3069.6774849719709
 21
1607.438276375342
 31
0.0
  0
INSERT
  5
81C7
  8
3
 62
     0
  2
_OPEN
 10
2779.6774849719709
 20
1607.438276375342
 30
0.0
 41
40.0
 42
40.0
 43
40.0
 50
180.0
  0
INSERT
  5
81C8
  8
3
 62
     0
  2
_OPEN
 10
3109.6774849719709
 20
1607.438276375342
 30
0.0
 41
40.0
 42
40.0
 43
40.0
  0
TEXT
  8
3
  40
60
  5
8205
  62
0
  72
0
  71
0
 10
2824.68
 20
1551.24
 30
0.000000
  1
330
  0
POINT
  5
81CA
  8
DEFPOINTS
 62
     0
 10
2779.6774849719709
 20
1769.118031505549
 30
0.0
  0
POINT
  5
81CB
  8
DEFPOINTS
 62
     0
 10
3109.6774849719709
 20
1695.8219161887821
 30
0.0
  0
POINT
  5
81CC
  8
DEFPOINTS
 62
     0
 10
3109.6774849719709
 20
1607.438276375342
 30
0.0
  0
ENDBLK
  5
7F2C
  8
0
  0
BLOCK
  8
0
  2
*D13
 70
     1
 10
0.0
 20
0.0
 30
0.0
  3
*D13
  1

  0
LINE
  5
7F2E
  8
0
  6
BYBLOCK
 62
     0
 10
2969.7428020468519
 20
1685.8219161887821
 30
0.0
 11
2969.7428020468519
 21
1587.5424073755109
 31
0.0
  0
LINE
  5
7F2F
  8
0
  6
BYBLOCK
 62
     0
 10
3199.7428020468519
 20
1759.118031505549
 30
0.0
 11
3199.7428020468519
 21
1587.5424073755109
 31
0.0
  0
LINE
  5
7F30
  8
0
  6
BYBLOCK
 62
     0
 10
3009.7428020468519
 20
1607.5424073755109
 30
0.0
 11
3159.7428020468519
 21
1607.5424073755109
 31
0.0
  0
TEXT
  5
7F31
  8
3
 62
     0
 10
3000.4123623653809
 20
1625.5269676071009
 30
0.0
 40
60.0
  1
230
  0
INSERT
  5
7F32
  8
0
  6
BYBLOCK
 62
     0
  2
_OPEN
 10
2969.7428020468519
 20
1607.5424073755109
 30
0.0
 41
40.0
 42
40.0
 43
40.0
 50
180.0
  0
INSERT
  5
7F33
  8
0
  6
BYBLOCK
 62
     0
  2
_OPEN
 10
3199.7428020468519
 20
1607.5424073755109
 30
0.0
 41
40.0
 42
40.0
 43
40.0
  0
POINT
  5
7F34
  8
DEFPOINTS
  6
BYBLOCK
 62
     0
 10
2969.7428020468519
 20
1695.8219161887821
 30
0.0
  0
POINT
  5
7F35
  8
DEFPOINTS
  6
BYBLOCK
 62
     0
 10
3199.7428020468519
 20
1769.118031505549
 30
0.0
  0
POINT
  5
7F36
  8
DEFPOINTS
  6
BYBLOCK
 62
     0
 10
3199.7428020468519
 20
1607.5424073755109
 30
0.0
  0
ENDBLK
  5
7F37
  8
0
  0
BLOCK
  8
0
  2
*D14
 70
     1
 10
0.0
 20
0.0
 30
0.0
  3
*D14
  1

  0
LINE
  5
81CD
  8
3
 62
     0
 10
2922.1774849719709
 20
2842.118031505549
 30
0.0
 11
2922.1774849719709
 21
2946.640511100376
 31
0.0
  0
LINE
  5
81CE
  8
3
 62
     0
 10
3297.1774849719709
 20
2842.118031505549
 30
0.0
 11
3297.1774849719709
 21
2946.640511100376
 31
0.0
  0
LINE
  5
81CF
  8
3
 62
     0
 10
2962.1774849719709
 20
2926.6405111003769
 30
0.0
 11
3257.1774849719709
 21
2926.6405111003769
 31
0.0
  0
INSERT
  5
81D0
  8
3
 62
     0
  2
_OPEN
 10
2922.1774849719709
 20
2926.6405111003769
 30
0.0
 41
40.0
 42
40.0
 43
40.0
 50
180.0
  0
INSERT
  5
81D1
  8
3
 62
     0
  2
_OPEN
 10
3297.1774849719709
 20
2926.6405111003769
 30
0.0
 41
40.0
 42
40.0
 43
40.0
  0
TEXT
  8
3
  40
60
  5
8206
  62
0
  72
0
  71
0
 10
2989.68
 20
2870.44
 30
0.000000
  1
375
  0
POINT
  5
81D3
  8
DEFPOINTS
 62
     0
 10
2922.1774849719709
 20
2832.118031505549
 30
0.0
  0
POINT
  5
81D4
  8
DEFPOINTS
 62
     0
 10
3297.1774849719709
 20
2832.118031505549
 30
0.0
  0
POINT
  5
81D5
  8
DEFPOINTS
 62
     0
 10
3297.1774849719709
 20
2926.6405111003769
 30
0.0
  0
ENDBLK
  5
7F79
  8
0
  0
BLOCK
  8
0
  2
*D15
 70
     1
 10
0.0
 20
0.0
 30
0.0
  3
*D15
  1

  0
LINE
  5
81D6
  8
3
 62
     0
 10
2699.6774849719709
 20
2427.118031505549
 30
0.0
 11
2699.6774849719709
 21
3089.968360183148
 31
0.0
  0
LINE
  5
81D7
  8
3
 62
     0
 10
3109.6774849719709
 20
3023.388054459163
 30
0.0
 11
3109.6774849719709
 21
3089.968360183148
 31
0.0
  0
LINE
  5
81D8
  8
3
 62
     0
 10
2739.6774849719709
 20
3069.968360183148
 30
0.0
 11
3069.6774849719709
 21
3069.968360183148
 31
0.0
  0
INSERT
  5
81D9
  8
3
 62
     0
  2
_OPEN
 10
2699.6774849719709
 20
3069.968360183148
 30
0.0
 41
40.0
 42
40.0
 43
40.0
 50
180.0
  0
INSERT
  5
81DA
  8
3
 62
     0
  2
_OPEN
 10
3109.6774849719709
 20
3069.968360183148
 30
0.0
 41
40.0
 42
40.0
 43
40.0
  0
TEXT
  8
3
  40
60
  5
8207
  62
0
  72
0
  71
0
 10
2792.53
 20
3063.77
 30
0.000000
  1
MAX
  0
TEXT
  8
3
  40
60
  5
8208
  62
0
  72
0
  71
0
 10
2792.53
 20
2985.77
 30
0.000000
  1
450
  0
POINT
  5
81DC
  8
DEFPOINTS
 62
     0
 10
2699.6774849719709
 20
2417.118031505549
 30
0.0
  0
POINT
  5
81DD
  8
DEFPOINTS
 62
     0
 10
3109.6774849719709
 20
3013.388054459163
 30
0.0
  0
POINT
  5
81DE
  8
DEFPOINTS
 62
     0
 10
3109.6774849719709
 20
3069.968360183148
 30
0.0
  0
ENDBLK
  5
7F84
  8
0
  0
BLOCK
  8
0
  2
*D16
 70
     1
 10
0.0
 20
0.0
 30
0.0
  3
*D16
  1

  0
LINE
  5
81DF
  8
3
 62
     0
 10
3109.6774849719709
 20
3023.388054459163
 30
0.0
 11
3109.6774849719709
 21
3089.968360183148
 31
0.0
  0
LINE
  5
81E0
  8
3
 62
     0
 10
3360.6774849719709
 20
2582.1180315055499
 30
0.0
 11
3360.6774849719709
 21
3089.968360183148
 31
0.0
  0
LINE
  5
81E1
  8
3
 62
     0
 10
3149.6774849719709
 20
3069.968360183148
 30
0.0
 11
3320.6774849719709
 21
3069.968360183148
 31
0.0
  0
INSERT
  5
81E2
  8
3
 62
     0
  2
_OPEN
 10
3109.6774849719709
 20
3069.968360183148
 30
0.0
 41
40.0
 42
40.0
 43
40.0
 50
180.0
  0
INSERT
  5
81E3
  8
3
 62
     0
  2
_OPEN
 10
3360.6774849719709
 20
3069.968360183148
 30
0.0
 41
40.0
 42
40.0
 43
40.0
  0
TEXT
  8
3
  40
60
  5
8209
  62
0
  72
0
  71
0
 10
3113.96
 20
3013.77
 30
0.000000
  1
251
  0
POINT
  5
81E5
  8
DEFPOINTS
 62
     0
 10
3109.6774849719709
 20
3013.388054459163
 30
0.0
  0
POINT
  5
81E6
  8
DEFPOINTS
 62
     0
 10
3360.6774849719709
 20
2572.118031505549
 30
0.0
  0
POINT
  5
81E7
  8
DEFPOINTS
 62
     0
 10
3360.6774849719709
 20
3069.968360183148
 30
0.0
  0
ENDBLK
  5
7F6E
  8
0
  0
BLOCK
  8
0
  2
*D17
 70
     1
 10
0.0
 20
0.0
 30
0.0
  3
*D17
  1

  0
LINE
  5
81E8
  8
3
 62
     0
 10
3370.6774849719709
 20
2542.1180315055499
 30
0.0
 11
3533.001295407918
 21
2542.1180315055499
 31
0.0
  0
LINE
  5
81E9
  8
3
 62
     0
 10
3370.6774849719709
 20
2042.118031505549
 30
0.0
 11
3533.001295407918
 21
2042.118031505549
 31
0.0
  0
LINE
  5
81EA
  8
3
 62
     0
 10
3513.001295407917
 20
2502.1180315055499
 30
0.0
 11
3513.001295407917
 21
2082.118031505549
 31
0.0
  0
INSERT
  5
81EB
  8
3
 62
     0
  2
_OPEN
 10
3513.001295407917
 20
2542.1180315055499
 30
0.0
 41
40.0
 42
40.0
 43
40.0
 50
90.0
  0
INSERT
  5
81EC
  8
3
 62
     0
  2
_OPEN
 10
3513.001295407917
 20
2042.118031505549
 30
0.0
 41
40.0
 42
40.0
 43
40.0
 50
270.0
  0
TEXT
  8
3
  40
60
  5
820A
  62
0
  72
0
  71
0
 10
3343.00
 20
2185.92
 30
0.000000
  1
φ500
  0
POINT
  5
81EE
  8
DEFPOINTS
 62
     0
 10
3360.6774849719709
 20
2542.1180315055499
 30
0.0
  0
POINT
  5
81EF
  8
DEFPOINTS
 62
     0
 10
3360.6774849719709
 20
2042.118031505549
 30
0.0
  0
POINT
  5
81F0
  8
DEFPOINTS
 62
     0
 10
3513.001295407917
 20
2042.118031505549
 30
0.0
  0
ENDBLK
  5
7F0B
  8
0
  0
BLOCK
  8
0
  2
*D18
 70
     1
 10
0.0
 20
0.0
 30
0.0
  3
*D18
  1

  0
LINE
  5
81F1
  8
3
 62
     0
 10
1783.895974328037
 20
2882.1180315055499
 30
0.0
 11
1783.895974328037
 21
3119.336348645882
 31
0.0
  0
LINE
  5
81F2
  8
3
 62
     0
 10
558.89597432803748
 20
1957.118031505549
 30
0.0
 11
558.89597432803748
 21
3119.336348645882
 31
0.0
  0
LINE
  5
81F3
  8
3
 62
     0
 10
1743.895974328037
 20
3099.336348645882
 30
0.0
 11
598.8959743280376
 21
3099.336348645882
 31
0.0
  0
INSERT
  5
81F4
  8
3
 62
     0
  2
_OPEN
 10
1783.895974328037
 20
3099.336348645882
 30
0.0
 41
40.0
 42
40.0
 43
40.0
  0
INSERT
  5
81F5
  8
3
 62
     0
  2
_OPEN
 10
558.89597432803748
 20
3099.336348645882
 30
0.0
 41
40.0
 42
40.0
 43
40.0
 50
180.0
  0
TEXT
  8
3
  40
60
  5
820B
  62
0
  72
0
  71
0
 10
1049.57
 20
3043.14
 30
0.000000
  1
1225
  0
POINT
  5
81F7
  8
DEFPOINTS
 62
     0
 10
1783.895974328037
 20
2872.1180315055499
 30
0.0
  0
POINT
  5
81F8
  8
DEFPOINTS
 62
     0
 10
558.89597432803748
 20
1947.118031505549
 30
0.0
  0
POINT
  5
81F9
  8
DEFPOINTS
 62
     0
 10
558.89597432803748
 20
3099.336348645882
 30
0.0
  0
ENDBLK
  5
7EFF
  8
0
  0
ENDSEC
  0
SECTION
  2
ENTITIES
  0
LINE
  5
7A94
  8
1
 10
631.39597432803737
 20
3772.0375559471772
 30
0.0
 11
631.39597432803737
 21
4172.0375559471759
 31
0.0
  0
LINE
  5
7A95
  8
1
 10
916.39597432803737
 20
3772.0375559471772
 30
0.0
 11
916.39597432803737
 21
4172.0375559471759
 31
0.0
  0
LINE
  5
7A96
  8
1
 10
558.89597432803748
 20
3707.0375559471772
 30
0.0
 11
558.89597432803748
 21
4267.0375559471768
 31
0.0
  0
LINE
  5
7A97
  8
1
 10
1783.895974328037
 20
4226.5375559471768
 30
0.0
 11
1783.895974328037
 21
3817.0375559471772
 31
0.0
  0
LINE
  5
7A98
  8
1
 10
1753.895974328037
 20
3849.5375559471759
 30
0.0
 11
1753.895974328037
 21
4224.5375559471759
 31
0.0
  0
LINE
  5
7A99
  8
1
 10
987.44798332803748
 20
3849.5375559471759
 30
0.0
 11
987.44798332803748
 21
4224.5375559471759
 31
0.0
  0
POLYLINE
  5
7A9A
  8
1
 66
     1
 10
0.0
 20
0.0
 30
0.0
  0
VERTEX
  5
8158
  8
1
 10
1783.895974328037
 20
2830.1180315055499
 30
0.0
  0
VERTEX
  5
8159
  8
1
 10
1423.895974328037
 20
2801.118031505549
 30
0.0
 42
0.391482
  0
VERTEX
  5
815A
  8
1
 10
987.44798332803748
 20
2329.118031505549
 30
0.0
 42
0.440232
  0
VERTEX
  5
815B
  8
1
 10
1422.0049803280381
 20
1931.215964505549
 30
0.0
 42
0.388666
  0
VERTEX
  5
815C
  8
1
 10
1724.0797723280371
 20
2261.118031505549
 30
0.0
 42
0.053392
  0
VERTEX
  5
815D
  8
1
 10
1717.9756523280371
 20
2318.118031505549
 30
0.0
 42
0.393627
  0
SEQEND
  5
815E
  8
1
  0
LINE
  5
7AA2
  8
1
 10
1738.895974328037
 20
1769.118031505549
 30
0.0
 11
558.89597432803748
 21
1769.118031505549
 31
0.0
  0
LINE
  5
7AA3
  8
1
 10
1738.895974328037
 20
1834.118031505549
 30
0.0
 11
558.89597432803748
 21
1834.118031505549
 31
0.0
  0
LINE
  5
7AA4
  8
1
 10
558.89597432803748
 20
1834.118031505549
 30
0.0
 11
558.89597432803748
 21
1769.118031505549
 31
0.0
  0
LINE
  5
7AA5
  8
1
 10
1738.895974328037
 20
1834.118031505549
 30
0.0
 11
1738.895974328037
 21
1769.118031505549
 31
0.0
  0
LINE
  5
7AA6
  8
1
 10
631.39597432803737
 20
3772.0375559471772
 30
0.0
 11
916.39597432803737
 21
3772.0375559471772
 31
0.0
  0
LINE
  5
7AA7
  8
1
 10
648.89597432803748
 20
3642.0375559471772
 30
0.0
 11
1548.895974328037
 21
3642.0375559471772
 31
0.0
  0
LINE
  5
7AA8
  8
1
 10
648.89597432803748
 20
3765.0375559471772
 30
0.0
 11
1548.895974328037
 21
3765.0375559471772
 31
0.0
  0
LINE
  5
7AA9
  8
1
 10
558.89597432803748
 20
3707.0375559471772
 30
0.0
 11
698.89597432803748
 21
3707.0375559471772
 31
0.0
  0
ARC
  5
7AAA
  8
1
 10
773.89597432803748
 20
2164.118031505549
 30
0.0
 40
125.0
 50
101.986357
 51
281.98635699999988
  0
LINE
  5
7AAB
  8
1
 10
938.89597432803748
 20
2032.118031505549
 30
0.0
 11
608.89597432803748
 21
2032.118031505549
 31
0.0
  0
ARC
  5
7AAC
  8
1
 10
773.89597432803748
 20
2164.118031505549
 30
0.0
 40
143.0
 50
324.34590999999989
 51
215.65408999999991
  0
LINE
  5
7AAD
  8
1
 10
643.89597432803737
 20
2032.118031505549
 30
0.0
 11
693.89597432803737
 21
2032.118031505549
 31
0.0
  0
LINE
  5
7AAF
  8
1
 10
1738.895974328037
 20
1872.118031505549
 30
0.0
 11
558.89597432803748
 21
1872.118031505549
 31
0.0
  0
LINE
  5
7AB0
  8
1
 10
608.89597432803748
 20
2032.118031505549
 30
0.0
 11
598.89597432803748
 21
1987.118031505549
 31
0.0
  0
LINE
  5
7AB1
  8
1
 10
643.89597432803737
 20
2047.118031505549
 30
0.0
 11
657.92525132803712
 21
2081.3107755055489
 31
0.0
  0
LINE
  5
7AB2
  8
1
 10
643.89597432803737
 20
2032.118031505549
 30
0.0
 11
643.89597432803737
 21
2047.118031505549
 31
0.0
  0
LINE
  5
7AB3
  8
1
 10
598.89597432803748
 20
1987.118031505549
 30
0.0
 11
598.89597432803748
 21
1947.118031505549
 31
0.0
  0
LINE
  5
7AB4
  8
1
 10
558.89597432803748
 20
1947.118031505549
 30
0.0
 11
558.89597432803748
 21
1872.118031505549
 31
0.0
  0
LINE
  5
7AB5
  8
1
 10
648.89597432803748
 20
3642.0375559471772
 30
0.0
 11
648.89597432803748
 21
3765.0375559471772
 31
0.0
  0
LINE
  5
7AB6
  8
1
 10
1753.895974328037
 20
2318.118031505549
 30
0.0
 11
1753.895974328037
 21
2827.701364505549
 31
0.0
  0
LINE
  5
7AB7
  8
1
 10
1783.895974328037
 20
2862.1180315055499
 30
0.0
 11
1783.895974328037
 21
2286.118031505549
 31
0.0
  0
LINE
  5
7AB8
  8
1
 10
789.47188132803785
 20
2090.7532505055492
 30
0.0
 11
1439.4718813280381
 21
2218.7532505055492
 31
0.0
  0
LINE
  5
7AB9
  8
1
 10
758.32006632803768
 20
2237.4828125055492
 30
0.0
 11
1408.320066328037
 21
2365.4828125055501
 31
0.0
  0
LINE
  5
7ABA
  8
1
 10
799.8558193280378
 20
2041.843396505549
 30
0.0
 11
1449.8558193280369
 21
2169.8433965055492
 31
0.0
  0
LINE
  5
7ABB
  8
1
 10
747.93612832803774
 20
2286.3926665055501
 30
0.0
 11
1397.9361283280371
 21
2414.3926665055492
 31
0.0
  0
CIRCLE
  5
7ABC
  8
1
 10
1423.895974328037
 20
2292.118031505549
 30
0.0
 40
280.0
  0
CIRCLE
  5
7ABD
  8
1
 10
1423.895974328037
 20
2292.118031505549
 30
0.0
 40
250.0
  0
LINE
  5
7ABE
  8
2
 10
693.89597432803737
 20
2164.118031505549
 30
0.0
 11
853.89597432803737
 21
2164.118031505549
 31
0.0
  0
LINE
  5
7ABF
  8
2
 10
773.89597432803748
 20
2084.118031505549
 30
0.0
 11
773.89597432803748
 21
2244.118031505549
 31
0.0
  0
CIRCLE
  5
7AC0
  8
1
 10
773.89597432803748
 20
2164.118031505549
 30
0.0
 40
75.0
  0
LINE
  5
7AC1
  8
1
 10
948.89597432803748
 20
1987.118031505549
 30
0.0
 11
938.89597432803748
 21
2032.118031505549
 31
0.0
  0
LINE
  5
7AC2
  8
1
 10
903.89597432803737
 20
2032.118031505549
 30
0.0
 11
853.89597432803737
 21
2032.118031505549
 31
0.0
  0
LINE
  5
7AC3
  8
1
 10
903.89597432803737
 20
2032.118031505549
 30
0.0
 11
903.89597432803737
 21
2047.118031505549
 31
0.0
  0
LINE
  5
7AC4
  8
1
 10
903.89597432803737
 20
2047.118031505549
 30
0.0
 11
889.86669632803739
 21
2081.3107755055489
 31
0.0
  0
LINE
  5
7AC5
  8
1
 10
948.89597432803748
 20
1987.118031505549
 30
0.0
 11
948.89597432803748
 21
1947.118031505549
 31
0.0
  0
LINE
  5
7AC6
  8
2
 10
1423.895974328037
 20
1727.6551835055491
 30
0.0
 11
1423.895974328037
 21
2861.8764095055499
 31
0.0
  0
ARC
  5
7AC7
  8
1
 10
1423.895974328037
 20
2292.118031505549
 30
0.0
 40
125.0
 50
281.98635699999988
 51
101.986357
  0
CIRCLE
  5
7AC8
  8
1
 10
1423.895974328037
 20
2292.118031505549
 30
0.0
 40
75.0
  0
LINE
  5
7AC9
  8
2
 10
577.91469632803808
 20
2292.118031505549
 30
0.0
 11
1782.387524328037
 21
2292.118031505549
 31
0.0
  0
LINE
  5
7ACA
  8
1
 10
1738.895974328037
 20
1947.118031505549
 30
0.0
 11
1738.895974328037
 21
1872.118031505549
 31
0.0
  0
LINE
  5
7ACB
  8
1
 10
1717.9756523280371
 20
2318.118031505549
 30
0.0
 11
1783.895974328037
 21
2318.118031505549
 31
0.0
  0
LINE
  5
7ACC
  8
1
 10
848.89597432803748
 20
3707.0375559471772
 30
0.0
 11
1348.895974328037
 21
3707.0375559471772
 31
0.0
  0
LINE
  5
7ACD
  8
1
 10
1783.895974328037
 20
3849.5375559471759
 30
0.0
 11
987.44798332803748
 21
3849.5375559471759
 31
0.0
  0
LINE
  5
7ACE
  8
1
 10
698.89597432803748
 20
3735.0375559471772
 30
0.0
 11
698.89597432803748
 21
3672.0375559471772
 31
0.0
  0
LINE
  5
7ACF
  8
1
 10
848.89597432803748
 20
3735.0375559471772
 30
0.0
 11
848.89597432803748
 21
3672.0375559471772
 31
0.0
  0
LINE
  5
7AD0
  8
1
 10
698.89597432803748
 20
3735.0375559471772
 30
0.0
 11
848.89597432803748
 21
3735.0375559471772
 31
0.0
  0
LINE
  5
7AD1
  8
1
 10
698.89597432803748
 20
3672.0375559471772
 30
0.0
 11
848.89597432803748
 21
3672.0375559471772
 31
0.0
  0
LINE
  5
7AD2
  8
1
 10
792.89597432803737
 20
3735.0375559471772
 30
0.0
 11
792.89597432803737
 21
3772.0375559471772
 31
0.0
  0
LINE
  5
7AD3
  8
1
 10
754.89597432803748
 20
3735.0375559471772
 30
0.0
 11
754.89597432803748
 21
3772.0375559471772
 31
0.0
  0
LINE
  5
7AD4
  8
1
 10
1498.895974328037
 20
3707.0375559471772
 30
0.0
 11
1738.895974328037
 21
3707.0375559471772
 31
0.0
  0
LINE
  5
7AD5
  8
1
 10
1348.895974328037
 20
3672.0375559471772
 30
0.0
 11
1498.895974328037
 21
3672.0375559471772
 31
0.0
  0
LINE
  5
7AD6
  8
1
 10
1348.895974328037
 20
3735.0375559471772
 30
0.0
 11
1498.895974328037
 21
3735.0375559471772
 31
0.0
  0
LINE
  5
7AD7
  8
1
 10
1498.895974328037
 20
3735.0375559471772
 30
0.0
 11
1498.895974328037
 21
3672.0375559471772
 31
0.0
  0
LINE
  5
7AD8
  8
1
 10
1348.895974328037
 20
3735.0375559471772
 30
0.0
 11
1348.895974328037
 21
3672.0375559471772
 31
0.0
  0
LINE
  5
7AD9
  8
1
 10
1441.395974328037
 20
3849.5375559471759
 30
0.0
 11
1441.395974328037
 21
3735.0375559471772
 31
0.0
  0
LINE
  5
7ADA
  8
1
 10
1406.395974328037
 20
3849.5375559471759
 30
0.0
 11
1406.395974328037
 21
3735.0375559471772
 31
0.0
  0
LINE
  5
7ADB
  8
1
 10
1548.895974328037
 20
3642.0375559471772
 30
0.0
 11
1548.895974328037
 21
3765.0375559471772
 31
0.0
  0
LINE
  5
7ADC
  8
1
 10
1738.895974328037
 20
3707.0375559471772
 30
0.0
 11
1738.895974328037
 21
3849.5375559471759
 31
0.0
  0
LINE
  5
7ADD
  8
1
 10
631.39597432803737
 20
4172.0375559471759
 30
0.0
 11
916.39597432803737
 21
4172.0375559471759
 31
0.0
  0
LINE
  5
7ADE
  8
1
 10
558.89597432803748
 20
4267.0375559471768
 30
0.0
 11
1173.895974328037
 21
4267.0375559471768
 31
0.0
  0
LINE
  5
7ADF
  8
1
 10
1703.895974328037
 20
4288.0375559471759
 30
0.0
 11
1143.895974328037
 21
4288.0375559471759
 31
0.0
  0
LINE
  5
7AE0
  8
1
 10
1783.895974328037
 20
4224.5375559471759
 30
0.0
 11
987.44798332803748
 21
4224.5375559471759
 31
0.0
  0
LINE
  5
7AE1
  8
1
 10
1173.895974328037
 20
4224.5375559471759
 30
0.0
 11
1173.895974328037
 21
4288.0375559471759
 31
0.0
  0
LINE
  5
7AE2
  8
1
 10
1738.895974328037
 20
4224.5375559471759
 30
0.0
 11
1738.895974328037
 21
4267.0375559471768
 31
0.0
  0
LINE
  5
7AE3
  8
1
 10
1673.895974328037
 20
4267.0375559471768
 30
0.0
 11
1738.895974328037
 21
4267.0375559471768
 31
0.0
  0
LINE
  5
7AE4
  8
1
 10
1673.895974328037
 20
4224.5375559471759
 30
0.0
 11
1673.895974328037
 21
4288.0375559471759
 31
0.0
  0
LINE
  5
7AE5
  8
1
 10
1783.895974328037
 20
4227.0375559471759
 30
0.0
 11
1783.895974328037
 21
4257.0375559471768
 31
0.0
  0
LINE
  5
7AE7
  8
1
 10
3339.6774849719709
 20
1769.118031505549
 30
0.0
 11
2779.6774849719709
 21
1769.118031505549
 31
0.0
  0
LINE
  5
7AE8
  8
1
 10
3339.6774849719709
 20
1834.118031505549
 30
0.0
 11
2779.6774849719709
 21
1834.118031505549
 31
0.0
  0
LINE
  5
7AE9
  8
1
 10
2779.6774849719709
 20
1769.118031505549
 30
0.0
 11
2779.6774849719709
 21
1834.118031505549
 31
0.0
  0
LINE
  5
7AEA
  8
1
 10
3339.6774849719709
 20
1769.118031505549
 30
0.0
 11
3339.6774849719709
 21
1834.118031505549
 31
0.0
  0
LINE
  5
7AEB
  8
1
 10
2922.1774849719709
 20
2316.118031505549
 30
0.0
 11
3297.1774849719709
 21
2832.118031505549
 31
0.0
  0
LINE
  5
7AEC
  8
1
 10
2922.1774849719709
 20
2832.118031505549
 30
0.0
 11
3297.1774849719709
 21
2316.118031505549
 31
0.0
  0
LINE
  5
7AED
  8
1
 10
3297.1774849719709
 20
2832.118031505549
 30
0.0
 11
3297.1774849719709
 21
2316.118031505549
 31
0.0
  0
LINE
  5
7AEE
  8
1
 10
2922.1774849719709
 20
2832.118031505549
 30
0.0
 11
2922.1774849719709
 21
2316.118031505549
 31
0.0
  0
LINE
  5
7AEF
  8
1
 10
2922.1774849719709
 20
2274.618031505549
 30
0.0
 11
2807.6774849719709
 21
2274.618031505549
 31
0.0
  0
LINE
  5
7AF0
  8
1
 10
2922.1774849719709
 20
2309.618031505549
 30
0.0
 11
2807.6774849719709
 21
2309.618031505549
 31
0.0
  0
LINE
  5
7AF1
  8
1
 10
2807.6774849719709
 20
2145.118031505549
 30
0.0
 11
2922.1774849719709
 21
2145.118031505549
 31
0.0
  0
LINE
  5
7AF2
  8
1
 10
2807.6774849719709
 20
2183.118031505549
 30
0.0
 11
2922.1774849719709
 21
2183.118031505549
 31
0.0
  0
LINE
  5
7AF4
  8
1
 10
3339.6774849719709
 20
1872.118031505549
 30
0.0
 11
2779.6774849719709
 21
1872.118031505549
 31
0.0
  0
LINE
  5
7AF5
  8
1
 10
2837.6774849719709
 20
2039.118031505549
 30
0.0
 11
2837.6774849719709
 21
2096.0273436906841
 31
0.0
  0
LINE
  5
7AF6
  8
1
 10
2699.6774849719709
 20
2039.118031505549
 30
0.0
 11
2699.6774849719709
 21
2417.118031505549
 31
0.0
  0
LINE
  5
7AF7
  8
1
 10
2807.6774849719709
 20
2217.118031505549
 30
0.0
 11
2807.6774849719709
 21
2367.118031505549
 31
0.0
  0
LINE
  5
7AF8
  8
1
 10
2729.6774849719709
 20
2217.118031505549
 30
0.0
 11
2729.6774849719709
 21
2367.118031505549
 31
0.0
  0
LINE
  5
7AF9
  8
1
 10
2699.6774849719709
 20
2039.118031505549
 30
0.0
 11
2837.6774849719709
 21
2039.118031505549
 31
0.0
  0
LINE
  5
7AFA
  8
1
 10
2729.6774849719709
 20
2089.118031505549
 30
0.0
 11
2729.6774849719709
 21
2229.118031505549
 31
0.0
  0
LINE
  5
7AFB
  8
1
 10
2807.6774849719709
 20
2089.118031505549
 30
0.0
 11
2807.6774849719709
 21
2229.118031505549
 31
0.0
  0
LINE
  5
7AFC
  8
1
 10
2807.6774849719709
 20
2239.118031505549
 30
0.0
 11
2729.6774849719709
 21
2239.118031505549
 31
0.0
  0
LINE
  5
7AFD
  8
1
 10
2807.6774849719709
 20
2089.118031505549
 30
0.0
 11
2729.6774849719709
 21
2089.118031505549
 31
0.0
  0
LINE
  5
7AFE
  8
1
 10
2807.6774849719709
 20
2217.118031505549
 30
0.0
 11
2729.6774849719709
 21
2217.118031505549
 31
0.0
  0
LINE
  5
7AFF
  8
1
 10
2779.6774849719709
 20
1872.118031505549
 30
0.0
 11
2779.6774849719709
 21
1947.118031505549
 31
0.0
  0
LINE
  5
7B00
  8
1
 10
2699.6774849719709
 20
2417.118031505549
 30
0.0
 11
2837.6774849719709
 21
2417.118031505549
 31
0.0
  0
LINE
  5
7B01
  8
1
 10
2807.6774849719709
 20
2367.118031505549
 30
0.0
 11
2729.6774849719709
 21
2367.118031505549
 31
0.0
  0
LINE
  5
7B02
  8
1
 10
3297.1774849719709
 20
2316.118031505549
 30
0.0
 11
3297.1774849719709
 21
1947.118031505549
 31
0.0
  0
LINE
  5
7B03
  8
1
 10
2922.1774849719709
 20
2316.118031505549
 30
0.0
 11
2922.1774849719709
 21
1947.118031505549
 31
0.0
  0
LINE
  5
7B04
  8
1
 10
3360.6774849719709
 20
2012.118031505549
 30
0.0
 11
3360.6774849719709
 21
2572.118031505549
 31
0.0
  0
LINE
  5
7B05
  8
1
 10
3339.6774849719709
 20
1872.118031505549
 30
0.0
 11
3339.6774849719709
 21
1947.118031505549
 31
0.0
  0
LINE
  5
7B06
  8
1
 10
3297.1774849719709
 20
2042.118031505549
 30
0.0
 11
3360.6774849719709
 21
2042.118031505549
 31
0.0
  0
LINE
  5
7B07
  8
1
 10
2922.1774849719709
 20
2316.118031505549
 30
0.0
 11
3297.1774849719709
 21
2316.118031505549
 31
0.0
  0
LINE
  5
7B08
  8
1
 10
3297.1774849719709
 20
2542.1180315055499
 30
0.0
 11
3360.6774849719709
 21
2542.1180315055499
 31
0.0
  0
LINE
  5
7B09
  8
1
 10
3297.1774849719709
 20
2832.118031505549
 30
0.0
 11
2922.1774849719709
 21
2832.118031505549
 31
0.0
  0
DIMENSION
  5
7B33
  8
3
  2
*D1
 10
1423.895974328037
 20
1602.619277428068
 30
0.0
 11
991.17574632803735
 21
1602.619277428068
 31
0.0
 70
   128
 13
558.89597432803748
 23
1769.118031505549
 33
0.0
 14
1423.895974328037
 24
1727.6551835055491
 34
0.0
1001
ACAD
1000
DSTYLE
1002
{
1070
   287
1070
     3
1070
   287
1070
     3
1070
    40
1040
20.0
1070
   143
1040
0.039
1070
   172
1070
     1
1070
   271
1070
     0
1070
   279
1070
     0
1070
   288
1070
     1
1002
}
  0
DIMENSION
  5
7B41
  8
3
  2
*D2
 10
1738.895974328037
 20
1602.619277428068
 30
0.0
 11
1555.3245457566079
 21
1602.619277428068
 31
0.0
 70
   128
 13
1423.895974328037
 23
1727.6551835055491
 33
0.0
 14
1738.895974328037
 24
1769.118031505549
 34
0.0
1001
ACAD
1000
DSTYLE
1002
{
1070
   287
1070
     3
1070
   287
1070
     3
1070
    40
1040
20.0
1070
   143
1040
0.039
1070
   172
1070
     1
1070
   271
1070
     0
1070
   279
1070
     0
1070
   288
1070
     1
1002
}
  0
DIMENSION
  5
7B64
  8
3
  2
*D3
 10
1976.053824949935
 20
2318.118031505549
 30
0.0
 11
1976.053824949935
 21
2579.8335195055488
 31
0.0
 70
   128
 13
1783.895974328037
 23
2830.1180315055499
 33
0.0
 14
1783.895974328037
 24
2318.118031505549
 34
0.0
 50
90.0
1001
ACAD
1000
DSTYLE
1002
{
1070
   287
1070
     3
1070
   287
1070
     3
1070
    40
1040
20.0
1070
   143
1040
0.039
1070
   172
1070
     1
1070
   271
1070
     0
1070
   279
1070
     0
1070
   288
1070
     1
1002
}
  0
DIMENSION
  5
7B71
  8
3
  2
*D4
 10
2108.5326596473301
 20
2292.118031505549
 30
0.0
 11
2108.5326596473292
 21
2570.1442515055492
 31
0.0
 70
   128
 13
1783.895974328037
 23
2830.1180315055499
 33
0.0
 14
1722.288781328037
 24
2292.118031505549
 34
0.0
 50
90.0
1001
ACAD
1000
DSTYLE
1002
{
1070
   287
1070
     3
1070
   287
1070
     3
1070
    40
1040
20.0
1070
   143
1040
0.039
1070
   172
1070
     1
1070
   271
1070
     0
1070
   279
1070
     0
1070
   288
1070
     1
1002
}
  0
DIMENSION
  5
7B7D
  8
3
  2
*D5
 10
2108.5326596473292
 20
1872.118031505549
 30
0.0
 11
2058.5326596473292
 21
2082.1180315055499
 31
0.0
 70
     0
 13
1722.288781328037
 23
2292.118031505549
 33
0.0
 14
1738.895974328037
 24
1872.118031505549
 34
0.0
 50
90.0
1001
ACAD
1000
DSTYLE
1002
{
1070
   287
1070
     3
1070
   287
1070
     3
1070
    40
1040
20.0
1070
   143
1040
0.039
1070
   172
1070
     1
1070
   271
1070
     0
1070
   279
1070
     0
1070
   288
1070
     1
1002
}
  0
DIMENSION
  5
7B8D
  8
3
  2
*D6
 10
2108.8528866473298
 20
1769.118031505549
 30
0.0
 11
2108.8528866473289
 21
1541.9751743626921
 31
0.0
 70
   128
 13
1738.895974328037
 23
1872.118031505549
 33
0.0
 14
1738.895974328037
 24
1769.118031505549
 34
0.0
 50
90.0
1001
ACAD
1000
DSTYLE
1002
{
1070
   287
1070
     3
1070
   287
1070
     3
1070
    40
1040
20.0
1070
   143
1040
0.039
1070
   172
1070
     1
1070
   271
1070
     0
1070
   279
1070
     0
1070
   288
1070
     1
1002
}
  0
DIMENSION
  5
7BB5
  8
3
  2
*D7
 10
2236.0441507607138
 20
1769.118031505549
 30
0.0
 11
2236.0441507607129
 21
2285.9305085055498
 31
0.0
 70
   128
 13
1783.895974328037
 23
2862.1180315055499
 33
0.0
 14
1738.895974328037
 24
1769.118031505549
 34
0.0
 50
90.0
1001
ACAD
1000
DSTYLE
1002
{
1070
   287
1070
     3
1070
   287
1070
     3
1070
    40
1040
20.0
1070
   143
1040
0.039
1070
   172
1070
     1
1070
   271
1070
     0
1070
   279
1070
     0
1070
   288
1070
     1
1002
}
  0
DIMENSION
  5
7BC3
  8
3
  2
*D8
 10
1423.895974328037
 20
2979.346620042224
 30
0.0
 11
1194.8795543280371
 21
2979.346620042224
 31
0.0
 70
   128
 13
989.16526832803709
 23
2292.118031505549
 33
0.0
 14
1423.895974328037
 24
2801.118031505549
 34
0.0
1001
ACAD
1000
DSTYLE
1002
{
1070
   287
1070
     3
1070
   287
1070
     3
1070
    40
1040
20.0
1070
   143
1040
0.039
1070
   172
1070
     1
1070
   271
1070
     0
1070
   279
1070
     0
1070
   288
1070
     1
1002
}
  0
DIMENSION
  5
7BD1
  8
3
  2
*D9
 10
1783.895974328037
 20
2981.049455793574
 30
0.0
 11
1592.980272328037
 21
2981.049455793574
 31
0.0
 70
   128
 13
1423.895974328037
 23
2801.118031505549
 33
0.0
 14
1783.895974328037
 24
2862.1180315055499
 34
0.0
1001
ACAD
1000
DSTYLE
1002
{
1070
   287
1070
     3
1070
   287
1070
     3
1070
    40
1040
20.0
1070
   143
1040
0.039
1070
   172
1070
     1
1070
   271
1070
     0
1070
   279
1070
     0
1070
   288
1070
     1
1002
}
  0
DIMENSION
  5
7BF4
  8
3
  2
*D10
 10
1738.895974328037
 20
3441.7806717684171
 30
0.0
 11
1166.339320328037
 21
3441.7806717684171
 31
0.0
 70
   128
 13
558.89597432803748
 23
3707.0375559471772
 33
0.0
 14
1738.895974328037
 24
3707.0375559471772
 34
0.0
1001
ACAD
1000
DSTYLE
1002
{
1070
   287
1070
     3
1070
   287
1070
     3
1070
    40
1040
20.0
1070
   143
1040
0.039
1070
   172
1070
     1
1070
   271
1070
     0
1070
   279
1070
     0
1070
   288
1070
     1
1002
}
  0
DIMENSION
  5
7C01
  8
3
  2
*D11
 10
1971.2766840783961
 20
3707.0375559471772
 30
0.0
 11
1971.2766840783961
 21
4061.3232699471769
 31
0.0
 70
   128
 13
1738.895974328037
 23
4267.0375559471768
 33
0.0
 14
1738.895974328037
 24
3707.0375559471772
 34
0.0
 50
90.0
1001
ACAD
1000
DSTYLE
1002
{
1070
   287
1070
     3
1070
   287
1070
     3
1070
    40
1040
20.0
1070
   143
1040
0.039
1070
   172
1070
     1
1070
   271
1070
     0
1070
   279
1070
     0
1070
   288
1070
     1
1002
}
  0
LINE
  5
7C02
  8
2
 10
573.7355423280377
 20
4037.0375559471759
 30
0.0
 11
1858.014823328037
 21
4032.805878947177
 31
0.0
  0
LINE
  5
7C03
  8
2
 10
3109.6774849719709
 20
2913.1774758635079
 30
0.0
 11
3109.6774849719709
 21
1695.8219161887821
 31
0.0
  0
DIMENSION
  5
7C12
  8
3
  2
*D12
 10
3109.6774849719709
 20
1607.438276375342
 30
0.0
 11
2944.6774849719709
 21
1607.438276375342
 31
0.0
 70
   128
 13
2779.6774849719709
 23
1769.118031505549
 33
0.0
 14
3109.6774849719709
 24
1695.8219161887821
 34
0.0
1001
ACAD
1000
DSTYLE
1002
{
1070
   287
1070
     3
1070
   287
1070
     3
1070
    40
1040
20.0
1070
   143
1040
0.039
1070
   172
1070
     1
1070
   271
1070
     0
1070
   279
1070
     0
1070
   288
1070
     1
1002
}
  0
DIMENSION
  5
7C20
  8
3
  2
*D13
 10
3339.6774849719709
 20
1607.5424073755109
 30
0.0
 11
3217.4899024333558
 21
1655.5269676071021
 31
0.0
 12
139.93468292511889
 22
0.0
 32
0.0
 70
   128
 13
3109.6774849719709
 23
1695.8219161887821
 33
0.0
 14
3339.6774849719709
 24
1769.118031505549
 34
0.0
1001
ACAD
1000
DSTYLE
1002
{
1070
   288
1070
     1
1070
   172
1070
     1
1070
    40
1040
20.0
1070
   271
1070
     0
1070
   143
1040
0.039
1002
}
  0
DIMENSION
  5
7C45
  8
3
  2
*D14
 10
3297.1774849719709
 20
2926.6405111003769
 30
0.0
 11
3109.6774849719709
 21
2926.6405111003769
 31
0.0
 70
   128
 13
2922.1774849719709
 23
2832.118031505549
 33
0.0
 14
3297.1774849719709
 24
2832.118031505549
 34
0.0
1001
ACAD
1000
DSTYLE
1002
{
1070
   287
1070
     3
1070
   287
1070
     3
1070
    40
1040
20.0
1070
   143
1040
0.039
1070
   172
1070
     1
1070
   271
1070
     0
1070
   279
1070
     0
1070
   288
1070
     1
1002
}
  0
DIMENSION
  5
7C52
  8
3
  2
*D15
 10
3109.6774849719709
 20
3069.968360183148
 30
0.0
 11
2912.534627829114
 21
3069.968360183148
 31
0.0
 70
   128
  1
MAX\P450
 13
2699.6774849719709
 23
2417.118031505549
 33
0.0
 14
3109.6774849719709
 24
3013.388054459163
 34
0.0
1001
ACAD
1000
DSTYLE
1002
{
1070
   287
1070
     3
1070
   287
1070
     3
1070
    40
1040
20.0
1070
   143
1040
0.039
1070
   172
1070
     1
1070
   271
1070
     0
1070
   279
1070
     0
1070
   288
1070
     1
1002
}
  0
DIMENSION
  5
7C60
  8
3
  2
*D16
 10
3360.6774849719709
 20
3069.968360183148
 30
0.0
 11
3233.9631992576851
 21
3069.968360183148
 31
0.0
 70
   128
 13
3109.6774849719709
 23
3013.388054459163
 33
0.0
 14
3360.6774849719709
 24
2572.118031505549
 34
0.0
1001
ACAD
1000
DSTYLE
1002
{
1070
   287
1070
     3
1070
   287
1070
     3
1070
    40
1040
20.0
1070
   143
1040
0.039
1070
   172
1070
     1
1070
   271
1070
     0
1070
   279
1070
     0
1070
   288
1070
     1
1002
}
  0
DIMENSION
  5
7C83
  8
3
  2
*D17
 10
3513.001295407917
 20
2042.118031505549
 30
0.0
 11
3513.001295407917
 21
2292.1180315055499
 31
0.0
 70
   128
 13
3360.6774849719709
 23
2542.1180315055499
 33
0.0
 14
3360.6774849719709
 24
2042.118031505549
 34
0.0
 50
90.0
1001
ACAD
1000
DSTYLE
1002
{
1070
   287
1070
     3
1070
   287
1070
     3
1070
     3
1000
φ<>
1070
    40
1040
20.0
1070
   143
1040
0.039
1070
   172
1070
     1
1070
   271
1070
     0
1070
   279
1070
     0
1070
   288
1070
     1
1002
}
  0
LINE
  5
7C84
  8
2
 10
2663.3328657101838
 20
2292.118031505549
 30
0.0
 11
3381.1668318911179
 21
2292.118031505549
 31
0.0
  0
LINE
  5
7C85
  8
2
 10
1423.895974328037
 20
3489.7228019471768
 30
0.0
 11
1423.895974328037
 21
4374.6810599471764
 31
0.0
  0
LINE
  5
7C86
  8
4
 10
3700.0
 20
1000.0
 30
0.0
 11
3700.0
 21
600.0
 31
0.0
  0
LINE
  5
7C87
  8
4
 10
2300.0
 20
1000.0
 30
0.0
 11
2300.0
 21
600.0
 31
0.0
  0
LINE
  5
7C88
  8
4
 10
1300.0
 20
1000.0
 30
0.0
 11
1300.0
 21
600.0
 31
0.0
  0
LINE
  5
7C8B
  8
4
 10
1300.0
 20
600.0
 30
0.0
 11
3700.0
 21
600.0
 31
0.0
  0
LINE
  5
7C8C
  8
4
 10
1300.0
 20
800.0
 30
0.0
 11
3700.0
 21
800.0
 31
0.0
  0
TEXT
  5
7C8D
  8
4
 10
1377.004161999999
 20
863.08605199999977
 30
0.0
 40
100.0
  1
機器名称
  0
TEXT
  5
7C8E
  8
4
 10
1372.5162119999991
 20
643.29031333333319
 30
0.0
 40
100.0
  1
機器型番
  0
TEXT
  5
7C8F
  8
4
 10
2355.3574906666659
 20
845.14353799999992
 30
0.0
 40
86.666666666666657
  1
ミツヤリミットロードファン
  0
TEXT
  5
7C90
  8
4
 10
2373.308991333332
 20
634.31916866666666
 30
0.0
 40
100.0
  1
LLE#3-4
  0
TEXT
  5
7C92
  8
4
 10
1505.6858999999999
 20
4766.8576826666658
 30
0.0
 40
108.0
  1
床置防振ベット
  0
TEXT
  5
7C93
  8
4
 10
632.33518666666669
 20
5067.7619526666667
 30
0.0
 40
120.0
  1
ベルト駆動式片吸込両持排煙ファン
  0
LINE
  5
7C94
  8
4
 10
500.0
 20
4938.8175086666661
 30
0.0
 11
3700.0
 21
4938.8175086666661
 31
0.0
  0
LINE
  5
7C95
  8
4
 10
500.0
 20
5338.8175086666661
 30
0.0
 11
3700.0
 21
5338.8175086666661
 31
0.0
  0
LINE
  5
7C96
  8
4
 10
1300.0
 20
1000.0
 30
0.0
 11
3700.0
 21
1000.0
 31
0.0
  0
LINE
  5
7C97
  8
4
 10
500.0
 20
5338.8175086666661
 30
0.0
 11
500.0
 21
4938.8175086666661
 31
0.0
  0
TEXT
  5
7C98
  8
4
 10
633.96823533333327
 20
4764.6389553333329
 30
0.0
 40
108.0
  1
右回転右横向
  0
TEXT
  5
7C99
  8
4
 10
2937.9391186666662
 20
5412.1221626666656
 30
0.0
 40
112.0
  1
No.
  0
TEXT
  5
7C9A
  8
4
 10
2622.5921253333331
 20
4766.8576826666658
 30
0.0
 40
108.0
  1
縮尺：1/20
  0
LINE
  5
7C9B
  8
4
 10
3700.0
 20
5338.8175086666661
 30
0.0
 11
3700.0
 21
4938.8175086666661
 31
0.0
  0
LINE
  5
7C9D
  8
4
 10
2881.234844666666
 20
5362.5271659999999
 30
0.0
 11
2881.234844666666
 21
5573.3045233333341
 31
0.0
  0
LINE
  5
7C9E
  8
4
 10
2881.234844666666
 20
5573.3045233333341
 30
0.0
 11
3700.0
 21
5573.3045233333341
 31
0.0
  0
LINE
  5
7C9F
  8
4
 10
3700.0
 20
5573.3045233333341
 30
0.0
 11
3700.0
 21
5362.5271659999999
 31
0.0
  0
LINE
  5
7CA0
  8
4
 10
3700.0
 20
5362.5271659999999
 30
0.0
 11
2881.234844666666
 21
5362.5271659999999
 31
0.0
  0
LINE
  5
7D5A
  8
1
 10
1738.895974328037
 20
1947.118031505549
 30
0.0
 11
558.89597432803748
 21
1947.118031505549
 31
0.0
  0
LINE
  5
7D5B
  8
1
 10
3339.6774849719709
 20
1947.118031505549
 30
0.0
 11
2779.6774849719709
 21
1947.118031505549
 31
0.0
  0
DIMENSION
  5
7F00
  8
3
  2
*D18
 10
558.89597432803748
 20
3099.336348645882
 30
0.0
 11
1169.574376600179
 21
3099.336348645882
 31
0.0
 70
   128
 13
1783.895974328037
 23
2872.1180315055499
 33
0.0
 14
558.89597432803748
 24
1947.118031505549
 34
0.0
1001
ACAD
1000
DSTYLE
1002
{
1070
   287
1070
     3
1070
   287
1070
     3
1070
    40
1040
20.0
1070
   143
1040
0.039
1070
   172
1070
     1
1070
   271
1070
     0
1070
   279
1070
     0
1070
   288
1070
     1
1002
}
  0
LINE
  5
7F85
  8
1
 10
2837.6774849719709
 20
2357.2193484170939
 30
0.0
 11
2837.6774849719709
 21
2417.118031505549
 31
0.0
  0
ENDSEC
  0
EOF
