  0
SECTION
  2
HEADER
  9
$ACADVER
  1
AC1009
  9
$INSBASE
 10
0.0
 20
0.0
 30
0.0
  9
$EXTMIN
 10
500.0
 20
600.0
 30
0.0
  9
$EXTMAX
 10
3762.8382662981712
 20
5573.3045233333341
 30
0.0
  9
$LIMMIN
 10
0.0
 20
0.0
  9
$LIMMAX
 10
297.0
 20
210.0
  9
$ORTHOMODE
 70
     0
  9
$REGENMODE
 70
     1
  9
$FILLMODE
 70
     0
  9
$QTEXTMODE
 70
     0
  9
$MIRRTEXT
 70
     1
  9
$DRAGMODE
 70
     2
  9
$LTSCALE
 40
100.0
  9
$OSMODE
 70
    37
  9
$ATTMODE
 70
     1
  9
$TEXTSIZE
 40
180.0
  9
$TRACEWID
 40
0.05
  9
$TEXTSTYLE
  7
STANDARD
  9
$CLAYER
  8
3
  9
$CELTYPE
  6
BYLAYER
  9
$CECOLOR
 62
   256
  9
$DIMSCALE
 40
20.0
  9
$DIMASZ
 40
2.0
  9
$DIMEXO
 40
0.5
  9
$DIMDLI
 40
10.0
  9
$DIMRND
 40
0.0
  9
$DIMDLE
 40
0.0
  9
$DIMEXE
 40
1.0
  9
$DIMTP
 40
1.0
  9
$DIMTM
 40
1.0
  9
$DIMTXT
 40
3.0
  9
$DIMCEN
 40
0.0
  9
$DIMTSZ
 40
0.0
  9
$DIMTOL
 70
     0
  9
$DIMLIM
 70
     0
  9
$DIMTIH
 70
     0
  9
$DIMTOH
 70
     0
  9
$DIMSE1
 70
     0
  9
$DIMSE2
 70
     0
  9
$DIMTAD
 70
     1
  9
$DIMZIN
 70
     8
  9
$DIMBLK
  1

  9
$DIMASO
 70
     1
  9
$DIMSHO
 70
     1
  9
$DIMPOST
  1

  9
$DIMAPOST
  1

  9
$DIMALT
 70
     0
  9
$DIMALTD
 70
     2
  9
$DIMALTF
 40
0.039
  9
$DIMLFAC
 40
1.0
  9
$DIMTOFL
 70
     1
  9
$DIMTVP
 40
0.0
  9
$DIMTIX
 70
     0
  9
$DIMSOXD
 70
     0
  9
$DIMSAH
 70
     1
  9
$DIMBLK1
  1
OPEN
  9
$DIMBLK2
  1
OPEN
  9
$DIMSTYLE
  2
IGA
  9
$DIMCLRD
 70
     0
  9
$DIMCLRE
 70
     0
  9
$DIMCLRT
 70
     0
  9
$DIMTFAC
 40
10.0
  9
$DIMGAP
 40
1.0
  9
$LUNITS
 70
     2
  9
$LUPREC
 70
     3
  9
$SKETCHINC
 40
0.1
  9
$FILLETRAD
 40
50.0
  9
$AUNITS
 70
     0
  9
$AUPREC
 70
     0
  9
$MENU
  1
acad
  9
$ELEVATION
 40
0.0
  9
$PELEVATION
 40
0.0
  9
$THICKNESS
 40
0.0
  9
$LIMCHECK
 70
     0
  9
$BLIPMODE
 70
     0
  9
$CHAMFERA
 40
0.5
  9
$CHAMFERB
 40
0.5
  9
$SKPOLY
 70
     0
  9
$TDCREATE
 40
2450763.578390162
  9
$TDUPDATE
 40
2454953.681604085
  9
$TDINDWG
 40
0.0162771065
  9
$TDUSRTIMER
 40
0.0162771065
  9
$USRTIMER
 70
     1
  9
$ANGBASE
 50
0.0
  9
$ANGDIR
 70
     0
  9
$PDMODE
 70
     0
  9
$PDSIZE
 40
0.0
  9
$PLINEWID
 40
0.0
  9
$COORDS
 70
     1
  9
$SPLFRAME
 70
     0
  9
$SPLINETYPE
 70
     6
  9
$SPLINESEGS
 70
     8
  9
$ATTDIA
 70
     0
  9
$ATTREQ
 70
     1
  9
$HANDLING
 70
 10241
  9
$HANDSEED
  5
81C0
  9
$SURFTAB1
 70
     6
  9
$SURFTAB2
 70
     6
  9
$SURFTYPE
 70
     6
  9
$SURFU
 70
     6
  9
$SURFV
 70
     6
  9
$UCSNAME
  2

  9
$UCSORG
 10
0.0
 20
0.0
 30
0.0
  9
$UCSXDIR
 10
1.0
 20
0.0
 30
0.0
  9
$UCSYDIR
 10
0.0
 20
1.0
 30
0.0
  9
$PUCSNAME
  2

  9
$PUCSORG
 10
0.0
 20
0.0
 30
0.0
  9
$PUCSXDIR
 10
1.0
 20
0.0
 30
0.0
  9
$PUCSYDIR
 10
0.0
 20
1.0
 30
0.0
  9
$USERI1
 70
     0
  9
$USERI2
 70
     0
  9
$USERI3
 70
     0
  9
$USERI4
 70
     0
  9
$USERI5
 70
     0
  9
$USERR1
 40
0.0
  9
$USERR2
 40
0.0
  9
$USERR3
 40
0.0
  9
$USERR4
 40
0.0
  9
$USERR5
 40
0.0
  9
$WORLDVIEW
 70
     1
  9
$SHADEDGE
 70
     3
  9
$SHADEDIF
 70
    70
  9
$TILEMODE
 70
     1
  9
$MAXACTVP
 70
    16
  9
$PLIMCHECK
 70
     0
  9
$PEXTMIN
 10
1.0000000000000000E+020
 20
1.0000000000000000E+020
 30
1.0000000000000000E+020
  9
$PEXTMAX
 10
-1.0000000000000000E+020
 20
-1.0000000000000000E+020
 30
-1.0000000000000000E+020
  9
$PLIMMIN
 10
0.0
 20
0.0
  9
$PLIMMAX
 10
12.0
 20
9.0
  9
$UNITMODE
 70
     0
  9
$VISRETAIN
 70
     0
  9
$PLINEGEN
 70
     0
  9
$PSLTSCALE
 70
     1
  0
ENDSEC
  0
SECTION
  2
TABLES
  0
TABLE
  2
VPORT
 70
     2
  0
VPORT
  2
*ACTIVE
 70
     0
 10
0.0
 20
0.0
 11
1.0
 21
1.0
 12
9219.7774114661624
 22
2558.3275135516592
 13
0.0
 23
0.0
 14
10.0
 24
10.0
 15
10.0
 25
10.0
 16
0.0
 26
0.0
 36
1.0
 17
0.0
 27
0.0
 37
0.0
 40
7536.7292605671964
 41
3.1666666666666661
 42
50.0
 43
0.0
 44
0.0
 50
0.0
 51
0.0
 71
     0
 72
   100
 73
     1
 74
     0
 75
     0
 76
     0
 77
     0
 78
     0
  0
ENDTAB
  0
TABLE
  2
LTYPE
 70
     2
  0
LTYPE
  2
CONTINUOUS
 70
     0
  3
Solid line
 72
    65
 73
     0
 40
0.0
  0
LTYPE
  2
CENTER
 70
     0
  3
____ _ ____ _ ____ _ ____ _ ____ _ ____ _ ____ 
 72
    65
 73
     4
 40
2.0
 49
1.25
 49
-0.25
 49
0.25
 49
-0.25
  0
ENDTAB
  0
TABLE
  2
LAYER
 70
     6
  0
LAYER
  2
0
 70
     0
 62
     7
  6
CONTINUOUS
  0
LAYER
  2
3
 70
     0
 62
     2
  6
CONTINUOUS
  0
LAYER
  2
2
 70
     0
 62
     3
  6
CENTER
  0
LAYER
  2
1
 70
     0
 62
     4
  6
CONTINUOUS
  0
LAYER
  2
4
 70
     0
 62
     7
  6
CONTINUOUS
  0
LAYER
  2
DEFPOINTS
 70
     0
 62
     7
  6
CONTINUOUS
  0
ENDTAB
  0
TABLE
  2
STYLE
 70
     1
  0
STYLE
  2
STANDARD
 70
     0
 40
0.0
 41
1.0
 50
0.0
 71
     0
 42
180.0
  3
simplex.shx
  4
extfont.shx
  0
ENDTAB
  0
TABLE
  2
VIEW
 70
     0
  0
ENDTAB
  0
TABLE
  2
UCS
 70
     0
  0
ENDTAB
  0
TABLE
  2
APPID
 70
     1
  0
APPID
  2
ACAD
 70
     0
  0
ENDTAB
  0
TABLE
  2
DIMSTYLE
 70
     1
  0
DIMSTYLE
  2
IGA
 70
     0
  3

  4

  5

  6
OPEN
  7
OPEN
 40
2.0
 41
2.0
 42
0.5
 43
10.0
 44
1.0
 45
0.0
 46
0.0
 47
1.0
 48
1.0
140
3.0
141
0.0
142
0.0
143
0.03937
144
1.0
145
0.0
146
10.0
147
1.0
 71
     0
 72
     0
 73
     0
 74
     0
 75
     0
 76
     0
 77
     1
 78
     8
170
     0
171
     2
172
     0
173
     1
174
     0
175
     0
176
     0
177
     0
178
     0
  0
ENDTAB
  0
ENDSEC
  0
SECTION
  2
BLOCKS
  0
BLOCK
  8
0
  2
$MODEL_SPACE
 70
     0
 10
0.0
 20
0.0
 30
0.0
  3
$MODEL_SPACE
  1

  0
ENDBLK
  5
1B
  8
0
  0
BLOCK
 67
     1
  8
0
  2
$PAPER_SPACE
 70
     0
 10
0.0
 20
0.0
 30
0.0
  3
$PAPER_SPACE
  1

  0
ENDBLK
  5
18
 67
     1
  8
0
  0
BLOCK
  8
0
  2
_OPEN
 70
     0
 10
0.0
 20
0.0
 30
0.0
  3
_OPEN
  1

  0
LINE
  5
7AF2
  8
0
  6
BYBLOCK
 62
     0
 10
-1.0
 20
0.166667
 30
0.0
 11
0.0
 21
0.0
 31
0.0
  0
LINE
  5
7AF3
  8
0
  6
BYBLOCK
 62
     0
 10
0.0
 20
0.0
 30
0.0
 11
-1.0
 21
-0.166667
 31
0.0
  0
LINE
  5
7AF4
  8
0
  6
BYBLOCK
 62
     0
 10
0.0
 20
0.0
 30
0.0
 11
-1.0
 21
0.0
 31
0.0
  0
ENDBLK
  5
7AF5
  8
0
  0
BLOCK
  8
0
  2
*D1
 70
     1
 10
0.0
 20
0.0
 30
0.0
  3
*D1
  1

  0
LINE
  5
8107
  8
3
 62
     0
 10
601.40953435314532
 20
1547.513365034418
 30
0.0
 11
601.40953435314532
 21
1377.689781262344
 31
0.0
  0
LINE
  5
8108
  8
3
 62
     0
 10
1466.4095343531451
 20
1495.6192620344179
 30
0.0
 11
1466.4095343531451
 21
1377.689781262344
 31
0.0
  0
LINE
  5
8109
  8
3
 62
     0
 10
641.40953435314532
 20
1397.689781262344
 30
0.0
 11
1426.4095343531451
 21
1397.689781262344
 31
0.0
  0
INSERT
  5
810A
  8
3
 62
     0
  2
_OPEN
 10
601.40953435314532
 20
1397.689781262344
 30
0.0
 41
40.0
 42
40.0
 43
40.0
 50
180.0
  0
INSERT
  5
810B
  8
3
 62
     0
  2
_OPEN
 10
1466.4095343531451
 20
1397.689781262344
 30
0.0
 41
40.0
 42
40.0
 43
40.0
  0
TEXT
  8
3
  40
60
  5
81AD
  62
0
  72
0
  71
0
 10
935.368
 20
1341.49
 30
0.000000
  1
865
  0
POINT
  5
810D
  8
DEFPOINTS
 62
     0
 10
601.40953435314532
 20
1557.513365034418
 30
0.0
  0
POINT
  5
810E
  8
DEFPOINTS
 62
     0
 10
1466.4095343531451
 20
1505.6192620344179
 30
0.0
  0
POINT
  5
810F
  8
DEFPOINTS
 62
     0
 10
1466.4095343531451
 20
1397.689781262344
 30
0.0
  0
ENDBLK
  5
7E22
  8
0
  0
BLOCK
  8
0
  2
*D2
 70
     1
 10
0.0
 20
0.0
 30
0.0
  3
*D2
  1

  0
LINE
  5
8110
  8
3
 62
     0
 10
1466.4095343531451
 20
1495.6192620344179
 30
0.0
 11
1466.4095343531451
 21
1377.689781262344
 31
0.0
  0
LINE
  5
8111
  8
3
 62
     0
 10
1781.4095343531451
 20
1547.513365034418
 30
0.0
 11
1781.4095343531451
 21
1377.689781262344
 31
0.0
  0
LINE
  5
8112
  8
3
 62
     0
 10
1506.4095343531451
 20
1397.689781262344
 30
0.0
 11
1741.4095343531451
 21
1397.689781262344
 31
0.0
  0
INSERT
  5
8113
  8
3
 62
     0
  2
_OPEN
 10
1466.4095343531451
 20
1397.689781262344
 30
0.0
 41
40.0
 42
40.0
 43
40.0
 50
180.0
  0
INSERT
  5
8114
  8
3
 62
     0
  2
_OPEN
 10
1781.4095343531451
 20
1397.689781262344
 30
0.0
 41
40.0
 42
40.0
 43
40.0
  0
TEXT
  8
3
  40
60
  5
81AE
  62
0
  72
0
  71
0
 10
1529.98
 20
1341.49
 30
0.000000
  1
315
  0
POINT
  5
8116
  8
DEFPOINTS
 62
     0
 10
1466.4095343531451
 20
1505.6192620344179
 30
0.0
  0
POINT
  5
8117
  8
DEFPOINTS
 62
     0
 10
1781.4095343531451
 20
1557.513365034418
 30
0.0
  0
POINT
  5
8118
  8
DEFPOINTS
 62
     0
 10
1781.4095343531451
 20
1397.689781262344
 30
0.0
  0
ENDBLK
  5
7E2D
  8
0
  0
BLOCK
  8
0
  2
*D3
 70
     1
 10
0.0
 20
0.0
 30
0.0
  3
*D3
  1

  0
LINE
  5
8119
  8
3
 62
     0
 10
1836.4095343531451
 20
2274.5133650344178
 30
0.0
 11
2004.3274798844211
 21
2274.5133650344178
 31
0.0
  0
LINE
  5
811A
  8
3
 62
     0
 10
1836.4095343531451
 20
1762.513365034418
 30
0.0
 11
2004.3274798844211
 21
1762.513365034418
 31
0.0
  0
LINE
  5
811B
  8
3
 62
     0
 10
1984.3274798844211
 20
2234.5133650344178
 30
0.0
 11
1984.3274798844211
 21
1802.513365034418
 31
0.0
  0
INSERT
  5
811C
  8
3
 62
     0
  2
_OPEN
 10
1984.3274798844211
 20
2274.5133650344178
 30
0.0
 41
40.0
 42
40.0
 43
40.0
 50
90.0
  0
INSERT
  5
811D
  8
3
 62
     0
  2
_OPEN
 10
1984.3274798844211
 20
1762.513365034418
 30
0.0
 41
40.0
 42
40.0
 43
40.0
 50
270.0
  0
TEXT
  8
3
  40
60
  5
81AF
  62
0
  72
0
  71
0
 10
1814.33
 20
1971.17
 30
0.000000
  1
512
  0
POINT
  5
811F
  8
DEFPOINTS
 62
     0
 10
1826.4095343531451
 20
2274.5133650344178
 30
0.0
  0
POINT
  5
8120
  8
DEFPOINTS
 62
     0
 10
1826.4095343531451
 20
1762.513365034418
 30
0.0
  0
POINT
  5
8121
  8
DEFPOINTS
 62
     0
 10
1984.3274798844211
 20
1762.513365034418
 30
0.0
  0
ENDBLK
  5
7FCC
  8
0
  0
BLOCK
  8
0
  2
*D4
 70
     1
 10
0.0
 20
0.0
 30
0.0
  3
*D4
  1

  0
LINE
  5
8122
  8
3
 62
     0
 10
1774.802341353145
 20
2300.5133650344178
 30
0.0
 11
2119.606112425985
 21
2300.5133650344178
 31
0.0
  0
LINE
  5
8123
  8
3
 62
     0
 10
1836.4095343531451
 20
1762.513365034418
 30
0.0
 11
2119.606112425985
 21
1762.513365034418
 31
0.0
  0
LINE
  5
8124
  8
3
 62
     0
 10
2099.606112425985
 20
2260.5133650344178
 30
0.0
 11
2099.606112425985
 21
1802.513365034418
 31
0.0
  0
INSERT
  5
8125
  8
3
 62
     0
  2
_OPEN
 10
2099.606112425985
 20
2300.5133650344178
 30
0.0
 41
40.0
 42
40.0
 43
40.0
 50
90.0
  0
INSERT
  5
8126
  8
3
 62
     0
  2
_OPEN
 10
2099.606112425985
 20
1762.513365034418
 30
0.0
 41
40.0
 42
40.0
 43
40.0
 50
270.0
  0
TEXT
  8
3
  40
60
  5
81B0
  62
0
  72
0
  71
0
 10
1929.61
 20
1935.28
 30
0.000000
  1
538
  0
POINT
  5
8128
  8
DEFPOINTS
 62
     0
 10
1764.802341353145
 20
2300.5133650344178
 30
0.0
  0
POINT
  5
8129
  8
DEFPOINTS
 62
     0
 10
1826.4095343531451
 20
1762.513365034418
 30
0.0
  0
POINT
  5
812A
  8
DEFPOINTS
 62
     0
 10
2099.606112425985
 20
1762.513365034418
 30
0.0
  0
ENDBLK
  5
7FAB
  8
0
  0
BLOCK
  8
0
  2
*D5
 70
     1
 10
0.0
 20
0.0
 30
0.0
  3
*D5
  1

  0
LINE
  5
812B
  8
3
 62
     0
 10
1474.518540353145
 20
2661.415433034419
 30
0.0
 11
2248.8804539963312
 21
2661.415433034419
 31
0.0
  0
LINE
  5
812C
  8
3
 62
     0
 10
1774.802341353145
 20
2300.5133650344178
 30
0.0
 11
2248.8804539963312
 21
2300.5133650344178
 31
0.0
  0
LINE
  5
812D
  8
3
 62
     0
 10
2228.8804539963312
 20
2621.415433034419
 30
0.0
 11
2228.8804539963312
 21
2340.5133650344178
 31
0.0
  0
INSERT
  5
812E
  8
3
 62
     0
  2
_OPEN
 10
2228.8804539963312
 20
2661.415433034419
 30
0.0
 41
40.0
 42
40.0
 43
40.0
 50
90.0
  0
INSERT
  5
812F
  8
3
 62
     0
  2
_OPEN
 10
2228.8804539963312
 20
2300.5133650344178
 30
0.0
 41
40.0
 42
40.0
 43
40.0
 50
270.0
  0
TEXT
  8
3
  40
60
  5
81B1
  62
0
  72
0
  71
0
 10
2058.88
 20
2374.76
 30
0.000000
  1
361
  0
POINT
  5
8131
  8
DEFPOINTS
 62
     0
 10
1464.518540353145
 20
2661.415433034419
 30
0.0
  0
POINT
  5
8132
  8
DEFPOINTS
 62
     0
 10
1764.802341353145
 20
2300.5133650344178
 30
0.0
  0
POINT
  5
8133
  8
DEFPOINTS
 62
     0
 10
2228.8804539963312
 20
2300.5133650344178
 30
0.0
  0
ENDBLK
  5
7FB6
  8
0
  0
BLOCK
  8
0
  2
*D6
 70
     1
 10
0.0
 20
0.0
 30
0.0
  3
*D6
  1

  0
LINE
  5
8134
  8
3
 62
     0
 10
1774.802341353145
 20
2300.5133650344178
 30
0.0
 11
2247.8520093768848
 21
2300.5133650344178
 31
0.0
  0
LINE
  5
8135
  8
3
 62
     0
 10
1791.4095343531451
 20
1660.513365034418
 30
0.0
 11
2247.8520093768848
 21
1660.513365034418
 31
0.0
  0
LINE
  5
8136
  8
3
 62
     0
 10
2227.8520093768848
 20
2260.5133650344178
 30
0.0
 11
2227.8520093768848
 21
1700.513365034418
 31
0.0
  0
INSERT
  5
8137
  8
3
 62
     0
  2
_OPEN
 10
2227.8520093768848
 20
2300.5133650344178
 30
0.0
 41
40.0
 42
40.0
 43
40.0
 50
90.0
  0
INSERT
  5
8138
  8
3
 62
     0
  2
_OPEN
 10
2227.8520093768848
 20
1660.513365034418
 30
0.0
 41
40.0
 42
40.0
 43
40.0
 50
270.0
  0
TEXT
  8
3
  40
60
  5
81B2
  62
0
  72
0
  71
0
 10
2057.85
 20
1874.31
 30
0.000000
  1
640
  0
POINT
  5
813A
  8
DEFPOINTS
 62
     0
 10
1764.802341353145
 20
2300.5133650344178
 30
0.0
  0
POINT
  5
813B
  8
DEFPOINTS
 62
     0
 10
1781.4095343531451
 20
1660.513365034418
 30
0.0
  0
POINT
  5
813C
  8
DEFPOINTS
 62
     0
 10
2227.8520093768848
 20
1660.513365034418
 30
0.0
  0
ENDBLK
  5
7FC1
  8
0
  0
BLOCK
  8
0
  2
*D7
 70
     1
 10
0.0
 20
0.0
 30
0.0
  3
*D7
  1

  0
LINE
  5
813D
  8
3
 62
     0
 10
1791.4095343531451
 20
1660.513365034418
 30
0.0
 11
2248.0629473768859
 21
1660.513365034418
 31
0.0
  0
LINE
  5
813E
  8
3
 62
     0
 10
1791.4095343531451
 20
1557.513365034418
 30
0.0
 11
2248.0629473768859
 21
1557.513365034418
 31
0.0
  0
LINE
  5
813F
  8
3
 62
     0
 10
2228.0629473768872
 20
1700.513365034418
 30
0.0
 11
2228.0629473768872
 21
1740.513365034418
 31
0.0
  0
LINE
  5
8140
  8
3
 62
     0
 10
2228.0629473768872
 20
1517.513365034418
 30
0.0
 11
2228.0629473768872
 21
1238.94193646299
 31
0.0
  0
LINE
  5
8141
  8
3
 62
     0
 10
2228.0629473768872
 20
1660.513365034418
 30
0.0
 11
2228.0629473768872
 21
1557.513365034418
 31
0.0
  0
INSERT
  5
8142
  8
3
 62
     0
  2
_OPEN
 10
2228.0629473768872
 20
1660.513365034418
 30
0.0
 41
40.0
 42
40.0
 43
40.0
 50
270.0
  0
INSERT
  5
8143
  8
3
 62
     0
  2
_OPEN
 10
2228.0629473768872
 20
1557.513365034418
 30
0.0
 41
40.0
 42
40.0
 43
40.0
 50
90.0
  0
TEXT
  8
3
  40
60
  5
81B3
  62
0
  72
0
  71
0
 10
2058.06
 20
1224.17
 30
0.000000
  1
103
  0
POINT
  5
8145
  8
DEFPOINTS
 62
     0
 10
1781.4095343531451
 20
1660.513365034418
 30
0.0
  0
POINT
  5
8146
  8
DEFPOINTS
 62
     0
 10
1781.4095343531451
 20
1557.513365034418
 30
0.0
  0
POINT
  5
8147
  8
DEFPOINTS
 62
     0
 10
2228.0629473768872
 20
1557.513365034418
 30
0.0
  0
ENDBLK
  5
7FA0
  8
0
  0
BLOCK
  8
0
  2
*D8
 70
     1
 10
0.0
 20
0.0
 30
0.0
  3
*D8
  1

  0
LINE
  5
8148
  8
3
 62
     0
 10
1476.4095343531451
 20
2661.243117034418
 30
0.0
 11
2405.7131560530411
 21
2661.243117034418
 31
0.0
  0
LINE
  5
8149
  8
3
 62
     0
 10
1791.4095343531451
 20
1557.513365034418
 30
0.0
 11
2405.7131560530411
 21
1557.513365034418
 31
0.0
  0
LINE
  5
814A
  8
3
 62
     0
 10
2385.7131560530411
 20
2621.243117034418
 30
0.0
 11
2385.7131560530411
 21
1597.513365034418
 31
0.0
  0
INSERT
  5
814B
  8
3
 62
     0
  2
_OPEN
 10
2385.7131560530411
 20
2661.243117034418
 30
0.0
 41
40.0
 42
40.0
 43
40.0
 50
90.0
  0
INSERT
  5
814C
  8
3
 62
     0
  2
_OPEN
 10
2385.7131560530411
 20
1557.513365034418
 30
0.0
 41
40.0
 42
40.0
 43
40.0
 50
270.0
  0
TEXT
  8
3
  40
60
  5
81B4
  62
0
  72
0
  71
0
 10
2215.71
 20
2013.15
 30
0.000000
  1
1104
  0
POINT
  5
814E
  8
DEFPOINTS
 62
     0
 10
1466.4095343531451
 20
2661.243117034418
 30
0.0
  0
POINT
  5
814F
  8
DEFPOINTS
 62
     0
 10
1781.4095343531451
 20
1557.513365034418
 30
0.0
  0
POINT
  5
8150
  8
DEFPOINTS
 62
     0
 10
2385.7131560530411
 20
1557.513365034418
 30
0.0
  0
ENDBLK
  5
7FD7
  8
0
  0
BLOCK
  8
0
  2
*D9
 70
     1
 10
0.0
 20
0.0
 30
0.0
  3
*D9
  1

  0
LINE
  5
8151
  8
3
 62
     0
 10
1031.678828353145
 20
2310.5133650344178
 30
0.0
 11
1031.678828353145
 21
2838.5496741825259
 31
0.0
  0
LINE
  5
8152
  8
3
 62
     0
 10
1466.4095343531451
 20
2671.243117034418
 30
0.0
 11
1466.4095343531451
 21
2838.5496741825259
 31
0.0
  0
LINE
  5
8153
  8
3
 62
     0
 10
1071.678828353145
 20
2818.5496741825259
 30
0.0
 11
1426.4095343531451
 21
2818.5496741825259
 31
0.0
  0
INSERT
  5
8154
  8
3
 62
     0
  2
_OPEN
 10
1031.678828353145
 20
2818.5496741825259
 30
0.0
 41
40.0
 42
40.0
 43
40.0
 50
180.0
  0
INSERT
  5
8155
  8
3
 62
     0
  2
_OPEN
 10
1466.4095343531451
 20
2818.5496741825259
 30
0.0
 41
40.0
 42
40.0
 43
40.0
  0
TEXT
  8
3
  40
60
  5
81B5
  62
0
  72
0
  71
0
 10
1117.39
 20
2762.35
 30
0.000000
  1
435
  0
POINT
  5
8157
  8
DEFPOINTS
 62
     0
 10
1031.678828353145
 20
2300.5133650344178
 30
0.0
  0
POINT
  5
8158
  8
DEFPOINTS
 62
     0
 10
1466.4095343531451
 20
2661.243117034418
 30
0.0
  0
POINT
  5
8159
  8
DEFPOINTS
 62
     0
 10
1466.4095343531451
 20
2818.5496741825259
 30
0.0
  0
ENDBLK
  5
7F16
  8
0
  0
BLOCK
  8
0
  2
*D10
 70
     1
 10
0.0
 20
0.0
 30
0.0
  3
*D10
  1

  0
LINE
  5
815A
  8
3
 62
     0
 10
1466.4095343531451
 20
2671.243117034418
 30
0.0
 11
1466.4095343531451
 21
2838.5496741825259
 31
0.0
  0
LINE
  5
815B
  8
3
 62
     0
 10
1826.4095343531451
 20
2316.1133650344182
 30
0.0
 11
1826.4095343531451
 21
2838.5496741825259
 31
0.0
  0
LINE
  5
815C
  8
3
 62
     0
 10
1426.4095343531451
 20
2818.5496741825259
 30
0.0
 11
1386.4095343531451
 21
2818.5496741825259
 31
0.0
  0
LINE
  5
815D
  8
3
 62
     0
 10
1866.4095343531451
 20
2818.5496741825259
 30
0.0
 11
1906.4095343531451
 21
2818.5496741825259
 31
0.0
  0
LINE
  5
815E
  8
3
 62
     0
 10
1466.4095343531451
 20
2818.5496741825259
 30
0.0
 11
1826.4095343531451
 21
2818.5496741825259
 31
0.0
  0
INSERT
  5
815F
  8
3
 62
     0
  2
_OPEN
 10
1466.4095343531451
 20
2818.5496741825259
 30
0.0
 41
40.0
 42
40.0
 43
40.0
  0
INSERT
  5
8160
  8
3
 62
     0
  2
_OPEN
 10
1826.4095343531451
 20
2818.5496741825259
 30
0.0
 41
40.0
 42
40.0
 43
40.0
 50
180.0
  0
TEXT
  8
3
  40
60
  5
81B6
  62
0
  72
0
  71
0
 10
1569.27
 20
2762.35
 30
0.000000
  1
360
  0
POINT
  5
8162
  8
DEFPOINTS
 62
     0
 10
1466.4095343531451
 20
2661.243117034418
 30
0.0
  0
POINT
  5
8163
  8
DEFPOINTS
 62
     0
 10
1826.4095343531451
 20
2306.1133650344182
 30
0.0
  0
POINT
  5
8164
  8
DEFPOINTS
 62
     0
 10
1826.4095343531451
 20
2818.5496741825259
 30
0.0
  0
ENDBLK
  5
7F21
  8
0
  0
BLOCK
  8
0
  2
*D11
 70
     1
 10
0.0
 20
0.0
 30
0.0
  3
*D11
  1

  0
LINE
  5
8165
  8
3
 62
     0
 10
601.40953435314532
 20
3733.5751467805121
 30
0.0
 11
601.40953435314532
 21
3514.2555802710831
 31
0.0
  0
LINE
  5
8166
  8
3
 62
     0
 10
1781.4095343531451
 20
3733.5751467805121
 30
0.0
 11
1781.4095343531451
 21
3514.2555802710831
 31
0.0
  0
LINE
  5
8167
  8
3
 62
     0
 10
641.40953435314532
 20
3534.255580271084
 30
0.0
 11
1741.4095343531451
 21
3534.255580271084
 31
0.0
  0
INSERT
  5
8168
  8
3
 62
     0
  2
_OPEN
 10
601.40953435314532
 20
3534.255580271084
 30
0.0
 41
40.0
 42
40.0
 43
40.0
 50
180.0
  0
INSERT
  5
8169
  8
3
 62
     0
  2
_OPEN
 10
1781.4095343531451
 20
3534.255580271084
 30
0.0
 41
40.0
 42
40.0
 43
40.0
  0
TEXT
  8
3
  40
60
  5
81B7
  62
0
  72
0
  71
0
 10
1039.15
 20
3478.06
 30
0.000000
  1
1180
  0
POINT
  5
816B
  8
DEFPOINTS
 62
     0
 10
601.40953435314532
 20
3743.5751467805121
 30
0.0
  0
POINT
  5
816C
  8
DEFPOINTS
 62
     0
 10
1781.4095343531451
 20
3743.5751467805121
 30
0.0
  0
POINT
  5
816D
  8
DEFPOINTS
 62
     0
 10
1781.4095343531451
 20
3534.255580271084
 30
0.0
  0
ENDBLK
  5
7E17
  8
0
  0
BLOCK
  8
0
  2
*D12
 70
     1
 10
0.0
 20
0.0
 30
0.0
  3
*D12
  1

  0
LINE
  5
816E
  8
3
 62
     0
 10
1791.4095343531451
 20
4303.5751467805121
 30
0.0
 11
2049.6078295459702
 21
4303.5751467805112
 31
0.0
  0
LINE
  5
816F
  8
3
 62
     0
 10
1791.4095343531451
 20
3743.5751467805121
 30
0.0
 11
2049.6078295459702
 21
3743.5751467805121
 31
0.0
  0
LINE
  5
8170
  8
3
 62
     0
 10
2029.6078295459711
 20
4263.5751467805121
 30
0.0
 11
2029.6078295459711
 21
3783.5751467805121
 31
0.0
  0
INSERT
  5
8171
  8
3
 62
     0
  2
_OPEN
 10
2029.6078295459711
 20
4303.5751467805121
 30
0.0
 41
40.0
 42
40.0
 43
40.0
 50
90.0
  0
INSERT
  5
8172
  8
3
 62
     0
  2
_OPEN
 10
2029.6078295459711
 20
3743.5751467805121
 30
0.0
 41
40.0
 42
40.0
 43
40.0
 50
270.0
  0
TEXT
  8
3
  40
60
  5
81B8
  62
0
  72
0
  71
0
 10
1859.61
 20
3911.56
 30
0.000000
  1
560
  0
POINT
  5
8174
  8
DEFPOINTS
 62
     0
 10
1781.4095343531451
 20
4303.5751467805121
 30
0.0
  0
POINT
  5
8175
  8
DEFPOINTS
 62
     0
 10
1781.4095343531451
 20
3743.5751467805121
 30
0.0
  0
POINT
  5
8176
  8
DEFPOINTS
 62
     0
 10
2029.6078295459711
 20
3743.5751467805121
 30
0.0
  0
ENDBLK
  5
7E0C
  8
0
  0
BLOCK
  8
0
  2
*D13
 70
     1
 10
0.0
 20
0.0
 30
0.0
  3
*D13
  1

  0
LINE
  5
8177
  8
3
 62
     0
 10
3161.5425708889488
 20
2672.9613560344178
 30
0.0
 11
3161.5425708889488
 21
2783.828687999106
 31
0.0
  0
LINE
  5
8178
  8
3
 62
     0
 10
3536.5425708889488
 20
2672.9613560344178
 30
0.0
 11
3536.5425708889488
 21
2783.828687999106
 31
0.0
  0
LINE
  5
8179
  8
3
 62
     0
 10
3201.5425708889479
 20
2763.828687999106
 30
0.0
 11
3496.5425708889488
 21
2763.828687999106
 31
0.0
  0
INSERT
  5
817A
  8
3
 62
     0
  2
_OPEN
 10
3161.5425708889488
 20
2763.828687999106
 30
0.0
 41
40.0
 42
40.0
 43
40.0
 50
180.0
  0
INSERT
  5
817B
  8
3
 62
     0
  2
_OPEN
 10
3536.5425708889488
 20
2763.828687999106
 30
0.0
 41
40.0
 42
40.0
 43
40.0
  0
TEXT
  8
3
  40
60
  5
81B9
  62
0
  72
0
  71
0
 10
3225.13
 20
2707.63
 30
0.000000
  1
375
  0
POINT
  5
817D
  8
DEFPOINTS
 62
     0
 10
3161.5425708889488
 20
2662.9613560344178
 30
0.0
  0
POINT
  5
817E
  8
DEFPOINTS
 62
     0
 10
3536.5425708889488
 20
2662.9613560344178
 30
0.0
  0
POINT
  5
817F
  8
DEFPOINTS
 62
     0
 10
3536.5425708889488
 20
2763.828687999106
 30
0.0
  0
ENDBLK
  5
7EBC
  8
0
  0
BLOCK
  8
0
  2
*D14
 70
     1
 10
0.0
 20
0.0
 30
0.0
  3
*D14
  1

  0
LINE
  5
8180
  8
3
 62
     0
 10
2939.0425708889488
 20
2435.5133650344178
 30
0.0
 11
2939.0425708889488
 21
2938.0851838103308
 31
0.0
  0
LINE
  5
8181
  8
3
 62
     0
 10
3349.0425708889488
 20
2874.4595127926309
 30
0.0
 11
3349.0425708889488
 21
2938.0851838103308
 31
0.0
  0
LINE
  5
8182
  8
3
 62
     0
 10
2979.0425708889488
 20
2918.0851838103308
 30
0.0
 11
3309.0425708889488
 21
2918.0851838103308
 31
0.0
  0
INSERT
  5
8183
  8
3
 62
     0
  2
_OPEN
 10
2939.0425708889488
 20
2918.0851838103308
 30
0.0
 41
40.0
 42
40.0
 43
40.0
 50
180.0
  0
INSERT
  5
8184
  8
3
 62
     0
  2
_OPEN
 10
3349.0425708889488
 20
2918.0851838103308
 30
0.0
 41
40.0
 42
40.0
 43
40.0
  0
TEXT
  8
3
  40
60
  5
81BA
  62
0
  72
0
  71
0
 10
3016.19
 20
2911.89
 30
0.000000
  1
MAX
  0
TEXT
  8
3
  40
60
  5
81BB
  62
0
  72
0
  71
0
 10
3016.19
 20
2833.89
 30
0.000000
  1
450
  0
POINT
  5
8186
  8
DEFPOINTS
 62
     0
 10
2939.0425708889488
 20
2425.5133650344192
 30
0.0
  0
POINT
  5
8187
  8
DEFPOINTS
 62
     0
 10
3349.0425708889488
 20
2864.4595127926309
 30
0.0
  0
POINT
  5
8188
  8
DEFPOINTS
 62
     0
 10
3349.0425708889488
 20
2918.0851838103308
 30
0.0
  0
ENDBLK
  5
7FE2
  8
0
  0
BLOCK
  8
0
  2
*D15
 70
     1
 10
0.0
 20
0.0
 30
0.0
  3
*D15
  1

  0
LINE
  5
8189
  8
3
 62
     0
 10
3349.0425708889488
 20
2874.4595127926309
 30
0.0
 11
3349.0425708889488
 21
2938.0851838103308
 31
0.0
  0
LINE
  5
818A
  8
3
 62
     0
 10
3600.0425708889479
 20
2590.5133650344178
 30
0.0
 11
3600.0425708889479
 21
2938.0851838103308
 31
0.0
  0
LINE
  5
818B
  8
3
 62
     0
 10
3389.0425708889479
 20
2918.0851838103308
 30
0.0
 11
3560.0425708889488
 21
2918.0851838103308
 31
0.0
  0
INSERT
  5
818C
  8
3
 62
     0
  2
_OPEN
 10
3349.0425708889488
 20
2918.0851838103308
 30
0.0
 41
40.0
 42
40.0
 43
40.0
 50
180.0
  0
INSERT
  5
818D
  8
3
 62
     0
  2
_OPEN
 10
3600.0425708889479
 20
2918.0851838103308
 30
0.0
 41
40.0
 42
40.0
 43
40.0
  0
TEXT
  8
3
  40
60
  5
81BC
  62
0
  72
0
  71
0
 10
3355.76
 20
2861.89
 30
0.000000
  1
251
  0
POINT
  5
818F
  8
DEFPOINTS
 62
     0
 10
3349.0425708889488
 20
2864.4595127926309
 30
0.0
  0
POINT
  5
8190
  8
DEFPOINTS
 62
     0
 10
3600.0425708889479
 20
2580.5133650344178
 30
0.0
  0
POINT
  5
8191
  8
DEFPOINTS
 62
     0
 10
3600.0425708889479
 20
2918.0851838103308
 30
0.0
  0
ENDBLK
  5
8000
  8
0
  0
BLOCK
  8
0
  2
*D16
 70
     1
 10
0.0
 20
0.0
 30
0.0
  3
*D16
  1

  0
LINE
  5
8192
  8
3
 62
     0
 10
3610.0425708889479
 20
2550.5133650344192
 30
0.0
 11
3762.8382662981712
 21
2550.5133650344192
 31
0.0
  0
LINE
  5
8193
  8
3
 62
     0
 10
3610.0425708889479
 20
2050.5133650344178
 30
0.0
 11
3762.8382662981712
 21
2050.5133650344178
 31
0.0
  0
LINE
  5
8194
  8
3
 62
     0
 10
3742.8382662981712
 20
2510.5133650344178
 30
0.0
 11
3742.8382662981712
 21
2090.5133650344178
 31
0.0
  0
INSERT
  5
8195
  8
3
 62
     0
  2
_OPEN
 10
3742.8382662981712
 20
2550.5133650344192
 30
0.0
 41
40.0
 42
40.0
 43
40.0
 50
90.0
  0
INSERT
  5
8196
  8
3
 62
     0
  2
_OPEN
 10
3742.8382662981712
 20
2050.5133650344178
 30
0.0
 41
40.0
 42
40.0
 43
40.0
 50
270.0
  0
TEXT
  8
3
  40
60
  5
81BD
  62
0
  72
0
  71
0
 10
3572.84
 20
2194.31
 30
0.000000
  1
φ500
  0
POINT
  5
8198
  8
DEFPOINTS
 62
     0
 10
3600.0425708889479
 20
2550.5133650344192
 30
0.0
  0
POINT
  5
8199
  8
DEFPOINTS
 62
     0
 10
3600.0425708889479
 20
2050.5133650344178
 30
0.0
  0
POINT
  5
819A
  8
DEFPOINTS
 62
     0
 10
3742.8382662981712
 20
2050.5133650344178
 30
0.0
  0
ENDBLK
  5
7E64
  8
0
  0
BLOCK
  8
0
  2
*D17
 70
     1
 10
0.0
 20
0.0
 30
0.0
  3
*D17
  1

  0
LINE
  5
819B
  8
3
 62
     0
 10
3019.0425708889488
 20
1547.513365034418
 30
0.0
 11
3019.0425708889488
 21
1397.4763869228441
 31
0.0
  0
LINE
  5
819C
  8
3
 62
     0
 10
3348.9382074477689
 20
1475.7779933550819
 30
0.0
 11
3348.9382074477689
 21
1397.4763869228441
 31
0.0
  0
LINE
  5
819D
  8
3
 62
     0
 10
3059.0425708889479
 20
1417.4763869228441
 30
0.0
 11
3308.9382074477689
 21
1417.4763869228441
 31
0.0
  0
INSERT
  5
819E
  8
3
 62
     0
  2
_OPEN
 10
3019.0425708889488
 20
1417.4763869228441
 30
0.0
 41
40.0
 42
40.0
 43
40.0
 50
180.0
  0
INSERT
  5
819F
  8
3
 62
     0
  2
_OPEN
 10
3348.9382074477689
 20
1417.4763869228441
 30
0.0
 41
40.0
 42
40.0
 43
40.0
  0
TEXT
  8
3
  40
60
  5
81BE
  62
0
  72
0
  71
0
 10
3036.19
 20
1361.28
 30
0.000000
  1
330
  0
POINT
  5
81A1
  8
DEFPOINTS
 62
     0
 10
3019.0425708889488
 20
1557.513365034418
 30
0.0
  0
POINT
  5
81A2
  8
DEFPOINTS
 62
     0
 10
3348.9382074477689
 20
1485.777993355083
 30
0.0
  0
POINT
  5
81A3
  8
DEFPOINTS
 62
     0
 10
3348.9382074477689
 20
1417.4763869228441
 30
0.0
  0
ENDBLK
  5
7EFF
  8
0
  0
BLOCK
  8
0
  2
*D18
 70
     1
 10
0.0
 20
0.0
 30
0.0
  3
*D18
  1

  0
LINE
  5
7F01
  8
0
  6
BYBLOCK
 62
     0
 10
3348.9382074477689
 20
1771.686942157472
 30
0.0
 11
3348.9382074477689
 21
1693.2484175787081
 31
0.0
  0
LINE
  5
7F02
  8
0
  6
BYBLOCK
 62
     0
 10
3579.0425708889479
 20
1843.422313836807
 30
0.0
 11
3579.0425708889479
 21
1693.2484175787081
 31
0.0
  0
LINE
  5
7F03
  8
0
  6
BYBLOCK
 62
     0
 10
3388.938207447768
 20
1713.2484175787081
 30
0.0
 11
3539.0425708889479
 21
1713.2484175787081
 31
0.0
  0
TEXT
  5
7F04
  8
3
 62
     0
 10
3394.8141129811779
 20
1733.8789283682911
 30
0.0
 40
60.0
  1
230
  0
INSERT
  5
7F05
  8
0
  6
BYBLOCK
 62
     0
  2
_OPEN
 10
3348.9382074477689
 20
1713.2484175787081
 30
0.0
 41
40.0
 42
40.0
 43
40.0
 50
180.0
  0
INSERT
  5
7F06
  8
0
  6
BYBLOCK
 62
     0
  2
_OPEN
 10
3579.0425708889479
 20
1713.2484175787081
 30
0.0
 41
40.0
 42
40.0
 43
40.0
  0
POINT
  5
7F07
  8
DEFPOINTS
  6
BYBLOCK
 62
     0
 10
3348.9382074477689
 20
1781.6869421574711
 30
0.0
  0
POINT
  5
7F08
  8
DEFPOINTS
  6
BYBLOCK
 62
     0
 10
3579.0425708889479
 20
1853.4223138368079
 30
0.0
  0
POINT
  5
7F09
  8
DEFPOINTS
  6
BYBLOCK
 62
     0
 10
3579.0425708889479
 20
1713.2484175787081
 30
0.0
  0
ENDBLK
  5
7F0A
  8
0
  0
BLOCK
  8
0
  2
*D19
 70
     1
 10
0.0
 20
0.0
 30
0.0
  3
*D19
  1

  0
LINE
  5
81A4
  8
3
 62
     0
 10
1826.4095343531451
 20
2326.1133650344191
 30
0.0
 11
1826.4095343531451
 21
2957.3341115172711
 31
0.0
  0
LINE
  5
81A5
  8
3
 62
     0
 10
601.40953435314532
 20
1745.513365034418
 30
0.0
 11
601.40953435314543
 21
2957.3341115172711
 31
0.0
  0
LINE
  5
81A6
  8
3
 62
     0
 10
1786.4095343531451
 20
2937.3341115172711
 30
0.0
 11
641.40953435314543
 21
2937.3341115172711
 31
0.0
  0
INSERT
  5
81A7
  8
3
 62
     0
  2
_OPEN
 10
1826.4095343531451
 20
2937.3341115172711
 30
0.0
 41
40.0
 42
40.0
 43
40.0
  0
INSERT
  5
81A8
  8
3
 62
     0
  2
_OPEN
 10
601.40953435314543
 20
2937.3341115172711
 30
0.0
 41
40.0
 42
40.0
 43
40.0
 50
180.0
  0
TEXT
  8
3
  40
60
  5
81BF
  62
0
  72
0
  71
0
 10
1152.40
 20
2881.13
 30
0.000000
  1
1225
  0
POINT
  5
81AA
  8
DEFPOINTS
 62
     0
 10
1826.4095343531451
 20
2316.1133650344182
 30
0.0
  0
POINT
  5
81AB
  8
DEFPOINTS
 62
     0
 10
601.40953435314532
 20
1735.513365034418
 30
0.0
  0
POINT
  5
81AC
  8
DEFPOINTS
 62
     0
 10
601.40953435314543
 20
2937.3341115172711
 30
0.0
  0
ENDBLK
  5
7FEF
  8
0
  0
ENDSEC
  0
SECTION
  2
ENTITIES
  0
LINE
  5
7A7C
  8
1
 10
1029.961544353145
 20
3886.0751467805121
 30
0.0
 11
1029.961544353145
 21
4261.0751467805121
 31
0.0
  0
LINE
  5
7A7D
  8
1
 10
1796.4095343531451
 20
3886.0751467805121
 30
0.0
 11
1796.4095343531451
 21
4261.0751467805121
 31
0.0
  0
LINE
  5
7A7E
  8
1
 10
1826.4095343531451
 20
4263.0751467805112
 30
0.0
 11
1826.4095343531451
 21
3853.5751467805121
 31
0.0
  0
LINE
  5
7A7F
  8
1
 10
601.40953435314532
 20
3743.5751467805121
 30
0.0
 11
601.40953435314532
 21
4303.5751467805121
 31
0.0
  0
LINE
  5
7A80
  8
1
 10
958.9095343531452
 20
3808.5751467805121
 30
0.0
 11
958.9095343531452
 21
4208.5751467805121
 31
0.0
  0
LINE
  5
7A81
  8
1
 10
673.9095343531452
 20
3808.5751467805121
 30
0.0
 11
673.9095343531452
 21
4208.5751467805121
 31
0.0
  0
LINE
  5
7A82
  8
1
 10
1781.4095343531451
 20
1622.513365034418
 30
0.0
 11
601.40953435314532
 21
1622.513365034418
 31
0.0
  0
LINE
  5
7A83
  8
1
 10
1781.4095343531451
 20
1557.513365034418
 30
0.0
 11
601.40953435314532
 21
1557.513365034418
 31
0.0
  0
LINE
  5
7A84
  8
1
 10
601.40953435314532
 20
1622.513365034418
 30
0.0
 11
601.40953435314532
 21
1557.513365034418
 31
0.0
  0
LINE
  5
7A85
  8
1
 10
1781.4095343531451
 20
1622.513365034418
 30
0.0
 11
1781.4095343531451
 21
1557.513365034418
 31
0.0
  0
LINE
  5
7A86
  8
1
 10
852.59223335314516
 20
1886.8185230344179
 30
0.0
 11
1502.592233353145
 21
2234.8185230344179
 31
0.0
  0
LINE
  5
7A87
  8
1
 10
780.2268363531457
 20
2018.208208034418
 30
0.0
 11
1430.226836353145
 21
2366.208208034418
 31
0.0
  0
LINE
  5
7A88
  8
1
 10
876.7140313531454
 20
1843.0219610344179
 30
0.0
 11
1526.7140313531449
 21
2191.0219610344179
 31
0.0
  0
LINE
  5
7A89
  8
1
 10
756.10503835314557
 20
2062.004770034418
 30
0.0
 11
1406.1050383531449
 21
2410.004770034418
 31
0.0
  0
LINE
  5
7A8A
  8
1
 10
1826.4095343531451
 20
3886.0751467805121
 30
0.0
 11
1029.961544353145
 21
3886.0751467805121
 31
0.0
  0
POLYLINE
  5
7A8B
  8
1
 66
     1
 10
0.0
 20
0.0
 30
0.0
  0
VERTEX
  5
8100
  8
1
 10
1826.4095343531451
 20
1762.513365034418
 30
0.0
  0
VERTEX
  5
8101
  8
1
 10
1466.4095343531451
 20
1791.513365034418
 30
0.0
 42
-0.391482
  0
VERTEX
  5
8102
  8
1
 10
1029.961544353145
 20
2263.5133650344178
 30
0.0
 42
-0.440232
  0
VERTEX
  5
8103
  8
1
 10
1464.518540353145
 20
2661.415433034419
 30
0.0
 42
-0.388666
  0
VERTEX
  5
8104
  8
1
 10
1766.593333353145
 20
2331.5133650344178
 30
0.0
 42
-0.053392
  0
VERTEX
  5
8105
  8
1
 10
1760.489213353145
 20
2274.5133650344178
 30
0.0
 42
-0.393627
  0
SEQEND
  5
8106
  8
1
  0
LINE
  5
7A93
  8
1
 10
1781.4095343531451
 20
1660.513365034418
 30
0.0
 11
601.40953435314532
 21
1660.513365034418
 31
0.0
  0
LINE
  5
7A95
  8
1
 10
691.40953435314532
 20
3801.5751467805121
 30
0.0
 11
1591.4095343531451
 21
3801.5751467805121
 31
0.0
  0
LINE
  5
7A96
  8
1
 10
691.40953435314532
 20
3678.5751467805121
 30
0.0
 11
1591.4095343531451
 21
3678.5751467805121
 31
0.0
  0
LINE
  5
7A97
  8
1
 10
891.40953435314532
 20
3743.5751467805121
 30
0.0
 11
1391.4095343531451
 21
3743.5751467805121
 31
0.0
  0
ARC
  5
7A98
  8
1
 10
816.40953435314532
 20
1952.513365034418
 30
0.0
 40
143.0
 50
324.34590999999989
 51
215.65408999999991
  0
LINE
  5
7A99
  8
1
 10
981.40953435314532
 20
1820.513365034418
 30
0.0
 11
651.40953435314532
 21
1820.513365034418
 31
0.0
  0
CIRCLE
  5
7A9A
  8
1
 10
816.40953435314532
 20
1952.513365034418
 30
0.0
 40
75.0
  0
ARC
  5
7A9B
  8
1
 10
816.40953435314532
 20
1952.513365034418
 30
0.0
 40
125.0
 50
118.8446209999999
 51
298.84462100000002
  0
LINE
  5
7A9C
  8
2
 10
736.4095343531452
 20
1952.513365034418
 30
0.0
 11
896.4095343531452
 21
1952.513365034418
 31
0.0
  0
LINE
  5
7A9D
  8
1
 10
601.40953435314532
 20
1735.513365034418
 30
0.0
 11
601.40953435314532
 21
1660.513365034418
 31
0.0
  0
LINE
  5
7A9E
  8
1
 10
641.40953435314532
 20
1775.513365034418
 30
0.0
 11
641.40953435314532
 21
1735.513365034418
 31
0.0
  0
LINE
  5
7A9F
  8
1
 10
686.4095343531452
 20
1820.513365034418
 30
0.0
 11
736.4095343531452
 21
1820.513365034418
 31
0.0
  0
LINE
  5
7AA0
  8
1
 10
686.4095343531452
 20
1820.513365034418
 30
0.0
 11
686.4095343531452
 21
1835.513365034418
 31
0.0
  0
LINE
  5
7AA1
  8
1
 10
686.4095343531452
 20
1835.513365034418
 30
0.0
 11
700.43881235314529
 21
1869.7061100344181
 31
0.0
  0
LINE
  5
7AA2
  8
1
 10
651.40953435314532
 20
1820.513365034418
 30
0.0
 11
641.40953435314532
 21
1775.513365034418
 31
0.0
  0
LINE
  5
7AA3
  8
1
 10
991.40953435314532
 20
1775.513365034418
 30
0.0
 11
991.40953435314532
 21
1735.513365034418
 31
0.0
  0
LINE
  5
7AA4
  8
1
 10
946.4095343531452
 20
1835.513365034418
 30
0.0
 11
932.38025735314477
 21
1869.7061100344181
 31
0.0
  0
LINE
  5
7AA5
  8
1
 10
946.4095343531452
 20
1820.513365034418
 30
0.0
 11
946.4095343531452
 21
1835.513365034418
 31
0.0
  0
LINE
  5
7AA6
  8
1
 10
946.4095343531452
 20
1820.513365034418
 30
0.0
 11
896.4095343531452
 21
1820.513365034418
 31
0.0
  0
LINE
  5
7AA7
  8
1
 10
991.40953435314532
 20
1775.513365034418
 30
0.0
 11
981.40953435314532
 21
1820.513365034418
 31
0.0
  0
LINE
  5
7AA8
  8
2
 10
816.40953435314532
 20
1872.513365034418
 30
0.0
 11
816.40953435314532
 21
2032.513365034418
 31
0.0
  0
LINE
  5
7AA9
  8
1
 10
741.40953435314532
 20
3708.5751467805121
 30
0.0
 11
891.40953435314532
 21
3708.5751467805121
 31
0.0
  0
LINE
  5
7AAA
  8
1
 10
741.40953435314532
 20
3771.5751467805121
 30
0.0
 11
891.40953435314532
 21
3771.5751467805121
 31
0.0
  0
LINE
  5
7AAB
  8
1
 10
673.9095343531452
 20
3808.5751467805121
 30
0.0
 11
958.9095343531452
 21
3808.5751467805121
 31
0.0
  0
LINE
  5
7AAC
  8
1
 10
601.40953435314532
 20
3743.5751467805121
 30
0.0
 11
741.40953435314532
 21
3743.5751467805121
 31
0.0
  0
LINE
  5
7AAD
  8
1
 10
691.40953435314532
 20
3678.5751467805121
 30
0.0
 11
691.40953435314532
 21
3801.5751467805121
 31
0.0
  0
LINE
  5
7AAE
  8
1
 10
797.40953435314532
 20
3771.5751467805121
 30
0.0
 11
797.40953435314532
 21
3808.5751467805121
 31
0.0
  0
LINE
  5
7AAF
  8
1
 10
741.40953435314532
 20
3771.5751467805121
 30
0.0
 11
741.40953435314532
 21
3708.5751467805121
 31
0.0
  0
LINE
  5
7AB0
  8
1
 10
835.40953435314532
 20
3771.5751467805121
 30
0.0
 11
835.40953435314532
 21
3808.5751467805121
 31
0.0
  0
LINE
  5
7AB1
  8
1
 10
891.40953435314532
 20
3771.5751467805121
 30
0.0
 11
891.40953435314532
 21
3708.5751467805121
 31
0.0
  0
CIRCLE
  5
7AB2
  8
1
 10
1466.4095343531451
 20
2300.5133650344178
 30
0.0
 40
280.0
  0
CIRCLE
  5
7AB3
  8
1
 10
1466.4095343531451
 20
2300.5133650344178
 30
0.0
 40
250.0
  0
CIRCLE
  5
7AB4
  8
1
 10
1466.4095343531451
 20
2300.5133650344178
 30
0.0
 40
75.0
  0
LINE
  5
7AB5
  8
2
 10
873.29000335314504
 20
2300.5133650344178
 30
0.0
 11
1803.865471353145
 21
2300.5133650344178
 31
0.0
  0
ARC
  5
7AB6
  8
1
 10
1466.4095343531451
 20
2300.5133650344178
 30
0.0
 40
125.0
 50
298.84462100000002
 51
118.8446209999999
  0
LINE
  5
7AB7
  8
2
 10
1466.4095343531451
 20
4399.9700987805118
 30
0.0
 11
1466.4095343531451
 21
3620.3060237805112
 31
0.0
  0
LINE
  5
7AB8
  8
1
 10
1826.4095343531451
 20
2306.1133650344182
 30
0.0
 11
1826.4095343531451
 21
1730.9081820344179
 31
0.0
  0
LINE
  5
7AB9
  8
1
 10
1796.4095343531451
 20
2274.5133650344178
 30
0.0
 11
1796.4095343531451
 21
1764.9300320344189
 31
0.0
  0
LINE
  5
7ABA
  8
1
 10
1781.4095343531451
 20
1735.513365034418
 30
0.0
 11
1781.4095343531451
 21
1660.513365034418
 31
0.0
  0
LINE
  5
7ABB
  8
1
 10
1760.489213353145
 20
2274.5133650344178
 30
0.0
 11
1826.4095343531451
 21
2274.5133650344178
 31
0.0
  0
LINE
  5
7ABC
  8
1
 10
1541.4095343531451
 20
3743.5751467805121
 30
0.0
 11
1781.4095343531451
 21
3743.5751467805121
 31
0.0
  0
LINE
  5
7ABD
  8
1
 10
1391.4095343531451
 20
3771.5751467805121
 30
0.0
 11
1541.4095343531451
 21
3771.5751467805121
 31
0.0
  0
LINE
  5
7ABE
  8
1
 10
1391.4095343531451
 20
3708.5751467805121
 30
0.0
 11
1541.4095343531451
 21
3708.5751467805121
 31
0.0
  0
LINE
  5
7ABF
  8
1
 10
1391.4095343531451
 20
3771.5751467805121
 30
0.0
 11
1391.4095343531451
 21
3708.5751467805121
 31
0.0
  0
LINE
  5
7AC0
  8
1
 10
1448.9095343531451
 20
3886.0751467805121
 30
0.0
 11
1448.9095343531451
 21
3771.5751467805121
 31
0.0
  0
LINE
  5
7AC1
  8
1
 10
1483.9095343531451
 20
3886.0751467805121
 30
0.0
 11
1483.9095343531451
 21
3771.5751467805121
 31
0.0
  0
LINE
  5
7AC2
  8
1
 10
1591.4095343531451
 20
3678.5751467805121
 30
0.0
 11
1591.4095343531451
 21
3801.5751467805121
 31
0.0
  0
LINE
  5
7AC3
  8
1
 10
1541.4095343531451
 20
3771.5751467805121
 30
0.0
 11
1541.4095343531451
 21
3708.5751467805121
 31
0.0
  0
LINE
  5
7AC4
  8
1
 10
1781.4095343531451
 20
3743.5751467805121
 30
0.0
 11
1781.4095343531451
 21
3886.0751467805121
 31
0.0
  0
LINE
  5
7AC5
  8
1
 10
1826.4095343531451
 20
4261.0751467805121
 30
0.0
 11
1029.961544353145
 21
4261.0751467805121
 31
0.0
  0
LINE
  5
7AC6
  8
1
 10
601.40953435314532
 20
4303.5751467805121
 30
0.0
 11
1216.4095343531451
 21
4303.5751467805121
 31
0.0
  0
LINE
  5
7AC7
  8
1
 10
673.9095343531452
 20
4208.5751467805121
 30
0.0
 11
958.9095343531452
 21
4208.5751467805121
 31
0.0
  0
LINE
  5
7AC8
  8
1
 10
1746.4095343531451
 20
4324.5751467805121
 30
0.0
 11
1186.4095343531451
 21
4324.5751467805121
 31
0.0
  0
LINE
  5
7AC9
  8
1
 10
1216.4095343531451
 20
4261.0751467805121
 30
0.0
 11
1216.4095343531451
 21
4324.5751467805121
 31
0.0
  0
LINE
  5
7ACA
  8
1
 10
1826.4095343531451
 20
4263.5751467805121
 30
0.0
 11
1826.4095343531451
 21
4293.5751467805112
 31
0.0
  0
LINE
  5
7ACB
  8
1
 10
1716.4095343531451
 20
4261.0751467805121
 30
0.0
 11
1716.4095343531451
 21
4324.5751467805121
 31
0.0
  0
LINE
  5
7ACC
  8
1
 10
1716.4095343531451
 20
4303.5751467805121
 30
0.0
 11
1781.4095343531451
 21
4303.5751467805121
 31
0.0
  0
LINE
  5
7ACD
  8
1
 10
1781.4095343531451
 20
4261.0751467805121
 30
0.0
 11
1781.4095343531451
 21
4303.5751467805121
 31
0.0
  0
LINE
  5
7ACE
  8
1
 10
3579.0425708889479
 20
1622.513365034418
 30
0.0
 11
3019.0425708889488
 21
1622.513365034418
 31
0.0
  0
LINE
  5
7ACF
  8
1
 10
3579.0425708889479
 20
1557.513365034418
 30
0.0
 11
3019.0425708889488
 21
1557.513365034418
 31
0.0
  0
LINE
  5
7AD0
  8
1
 10
3019.0425708889488
 20
1557.513365034418
 30
0.0
 11
3019.0425708889488
 21
1622.513365034418
 31
0.0
  0
LINE
  5
7AD1
  8
1
 10
3579.0425708889479
 20
1557.513365034418
 30
0.0
 11
3579.0425708889479
 21
1622.513365034418
 31
0.0
  0
LINE
  5
7AD2
  8
1
 10
3161.5425708889488
 20
2662.9613560344178
 30
0.0
 11
3161.542570888947
 21
1735.513365034418
 31
0.0
  0
LINE
  5
7AD3
  8
1
 10
3536.5425708889488
 20
2662.9613560344178
 30
0.0
 11
3536.5425708889488
 21
1735.513365034418
 31
0.0
  0
LINE
  5
7AD4
  8
1
 10
3161.5425708889488
 20
1762.513365034418
 30
0.0
 11
3536.5425708889488
 21
2274.5133650344178
 31
0.0
  0
LINE
  5
7AD5
  8
1
 10
3161.5425708889488
 20
2274.5133650344178
 30
0.0
 11
3536.5425708889488
 21
1762.513365034418
 31
0.0
  0
LINE
  5
7AD6
  8
1
 10
3161.5425708889488
 20
1762.513365034418
 30
0.0
 11
3536.5425708889488
 21
1762.513365034418
 31
0.0
  0
LINE
  5
7AD7
  8
1
 10
3161.5425708889488
 20
2274.5133650344178
 30
0.0
 11
3536.5425708889488
 21
2274.5133650344178
 31
0.0
  0
LINE
  5
7AD8
  8
1
 10
3579.0425708889479
 20
1660.513365034418
 30
0.0
 11
3019.0425708889488
 21
1660.513365034418
 31
0.0
  0
LINE
  5
7ADA
  8
1
 10
2939.0425708889488
 20
1827.513365034418
 30
0.0
 11
2939.0425708889488
 21
2425.5133650344192
 31
0.0
  0
LINE
  5
7ADB
  8
1
 10
3077.0425708889488
 20
1827.513365034418
 30
0.0
 11
3077.0425708889488
 21
1904.098091375361
 31
0.0
  0
LINE
  5
7ADC
  8
1
 10
3019.0425708889488
 20
1660.513365034418
 30
0.0
 11
3019.0425708889488
 21
1735.513365034418
 31
0.0
  0
LINE
  5
7ADD
  8
1
 10
3047.0425708889488
 20
1877.513365034418
 30
0.0
 11
2969.0425708889479
 21
1877.513365034418
 31
0.0
  0
LINE
  5
7ADE
  8
1
 10
3047.0425708889488
 20
2027.5133650344189
 30
0.0
 11
2969.0425708889479
 21
2027.5133650344189
 31
0.0
  0
LINE
  5
7ADF
  8
1
 10
3047.0425708889488
 20
1877.513365034418
 30
0.0
 11
3047.0425708889488
 21
2027.5133650344189
 31
0.0
  0
LINE
  5
7AE0
  8
1
 10
2969.0425708889479
 20
1877.513365034418
 30
0.0
 11
2969.0425708889479
 21
2027.5133650344189
 31
0.0
  0
LINE
  5
7AE1
  8
1
 10
3047.0425708889488
 20
1971.513365034418
 30
0.0
 11
3161.5425708889488
 21
1971.513365034418
 31
0.0
  0
LINE
  5
7AE2
  8
1
 10
3047.0425708889488
 20
1933.513365034418
 30
0.0
 11
3161.5425708889488
 21
1933.513365034418
 31
0.0
  0
LINE
  5
7AE3
  8
1
 10
2939.0425708889488
 20
1827.513365034418
 30
0.0
 11
3077.0425708889488
 21
1827.513365034418
 31
0.0
  0
LINE
  5
7AE4
  8
1
 10
2969.0425708889479
 20
2225.5133650344178
 30
0.0
 11
2969.0425708889479
 21
2375.5133650344178
 31
0.0
  0
LINE
  5
7AE5
  8
1
 10
3047.0425708889488
 20
2225.5133650344178
 30
0.0
 11
3047.0425708889488
 21
2375.5133650344178
 31
0.0
  0
LINE
  5
7AE6
  8
1
 10
3047.0425708889488
 20
2375.5133650344178
 30
0.0
 11
2969.0425708889479
 21
2375.5133650344178
 31
0.0
  0
LINE
  5
7AE7
  8
1
 10
3047.0425708889488
 20
2225.5133650344178
 30
0.0
 11
2969.0425708889479
 21
2225.5133650344178
 31
0.0
  0
LINE
  5
7AE8
  8
1
 10
2939.0425708889488
 20
2425.5133650344192
 30
0.0
 11
3077.0425708889488
 21
2425.5133650344192
 31
0.0
  0
LINE
  5
7AE9
  8
1
 10
3161.5425708889488
 20
2318.0133650344178
 30
0.0
 11
3047.0425708889488
 21
2318.0133650344178
 31
0.0
  0
LINE
  5
7AEA
  8
1
 10
3161.5425708889488
 20
2283.0133650344178
 30
0.0
 11
3047.0425708889488
 21
2283.0133650344178
 31
0.0
  0
LINE
  5
7AEB
  8
1
 10
3600.0425708889479
 20
2020.513365034418
 30
0.0
 11
3600.0425708889479
 21
2580.5133650344178
 31
0.0
  0
LINE
  5
7AEC
  8
1
 10
3536.5425708889488
 20
2050.5133650344178
 30
0.0
 11
3600.0425708889479
 21
2050.5133650344178
 31
0.0
  0
LINE
  5
7AED
  8
1
 10
3579.0425708889479
 20
1660.513365034418
 30
0.0
 11
3579.0425708889479
 21
1735.513365034418
 31
0.0
  0
LINE
  5
7AEE
  8
1
 10
3536.5425708889488
 20
2550.5133650344192
 30
0.0
 11
3600.0425708889479
 21
2550.5133650344192
 31
0.0
  0
LINE
  5
7AEF
  8
1
 10
3161.5425708889488
 20
2662.9613560344178
 30
0.0
 11
3536.5425708889488
 21
2662.9613560344178
 31
0.0
  0
DIMENSION
  5
7B03
  8
3
  2
*D1
 10
1466.4095343531451
 20
1397.689781262344
 30
0.0
 11
1055.3677483700881
 21
1397.689781262344
 31
0.0
 70
   128
 13
601.40953435314532
 23
1557.513365034418
 33
0.0
 14
1466.4095343531451
 24
1505.6192620344179
 34
0.0
1001
ACAD
1000
DSTYLE
1002
{
1070
   287
1070
     3
1070
   287
1070
     3
1070
    40
1040
20.0
1070
   143
1040
0.039
1070
   172
1070
     1
1070
   271
1070
     0
1070
   279
1070
     0
1070
   288
1070
     1
1002
}
  0
DIMENSION
  5
7B11
  8
3
  2
*D2
 10
1781.4095343531451
 20
1397.689781262344
 30
0.0
 11
1649.980962924574
 21
1397.689781262344
 31
0.0
 70
   128
 13
1466.4095343531451
 23
1505.6192620344179
 33
0.0
 14
1781.4095343531451
 24
1557.513365034418
 34
0.0
1001
ACAD
1000
DSTYLE
1002
{
1070
   287
1070
     3
1070
   287
1070
     3
1070
    40
1040
20.0
1070
   143
1040
0.039
1070
   172
1070
     1
1070
   271
1070
     0
1070
   279
1070
     0
1070
   288
1070
     1
1002
}
  0
DIMENSION
  5
7B34
  8
3
  2
*D3
 10
1984.3274798844211
 20
1762.513365034418
 30
0.0
 11
1984.32747988442
 21
2077.370508034418
 31
0.0
 70
   128
 13
1826.4095343531451
 23
2274.5133650344178
 33
0.0
 14
1826.4095343531451
 24
1762.513365034418
 34
0.0
 50
90.0
1001
ACAD
1000
DSTYLE
1002
{
1070
   287
1070
     3
1070
   287
1070
     3
1070
    40
1040
20.0
1070
   143
1040
0.039
1070
   172
1070
     1
1070
   271
1070
     0
1070
   279
1070
     0
1070
   288
1070
     1
1002
}
  0
DIMENSION
  5
7B41
  8
3
  2
*D4
 10
2099.606112425985
 20
1762.513365034418
 30
0.0
 11
2099.6061124259841
 21
2041.480875034418
 31
0.0
 70
   128
 13
1764.802341353145
 23
2300.5133650344178
 33
0.0
 14
1826.4095343531451
 24
1762.513365034418
 34
0.0
 50
90.0
1001
ACAD
1000
DSTYLE
1002
{
1070
   287
1070
     3
1070
   287
1070
     3
1070
    40
1040
20.0
1070
   143
1040
0.039
1070
   172
1070
     1
1070
   271
1070
     0
1070
   279
1070
     0
1070
   288
1070
     1
1002
}
  0
DIMENSION
  5
7B50
  8
3
  2
*D5
 10
2228.8804539963312
 20
2300.5133650344178
 30
0.0
 11
2228.8804539963312
 21
2480.964399034418
 31
0.0
 70
   128
 13
1464.518540353145
 23
2661.415433034419
 33
0.0
 14
1764.802341353145
 24
2300.5133650344178
 34
0.0
 50
90.0
1001
ACAD
1000
DSTYLE
1002
{
1070
   287
1070
     3
1070
   287
1070
     3
1070
    40
1040
20.0
1070
   143
1040
0.039
1070
   172
1070
     1
1070
   271
1070
     0
1070
   279
1070
     0
1070
   288
1070
     1
1002
}
  0
DIMENSION
  5
7B5C
  8
3
  2
*D6
 10
2227.8520093768848
 20
1660.513365034418
 30
0.0
 11
2177.8520093768848
 21
1980.513365034418
 31
0.0
 70
     0
 13
1764.802341353145
 23
2300.5133650344178
 33
0.0
 14
1781.4095343531451
 24
1660.513365034418
 34
0.0
 50
90.0
1001
ACAD
1000
DSTYLE
1002
{
1070
   287
1070
     3
1070
   287
1070
     3
1070
    40
1040
20.0
1070
   143
1040
0.039
1070
   172
1070
     1
1070
   271
1070
     0
1070
   279
1070
     0
1070
   288
1070
     1
1002
}
  0
DIMENSION
  5
7B6C
  8
3
  2
*D7
 10
2228.0629473768872
 20
1557.513365034418
 30
0.0
 11
2228.0629473768859
 21
1330.3705078915609
 31
0.0
 70
   128
 13
1781.4095343531451
 23
1660.513365034418
 33
0.0
 14
1781.4095343531451
 24
1557.513365034418
 34
0.0
 50
90.0
1001
ACAD
1000
DSTYLE
1002
{
1070
   287
1070
     3
1070
   287
1070
     3
1070
    40
1040
20.0
1070
   143
1040
0.039
1070
   172
1070
     1
1070
   271
1070
     0
1070
   279
1070
     0
1070
   288
1070
     1
1002
}
  0
DIMENSION
  5
7B93
  8
3
  2
*D8
 10
2385.7131560530411
 20
1557.513365034418
 30
0.0
 11
2385.7131560530402
 21
2119.3521750344189
 31
0.0
 70
   128
 13
1466.4095343531451
 23
2661.243117034418
 33
0.0
 14
1781.4095343531451
 24
1557.513365034418
 34
0.0
 50
90.0
1001
ACAD
1000
DSTYLE
1002
{
1070
   287
1070
     3
1070
   287
1070
     3
1070
    40
1040
20.0
1070
   143
1040
0.039
1070
   172
1070
     1
1070
   271
1070
     0
1070
   279
1070
     0
1070
   288
1070
     1
1002
}
  0
DIMENSION
  5
7BA0
  8
3
  2
*D9
 10
1466.4095343531451
 20
2818.5496741825259
 30
0.0
 11
1237.3931143531449
 21
2818.5496741825259
 31
0.0
 70
   128
 13
1031.678828353145
 23
2300.5133650344178
 33
0.0
 14
1466.4095343531451
 24
2661.243117034418
 34
0.0
1001
ACAD
1000
DSTYLE
1002
{
1070
   287
1070
     3
1070
   287
1070
     3
1070
    40
1040
20.0
1070
   143
1040
0.039
1070
   172
1070
     1
1070
   271
1070
     0
1070
   279
1070
     0
1070
   288
1070
     1
1002
}
  0
DIMENSION
  5
7BAE
  8
3
  2
*D10
 10
1826.4095343531451
 20
2818.5496741825259
 30
0.0
 11
1689.266677210288
 21
2818.5496741825259
 31
0.0
 70
   128
 13
1466.4095343531451
 23
2661.243117034418
 33
0.0
 14
1826.4095343531451
 24
2306.1133650344182
 34
0.0
1001
ACAD
1000
DSTYLE
1002
{
1070
   287
1070
     3
1070
   287
1070
     3
1070
    40
1040
20.0
1070
   143
1040
0.039
1070
   172
1070
     1
1070
   271
1070
     0
1070
   279
1070
     0
1070
   288
1070
     1
1002
}
  0
DIMENSION
  5
7BD1
  8
3
  2
*D11
 10
1781.4095343531451
 20
3534.255580271084
 30
0.0
 11
1159.152112353145
 21
3534.255580271084
 31
0.0
 70
   128
 13
601.40953435314532
 23
3743.5751467805121
 33
0.0
 14
1781.4095343531451
 24
3743.5751467805121
 34
0.0
1001
ACAD
1000
DSTYLE
1002
{
1070
   287
1070
     3
1070
   287
1070
     3
1070
    40
1040
20.0
1070
   143
1040
0.039
1070
   172
1070
     1
1070
   271
1070
     0
1070
   279
1070
     0
1070
   288
1070
     1
1002
}
  0
DIMENSION
  5
7BDE
  8
3
  2
*D12
 10
2029.6078295459711
 20
3743.5751467805121
 30
0.0
 11
2029.6078295459699
 21
4017.759459780511
 31
0.0
 70
   128
 13
1781.4095343531451
 23
4303.5751467805121
 33
0.0
 14
1781.4095343531451
 24
3743.5751467805121
 34
0.0
 50
90.0
1001
ACAD
1000
DSTYLE
1002
{
1070
   287
1070
     3
1070
   287
1070
     3
1070
    40
1040
20.0
1070
   143
1040
0.039
1070
   172
1070
     1
1070
   271
1070
     0
1070
   279
1070
     0
1070
   288
1070
     1
1002
}
  0
LINE
  5
7BDF
  8
2
 10
765.94979735314507
 20
4073.5751467805121
 30
0.0
 11
1871.387578353145
 21
4073.5751467805121
 31
0.0
  0
DIMENSION
  5
7BEF
  8
3
  2
*D13
 10
3536.5425708889488
 20
2763.828687999106
 30
0.0
 11
3345.1279046023269
 21
2763.828687999106
 31
0.0
 70
   128
 13
3161.5425708889488
 23
2662.9613560344178
 33
0.0
 14
3536.5425708889488
 24
2662.9613560344178
 34
0.0
1001
ACAD
1000
DSTYLE
1002
{
1070
   287
1070
     3
1070
   287
1070
     3
1070
    40
1040
20.0
1070
   143
1040
0.039
1070
   172
1070
     1
1070
   271
1070
     0
1070
   279
1070
     0
1070
   288
1070
     1
1002
}
  0
DIMENSION
  5
7BFC
  8
3
  2
*D14
 10
3349.0425708889488
 20
2918.0851838103308
 30
0.0
 11
3136.1854278889482
 21
2918.0851838103308
 31
0.0
 70
   128
  1
MAX\P450
 13
2939.0425708889488
 23
2425.5133650344192
 33
0.0
 14
3349.0425708889488
 24
2864.4595127926309
 34
0.0
1001
ACAD
1000
DSTYLE
1002
{
1070
   287
1070
     3
1070
   287
1070
     3
1070
    40
1040
20.0
1070
   143
1040
0.039
1070
   172
1070
     1
1070
   271
1070
     0
1070
   279
1070
     0
1070
   288
1070
     1
1002
}
  0
DIMENSION
  5
7C0A
  8
3
  2
*D15
 10
3600.0425708889479
 20
2918.0851838103308
 30
0.0
 11
3475.7568566032351
 21
2918.0851838103308
 31
0.0
 70
   128
 13
3349.0425708889488
 23
2864.4595127926309
 33
0.0
 14
3600.0425708889479
 24
2580.5133650344178
 34
0.0
1001
ACAD
1000
DSTYLE
1002
{
1070
   287
1070
     3
1070
   287
1070
     3
1070
    40
1040
20.0
1070
   143
1040
0.039
1070
   172
1070
     1
1070
   271
1070
     0
1070
   279
1070
     0
1070
   288
1070
     1
1002
}
  0
DIMENSION
  5
7C2D
  8
3
  2
*D16
 10
3742.8382662981712
 20
2050.5133650344178
 30
0.0
 11
3742.8382662981712
 21
2300.5133650344178
 31
0.0
 70
   128
 13
3600.0425708889479
 23
2550.5133650344192
 33
0.0
 14
3600.0425708889479
 24
2050.5133650344178
 34
0.0
 50
90.0
1001
ACAD
1000
DSTYLE
1002
{
1070
   287
1070
     3
1070
   287
1070
     3
1070
     3
1000
φ<>
1070
    40
1040
20.0
1070
   143
1040
0.039
1070
   172
1070
     1
1070
   271
1070
     0
1070
   279
1070
     0
1070
   288
1070
     1
1002
}
  0
DIMENSION
  5
7C3C
  8
3
  2
*D17
 10
3348.9382074477689
 20
1417.4763869228441
 30
0.0
 11
3156.1854280318062
 21
1417.4763869228441
 31
0.0
 70
   128
 13
3019.0425708889488
 23
1557.513365034418
 33
0.0
 14
3348.9382074477689
 24
1485.777993355083
 34
0.0
1001
ACAD
1000
DSTYLE
1002
{
1070
   287
1070
     3
1070
   287
1070
     3
1070
    40
1040
20.0
1070
   143
1040
0.039
1070
   172
1070
     1
1070
   271
1070
     0
1070
   279
1070
     0
1070
   288
1070
     1
1002
}
  0
DIMENSION
  5
7C4A
  8
3
  2
*D18
 10
3579.0425708889479
 20
1417.3394687763191
 30
0.0
 11
3471.9569701240362
 21
1467.969979565901
 31
0.0
 12
0.0
 22
-295.9089488023892
 32
0.0
 70
   128
 13
3348.9382074477689
 23
1485.777993355083
 33
0.0
 14
3579.0425708889479
 24
1557.513365034418
 34
0.0
1001
ACAD
1000
DSTYLE
1002
{
1070
   288
1070
     1
1070
   172
1070
     1
1070
    40
1040
20.0
1070
   271
1070
     0
1070
   143
1040
0.039
1002
}
  0
LINE
  5
7C6D
  8
2
 10
2876.6763338889482
 20
2300.5133650344178
 30
0.0
 11
3643.3106518889481
 21
2300.5133650344178
 31
0.0
  0
LINE
  5
7C6E
  8
2
 10
1466.4095343531451
 20
2704.8704500344179
 30
0.0
 11
1466.4095343531451
 21
1505.6192620344179
 31
0.0
  0
LINE
  5
7C6F
  8
4
 10
3700.0
 20
1000.0
 30
0.0
 11
3700.0
 21
600.0
 31
0.0
  0
LINE
  5
7C70
  8
4
 10
2300.0
 20
1000.0
 30
0.0
 11
2300.0
 21
600.0
 31
0.0
  0
LINE
  5
7C71
  8
4
 10
1300.0
 20
1000.0
 30
0.0
 11
1300.0
 21
600.0
 31
0.0
  0
LINE
  5
7C74
  8
4
 10
1300.0
 20
600.0
 30
0.0
 11
3700.0
 21
600.0
 31
0.0
  0
LINE
  5
7C75
  8
4
 10
1300.0
 20
800.0
 30
0.0
 11
3700.0
 21
800.0
 31
0.0
  0
TEXT
  5
7C76
  8
4
 10
1377.004161999999
 20
863.08605199999977
 30
0.0
 40
100.0
  1
機器名称
  0
TEXT
  5
7C77
  8
4
 10
1372.5162119999991
 20
643.29031333333319
 30
0.0
 40
100.0
  1
機器型番
  0
TEXT
  5
7C78
  8
4
 10
2355.3574906666659
 20
845.14353799999992
 30
0.0
 40
86.666666666666657
  1
ミツヤリミットロードファン
  0
TEXT
  5
7C79
  8
4
 10
2373.308991333332
 20
634.31916866666666
 30
0.0
 40
100.0
  1
LLE#3-4
  0
TEXT
  5
7C7B
  8
4
 10
1494.832830666666
 20
4766.8576826666658
 30
0.0
 40
108.0
  1
床置防振ベット
  0
TEXT
  5
7C7C
  8
4
 10
632.33518666666669
 20
5067.7619526666667
 30
0.0
 40
120.0
  1
ベルト駆動式片吸込両持排煙ファン
  0
LINE
  5
7C7D
  8
4
 10
500.0
 20
4938.8175086666661
 30
0.0
 11
3700.0
 21
4938.8175086666661
 31
0.0
  0
LINE
  5
7C7E
  8
4
 10
500.0
 20
5338.8175086666661
 30
0.0
 11
3700.0
 21
5338.8175086666661
 31
0.0
  0
LINE
  5
7C7F
  8
4
 10
1300.0
 20
1000.0
 30
0.0
 11
3700.0
 21
1000.0
 31
0.0
  0
LINE
  5
7C80
  8
4
 10
500.0
 20
5338.8175086666661
 30
0.0
 11
500.0
 21
4938.8175086666661
 31
0.0
  0
TEXT
  5
7C81
  8
4
 10
623.11516600000004
 20
4764.6389553333329
 30
0.0
 40
108.0
  1
左回転右横向
  0
TEXT
  5
7C82
  8
4
 10
2937.9391186666662
 20
5412.1221626666656
 30
0.0
 40
112.0
  1
No.
  0
TEXT
  5
7C83
  8
4
 10
2622.5921253333331
 20
4766.8576826666658
 30
0.0
 40
108.0
  1
縮尺：1/20
  0
LINE
  5
7C84
  8
4
 10
3700.0
 20
5338.8175086666661
 30
0.0
 11
3700.0
 21
4938.8175086666661
 31
0.0
  0
LINE
  5
7C86
  8
4
 10
2881.234844666666
 20
5362.5271659999999
 30
0.0
 11
2881.234844666666
 21
5573.3045233333341
 31
0.0
  0
LINE
  5
7C87
  8
4
 10
2881.234844666666
 20
5573.3045233333341
 30
0.0
 11
3700.0
 21
5573.3045233333341
 31
0.0
  0
LINE
  5
7C88
  8
4
 10
3700.0
 20
5573.3045233333341
 30
0.0
 11
3700.0
 21
5362.5271659999999
 31
0.0
  0
LINE
  5
7C89
  8
4
 10
3700.0
 20
5362.5271659999999
 30
0.0
 11
2881.234844666666
 21
5362.5271659999999
 31
0.0
  0
LINE
  5
7C94
  8
2
 10
3349.0425708889488
 20
2748.7997817823539
 30
0.0
 11
3348.9382074477689
 21
1485.777993355083
 31
0.0
  0
LINE
  5
7D1C
  8
1
 10
1781.4095343531451
 20
1735.513365034418
 30
0.0
 11
601.40953435314532
 21
1735.513365034418
 31
0.0
  0
LINE
  5
7D1D
  8
1
 10
3579.0425708889479
 20
1735.513365034418
 30
0.0
 11
3019.0425708889488
 21
1735.513365034418
 31
0.0
  0
LINE
  5
7FE3
  8
1
 10
3077.0425708889488
 20
2356.0822427877811
 30
0.0
 11
3077.0425708889488
 21
2425.5133650344192
 31
0.0
  0
DIMENSION
  5
7FF0
  8
3
  2
*D19
 10
601.40953435314543
 20
2937.3341115172711
 30
0.0
 11
1272.399604262984
 21
2937.3341115172711
 31
0.0
 70
   128
 13
1826.4095343531451
 23
2316.1133650344182
 33
0.0
 14
601.40953435314532
 24
1735.513365034418
 34
0.0
1001
ACAD
1000
DSTYLE
1002
{
1070
   287
1070
     3
1070
   287
1070
     3
1070
    40
1040
20.0
1070
   143
1040
0.039
1070
   172
1070
     1
1070
   271
1070
     0
1070
   279
1070
     0
1070
   288
1070
     1
1002
}
  0
ENDSEC
  0
EOF
