  0
SECTION
  2
HEADER
  9
$ACADVER
  1
AC1009
  9
$INSBASE
 10
0.0
 20
0.0
 30
0.0
  9
$EXTMIN
 10
500.0
 20
600.0
 30
0.0
  9
$EXTMAX
 10
3720.9305936092719
 20
5573.3045233333341
 30
0.0
  9
$LIMMIN
 10
0.0
 20
0.0
  9
$LIMMAX
 10
297.0
 20
210.0
  9
$ORTHOMODE
 70
     0
  9
$REGENMODE
 70
     1
  9
$FILLMODE
 70
     0
  9
$QTEXTMODE
 70
     0
  9
$MIRRTEXT
 70
     1
  9
$DRAGMODE
 70
     2
  9
$LTSCALE
 40
100.0
  9
$OSMODE
 70
    37
  9
$ATTMODE
 70
     1
  9
$TEXTSIZE
 40
180.0
  9
$TRACEWID
 40
0.05
  9
$TEXTSTYLE
  7
STANDARD
  9
$CLAYER
  8
3
  9
$CELTYPE
  6
BYLAYER
  9
$CECOLOR
 62
   256
  9
$DIMSCALE
 40
20.0
  9
$DIMASZ
 40
2.0
  9
$DIMEXO
 40
0.5
  9
$DIMDLI
 40
10.0
  9
$DIMRND
 40
0.0
  9
$DIMDLE
 40
0.0
  9
$DIMEXE
 40
1.0
  9
$DIMTP
 40
1.0
  9
$DIMTM
 40
1.0
  9
$DIMTXT
 40
3.0
  9
$DIMCEN
 40
0.0
  9
$DIMTSZ
 40
0.0
  9
$DIMTOL
 70
     0
  9
$DIMLIM
 70
     0
  9
$DIMTIH
 70
     0
  9
$DIMTOH
 70
     0
  9
$DIMSE1
 70
     0
  9
$DIMSE2
 70
     0
  9
$DIMTAD
 70
     1
  9
$DIMZIN
 70
     8
  9
$DIMBLK
  1

  9
$DIMASO
 70
     1
  9
$DIMSHO
 70
     1
  9
$DIMPOST
  1

  9
$DIMAPOST
  1

  9
$DIMALT
 70
     0
  9
$DIMALTD
 70
     2
  9
$DIMALTF
 40
0.039
  9
$DIMLFAC
 40
1.0
  9
$DIMTOFL
 70
     1
  9
$DIMTVP
 40
0.0
  9
$DIMTIX
 70
     0
  9
$DIMSOXD
 70
     0
  9
$DIMSAH
 70
     1
  9
$DIMBLK1
  1
OPEN
  9
$DIMBLK2
  1
OPEN
  9
$DIMSTYLE
  2
IGA
  9
$DIMCLRD
 70
     0
  9
$DIMCLRE
 70
     0
  9
$DIMCLRT
 70
     0
  9
$DIMTFAC
 40
10.0
  9
$DIMGAP
 40
1.0
  9
$LUNITS
 70
     2
  9
$LUPREC
 70
     3
  9
$SKETCHINC
 40
0.1
  9
$FILLETRAD
 40
50.0
  9
$AUNITS
 70
     0
  9
$AUPREC
 70
     0
  9
$MENU
  1
acad
  9
$ELEVATION
 40
0.0
  9
$PELEVATION
 40
0.0
  9
$THICKNESS
 40
0.0
  9
$LIMCHECK
 70
     0
  9
$BLIPMODE
 70
     0
  9
$CHAMFERA
 40
0.5
  9
$CHAMFERB
 40
0.5
  9
$SKPOLY
 70
     0
  9
$TDCREATE
 40
2450763.642357986
  9
$TDUPDATE
 40
2454953.681402083
  9
$TDINDWG
 40
0.0126848495
  9
$TDUSRTIMER
 40
0.0126848495
  9
$USRTIMER
 70
     1
  9
$ANGBASE
 50
0.0
  9
$ANGDIR
 70
     0
  9
$PDMODE
 70
     0
  9
$PDSIZE
 40
0.0
  9
$PLINEWID
 40
0.0
  9
$COORDS
 70
     1
  9
$SPLFRAME
 70
     0
  9
$SPLINETYPE
 70
     6
  9
$SPLINESEGS
 70
     8
  9
$ATTDIA
 70
     0
  9
$ATTREQ
 70
     1
  9
$HANDLING
 70
 10241
  9
$HANDSEED
  5
80D9
  9
$SURFTAB1
 70
     6
  9
$SURFTAB2
 70
     6
  9
$SURFTYPE
 70
     6
  9
$SURFU
 70
     6
  9
$SURFV
 70
     6
  9
$UCSNAME
  2

  9
$UCSORG
 10
0.0
 20
0.0
 30
0.0
  9
$UCSXDIR
 10
1.0
 20
0.0
 30
0.0
  9
$UCSYDIR
 10
0.0
 20
1.0
 30
0.0
  9
$PUCSNAME
  2

  9
$PUCSORG
 10
0.0
 20
0.0
 30
0.0
  9
$PUCSXDIR
 10
1.0
 20
0.0
 30
0.0
  9
$PUCSYDIR
 10
0.0
 20
1.0
 30
0.0
  9
$USERI1
 70
     0
  9
$USERI2
 70
     0
  9
$USERI3
 70
     0
  9
$USERI4
 70
     0
  9
$USERI5
 70
     0
  9
$USERR1
 40
0.0
  9
$USERR2
 40
0.0
  9
$USERR3
 40
0.0
  9
$USERR4
 40
0.0
  9
$USERR5
 40
0.0
  9
$WORLDVIEW
 70
     1
  9
$SHADEDGE
 70
     3
  9
$SHADEDIF
 70
    70
  9
$TILEMODE
 70
     1
  9
$MAXACTVP
 70
    16
  9
$PLIMCHECK
 70
     0
  9
$PEXTMIN
 10
1.0000000000000000E+020
 20
1.0000000000000000E+020
 30
1.0000000000000000E+020
  9
$PEXTMAX
 10
-1.0000000000000000E+020
 20
-1.0000000000000000E+020
 30
-1.0000000000000000E+020
  9
$PLIMMIN
 10
0.0
 20
0.0
  9
$PLIMMAX
 10
12.0
 20
9.0
  9
$UNITMODE
 70
     0
  9
$VISRETAIN
 70
     0
  9
$PLINEGEN
 70
     0
  9
$PSLTSCALE
 70
     1
  0
ENDSEC
  0
SECTION
  2
TABLES
  0
TABLE
  2
VPORT
 70
     2
  0
VPORT
  2
*ACTIVE
 70
     0
 10
0.0
 20
0.0
 11
1.0
 21
1.0
 12
8344.2048812050853
 22
2962.2991780554471
 13
0.0
 23
0.0
 14
10.0
 24
10.0
 15
10.0
 25
10.0
 16
0.0
 26
0.0
 36
1.0
 17
0.0
 27
0.0
 37
0.0
 40
6428.4967255674192
 41
3.1666666666666661
 42
50.0
 43
0.0
 44
0.0
 50
0.0
 51
0.0
 71
     0
 72
   100
 73
     1
 74
     0
 75
     0
 76
     0
 77
     0
 78
     0
  0
ENDTAB
  0
TABLE
  2
LTYPE
 70
     2
  0
LTYPE
  2
CONTINUOUS
 70
     0
  3
Solid line
 72
    65
 73
     0
 40
0.0
  0
LTYPE
  2
CENTER
 70
     0
  3
____ _ ____ _ ____ _ ____ _ ____ _ ____ _ ____ 
 72
    65
 73
     4
 40
2.0
 49
1.25
 49
-0.25
 49
0.25
 49
-0.25
  0
ENDTAB
  0
TABLE
  2
LAYER
 70
     6
  0
LAYER
  2
0
 70
     0
 62
     7
  6
CONTINUOUS
  0
LAYER
  2
3
 70
     0
 62
     2
  6
CONTINUOUS
  0
LAYER
  2
2
 70
     0
 62
     3
  6
CENTER
  0
LAYER
  2
1
 70
     0
 62
     4
  6
CONTINUOUS
  0
LAYER
  2
4
 70
     0
 62
     7
  6
CONTINUOUS
  0
LAYER
  2
DEFPOINTS
 70
     0
 62
     7
  6
CONTINUOUS
  0
ENDTAB
  0
TABLE
  2
STYLE
 70
     1
  0
STYLE
  2
STANDARD
 70
     0
 40
0.0
 41
1.0
 50
0.0
 71
     0
 42
180.0
  3
simplex.shx
  4
extfont.shx
  0
ENDTAB
  0
TABLE
  2
VIEW
 70
     0
  0
ENDTAB
  0
TABLE
  2
UCS
 70
     0
  0
ENDTAB
  0
TABLE
  2
APPID
 70
     1
  0
APPID
  2
ACAD
 70
     0
  0
ENDTAB
  0
TABLE
  2
DIMSTYLE
 70
     1
  0
DIMSTYLE
  2
IGA
 70
     0
  3

  4

  5

  6
OPEN
  7
OPEN
 40
2.0
 41
2.0
 42
0.5
 43
10.0
 44
1.0
 45
0.0
 46
0.0
 47
1.0
 48
1.0
140
3.0
141
0.0
142
0.0
143
0.03937
144
1.0
145
0.0
146
10.0
147
1.0
 71
     0
 72
     0
 73
     0
 74
     0
 75
     0
 76
     0
 77
     1
 78
     8
170
     0
171
     2
172
     0
173
     1
174
     0
175
     0
176
     0
177
     0
178
     0
  0
ENDTAB
  0
ENDSEC
  0
SECTION
  2
BLOCKS
  0
BLOCK
  8
0
  2
$MODEL_SPACE
 70
     0
 10
0.0
 20
0.0
 30
0.0
  3
$MODEL_SPACE
  1

  0
ENDBLK
  5
1B
  8
0
  0
BLOCK
 67
     1
  8
0
  2
$PAPER_SPACE
 70
     0
 10
0.0
 20
0.0
 30
0.0
  3
$PAPER_SPACE
  1

  0
ENDBLK
  5
18
 67
     1
  8
0
  0
BLOCK
  8
0
  2
_OPEN
 70
     0
 10
0.0
 20
0.0
 30
0.0
  3
_OPEN
  1

  0
LINE
  5
7AE6
  8
0
  6
BYBLOCK
 62
     0
 10
-1.0
 20
0.166667
 30
0.0
 11
0.0
 21
0.0
 31
0.0
  0
LINE
  5
7AE7
  8
0
  6
BYBLOCK
 62
     0
 10
0.0
 20
0.0
 30
0.0
 11
-1.0
 21
-0.166667
 31
0.0
  0
LINE
  5
7AE8
  8
0
  6
BYBLOCK
 62
     0
 10
0.0
 20
0.0
 30
0.0
 11
-1.0
 21
0.0
 31
0.0
  0
ENDBLK
  5
7AE9
  8
0
  0
BLOCK
  8
0
  2
*D1
 70
     1
 10
0.0
 20
0.0
 30
0.0
  3
*D1
  1

  0
LINE
  5
802F
  8
3
 62
     0
 10
629.7282627331615
 20
1559.816132596733
 30
0.0
 11
629.7282627331615
 21
1406.9368037737261
 31
0.0
  0
LINE
  5
8030
  8
3
 62
     0
 10
1494.728262733161
 20
1478.3845862249
 30
0.0
 11
1494.728262733161
 21
1406.9368037737261
 31
0.0
  0
LINE
  5
8031
  8
3
 62
     0
 10
669.7282627331615
 20
1426.9368037737261
 30
0.0
 11
1454.728262733161
 21
1426.9368037737261
 31
0.0
  0
INSERT
  5
8032
  8
3
 62
     0
  2
_OPEN
 10
629.7282627331615
 20
1426.9368037737261
 30
0.0
 41
40.0
 42
40.0
 43
40.0
 50
180.0
  0
INSERT
  5
8033
  8
3
 62
     0
  2
_OPEN
 10
1494.728262733161
 20
1426.9368037737261
 30
0.0
 41
40.0
 42
40.0
 43
40.0
  0
TEXT
  8
3
  40
60
  5
80C8
  62
0
  72
0
  71
0
 10
922.751
 20
1370.74
 30
0.000000
  1
865
  0
POINT
  5
8035
  8
DEFPOINTS
 62
     0
 10
629.7282627331615
 20
1569.816132596733
 30
0.0
  0
POINT
  5
8036
  8
DEFPOINTS
 62
     0
 10
1494.728262733161
 20
1488.3845862249
 30
0.0
  0
POINT
  5
8037
  8
DEFPOINTS
 62
     0
 10
1494.728262733161
 20
1426.9368037737261
 30
0.0
  0
ENDBLK
  5
7EBA
  8
0
  0
BLOCK
  8
0
  2
*D2
 70
     1
 10
0.0
 20
0.0
 30
0.0
  3
*D2
  1

  0
LINE
  5
8038
  8
3
 62
     0
 10
1494.728262733161
 20
1478.3845862249
 30
0.0
 11
1494.728262733161
 21
1407.59994047598
 31
0.0
  0
LINE
  5
8039
  8
3
 62
     0
 10
1809.728262733161
 20
1559.816132596733
 30
0.0
 11
1809.728262733161
 21
1407.59994047598
 31
0.0
  0
LINE
  5
803A
  8
3
 62
     0
 10
1534.728262733161
 20
1427.59994047598
 30
0.0
 11
1769.728262733161
 21
1427.59994047598
 31
0.0
  0
INSERT
  5
803B
  8
3
 62
     0
  2
_OPEN
 10
1494.728262733161
 20
1427.59994047598
 30
0.0
 41
40.0
 42
40.0
 43
40.0
 50
180.0
  0
INSERT
  5
803C
  8
3
 62
     0
  2
_OPEN
 10
1809.728262733161
 20
1427.59994047598
 30
0.0
 41
40.0
 42
40.0
 43
40.0
  0
TEXT
  8
3
  40
60
  5
80C9
  62
0
  72
0
  71
0
 10
1558.30
 20
1371.40
 30
0.000000
  1
315
  0
POINT
  5
803E
  8
DEFPOINTS
 62
     0
 10
1494.728262733161
 20
1488.3845862249
 30
0.0
  0
POINT
  5
803F
  8
DEFPOINTS
 62
     0
 10
1809.728262733161
 20
1569.816132596733
 30
0.0
  0
POINT
  5
8040
  8
DEFPOINTS
 62
     0
 10
1809.728262733161
 20
1427.59994047598
 30
0.0
  0
ENDBLK
  5
7EC5
  8
0
  0
BLOCK
  8
0
  2
*D3
 70
     1
 10
0.0
 20
0.0
 30
0.0
  3
*D3
  1

  0
LINE
  5
8041
  8
3
 62
     0
 10
956.72826273316139
 20
2439.816132596733
 30
0.0
 11
956.72826273316139
 21
2609.0213295967328
 31
0.0
  0
LINE
  5
8042
  8
3
 62
     0
 10
1468.728262733161
 20
2439.816132596733
 30
0.0
 11
1468.728262733161
 21
2609.0213295967328
 31
0.0
  0
LINE
  5
8043
  8
3
 62
     0
 10
996.7282627331615
 20
2589.0213295967328
 30
0.0
 11
1428.728262733161
 21
2589.0213295967328
 31
0.0
  0
INSERT
  5
8044
  8
3
 62
     0
  2
_OPEN
 10
956.72826273316139
 20
2589.0213295967328
 30
0.0
 41
40.0
 42
40.0
 43
40.0
 50
180.0
  0
INSERT
  5
8045
  8
3
 62
     0
  2
_OPEN
 10
1468.728262733161
 20
2589.0213295967328
 30
0.0
 41
40.0
 42
40.0
 43
40.0
  0
TEXT
  8
3
  40
60
  5
80CA
  62
0
  72
0
  71
0
 10
1084.72
 20
2532.82
 30
0.000000
  1
512
  0
POINT
  5
8047
  8
DEFPOINTS
 62
     0
 10
956.72826273316139
 20
2429.816132596733
 30
0.0
  0
POINT
  5
8048
  8
DEFPOINTS
 62
     0
 10
1468.728262733161
 20
2429.816132596733
 30
0.0
  0
POINT
  5
8049
  8
DEFPOINTS
 62
     0
 10
1468.728262733161
 20
2589.0213295967328
 30
0.0
  0
ENDBLK
  5
7E36
  8
0
  0
BLOCK
  8
0
  2
*D4
 70
     1
 10
0.0
 20
0.0
 30
0.0
  3
*D4
  1

  0
LINE
  5
804A
  8
3
 62
     0
 10
956.72826273316139
 20
2439.816132596733
 30
0.0
 11
956.72826273316139
 21
2773.3696025967329
 31
0.0
  0
LINE
  5
804B
  8
3
 62
     0
 10
1494.728262733161
 20
2378.2089395967332
 30
0.0
 11
1494.728262733161
 21
2773.3696025967329
 31
0.0
  0
LINE
  5
804C
  8
3
 62
     0
 10
996.7282627331615
 20
2753.3696025967329
 30
0.0
 11
1454.728262733161
 21
2753.3696025967329
 31
0.0
  0
INSERT
  5
804D
  8
3
 62
     0
  2
_OPEN
 10
956.72826273316139
 20
2753.3696025967329
 30
0.0
 41
40.0
 42
40.0
 43
40.0
 50
180.0
  0
INSERT
  5
804E
  8
3
 62
     0
  2
_OPEN
 10
1494.728262733161
 20
2753.3696025967329
 30
0.0
 41
40.0
 42
40.0
 43
40.0
  0
TEXT
  8
3
  40
60
  5
80CB
  62
0
  72
0
  71
0
 10
1094.69
 20
2697.17
 30
0.000000
  1
538
  0
POINT
  5
8050
  8
DEFPOINTS
 62
     0
 10
956.72826273316139
 20
2429.816132596733
 30
0.0
  0
POINT
  5
8051
  8
DEFPOINTS
 62
     0
 10
1494.728262733161
 20
2368.2089395967332
 30
0.0
  0
POINT
  5
8052
  8
DEFPOINTS
 62
     0
 10
1494.728262733161
 20
2753.3696025967329
 30
0.0
  0
ENDBLK
  5
7E2B
  8
0
  0
BLOCK
  8
0
  2
*D5
 70
     1
 10
0.0
 20
0.0
 30
0.0
  3
*D5
  1

  0
LINE
  5
8053
  8
3
 62
     0
 10
1494.728262733161
 20
2378.2089395967332
 30
0.0
 11
1494.728262733161
 21
2773.3696025967329
 31
0.0
  0
LINE
  5
8054
  8
3
 62
     0
 10
1855.630329733161
 20
2077.9251395967331
 30
0.0
 11
1855.630329733161
 21
2773.3696025967329
 31
0.0
  0
LINE
  5
8055
  8
3
 62
     0
 10
1534.728262733161
 20
2753.3696025967329
 30
0.0
 11
1815.630329733161
 21
2753.3696025967329
 31
0.0
  0
INSERT
  5
8056
  8
3
 62
     0
  2
_OPEN
 10
1494.728262733161
 20
2753.3696025967329
 30
0.0
 41
40.0
 42
40.0
 43
40.0
 50
180.0
  0
INSERT
  5
8057
  8
3
 62
     0
  2
_OPEN
 10
1855.630329733161
 20
2753.3696025967329
 30
0.0
 41
40.0
 42
40.0
 43
40.0
  0
TEXT
  8
3
  40
60
  5
80CC
  62
0
  72
0
  71
0
 10
1530.76
 20
2697.17
 30
0.000000
  1
361
  0
POINT
  5
8059
  8
DEFPOINTS
 62
     0
 10
1494.728262733161
 20
2368.2089395967332
 30
0.0
  0
POINT
  5
805A
  8
DEFPOINTS
 62
     0
 10
1855.630329733161
 20
2067.9251395967331
 30
0.0
  0
POINT
  5
805B
  8
DEFPOINTS
 62
     0
 10
1855.630329733161
 20
2753.3696025967329
 30
0.0
  0
ENDBLK
  5
7E20
  8
0
  0
BLOCK
  8
0
  2
*D6
 70
     1
 10
0.0
 20
0.0
 30
0.0
  3
*D6
  1

  0
LINE
  5
805C
  8
3
 62
     0
 10
1510.32826273316
 20
2429.816132596733
 30
0.0
 11
2067.120922432729
 21
2429.816132596733
 31
0.0
  0
LINE
  5
805D
  8
3
 62
     0
 10
1865.458014733161
 20
2069.816132596733
 30
0.0
 11
2067.120922432729
 21
2069.816132596733
 31
0.0
  0
LINE
  5
805E
  8
3
 62
     0
 10
2047.1209224327281
 20
2389.8161325967321
 30
0.0
 11
2047.1209224327281
 21
2109.816132596733
 31
0.0
  0
INSERT
  5
805F
  8
3
 62
     0
  2
_OPEN
 10
2047.1209224327281
 20
2429.816132596733
 30
0.0
 41
40.0
 42
40.0
 43
40.0
 50
90.0
  0
INSERT
  5
8060
  8
3
 62
     0
  2
_OPEN
 10
2047.1209224327281
 20
2069.816132596733
 30
0.0
 41
40.0
 42
40.0
 43
40.0
 50
270.0
  0
TEXT
  8
3
  40
60
  5
80CD
  62
0
  72
0
  71
0
 10
1877.12
 20
2151.37
 30
0.000000
  1
360
  0
POINT
  5
8062
  8
DEFPOINTS
 62
     0
 10
1500.328262733161
 20
2429.816132596733
 30
0.0
  0
POINT
  5
8063
  8
DEFPOINTS
 62
     0
 10
1855.458014733161
 20
2069.816132596733
 30
0.0
  0
POINT
  5
8064
  8
DEFPOINTS
 62
     0
 10
2047.1209224327281
 20
2069.816132596733
 30
0.0
  0
ENDBLK
  5
7EE6
  8
0
  0
BLOCK
  8
0
  2
*D7
 70
     1
 10
0.0
 20
0.0
 30
0.0
  3
*D7
  1

  0
LINE
  5
8065
  8
3
 62
     0
 10
1865.458014733161
 20
2069.816132596733
 30
0.0
 11
2067.37509627602
 21
2069.816132596733
 31
0.0
  0
LINE
  5
8066
  8
3
 62
     0
 10
1819.728262733161
 20
1569.816132596733
 30
0.0
 11
2067.37509627602
 21
1569.816132596733
 31
0.0
  0
LINE
  5
8067
  8
3
 62
     0
 10
2047.37509627602
 20
2029.816132596733
 30
0.0
 11
2047.37509627602
 21
1609.816132596733
 31
0.0
  0
INSERT
  5
8068
  8
3
 62
     0
  2
_OPEN
 10
2047.37509627602
 20
2069.816132596733
 30
0.0
 41
40.0
 42
40.0
 43
40.0
 50
90.0
  0
INSERT
  5
8069
  8
3
 62
     0
  2
_OPEN
 10
2047.37509627602
 20
1569.816132596733
 30
0.0
 41
40.0
 42
40.0
 43
40.0
 50
270.0
  0
TEXT
  8
3
  40
60
  5
80CE
  62
0
  72
0
  71
0
 10
1877.38
 20
1713.62
 30
0.000000
  1
500
  0
POINT
  5
806B
  8
DEFPOINTS
 62
     0
 10
1855.458014733161
 20
2069.816132596733
 30
0.0
  0
POINT
  5
806C
  8
DEFPOINTS
 62
     0
 10
1809.728262733161
 20
1569.816132596733
 30
0.0
  0
POINT
  5
806D
  8
DEFPOINTS
 62
     0
 10
2047.37509627602
 20
1569.816132596733
 30
0.0
  0
ENDBLK
  5
7EFC
  8
0
  0
BLOCK
  8
0
  2
*D8
 70
     1
 10
0.0
 20
0.0
 30
0.0
  3
*D8
  1

  0
LINE
  5
806E
  8
3
 62
     0
 10
1510.32826273316
 20
2429.816132596733
 30
0.0
 11
2186.5847300036689
 21
2429.816132596733
 31
0.0
  0
LINE
  5
806F
  8
3
 62
     0
 10
1819.728262733161
 20
1569.816132596733
 30
0.0
 11
2186.5847300036689
 21
1569.816132596733
 31
0.0
  0
LINE
  5
8070
  8
3
 62
     0
 10
2166.584730003668
 20
2389.8161325967321
 30
0.0
 11
2166.584730003668
 21
1609.816132596733
 31
0.0
  0
INSERT
  5
8071
  8
3
 62
     0
  2
_OPEN
 10
2166.584730003668
 20
2429.816132596733
 30
0.0
 41
40.0
 42
40.0
 43
40.0
 50
90.0
  0
INSERT
  5
8072
  8
3
 62
     0
  2
_OPEN
 10
2166.584730003668
 20
1569.816132596733
 30
0.0
 41
40.0
 42
40.0
 43
40.0
 50
270.0
  0
TEXT
  8
3
  40
60
  5
80CF
  62
0
  72
0
  71
0
 10
1996.58
 20
1917.32
 30
0.000000
  1
860
  0
POINT
  5
8074
  8
DEFPOINTS
 62
     0
 10
1500.328262733161
 20
2429.816132596733
 30
0.0
  0
POINT
  5
8075
  8
DEFPOINTS
 62
     0
 10
1809.728262733161
 20
1569.816132596733
 30
0.0
  0
POINT
  5
8076
  8
DEFPOINTS
 62
     0
 10
2166.584730003668
 20
1569.816132596733
 30
0.0
  0
ENDBLK
  5
7EF1
  8
0
  0
BLOCK
  8
0
  2
*D9
 70
     1
 10
0.0
 20
0.0
 30
0.0
  3
*D9
  1

  0
LINE
  5
8077
  8
3
 62
     0
 10
629.7282627331615
 20
3546.690339455683
 30
0.0
 11
629.7282627331615
 21
3219.4042314556818
 31
0.0
  0
LINE
  5
8078
  8
3
 62
     0
 10
1809.728262733161
 20
3546.690339455683
 30
0.0
 11
1809.728262733161
 21
3219.4042314556818
 31
0.0
  0
LINE
  5
8079
  8
3
 62
     0
 10
669.7282627331615
 20
3239.4042314556832
 30
0.0
 11
1769.728262733161
 21
3239.4042314556832
 31
0.0
  0
INSERT
  5
807A
  8
3
 62
     0
  2
_OPEN
 10
629.7282627331615
 20
3239.4042314556832
 30
0.0
 41
40.0
 42
40.0
 43
40.0
 50
180.0
  0
INSERT
  5
807B
  8
3
 62
     0
  2
_OPEN
 10
1809.728262733161
 20
3239.4042314556832
 30
0.0
 41
40.0
 42
40.0
 43
40.0
  0
TEXT
  8
3
  40
60
  5
80D0
  62
0
  72
0
  71
0
 10
1059.80
 20
3183.20
 30
0.000000
  1
1180
  0
POINT
  5
807D
  8
DEFPOINTS
 62
     0
 10
629.7282627331615
 20
3556.6903394556839
 30
0.0
  0
POINT
  5
807E
  8
DEFPOINTS
 62
     0
 10
1809.728262733161
 20
3556.6903394556839
 30
0.0
  0
POINT
  5
807F
  8
DEFPOINTS
 62
     0
 10
1809.728262733161
 20
3239.4042314556832
 30
0.0
  0
ENDBLK
  5
7DF4
  8
0
  0
BLOCK
  8
0
  2
*D10
 70
     1
 10
0.0
 20
0.0
 30
0.0
  3
*D10
  1

  0
LINE
  5
8080
  8
3
 62
     0
 10
1819.728262733161
 20
4116.6903394556839
 30
0.0
 11
2084.4059847331619
 21
4116.690339455683
 31
0.0
  0
LINE
  5
8081
  8
3
 62
     0
 10
1819.728262733161
 20
3556.6903394556839
 30
0.0
 11
2084.4059847331619
 21
3556.6903394556839
 31
0.0
  0
LINE
  5
8082
  8
3
 62
     0
 10
2064.4059847331619
 20
4076.690339455683
 30
0.0
 11
2064.4059847331619
 21
3596.690339455683
 31
0.0
  0
INSERT
  5
8083
  8
3
 62
     0
  2
_OPEN
 10
2064.4059847331619
 20
4116.690339455683
 30
0.0
 41
40.0
 42
40.0
 43
40.0
 50
90.0
  0
INSERT
  5
8084
  8
3
 62
     0
  2
_OPEN
 10
2064.4059847331619
 20
3556.6903394556839
 30
0.0
 41
40.0
 42
40.0
 43
40.0
 50
270.0
  0
TEXT
  8
3
  40
60
  5
80D1
  62
0
  72
0
  71
0
 10
1894.41
 20
3759.22
 30
0.000000
  1
560
  0
POINT
  5
8086
  8
DEFPOINTS
 62
     0
 10
1809.728262733161
 20
4116.6903394556839
 30
0.0
  0
POINT
  5
8087
  8
DEFPOINTS
 62
     0
 10
1809.728262733161
 20
3556.6903394556839
 30
0.0
  0
POINT
  5
8088
  8
DEFPOINTS
 62
     0
 10
2064.4059847331619
 20
3556.6903394556839
 30
0.0
  0
ENDBLK
  5
7DE9
  8
0
  0
BLOCK
  8
0
  2
*D11
 70
     1
 10
0.0
 20
0.0
 30
0.0
  3
*D11
  1

  0
LINE
  5
8089
  8
3
 62
     0
 10
2968.830406994683
 20
1559.816132596733
 30
0.0
 11
2968.830406994683
 21
1407.5782195437439
 31
0.0
  0
LINE
  5
808A
  8
3
 62
     0
 10
3298.830406994683
 20
1484.856545596733
 30
0.0
 11
3298.830406994683
 21
1407.5782195437439
 31
0.0
  0
LINE
  5
808B
  8
3
 62
     0
 10
3008.830406994683
 20
1427.5782195437439
 30
0.0
 11
3258.830406994683
 21
1427.5782195437439
 31
0.0
  0
INSERT
  5
808C
  8
3
 62
     0
  2
_OPEN
 10
2968.830406994683
 20
1427.5782195437439
 30
0.0
 41
40.0
 42
40.0
 43
40.0
 50
180.0
  0
INSERT
  5
808D
  8
3
 62
     0
  2
_OPEN
 10
3298.830406994683
 20
1427.5782195437439
 30
0.0
 41
40.0
 42
40.0
 43
40.0
  0
TEXT
  8
3
  40
60
  5
80D2
  62
0
  72
0
  71
0
 10
3041.69
 20
1371.38
 30
0.000000
  1
330
  0
POINT
  5
808F
  8
DEFPOINTS
 62
     0
 10
2968.830406994683
 20
1569.816132596733
 30
0.0
  0
POINT
  5
8090
  8
DEFPOINTS
 62
     0
 10
3298.830406994683
 20
1494.856545596733
 30
0.0
  0
POINT
  5
8091
  8
DEFPOINTS
 62
     0
 10
3298.830406994683
 20
1427.5782195437439
 30
0.0
  0
ENDBLK
  5
7E83
  8
0
  0
BLOCK
  8
0
  2
*D12
 70
     1
 10
0.0
 20
0.0
 30
0.0
  3
*D12
  1

  0
LINE
  5
7E85
  8
0
  6
BYBLOCK
 62
     0
 10
3298.830406994683
 20
1484.856545596733
 30
0.0
 11
3298.830406994683
 21
1407.469434507808
 31
0.0
  0
LINE
  5
7E86
  8
0
  6
BYBLOCK
 62
     0
 10
3528.830406994683
 20
1559.816132596733
 30
0.0
 11
3528.830406994683
 21
1407.469434507808
 31
0.0
  0
LINE
  5
7E87
  8
0
  6
BYBLOCK
 62
     0
 10
3338.830406994683
 20
1427.469434507808
 30
0.0
 11
3488.830406994683
 21
1427.469434507808
 31
0.0
  0
TEXT
  5
7E88
  8
3
 62
     0
 10
3338.435622735929
 20
1459.3329056209959
 30
0.0
 40
60.0
  1
230
  0
INSERT
  5
7E89
  8
0
  6
BYBLOCK
 62
     0
  2
_OPEN
 10
3298.830406994683
 20
1427.469434507808
 30
0.0
 41
40.0
 42
40.0
 43
40.0
 50
180.0
  0
INSERT
  5
7E8A
  8
0
  6
BYBLOCK
 62
     0
  2
_OPEN
 10
3528.830406994683
 20
1427.469434507808
 30
0.0
 41
40.0
 42
40.0
 43
40.0
  0
POINT
  5
7E8B
  8
DEFPOINTS
  6
BYBLOCK
 62
     0
 10
3298.830406994683
 20
1494.856545596733
 30
0.0
  0
POINT
  5
7E8C
  8
DEFPOINTS
  6
BYBLOCK
 62
     0
 10
3528.830406994683
 20
1569.816132596733
 30
0.0
  0
POINT
  5
7E8D
  8
DEFPOINTS
  6
BYBLOCK
 62
     0
 10
3528.830406994683
 20
1427.469434507808
 30
0.0
  0
ENDBLK
  5
7E8E
  8
0
  0
BLOCK
  8
0
  2
*D13
 70
     1
 10
0.0
 20
0.0
 30
0.0
  3
*D13
  1

  0
LINE
  5
8092
  8
3
 62
     0
 10
3559.830406994683
 20
2319.816132596733
 30
0.0
 11
3720.9305936092719
 21
2319.816132596733
 31
0.0
  0
LINE
  5
8093
  8
3
 62
     0
 10
3559.830406994683
 20
1819.816132596733
 30
0.0
 11
3720.9305936092719
 21
1819.816132596733
 31
0.0
  0
LINE
  5
8094
  8
3
 62
     0
 10
3700.9305936092719
 20
2279.816132596733
 30
0.0
 11
3700.9305936092719
 21
1859.816132596733
 31
0.0
  0
INSERT
  5
8095
  8
3
 62
     0
  2
_OPEN
 10
3700.9305936092719
 20
2319.816132596733
 30
0.0
 41
40.0
 42
40.0
 43
40.0
 50
90.0
  0
INSERT
  5
8096
  8
3
 62
     0
  2
_OPEN
 10
3700.9305936092719
 20
1819.816132596733
 30
0.0
 41
40.0
 42
40.0
 43
40.0
 50
270.0
  0
TEXT
  8
3
  40
60
  5
80D3
  62
0
  72
0
  71
0
 10
3530.93
 20
1954.60
 30
0.000000
  1
φ500
  0
POINT
  5
8098
  8
DEFPOINTS
 62
     0
 10
3549.830406994683
 20
2319.816132596733
 30
0.0
  0
POINT
  5
8099
  8
DEFPOINTS
 62
     0
 10
3549.830406994683
 20
1819.816132596733
 30
0.0
  0
POINT
  5
809A
  8
DEFPOINTS
 62
     0
 10
3700.9305936092719
 20
1819.816132596733
 30
0.0
  0
ENDBLK
  5
7F07
  8
0
  0
BLOCK
  8
0
  2
*D14
 70
     1
 10
0.0
 20
0.0
 30
0.0
  3
*D14
  1

  0
LINE
  5
809B
  8
3
 62
     0
 10
3111.330406994683
 20
2439.816132596733
 30
0.0
 11
3111.330406994683
 21
2610.5141469927148
 31
0.0
  0
LINE
  5
809C
  8
3
 62
     0
 10
3486.330406994683
 20
2439.816132596733
 30
0.0
 11
3486.330406994683
 21
2610.5141469927148
 31
0.0
  0
LINE
  5
809D
  8
3
 62
     0
 10
3151.330406994683
 20
2590.5141469927148
 30
0.0
 11
3446.330406994683
 21
2590.5141469927148
 31
0.0
  0
INSERT
  5
809E
  8
3
 62
     0
  2
_OPEN
 10
3111.330406994683
 20
2590.5141469927148
 30
0.0
 41
40.0
 42
40.0
 43
40.0
 50
180.0
  0
INSERT
  5
809F
  8
3
 62
     0
  2
_OPEN
 10
3486.330406994683
 20
2590.5141469927148
 30
0.0
 41
40.0
 42
40.0
 43
40.0
  0
TEXT
  8
3
  40
60
  5
80D4
  62
0
  72
0
  71
0
 10
3185.80
 20
2534.31
 30
0.000000
  1
375
  0
POINT
  5
80A1
  8
DEFPOINTS
 62
     0
 10
3111.330406994683
 20
2429.816132596733
 30
0.0
  0
POINT
  5
80A2
  8
DEFPOINTS
 62
     0
 10
3486.330406994683
 20
2429.816132596733
 30
0.0
  0
POINT
  5
80A3
  8
DEFPOINTS
 62
     0
 10
3486.330406994683
 20
2590.5141469927148
 30
0.0
  0
ENDBLK
  5
7DBC
  8
0
  0
BLOCK
  8
0
  2
*D15
 70
     1
 10
0.0
 20
0.0
 30
0.0
  3
*D15
  1

  0
LINE
  5
80A4
  8
3
 62
     0
 10
2888.830406994683
 20
2204.816132596733
 30
0.0
 11
2888.830406994683
 21
2752.3277070500212
 31
0.0
  0
LINE
  5
80A5
  8
3
 62
     0
 10
3298.830406994683
 20
2665.8386837524681
 30
0.0
 11
3298.830406994683
 21
2752.3277070500212
 31
0.0
  0
LINE
  5
80A6
  8
3
 62
     0
 10
2928.830406994683
 20
2732.3277070500212
 30
0.0
 11
3258.830406994683
 21
2732.3277070500212
 31
0.0
  0
INSERT
  5
80A7
  8
3
 62
     0
  2
_OPEN
 10
2888.830406994683
 20
2732.3277070500212
 30
0.0
 41
40.0
 42
40.0
 43
40.0
 50
180.0
  0
INSERT
  5
80A8
  8
3
 62
     0
  2
_OPEN
 10
3298.830406994683
 20
2732.3277070500212
 30
0.0
 41
40.0
 42
40.0
 43
40.0
  0
TEXT
  8
3
  40
60
  5
80D5
  62
0
  72
0
  71
0
 10
2965.97
 20
2726.13
 30
0.000000
  1
MAX
  0
TEXT
  8
3
  40
60
  5
80D6
  62
0
  72
0
  71
0
 10
2965.97
 20
2648.13
 30
0.000000
  1
450
  0
POINT
  5
80AA
  8
DEFPOINTS
 62
     0
 10
2888.830406994683
 20
2194.816132596733
 30
0.0
  0
POINT
  5
80AB
  8
DEFPOINTS
 62
     0
 10
3298.830406994683
 20
2655.838683752469
 30
0.0
  0
POINT
  5
80AC
  8
DEFPOINTS
 62
     0
 10
3298.830406994683
 20
2732.3277070500212
 30
0.0
  0
ENDBLK
  5
7F12
  8
0
  0
BLOCK
  8
0
  2
*D16
 70
     1
 10
0.0
 20
0.0
 30
0.0
  3
*D16
  1

  0
LINE
  5
80AD
  8
3
 62
     0
 10
3298.830406994683
 20
2665.8386837524681
 30
0.0
 11
3298.830406994683
 21
2752.3277070500212
 31
0.0
  0
LINE
  5
80AE
  8
3
 62
     0
 10
3549.830406994683
 20
2359.816132596733
 30
0.0
 11
3549.830406994683
 21
2752.3277070500212
 31
0.0
  0
LINE
  5
80AF
  8
3
 62
     0
 10
3338.830406994683
 20
2732.3277070500212
 30
0.0
 11
3509.830406994683
 21
2732.3277070500212
 31
0.0
  0
INSERT
  5
80B0
  8
3
 62
     0
  2
_OPEN
 10
3298.830406994683
 20
2732.3277070500212
 30
0.0
 41
40.0
 42
40.0
 43
40.0
 50
180.0
  0
INSERT
  5
80B1
  8
3
 62
     0
  2
_OPEN
 10
3549.830406994683
 20
2732.3277070500212
 30
0.0
 41
40.0
 42
40.0
 43
40.0
  0
TEXT
  8
3
  40
60
  5
80D7
  62
0
  72
0
  71
0
 10
3303.12
 20
2676.13
 30
0.000000
  1
251
  0
POINT
  5
80B3
  8
DEFPOINTS
 62
     0
 10
3298.830406994683
 20
2655.838683752469
 30
0.0
  0
POINT
  5
80B4
  8
DEFPOINTS
 62
     0
 10
3549.830406994683
 20
2349.816132596733
 30
0.0
  0
POINT
  5
80B5
  8
DEFPOINTS
 62
     0
 10
3549.830406994683
 20
2732.3277070500212
 30
0.0
  0
ENDBLK
  5
7F41
  8
0
  0
BLOCK
  8
0
  2
*D17
 70
     1
 10
0.0
 20
0.0
 30
0.0
  3
*D17
  1

  0
LINE
  5
80BF
  8
3
 62
     0
 10
629.7282627331615
 20
1654.816132596733
 30
0.0
 11
629.72826273316161
 21
2909.6360854188702
 31
0.0
  0
LINE
  5
80C0
  8
3
 62
     0
 10
1855.630329733161
 20
2087.9251395967331
 30
0.0
 11
1855.630329733161
 21
2909.6360854188702
 31
0.0
  0
LINE
  5
80C1
  8
3
 62
     0
 10
669.72826273316161
 20
2889.6360854188688
 30
0.0
 11
1815.630329733161
 21
2889.6360854188688
 31
0.0
  0
INSERT
  5
80C2
  8
3
 62
     0
  2
_OPEN
 10
629.72826273316161
 20
2889.6360854188688
 30
0.0
 41
40.0
 42
40.0
 43
40.0
 50
180.0
  0
INSERT
  5
80C3
  8
3
 62
     0
  2
_OPEN
 10
1855.630329733161
 20
2889.6360854188688
 30
0.0
 41
40.0
 42
40.0
 43
40.0
  0
TEXT
  8
3
  40
60
  5
80D8
  62
0
  72
0
  71
0
 10
1182.78
 20
2833.44
 30
0.000000
  1
1226
  0
POINT
  5
80C5
  8
DEFPOINTS
 62
     0
 10
629.7282627331615
 20
1644.816132596733
 30
0.0
  0
POINT
  5
80C6
  8
DEFPOINTS
 62
     0
 10
1855.630329733161
 20
2077.9251395967331
 30
0.0
  0
POINT
  5
80C7
  8
DEFPOINTS
 62
     0
 10
1855.630329733161
 20
2889.6360854188688
 30
0.0
  0
ENDBLK
  5
7F30
  8
0
  0
ENDSEC
  0
SECTION
  2
ENTITIES
  0
LINE
  5
7A76
  8
1
 10
702.22826273316139
 20
3621.6903394556839
 30
0.0
 11
702.22826273316139
 21
4021.690339455683
 31
0.0
  0
LINE
  5
7A77
  8
1
 10
629.7282627331615
 20
3556.6903394556839
 30
0.0
 11
629.7282627331615
 21
4116.6903394556839
 31
0.0
  0
LINE
  5
7A78
  8
1
 10
1470.728262733161
 20
3699.1903394556839
 30
0.0
 11
954.7282627331615
 21
4074.1903394556839
 31
0.0
  0
LINE
  5
7A79
  8
1
 10
954.7282627331615
 20
3699.1903394556839
 30
0.0
 11
1470.728262733161
 21
4074.1903394556839
 31
0.0
  0
LINE
  5
7A7A
  8
1
 10
954.7282627331615
 20
4074.1903394556839
 30
0.0
 11
954.7282627331615
 21
3699.1903394556839
 31
0.0
  0
LINE
  5
7A7B
  8
1
 10
1470.728262733161
 20
3699.1903394556839
 30
0.0
 11
1470.728262733161
 21
4074.1903394556839
 31
0.0
  0
LINE
  5
7A7C
  8
1
 10
1857.176253733161
 20
3699.1903394556839
 30
0.0
 11
1857.176253733161
 21
4074.1903394556839
 31
0.0
  0
LINE
  5
7A7D
  8
2
 10
844.7282627331615
 20
1781.816132596733
 30
0.0
 11
844.7282627331615
 21
1941.8161325967319
 31
0.0
  0
ARC
  5
7A7E
  8
1
 10
844.7282627331615
 20
1861.816132596733
 30
0.0
 40
125.0
 50
108.5406599999999
 51
288.54065999999989
  0
CIRCLE
  5
7A7F
  8
1
 10
844.7282627331615
 20
1861.816132596733
 30
0.0
 40
75.0
  0
ARC
  5
7A80
  8
1
 10
844.7282627331615
 20
1861.816132596733
 30
0.0
 40
143.0
 50
324.34590999999989
 51
215.65408999999991
  0
CIRCLE
  5
7A81
  8
1
 10
1494.728262733161
 20
2069.816132596733
 30
0.0
 40
280.0
  0
LINE
  5
7A8A
  8
1
 10
868.57657973316145
 20
1790.7087645967331
 30
0.0
 11
1518.5765797331619
 21
1998.7087645967331
 31
0.0
  0
LINE
  5
7A8B
  8
1
 10
884.47545773316131
 20
1743.303852596732
 30
0.0
 11
1534.4754577331621
 21
1951.3038525967329
 31
0.0
  0
LINE
  5
7A8C
  8
1
 10
1009.728262733161
 20
1729.816132596733
 30
0.0
 11
679.7282627331615
 21
1729.816132596733
 31
0.0
  0
LINE
  5
7A8D
  8
1
 10
974.72826273316139
 20
1729.816132596733
 30
0.0
 11
924.72826273316139
 21
1729.816132596733
 31
0.0
  0
LINE
  5
7A8F
  8
1
 10
1809.728262733161
 20
1569.816132596733
 30
0.0
 11
629.7282627331615
 21
1569.816132596733
 31
0.0
  0
LINE
  5
7A90
  8
1
 10
629.7282627331615
 20
1644.816132596733
 30
0.0
 11
629.7282627331615
 21
1569.816132596733
 31
0.0
  0
LINE
  5
7A91
  8
1
 10
679.7282627331615
 20
1729.816132596733
 30
0.0
 11
669.7282627331615
 21
1684.816132596733
 31
0.0
  0
LINE
  5
7A92
  8
1
 10
714.72826273316139
 20
1744.816132596733
 30
0.0
 11
728.75753973316205
 21
1779.008876596733
 31
0.0
  0
LINE
  5
7A93
  8
1
 10
714.72826273316139
 20
1729.816132596733
 30
0.0
 11
714.72826273316139
 21
1744.816132596733
 31
0.0
  0
LINE
  5
7A94
  8
1
 10
714.72826273316139
 20
1729.816132596733
 30
0.0
 11
764.72826273316139
 21
1729.816132596733
 31
0.0
  0
LINE
  5
7A95
  8
1
 10
669.7282627331615
 20
1684.816132596733
 30
0.0
 11
669.7282627331615
 21
1644.816132596733
 31
0.0
  0
LINE
  5
7A96
  8
1
 10
1019.728262733161
 20
1684.816132596733
 30
0.0
 11
1009.728262733161
 21
1729.816132596733
 31
0.0
  0
LINE
  5
7A97
  8
1
 10
974.72826273316139
 20
1729.816132596733
 30
0.0
 11
974.72826273316139
 21
1744.816132596733
 31
0.0
  0
LINE
  5
7A98
  8
1
 10
974.72826273316139
 20
1744.816132596733
 30
0.0
 11
960.69898473316152
 21
1779.008876596733
 31
0.0
  0
LINE
  5
7A99
  8
1
 10
1019.728262733161
 20
1684.816132596733
 30
0.0
 11
1019.728262733161
 21
1644.816132596733
 31
0.0
  0
LINE
  5
7A9A
  8
1
 10
1809.7282627331599
 20
1644.816132596733
 30
0.0
 11
1809.728262733161
 21
1569.816132596733
 31
0.0
  0
LINE
  5
7A9B
  8
1
 10
919.7282627331615
 20
3556.6903394556839
 30
0.0
 11
1419.728262733161
 21
3556.6903394556839
 31
0.0
  0
LINE
  5
7A9C
  8
1
 10
702.22826273316139
 20
3621.6903394556839
 30
0.0
 11
987.22826273316139
 21
3621.6903394556839
 31
0.0
  0
LINE
  5
7A9D
  8
1
 10
719.7282627331615
 20
3491.6903394556839
 30
0.0
 11
1619.728262733161
 21
3491.6903394556839
 31
0.0
  0
LINE
  5
7A9E
  8
1
 10
719.7282627331615
 20
3614.690339455683
 30
0.0
 11
1619.728262733161
 21
3614.690339455683
 31
0.0
  0
LINE
  5
7A9F
  8
1
 10
1500.328262733161
 20
2429.816132596733
 30
0.0
 11
925.12307973316194
 21
2429.816132596733
 31
0.0
  0
LINE
  5
7AA0
  8
1
 10
820.87994573316155
 20
1932.923500596733
 30
0.0
 11
1470.879945733162
 21
2140.9235005967321
 31
0.0
  0
LINE
  5
7AA1
  8
1
 10
804.98106673316215
 20
1980.328412596733
 30
0.0
 11
1454.9810667331619
 21
2188.328412596733
 31
0.0
  0
LINE
  5
7AA2
  8
2
 10
764.72826273316139
 20
1861.816132596733
 30
0.0
 11
924.72826273316139
 21
1861.816132596733
 31
0.0
  0
LINE
  5
7AA3
  8
1
 10
769.7282627331615
 20
3584.6903394556839
 30
0.0
 11
769.7282627331615
 21
3521.690339455683
 31
0.0
  0
LINE
  5
7AA4
  8
1
 10
919.7282627331615
 20
3584.6903394556839
 30
0.0
 11
919.7282627331615
 21
3521.690339455683
 31
0.0
  0
LINE
  5
7AA5
  8
1
 10
719.7282627331615
 20
3491.6903394556839
 30
0.0
 11
719.7282627331615
 21
3614.690339455683
 31
0.0
  0
LINE
  5
7AA6
  8
1
 10
769.7282627331615
 20
3521.690339455683
 30
0.0
 11
919.7282627331615
 21
3521.690339455683
 31
0.0
  0
LINE
  5
7AA7
  8
1
 10
629.7282627331615
 20
3556.6903394556839
 30
0.0
 11
769.7282627331615
 21
3556.6903394556839
 31
0.0
  0
LINE
  5
7AA8
  8
1
 10
769.7282627331615
 20
3584.6903394556839
 30
0.0
 11
919.7282627331615
 21
3584.6903394556839
 31
0.0
  0
LINE
  5
7AA9
  8
1
 10
863.7282627331615
 20
3584.6903394556839
 30
0.0
 11
863.7282627331615
 21
3621.6903394556839
 31
0.0
  0
LINE
  5
7AAA
  8
1
 10
825.7282627331615
 20
3584.6903394556839
 30
0.0
 11
825.7282627331615
 21
3621.6903394556839
 31
0.0
  0
LINE
  5
7AAB
  8
2
 10
3594.3482529946841
 20
2069.816132596733
 30
0.0
 11
2839.828955823657
 21
2069.816132596733
 31
0.0
  0
ARC
  5
7AAC
  8
1
 10
1494.728262733161
 20
2069.816132596733
 30
0.0
 40
125.0
 50
288.54065999999989
 51
108.5406599999999
  0
CIRCLE
  5
7AAD
  8
1
 10
1494.728262733161
 20
2069.816132596733
 30
0.0
 40
75.0
  0
CIRCLE
  5
7AAE
  8
1
 10
1494.728262733161
 20
2069.816132596733
 30
0.0
 40
250.0
  0
LINE
  5
7AAF
  8
2
 10
1494.728262733161
 20
1488.3845862249
 30
0.0
 11
1494.728262733161
 21
2576.1580835967329
 31
0.0
  0
LINE
  5
7AB0
  8
1
 10
1468.728262733161
 20
2399.816132596733
 30
0.0
 11
959.14492873316146
 21
2399.816132596733
 31
0.0
  0
LINE
  5
7AB1
  8
1
 10
1468.728262733161
 20
2363.8958105967331
 30
0.0
 11
1468.728262733161
 21
2429.816132596733
 31
0.0
  0
LINE
  5
7AB2
  8
1
 10
1419.728262733161
 20
3521.690339455683
 30
0.0
 11
1569.728262733161
 21
3521.690339455683
 31
0.0
  0
LINE
  5
7AB3
  8
1
 10
1419.728262733161
 20
3584.6903394556839
 30
0.0
 11
1569.728262733161
 21
3584.6903394556839
 31
0.0
  0
LINE
  5
7AB4
  8
1
 10
1470.728262733161
 20
3699.1903394556839
 30
0.0
 11
1857.176253733161
 21
3699.1903394556839
 31
0.0
  0
LINE
  5
7AB5
  8
1
 10
1419.728262733161
 20
3584.6903394556839
 30
0.0
 11
1419.728262733161
 21
3521.690339455683
 31
0.0
  0
LINE
  5
7AB6
  8
1
 10
954.7282627331615
 20
3699.1903394556839
 30
0.0
 11
1470.728262733161
 21
3699.1903394556839
 31
0.0
  0
LINE
  5
7AB7
  8
1
 10
987.22826273316139
 20
3621.6903394556839
 30
0.0
 11
987.22826273316139
 21
3699.1903394556839
 31
0.0
  0
LINE
  5
7AB8
  8
1
 10
1512.228262733161
 20
3699.1903394556839
 30
0.0
 11
1512.228262733161
 21
3584.6903394556839
 31
0.0
  0
LINE
  5
7AB9
  8
1
 10
1477.228262733161
 20
3699.1903394556839
 30
0.0
 11
1477.228262733161
 21
3584.6903394556839
 31
0.0
  0
LINE
  5
7ABA
  8
1
 10
1569.728262733161
 20
3584.6903394556839
 30
0.0
 11
1569.728262733161
 21
3521.690339455683
 31
0.0
  0
LINE
  5
7ABB
  8
1
 10
1619.728262733161
 20
3491.6903394556839
 30
0.0
 11
1619.728262733161
 21
3614.690339455683
 31
0.0
  0
LINE
  5
7ABC
  8
1
 10
1569.728262733161
 20
3556.6903394556839
 30
0.0
 11
1809.728262733161
 21
3556.6903394556839
 31
0.0
  0
LINE
  5
7ABD
  8
1
 10
1809.728262733161
 20
3556.6903394556839
 30
0.0
 11
1809.728262733161
 21
3699.1903394556839
 31
0.0
  0
LINE
  5
7ABE
  8
1
 10
2918.830406994683
 20
1786.816132596733
 30
0.0
 11
2918.830406994683
 21
1936.816132596733
 31
0.0
  0
LINE
  5
7ABF
  8
1
 10
2996.830406994683
 20
1786.816132596733
 30
0.0
 11
2996.830406994683
 21
1936.816132596733
 31
0.0
  0
LINE
  5
7AC0
  8
1
 10
3026.830406994683
 20
1736.816132596733
 30
0.0
 11
3026.830406994683
 21
1793.04420973591
 31
0.0
  0
LINE
  5
7AC1
  8
1
 10
2888.830406994683
 20
1736.816132596733
 30
0.0
 11
2888.830406994683
 21
2194.816132596733
 31
0.0
  0
LINE
  5
7AC2
  8
1
 10
3486.330406994683
 20
2093.816132596733
 30
0.0
 11
3486.330406994683
 21
1644.816132596733
 31
0.0
  0
LINE
  5
7AC3
  8
1
 10
3111.330406994683
 20
2013.816132596733
 30
0.0
 11
3111.330406994683
 21
1644.816132596733
 31
0.0
  0
LINE
  5
7AC4
  8
1
 10
3549.830406994683
 20
1789.8161325967319
 30
0.0
 11
3549.830406994683
 21
2349.816132596733
 31
0.0
  0
LINE
  5
7AC6
  8
1
 10
3528.830406994683
 20
1569.816132596733
 30
0.0
 11
2968.830406994683
 21
1569.816132596733
 31
0.0
  0
LINE
  5
7AC7
  8
1
 10
2888.830406994683
 20
1736.816132596733
 30
0.0
 11
3026.830406994683
 21
1736.816132596733
 31
0.0
  0
LINE
  5
7AC8
  8
1
 10
2996.830406994683
 20
1786.816132596733
 30
0.0
 11
2918.830406994683
 21
1786.816132596733
 31
0.0
  0
LINE
  5
7AC9
  8
1
 10
2968.830406994683
 20
1569.816132596733
 30
0.0
 11
2968.830406994683
 21
1644.816132596733
 31
0.0
  0
LINE
  5
7ACA
  8
1
 10
3486.330406994683
 20
1819.816132596733
 30
0.0
 11
3549.830406994683
 21
1819.816132596733
 31
0.0
  0
LINE
  5
7ACB
  8
1
 10
3528.830406994683
 20
1569.816132596733
 30
0.0
 11
3528.830406994683
 21
1644.816132596733
 31
0.0
  0
LINE
  5
7ACC
  8
1
 10
3078.830406994683
 20
2429.816132596733
 30
0.0
 11
3518.8304069946839
 21
2429.816132596733
 31
0.0
  0
LINE
  5
7ACD
  8
1
 10
3111.330406994683
 20
2399.816132596733
 30
0.0
 11
3486.330406994683
 21
2399.816132596733
 31
0.0
  0
LINE
  5
7ACE
  8
1
 10
3111.330406994683
 20
2429.816132596733
 30
0.0
 11
3111.330406994683
 21
2013.816132596733
 31
0.0
  0
LINE
  5
7ACF
  8
1
 10
2996.830406994683
 20
1936.816132596733
 30
0.0
 11
2918.830406994683
 21
1936.816132596733
 31
0.0
  0
LINE
  5
7AD0
  8
1
 10
2888.830406994683
 20
2194.816132596733
 30
0.0
 11
3026.830406994683
 21
2194.816132596733
 31
0.0
  0
LINE
  5
7AD1
  8
1
 10
2996.830406994683
 20
1994.816132596733
 30
0.0
 11
2918.830406994683
 21
1994.816132596733
 31
0.0
  0
LINE
  5
7AD2
  8
1
 10
2996.830406994683
 20
2144.816132596733
 30
0.0
 11
2918.830406994683
 21
2144.816132596733
 31
0.0
  0
LINE
  5
7AD3
  8
1
 10
2918.830406994683
 20
1994.816132596733
 30
0.0
 11
2918.830406994683
 21
2144.816132596733
 31
0.0
  0
LINE
  5
7AD4
  8
1
 10
3111.330406994683
 20
2052.3161325967321
 30
0.0
 11
2996.830406994683
 21
2052.3161325967321
 31
0.0
  0
LINE
  5
7AD5
  8
1
 10
3111.330406994683
 20
2087.316132596733
 30
0.0
 11
2996.830406994683
 21
2087.316132596733
 31
0.0
  0
LINE
  5
7AD6
  8
1
 10
2996.830406994683
 20
1842.816132596733
 30
0.0
 11
3111.330406994683
 21
1842.816132596733
 31
0.0
  0
LINE
  5
7AD7
  8
1
 10
2996.830406994683
 20
1880.816132596733
 30
0.0
 11
3111.330406994683
 21
1880.816132596733
 31
0.0
  0
LINE
  5
7AD8
  8
1
 10
2996.830406994683
 20
1994.816132596733
 30
0.0
 11
2996.830406994683
 21
2144.816132596733
 31
0.0
  0
LINE
  5
7AD9
  8
1
 10
3486.330406994683
 20
2429.816132596733
 30
0.0
 11
3486.330406994683
 21
2093.816132596733
 31
0.0
  0
LINE
  5
7ADA
  8
1
 10
3486.330406994683
 20
2319.816132596733
 30
0.0
 11
3549.830406994683
 21
2319.816132596733
 31
0.0
  0
LINE
  5
7ADB
  8
1
 10
702.22826273316139
 20
4021.690339455683
 30
0.0
 11
954.7282627331615
 21
4021.690339455683
 31
0.0
  0
LINE
  5
7ADC
  8
1
 10
629.7282627331615
 20
4116.6903394556839
 30
0.0
 11
1244.728262733161
 21
4116.6903394556839
 31
0.0
  0
LINE
  5
7ADD
  8
1
 10
1774.728262733161
 20
4137.6903394556839
 30
0.0
 11
1214.728262733161
 21
4137.6903394556839
 31
0.0
  0
LINE
  5
7ADE
  8
1
 10
1470.728262733161
 20
4074.1903394556839
 30
0.0
 11
1857.176253733161
 21
4074.1903394556839
 31
0.0
  0
LINE
  5
7ADF
  8
1
 10
954.7282627331615
 20
4074.1903394556839
 30
0.0
 11
1470.728262733161
 21
4074.1903394556839
 31
0.0
  0
LINE
  5
7AE0
  8
1
 10
1244.728262733161
 20
4074.1903394556839
 30
0.0
 11
1244.728262733161
 21
4137.6903394556839
 31
0.0
  0
LINE
  5
7AE1
  8
1
 10
1809.728262733161
 20
4074.1903394556839
 30
0.0
 11
1809.728262733161
 21
4116.6903394556839
 31
0.0
  0
LINE
  5
7AE2
  8
1
 10
1744.728262733161
 20
4116.6903394556839
 30
0.0
 11
1809.728262733161
 21
4116.6903394556839
 31
0.0
  0
LINE
  5
7AE3
  8
1
 10
1744.728262733161
 20
4074.1903394556839
 30
0.0
 11
1744.728262733161
 21
4137.6903394556839
 31
0.0
  0
DIMENSION
  5
7AF7
  8
3
  2
*D1
 10
1494.728262733161
 20
1426.9368037737261
 30
0.0
 11
1042.7513767331609
 21
1426.9368037737261
 31
0.0
 70
   128
 13
629.7282627331615
 23
1569.816132596733
 33
0.0
 14
1494.728262733161
 24
1488.3845862249
 34
0.0
1001
ACAD
1000
DSTYLE
1002
{
1070
   287
1070
     3
1070
   287
1070
     3
1070
    40
1040
20.0
1070
   143
1040
0.039
1070
   172
1070
     1
1070
   271
1070
     0
1070
   279
1070
     0
1070
   288
1070
     1
1002
}
  0
DIMENSION
  5
7B05
  8
3
  2
*D2
 10
1809.728262733161
 20
1427.59994047598
 30
0.0
 11
1678.2996913045899
 21
1427.59994047598
 31
0.0
 70
   128
 13
1494.728262733161
 23
1488.3845862249
 33
0.0
 14
1809.728262733161
 24
1569.816132596733
 34
0.0
1001
ACAD
1000
DSTYLE
1002
{
1070
   287
1070
     3
1070
   287
1070
     3
1070
    40
1040
20.0
1070
   143
1040
0.039
1070
   172
1070
     1
1070
   271
1070
     0
1070
   279
1070
     0
1070
   288
1070
     1
1002
}
  0
DIMENSION
  5
7B28
  8
3
  2
*D3
 10
1468.728262733161
 20
2589.0213295967328
 30
0.0
 11
1204.7210287331609
 21
2589.0213295967328
 31
0.0
 70
   128
 13
956.72826273316139
 23
2429.816132596733
 33
0.0
 14
1468.728262733161
 24
2429.816132596733
 34
0.0
1001
ACAD
1000
DSTYLE
1002
{
1070
   287
1070
     3
1070
   287
1070
     3
1070
    40
1040
20.0
1070
   143
1040
0.039
1070
   172
1070
     1
1070
   271
1070
     0
1070
   279
1070
     0
1070
   288
1070
     1
1002
}
  0
DIMENSION
  5
7B35
  8
3
  2
*D4
 10
1494.728262733161
 20
2753.3696025967329
 30
0.0
 11
1214.688380733161
 21
2753.3696025967329
 31
0.0
 70
   128
 13
956.72826273316139
 23
2429.816132596733
 33
0.0
 14
1494.728262733161
 24
2368.2089395967332
 34
0.0
1001
ACAD
1000
DSTYLE
1002
{
1070
   287
1070
     3
1070
   287
1070
     3
1070
    40
1040
20.0
1070
   143
1040
0.039
1070
   172
1070
     1
1070
   271
1070
     0
1070
   279
1070
     0
1070
   288
1070
     1
1002
}
  0
DIMENSION
  5
7B43
  8
3
  2
*D5
 10
1855.630329733161
 20
2753.3696025967329
 30
0.0
 11
1650.760448733161
 21
2753.3696025967329
 31
0.0
 70
   128
 13
1494.728262733161
 23
2368.2089395967332
 33
0.0
 14
1855.630329733161
 24
2067.9251395967331
 34
0.0
1001
ACAD
1000
DSTYLE
1002
{
1070
   287
1070
     3
1070
   287
1070
     3
1070
    40
1040
20.0
1070
   143
1040
0.039
1070
   172
1070
     1
1070
   271
1070
     0
1070
   279
1070
     0
1070
   288
1070
     1
1002
}
  0
DIMENSION
  5
7B68
  8
3
  2
*D6
 10
2047.1209224327281
 20
2069.816132596733
 30
0.0
 11
2047.1209224327281
 21
2257.5711452863102
 31
0.0
 70
   128
 13
1500.328262733161
 23
2429.816132596733
 33
0.0
 14
1855.458014733161
 24
2069.816132596733
 34
0.0
 50
90.0
1001
ACAD
1000
DSTYLE
1002
{
1070
   287
1070
     3
1070
   287
1070
     3
1070
    40
1040
20.0
1070
   143
1040
0.039
1070
   172
1070
     1
1070
   271
1070
     0
1070
   279
1070
     0
1070
   288
1070
     1
1002
}
  0
DIMENSION
  5
7B74
  8
3
  2
*D7
 10
2047.37509627602
 20
1569.816132596733
 30
0.0
 11
1997.3750962760189
 21
1819.816132596733
 31
0.0
 70
     0
 13
1855.458014733161
 23
2069.816132596733
 33
0.0
 14
1809.728262733161
 24
1569.816132596733
 34
0.0
 50
90.0
1001
ACAD
1000
DSTYLE
1002
{
1070
   287
1070
     3
1070
   287
1070
     3
1070
    40
1040
20.0
1070
   143
1040
0.039
1070
   172
1070
     1
1070
   271
1070
     0
1070
   279
1070
     0
1070
   288
1070
     1
1002
}
  0
DIMENSION
  5
7B81
  8
3
  2
*D8
 10
2166.584730003668
 20
1569.816132596733
 30
0.0
 11
2166.584730003668
 21
2023.515235596733
 31
0.0
 70
   128
 13
1500.328262733161
 23
2429.816132596733
 33
0.0
 14
1809.728262733161
 24
1569.816132596733
 34
0.0
 50
90.0
1001
ACAD
1000
DSTYLE
1002
{
1070
   287
1070
     3
1070
   287
1070
     3
1070
    40
1040
20.0
1070
   143
1040
0.039
1070
   172
1070
     1
1070
   271
1070
     0
1070
   279
1070
     0
1070
   288
1070
     1
1002
}
  0
DIMENSION
  5
7B8E
  8
3
  2
*D9
 10
1809.728262733161
 20
3239.4042314556832
 30
0.0
 11
1179.8026007331609
 21
3239.4042314556832
 31
0.0
 70
   128
 13
629.7282627331615
 23
3556.6903394556839
 33
0.0
 14
1809.728262733161
 24
3556.6903394556839
 34
0.0
1001
ACAD
1000
DSTYLE
1002
{
1070
   287
1070
     3
1070
   287
1070
     3
1070
    40
1040
20.0
1070
   143
1040
0.039
1070
   172
1070
     1
1070
   271
1070
     0
1070
   279
1070
     0
1070
   288
1070
     1
1002
}
  0
DIMENSION
  5
7B9B
  8
3
  2
*D10
 10
2064.4059847331619
 20
3556.6903394556839
 30
0.0
 11
2064.4059847331609
 21
3865.4162174556832
 31
0.0
 70
   128
 13
1809.728262733161
 23
4116.6903394556839
 33
0.0
 14
1809.728262733161
 24
3556.6903394556839
 34
0.0
 50
90.0
1001
ACAD
1000
DSTYLE
1002
{
1070
   287
1070
     3
1070
   287
1070
     3
1070
    40
1040
20.0
1070
   143
1040
0.039
1070
   172
1070
     1
1070
   271
1070
     0
1070
   279
1070
     0
1070
   288
1070
     1
1002
}
  0
LINE
  5
7B9C
  8
2
 10
663.18294073316144
 20
3886.6903394556839
 30
0.0
 11
1891.6933887331611
 21
3886.6903394556839
 31
0.0
  0
LINE
  5
7B9D
  8
2
 10
3298.830406994683
 20
2504.8601803598281
 30
0.0
 11
3298.830406994683
 21
1494.856545596733
 31
0.0
  0
DIMENSION
  5
7BAC
  8
3
  2
*D11
 10
3298.830406994683
 20
1427.5782195437439
 30
0.0
 11
3161.6875498518261
 21
1427.5782195437439
 31
0.0
 70
   128
 13
2968.830406994683
 23
1569.816132596733
 33
0.0
 14
3298.830406994683
 24
1494.856545596733
 34
0.0
1001
ACAD
1000
DSTYLE
1002
{
1070
   287
1070
     3
1070
   287
1070
     3
1070
    40
1040
20.0
1070
   143
1040
0.039
1070
   172
1070
     1
1070
   271
1070
     0
1070
   279
1070
     0
1070
   288
1070
     1
1002
}
  0
DIMENSION
  5
7BBA
  8
3
  2
*D12
 10
3528.830406994683
 20
1427.469434507808
 30
0.0
 11
3415.5784798787859
 21
1489.3329056209959
 31
0.0
 70
   128
 13
3298.830406994683
 23
1494.856545596733
 33
0.0
 14
3528.830406994683
 24
1569.816132596733
 34
0.0
1001
ACAD
1000
DSTYLE
1002
{
1070
   288
1070
     1
1070
   172
1070
     1
1070
    40
1040
20.0
1070
   271
1070
     0
1070
   143
1040
0.039
1002
}
  0
DIMENSION
  5
7BDD
  8
3
  2
*D13
 10
3700.9305936092719
 20
1819.816132596733
 30
0.0
 11
3700.930593609271
 21
2060.8019920007382
 31
0.0
 70
   128
 13
3549.830406994683
 23
2319.816132596733
 33
0.0
 14
3549.830406994683
 24
1819.816132596733
 34
0.0
 50
90.0
1001
ACAD
1000
DSTYLE
1002
{
1070
   287
1070
     3
1070
   287
1070
     3
1070
     3
1000
φ<>
1070
    40
1040
20.0
1070
   143
1040
0.039
1070
   172
1070
     1
1070
   271
1070
     0
1070
   279
1070
     0
1070
   288
1070
     1
1002
}
  0
DIMENSION
  5
7BEC
  8
3
  2
*D14
 10
3486.330406994683
 20
2590.5141469927148
 30
0.0
 11
3305.7972834909669
 21
2590.5141469927148
 31
0.0
 70
   128
 13
3111.330406994683
 23
2429.816132596733
 33
0.0
 14
3486.330406994683
 24
2429.816132596733
 34
0.0
1001
ACAD
1000
DSTYLE
1002
{
1070
   287
1070
     3
1070
   287
1070
     3
1070
    40
1040
20.0
1070
   143
1040
0.039
1070
   172
1070
     1
1070
   271
1070
     0
1070
   279
1070
     0
1070
   288
1070
     1
1002
}
  0
DIMENSION
  5
7C09
  8
3
  2
*D15
 10
3298.830406994683
 20
2732.3277070500212
 30
0.0
 11
3085.9732641375399
 21
2732.3277070500212
 31
0.0
 70
   128
  1
MAX\P450
 13
2888.830406994683
 23
2194.816132596733
 33
0.0
 14
3298.830406994683
 24
2655.838683752469
 34
0.0
1001
ACAD
1000
DSTYLE
1002
{
1070
   287
1070
     3
1070
   287
1070
     3
1070
    40
1040
20.0
1070
   143
1040
0.039
1070
   172
1070
     1
1070
   271
1070
     0
1070
   279
1070
     0
1070
   288
1070
     1
1002
}
  0
DIMENSION
  5
7C17
  8
3
  2
*D16
 10
3549.830406994683
 20
2732.3277070500212
 30
0.0
 11
3423.1161212803968
 21
2732.3277070500212
 31
0.0
 70
   128
 13
3298.830406994683
 23
2655.838683752469
 33
0.0
 14
3549.830406994683
 24
2349.816132596733
 34
0.0
1001
ACAD
1000
DSTYLE
1002
{
1070
   287
1070
     3
1070
   287
1070
     3
1070
    40
1040
20.0
1070
   143
1040
0.039
1070
   172
1070
     1
1070
   271
1070
     0
1070
   279
1070
     0
1070
   288
1070
     1
1002
}
  0
LINE
  5
7C2E
  8
2
 10
1916.975969733161
 20
2069.816132596733
 30
0.0
 11
873.99891973316153
 21
2069.816132596733
 31
0.0
  0
LINE
  5
7C2F
  8
2
 10
1494.728262733161
 20
3304.8690884556831
 30
0.0
 11
1494.728262733161
 21
4208.5964014556821
 31
0.0
  0
LINE
  5
7C30
  8
4
 10
3700.0
 20
1000.0
 30
0.0
 11
3700.0
 21
600.0
 31
0.0
  0
LINE
  5
7C31
  8
4
 10
2300.0
 20
1000.0
 30
0.0
 11
2300.0
 21
600.0
 31
0.0
  0
LINE
  5
7C32
  8
4
 10
1300.0
 20
1000.0
 30
0.0
 11
1300.0
 21
600.0
 31
0.0
  0
LINE
  5
7C35
  8
4
 10
1300.0
 20
600.0
 30
0.0
 11
3700.0
 21
600.0
 31
0.0
  0
LINE
  5
7C36
  8
4
 10
1300.0
 20
800.0
 30
0.0
 11
3700.0
 21
800.0
 31
0.0
  0
TEXT
  5
7C37
  8
4
 10
1377.004161999999
 20
863.08605199999977
 30
0.0
 40
100.0
  1
機器名称
  0
TEXT
  5
7C38
  8
4
 10
1372.5162119999991
 20
643.29031333333319
 30
0.0
 40
100.0
  1
機器型番
  0
TEXT
  5
7C39
  8
4
 10
2355.3574906666659
 20
845.14353799999992
 30
0.0
 40
86.666666666666657
  1
ミツヤリミットロードファン
  0
TEXT
  5
7C3A
  8
4
 10
2373.308991333332
 20
634.31916866666666
 30
0.0
 40
100.0
  1
LLE#3-4
  0
TEXT
  5
7C3C
  8
4
 10
1809.5715306666659
 20
4766.8576826666658
 30
0.0
 40
108.0
  1
床置ベット
  0
TEXT
  5
7C3D
  8
4
 10
632.33518666666669
 20
5067.7619526666667
 30
0.0
 40
120.0
  1
ベルト駆動式片吸込両持排煙ファン
  0
LINE
  5
7C3E
  8
4
 10
500.0
 20
4938.8175086666661
 30
0.0
 11
3700.0
 21
4938.8175086666661
 31
0.0
  0
LINE
  5
7C3F
  8
4
 10
500.0
 20
5338.8175086666661
 30
0.0
 11
3700.0
 21
5338.8175086666661
 31
0.0
  0
LINE
  5
7C40
  8
4
 10
1300.0
 20
1000.0
 30
0.0
 11
3700.0
 21
1000.0
 31
0.0
  0
LINE
  5
7C41
  8
4
 10
500.0
 20
5338.8175086666661
 30
0.0
 11
500.0
 21
4938.8175086666661
 31
0.0
  0
TEXT
  5
7C42
  8
4
 10
937.85386666666648
 20
4764.6389553333329
 30
0.0
 40
108.0
  1
右回転上向
  0
TEXT
  5
7C43
  8
4
 10
2937.9391186666662
 20
5412.1221626666656
 30
0.0
 40
112.0
  1
No.
  0
TEXT
  5
7C44
  8
4
 10
2622.5921253333331
 20
4766.8576826666658
 30
0.0
 40
108.0
  1
縮尺：1/20
  0
LINE
  5
7C45
  8
4
 10
3700.0
 20
5338.8175086666661
 30
0.0
 11
3700.0
 21
4938.8175086666661
 31
0.0
  0
LINE
  5
7C47
  8
4
 10
2881.234844666666
 20
5362.5271659999999
 30
0.0
 11
2881.234844666666
 21
5573.3045233333341
 31
0.0
  0
LINE
  5
7C48
  8
4
 10
2881.234844666666
 20
5573.3045233333341
 30
0.0
 11
3700.0
 21
5573.3045233333341
 31
0.0
  0
LINE
  5
7C49
  8
4
 10
3700.0
 20
5573.3045233333341
 30
0.0
 11
3700.0
 21
5362.5271659999999
 31
0.0
  0
LINE
  5
7C4A
  8
4
 10
3700.0
 20
5362.5271659999999
 30
0.0
 11
2881.234844666666
 21
5362.5271659999999
 31
0.0
  0
LINE
  5
7D31
  8
1
 10
1809.728262733161
 20
1644.816132596733
 30
0.0
 11
629.7282627331615
 21
1644.816132596733
 31
0.0
  0
LINE
  5
7D32
  8
1
 10
3528.830406994683
 20
1644.816132596733
 30
0.0
 11
2968.830406994683
 21
1644.816132596733
 31
0.0
  0
POLYLINE
  5
7D33
  8
1
 66
     1
 10
0.0
 20
0.0
 30
0.0
  0
VERTEX
  5
80B6
  8
1
 10
956.72826273316139
 20
2429.816132596733
 30
0.0
  0
VERTEX
  5
80B7
  8
1
 10
985.7282627331615
 20
2069.816132596733
 30
0.0
 42
0.3292299652895918
  0
VERTEX
  5
80B8
  8
1
 10
1354.24383344033
 20
1644.816132596733
 30
0.0
 42
0.440232
  0
SEQEND
  5
80B9
  8
1
  0
POLYLINE
  5
7D38
  8
1
 66
     1
 10
0.0
 20
0.0
 30
0.0
  0
VERTEX
  5
80BA
  8
1
 10
1552.674238648822
 20
1644.816132596733
 30
0.0
 42
0.3703681346669927
  0
VERTEX
  5
80BB
  8
1
 10
1855.630329733161
 20
2067.9251385967332
 30
0.0
 42
0.388666
  0
VERTEX
  5
80BC
  8
1
 10
1525.728262733161
 20
2369.9999305967322
 30
0.0
 42
0.053392
  0
VERTEX
  5
80BD
  8
1
 10
1468.728262733161
 20
2363.8958105967331
 30
0.0
 42
0.393627
  0
SEQEND
  5
80BE
  8
1
  0
LINE
  5
7F13
  8
1
 10
3026.830406994683
 20
2145.6473863338811
 30
0.0
 11
3026.830406994683
 21
2194.816132596733
 31
0.0
  0
DIMENSION
  5
7F31
  8
3
  2
*D17
 10
1855.630329733161
 20
2889.6360854188688
 30
0.0
 11
1302.7843858077899
 21
2889.6360854188688
 31
0.0
 70
   128
 13
629.7282627331615
 23
1644.816132596733
 33
0.0
 14
1855.630329733161
 24
2077.9251395967331
 34
0.0
1001
ACAD
1000
DSTYLE
1002
{
1070
   287
1070
     3
1070
   287
1070
     3
1070
    40
1040
20.0
1070
   143
1040
0.039
1070
   172
1070
     1
1070
   271
1070
     0
1070
   279
1070
     0
1070
   288
1070
     1
1002
}
  0
ENDSEC
  0
EOF
