  0
SECTION
  2
HEADER
  9
$ACADVER
  1
AC1009
  9
$INSBASE
 10
0.0
 20
0.0
 30
0.0
  9
$EXTMIN
 10
500.0
 20
600.0
 30
0.0
  9
$EXTMAX
 10
3700.0
 20
5573.3045233333341
 30
0.0
  9
$LIMMIN
 10
0.0
 20
0.0
  9
$LIMMAX
 10
297.0
 20
210.0
  9
$ORTHOMODE
 70
     0
  9
$REGENMODE
 70
     1
  9
$FILLMODE
 70
     0
  9
$QTEXTMODE
 70
     0
  9
$MIRRTEXT
 70
     1
  9
$DRAGMODE
 70
     2
  9
$LTSCALE
 40
100.0
  9
$OSMODE
 70
    37
  9
$ATTMODE
 70
     1
  9
$TEXTSIZE
 40
180.0
  9
$TRACEWID
 40
0.05
  9
$TEXTSTYLE
  7
STANDARD
  9
$CLAYER
  8
3
  9
$CELTYPE
  6
BYLAYER
  9
$CECOLOR
 62
   256
  9
$DIMSCALE
 40
20.0
  9
$DIMASZ
 40
2.0
  9
$DIMEXO
 40
0.5
  9
$DIMDLI
 40
10.0
  9
$DIMRND
 40
0.0
  9
$DIMDLE
 40
0.0
  9
$DIMEXE
 40
1.0
  9
$DIMTP
 40
1.0
  9
$DIMTM
 40
1.0
  9
$DIMTXT
 40
3.0
  9
$DIMCEN
 40
0.0
  9
$DIMTSZ
 40
0.0
  9
$DIMTOL
 70
     0
  9
$DIMLIM
 70
     0
  9
$DIMTIH
 70
     0
  9
$DIMTOH
 70
     0
  9
$DIMSE1
 70
     0
  9
$DIMSE2
 70
     0
  9
$DIMTAD
 70
     1
  9
$DIMZIN
 70
     8
  9
$DIMBLK
  1

  9
$DIMASO
 70
     1
  9
$DIMSHO
 70
     1
  9
$DIMPOST
  1

  9
$DIMAPOST
  1

  9
$DIMALT
 70
     0
  9
$DIMALTD
 70
     2
  9
$DIMALTF
 40
0.039
  9
$DIMLFAC
 40
1.0
  9
$DIMTOFL
 70
     1
  9
$DIMTVP
 40
0.0
  9
$DIMTIX
 70
     0
  9
$DIMSOXD
 70
     0
  9
$DIMSAH
 70
     1
  9
$DIMBLK1
  1
OPEN
  9
$DIMBLK2
  1
OPEN
  9
$DIMSTYLE
  2
IGA
  9
$DIMCLRD
 70
     0
  9
$DIMCLRE
 70
     0
  9
$DIMCLRT
 70
     0
  9
$DIMTFAC
 40
10.0
  9
$DIMGAP
 40
1.0
  9
$LUNITS
 70
     2
  9
$LUPREC
 70
     3
  9
$SKETCHINC
 40
0.1
  9
$FILLETRAD
 40
50.0
  9
$AUNITS
 70
     0
  9
$AUPREC
 70
     0
  9
$MENU
  1
acad
  9
$ELEVATION
 40
0.0
  9
$PELEVATION
 40
0.0
  9
$THICKNESS
 40
0.0
  9
$LIMCHECK
 70
     0
  9
$BLIPMODE
 70
     0
  9
$CHAMFERA
 40
0.5
  9
$CHAMFERB
 40
0.5
  9
$SKPOLY
 70
     0
  9
$TDCREATE
 40
2450763.6031746529
  9
$TDUPDATE
 40
2454953.6813483788
  9
$TDINDWG
 40
0.0094577315
  9
$TDUSRTIMER
 40
0.0094577315
  9
$USRTIMER
 70
     1
  9
$ANGBASE
 50
0.0
  9
$ANGDIR
 70
     0
  9
$PDMODE
 70
     0
  9
$PDSIZE
 40
0.0
  9
$PLINEWID
 40
0.0
  9
$COORDS
 70
     1
  9
$SPLFRAME
 70
     0
  9
$SPLINETYPE
 70
     6
  9
$SPLINESEGS
 70
     8
  9
$ATTDIA
 70
     0
  9
$ATTREQ
 70
     1
  9
$HANDLING
 70
 10241
  9
$HANDSEED
  5
80BE
  9
$SURFTAB1
 70
     6
  9
$SURFTAB2
 70
     6
  9
$SURFTYPE
 70
     6
  9
$SURFU
 70
     6
  9
$SURFV
 70
     6
  9
$UCSNAME
  2

  9
$UCSORG
 10
0.0
 20
0.0
 30
0.0
  9
$UCSXDIR
 10
1.0
 20
0.0
 30
0.0
  9
$UCSYDIR
 10
0.0
 20
1.0
 30
0.0
  9
$PUCSNAME
  2

  9
$PUCSORG
 10
0.0
 20
0.0
 30
0.0
  9
$PUCSXDIR
 10
1.0
 20
0.0
 30
0.0
  9
$PUCSYDIR
 10
0.0
 20
1.0
 30
0.0
  9
$USERI1
 70
     0
  9
$USERI2
 70
     0
  9
$USERI3
 70
     0
  9
$USERI4
 70
     0
  9
$USERI5
 70
     0
  9
$USERR1
 40
0.0
  9
$USERR2
 40
0.0
  9
$USERR3
 40
0.0
  9
$USERR4
 40
0.0
  9
$USERR5
 40
0.0
  9
$WORLDVIEW
 70
     1
  9
$SHADEDGE
 70
     3
  9
$SHADEDIF
 70
    70
  9
$TILEMODE
 70
     1
  9
$MAXACTVP
 70
    16
  9
$PLIMCHECK
 70
     0
  9
$PEXTMIN
 10
1.0000000000000000E+020
 20
1.0000000000000000E+020
 30
1.0000000000000000E+020
  9
$PEXTMAX
 10
-1.0000000000000000E+020
 20
-1.0000000000000000E+020
 30
-1.0000000000000000E+020
  9
$PLIMMIN
 10
0.0
 20
0.0
  9
$PLIMMAX
 10
12.0
 20
9.0
  9
$UNITMODE
 70
     0
  9
$VISRETAIN
 70
     0
  9
$PLINEGEN
 70
     0
  9
$PSLTSCALE
 70
     1
  0
ENDSEC
  0
SECTION
  2
TABLES
  0
TABLE
  2
VPORT
 70
     2
  0
VPORT
  2
*ACTIVE
 70
     0
 10
0.0
 20
0.0
 11
1.0
 21
1.0
 12
8459.5213036544792
 22
2667.6783678740312
 13
0.0
 23
0.0
 14
10.0
 24
10.0
 15
10.0
 25
10.0
 16
0.0
 26
0.0
 36
1.0
 17
0.0
 27
0.0
 37
0.0
 40
7004.1828582931139
 41
3.1666666666666661
 42
50.0
 43
0.0
 44
0.0
 50
0.0
 51
0.0
 71
     0
 72
   100
 73
     1
 74
     0
 75
     0
 76
     0
 77
     0
 78
     0
  0
ENDTAB
  0
TABLE
  2
LTYPE
 70
     2
  0
LTYPE
  2
CONTINUOUS
 70
     0
  3
Solid line
 72
    65
 73
     0
 40
0.0
  0
LTYPE
  2
CENTER
 70
     0
  3
____ _ ____ _ ____ _ ____ _ ____ _ ____ _ ____ 
 72
    65
 73
     4
 40
2.0
 49
1.25
 49
-0.25
 49
0.25
 49
-0.25
  0
ENDTAB
  0
TABLE
  2
LAYER
 70
     6
  0
LAYER
  2
0
 70
     0
 62
     7
  6
CONTINUOUS
  0
LAYER
  2
3
 70
     0
 62
     2
  6
CONTINUOUS
  0
LAYER
  2
2
 70
     0
 62
     3
  6
CENTER
  0
LAYER
  2
1
 70
     0
 62
     4
  6
CONTINUOUS
  0
LAYER
  2
4
 70
     0
 62
     7
  6
CONTINUOUS
  0
LAYER
  2
DEFPOINTS
 70
     0
 62
     7
  6
CONTINUOUS
  0
ENDTAB
  0
TABLE
  2
STYLE
 70
     1
  0
STYLE
  2
STANDARD
 70
     0
 40
0.0
 41
1.0
 50
0.0
 71
     0
 42
180.0
  3
simplex.shx
  4
extfont.shx
  0
ENDTAB
  0
TABLE
  2
VIEW
 70
     0
  0
ENDTAB
  0
TABLE
  2
UCS
 70
     0
  0
ENDTAB
  0
TABLE
  2
APPID
 70
     1
  0
APPID
  2
ACAD
 70
     0
  0
ENDTAB
  0
TABLE
  2
DIMSTYLE
 70
     1
  0
DIMSTYLE
  2
IGA
 70
     0
  3

  4

  5

  6
OPEN
  7
OPEN
 40
2.0
 41
2.0
 42
0.5
 43
10.0
 44
1.0
 45
0.0
 46
0.0
 47
1.0
 48
1.0
140
3.0
141
0.0
142
0.0
143
0.03937
144
1.0
145
0.0
146
10.0
147
1.0
 71
     0
 72
     0
 73
     0
 74
     0
 75
     0
 76
     0
 77
     1
 78
     8
170
     0
171
     2
172
     0
173
     1
174
     0
175
     0
176
     0
177
     0
178
     0
  0
ENDTAB
  0
ENDSEC
  0
SECTION
  2
BLOCKS
  0
BLOCK
  8
0
  2
$MODEL_SPACE
 70
     0
 10
0.0
 20
0.0
 30
0.0
  3
$MODEL_SPACE
  1

  0
ENDBLK
  5
1B
  8
0
  0
BLOCK
 67
     1
  8
0
  2
$PAPER_SPACE
 70
     0
 10
0.0
 20
0.0
 30
0.0
  3
$PAPER_SPACE
  1

  0
ENDBLK
  5
18
 67
     1
  8
0
  0
BLOCK
  8
0
  2
_OPEN
 70
     0
 10
0.0
 20
0.0
 30
0.0
  3
_OPEN
  1

  0
LINE
  5
7AE4
  8
0
  6
BYBLOCK
 62
     0
 10
-1.0
 20
0.166667
 30
0.0
 11
0.0
 21
0.0
 31
0.0
  0
LINE
  5
7AE5
  8
0
  6
BYBLOCK
 62
     0
 10
0.0
 20
0.0
 30
0.0
 11
-1.0
 21
-0.166667
 31
0.0
  0
LINE
  5
7AE6
  8
0
  6
BYBLOCK
 62
     0
 10
0.0
 20
0.0
 30
0.0
 11
-1.0
 21
0.0
 31
0.0
  0
ENDBLK
  5
7AE7
  8
0
  0
BLOCK
  8
0
  2
*D1
 70
     1
 10
0.0
 20
0.0
 30
0.0
  3
*D1
  1

  0
LINE
  5
8014
  8
3
 62
     0
 10
525.75685145026364
 20
1712.4951474345701
 30
0.0
 11
525.75685145026364
 21
1565.0936781
 31
0.0
  0
LINE
  5
8015
  8
3
 62
     0
 10
1390.756851450263
 20
1673.7378217340481
 30
0.0
 11
1390.756851450263
 21
1565.0936781
 31
0.0
  0
LINE
  5
8016
  8
3
 62
     0
 10
565.75685145026364
 20
1585.0936781
 30
0.0
 11
1350.756851450263
 21
1585.0936781
 31
0.0
  0
INSERT
  5
8017
  8
3
 62
     0
  2
_OPEN
 10
525.75685145026364
 20
1585.0936781
 30
0.0
 41
40.0
 42
40.0
 43
40.0
 50
180.0
  0
INSERT
  5
8018
  8
3
 62
     0
  2
_OPEN
 10
1390.756851450263
 20
1585.0936781
 30
0.0
 41
40.0
 42
40.0
 43
40.0
  0
TEXT
  8
3
  40
60
  5
80AD
  62
0
  72
0
  71
0
 10
850.097
 20
1528.89
 30
0.000000
  1
865
  0
POINT
  5
801A
  8
DEFPOINTS
 62
     0
 10
525.75685145026364
 20
1722.4951474345701
 30
0.0
  0
POINT
  5
801B
  8
DEFPOINTS
 62
     0
 10
1390.756851450263
 20
1683.7378217340481
 30
0.0
  0
POINT
  5
801C
  8
DEFPOINTS
 62
     0
 10
1390.756851450263
 20
1585.0936781
 30
0.0
  0
ENDBLK
  5
7E6A
  8
0
  0
BLOCK
  8
0
  2
*D2
 70
     1
 10
0.0
 20
0.0
 30
0.0
  3
*D2
  1

  0
LINE
  5
801D
  8
3
 62
     0
 10
1390.756851450263
 20
1673.7378217340481
 30
0.0
 11
1390.756851450263
 21
1565.0936781
 31
0.0
  0
LINE
  5
801E
  8
3
 62
     0
 10
1705.756851450263
 20
1712.4951474345701
 30
0.0
 11
1705.756851450263
 21
1565.0936781
 31
0.0
  0
LINE
  5
801F
  8
3
 62
     0
 10
1430.756851450263
 20
1585.0936781
 30
0.0
 11
1665.756851450263
 21
1585.0936781
 31
0.0
  0
INSERT
  5
8020
  8
3
 62
     0
  2
_OPEN
 10
1390.756851450263
 20
1585.0936781
 30
0.0
 41
40.0
 42
40.0
 43
40.0
 50
180.0
  0
INSERT
  5
8021
  8
3
 62
     0
  2
_OPEN
 10
1705.756851450263
 20
1585.0936781
 30
0.0
 41
40.0
 42
40.0
 43
40.0
  0
TEXT
  8
3
  40
60
  5
80AE
  62
0
  72
0
  71
0
 10
1454.33
 20
1528.89
 30
0.000000
  1
315
  0
POINT
  5
8023
  8
DEFPOINTS
 62
     0
 10
1390.756851450263
 20
1683.7378217340481
 30
0.0
  0
POINT
  5
8024
  8
DEFPOINTS
 62
     0
 10
1705.756851450263
 20
1722.4951474345701
 30
0.0
  0
POINT
  5
8025
  8
DEFPOINTS
 62
     0
 10
1705.756851450263
 20
1585.0936781
 30
0.0
  0
ENDBLK
  5
7E75
  8
0
  0
BLOCK
  8
0
  2
*D3
 70
     1
 10
0.0
 20
0.0
 30
0.0
  3
*D3
  1

  0
LINE
  5
8026
  8
3
 62
     0
 10
1760.756851450263
 20
2680.4951474345698
 30
0.0
 11
1946.060788721825
 21
2680.4951474345698
 31
0.0
  0
LINE
  5
8027
  8
3
 62
     0
 10
1760.756851450263
 20
2168.4951474345698
 30
0.0
 11
1946.060788721825
 21
2168.4951474345698
 31
0.0
  0
LINE
  5
8028
  8
3
 62
     0
 10
1926.060788721825
 20
2640.4951474345698
 30
0.0
 11
1926.060788721825
 21
2208.4951474345698
 31
0.0
  0
INSERT
  5
8029
  8
3
 62
     0
  2
_OPEN
 10
1926.060788721825
 20
2680.4951474345698
 30
0.0
 41
40.0
 42
40.0
 43
40.0
 50
90.0
  0
INSERT
  5
802A
  8
3
 62
     0
  2
_OPEN
 10
1926.060788721825
 20
2168.4951474345698
 30
0.0
 41
40.0
 42
40.0
 43
40.0
 50
270.0
  0
TEXT
  8
3
  40
60
  5
80AF
  62
0
  72
0
  71
0
 10
1756.06
 20
2331.04
 30
0.000000
  1
512
  0
POINT
  5
802C
  8
DEFPOINTS
 62
     0
 10
1750.756851450263
 20
2680.4951474345698
 30
0.0
  0
POINT
  5
802D
  8
DEFPOINTS
 62
     0
 10
1750.756851450263
 20
2168.4951474345698
 30
0.0
  0
POINT
  5
802E
  8
DEFPOINTS
 62
     0
 10
1926.060788721825
 20
2168.4951474345698
 30
0.0
  0
ENDBLK
  5
7ECD
  8
0
  0
BLOCK
  8
0
  2
*D4
 70
     1
 10
0.0
 20
0.0
 30
0.0
  3
*D4
  1

  0
LINE
  5
802F
  8
3
 62
     0
 10
1760.756851450263
 20
2680.4951474345698
 30
0.0
 11
2067.3525185831681
 21
2680.4951474345698
 31
0.0
  0
LINE
  5
8030
  8
3
 62
     0
 10
1699.1496584502629
 20
2142.4951474345698
 30
0.0
 11
2067.3525185831681
 21
2142.4951474345698
 31
0.0
  0
LINE
  5
8031
  8
3
 62
     0
 10
2047.3525185831679
 20
2640.4951474345698
 30
0.0
 11
2047.3525185831679
 21
2182.4951474345698
 31
0.0
  0
INSERT
  5
8032
  8
3
 62
     0
  2
_OPEN
 10
2047.3525185831679
 20
2680.4951474345698
 30
0.0
 41
40.0
 42
40.0
 43
40.0
 50
90.0
  0
INSERT
  5
8033
  8
3
 62
     0
  2
_OPEN
 10
2047.3525185831679
 20
2142.4951474345698
 30
0.0
 41
40.0
 42
40.0
 43
40.0
 50
270.0
  0
TEXT
  8
3
  40
60
  5
80B0
  62
0
  72
0
  71
0
 10
1877.35
 20
2320.03
 30
0.000000
  1
538
  0
POINT
  5
8035
  8
DEFPOINTS
 62
     0
 10
1750.756851450263
 20
2680.4951474345698
 30
0.0
  0
POINT
  5
8036
  8
DEFPOINTS
 62
     0
 10
1689.149658450264
 20
2142.4951474345698
 30
0.0
  0
POINT
  5
8037
  8
DEFPOINTS
 62
     0
 10
2047.3525185831679
 20
2142.4951474345698
 30
0.0
  0
ENDBLK
  5
7EB7
  8
0
  0
BLOCK
  8
0
  2
*D5
 70
     1
 10
0.0
 20
0.0
 30
0.0
  3
*D5
  1

  0
LINE
  5
8038
  8
3
 62
     0
 10
1699.1496584502629
 20
2142.4951474345698
 30
0.0
 11
2067.3525185831681
 21
2142.4951474345698
 31
0.0
  0
LINE
  5
8039
  8
3
 62
     0
 10
1715.756851450263
 20
1722.4951474345701
 30
0.0
 11
2067.3525185831681
 21
1722.4951474345701
 31
0.0
  0
LINE
  5
803A
  8
3
 62
     0
 10
2047.3525185831679
 20
2102.4951474345698
 30
0.0
 11
2047.3525185831679
 21
1762.4951474345701
 31
0.0
  0
INSERT
  5
803B
  8
3
 62
     0
  2
_OPEN
 10
2047.3525185831679
 20
2142.4951474345698
 30
0.0
 41
40.0
 42
40.0
 43
40.0
 50
90.0
  0
INSERT
  5
803C
  8
3
 62
     0
  2
_OPEN
 10
2047.3525185831679
 20
1722.4951474345701
 30
0.0
 41
40.0
 42
40.0
 43
40.0
 50
270.0
  0
TEXT
  8
3
  40
60
  5
80B1
  62
0
  72
0
  71
0
 10
1877.35
 20
1826.30
 30
0.000000
  1
420
  0
POINT
  5
803E
  8
DEFPOINTS
 62
     0
 10
1689.149658450264
 20
2142.4951474345698
 30
0.0
  0
POINT
  5
803F
  8
DEFPOINTS
 62
     0
 10
1705.756851450263
 20
1722.4951474345701
 30
0.0
  0
POINT
  5
8040
  8
DEFPOINTS
 62
     0
 10
2047.3525185831679
 20
1722.4951474345701
 30
0.0
  0
ENDBLK
  5
7EAC
  8
0
  0
BLOCK
  8
0
  2
*D6
 70
     1
 10
0.0
 20
0.0
 30
0.0
  3
*D6
  1

  0
LINE
  5
8041
  8
3
 62
     0
 10
956.02614545026324
 20
2152.4951474345698
 30
0.0
 11
956.02614545026324
 21
2808.0889534345702
 31
0.0
  0
LINE
  5
8042
  8
3
 62
     0
 10
1390.756851450263
 20
2661.4951474345698
 30
0.0
 11
1390.756851450263
 21
2808.0889534345702
 31
0.0
  0
LINE
  5
8043
  8
3
 62
     0
 10
996.02614545026324
 20
2788.0889534345702
 30
0.0
 11
1350.756851450263
 21
2788.0889534345702
 31
0.0
  0
INSERT
  5
8044
  8
3
 62
     0
  2
_OPEN
 10
956.02614545026324
 20
2788.0889534345702
 30
0.0
 41
40.0
 42
40.0
 43
40.0
 50
180.0
  0
INSERT
  5
8045
  8
3
 62
     0
  2
_OPEN
 10
1390.756851450263
 20
2788.0889534345702
 30
0.0
 41
40.0
 42
40.0
 43
40.0
  0
TEXT
  8
3
  40
60
  5
80B2
  62
0
  72
0
  71
0
 10
1065.04
 20
2731.89
 30
0.000000
  1
435
  0
POINT
  5
8047
  8
DEFPOINTS
 62
     0
 10
956.02614545026324
 20
2142.4951474345698
 30
0.0
  0
POINT
  5
8048
  8
DEFPOINTS
 62
     0
 10
1390.756851450263
 20
2651.4951474345698
 30
0.0
  0
POINT
  5
8049
  8
DEFPOINTS
 62
     0
 10
1390.756851450263
 20
2788.0889534345702
 30
0.0
  0
ENDBLK
  5
7DD0
  8
0
  0
BLOCK
  8
0
  2
*D7
 70
     1
 10
0.0
 20
0.0
 30
0.0
  3
*D7
  1

  0
LINE
  5
804A
  8
3
 62
     0
 10
1390.756851450263
 20
2661.4951474345698
 30
0.0
 11
1390.756851450263
 21
2805.2663604345698
 31
0.0
  0
LINE
  5
804B
  8
3
 62
     0
 10
1750.756851450263
 20
2722.4951474345698
 30
0.0
 11
1750.756851450263
 21
2805.2663604345698
 31
0.0
  0
LINE
  5
804C
  8
3
 62
     0
 10
1430.756851450263
 20
2785.2663604345712
 30
0.0
 11
1710.7568514502641
 21
2785.2663604345712
 31
0.0
  0
INSERT
  5
804D
  8
3
 62
     0
  2
_OPEN
 10
1390.756851450263
 20
2785.2663604345712
 30
0.0
 41
40.0
 42
40.0
 43
40.0
 50
180.0
  0
INSERT
  5
804E
  8
3
 62
     0
  2
_OPEN
 10
1750.756851450263
 20
2785.2663604345712
 30
0.0
 41
40.0
 42
40.0
 43
40.0
  0
TEXT
  8
3
  40
60
  5
80B3
  62
0
  72
0
  71
0
 10
1440.71
 20
2729.07
 30
0.000000
  1
360
  0
POINT
  5
8050
  8
DEFPOINTS
 62
     0
 10
1390.756851450263
 20
2651.4951474345698
 30
0.0
  0
POINT
  5
8051
  8
DEFPOINTS
 62
     0
 10
1750.756851450263
 20
2712.4951474345698
 30
0.0
  0
POINT
  5
8052
  8
DEFPOINTS
 62
     0
 10
1750.756851450263
 20
2785.2663604345712
 30
0.0
  0
ENDBLK
  5
7DC5
  8
0
  0
BLOCK
  8
0
  2
*D8
 70
     1
 10
0.0
 20
0.0
 30
0.0
  3
*D8
  1

  0
LINE
  5
8053
  8
3
 62
     0
 10
525.75685145026364
 20
3582.1168670745042
 30
0.0
 11
525.75685145026364
 21
3237.5926480745052
 31
0.0
  0
LINE
  5
8054
  8
3
 62
     0
 10
1705.756851450263
 20
3582.1168670745042
 30
0.0
 11
1705.756851450263
 21
3237.5926480745052
 31
0.0
  0
LINE
  5
8055
  8
3
 62
     0
 10
565.75685145026364
 20
3257.5926480745038
 30
0.0
 11
1665.756851450263
 21
3257.5926480745038
 31
0.0
  0
INSERT
  5
8056
  8
3
 62
     0
  2
_OPEN
 10
525.75685145026364
 20
3257.5926480745038
 30
0.0
 41
40.0
 42
40.0
 43
40.0
 50
180.0
  0
INSERT
  5
8057
  8
3
 62
     0
  2
_OPEN
 10
1705.756851450263
 20
3257.5926480745038
 30
0.0
 41
40.0
 42
40.0
 43
40.0
  0
TEXT
  8
3
  40
60
  5
80B4
  62
0
  72
0
  71
0
 10
1014.20
 20
3201.39
 30
0.000000
  1
1180
  0
POINT
  5
8059
  8
DEFPOINTS
 62
     0
 10
525.75685145026364
 20
3592.1168670745042
 30
0.0
  0
POINT
  5
805A
  8
DEFPOINTS
 62
     0
 10
1705.756851450263
 20
3592.1168670745042
 30
0.0
  0
POINT
  5
805B
  8
DEFPOINTS
 62
     0
 10
1705.756851450263
 20
3257.5926480745038
 30
0.0
  0
ENDBLK
  5
7DBA
  8
0
  0
BLOCK
  8
0
  2
*D9
 70
     1
 10
0.0
 20
0.0
 30
0.0
  3
*D9
  1

  0
LINE
  5
805C
  8
3
 62
     0
 10
1715.756851450263
 20
4152.1168670745046
 30
0.0
 11
2060.8819834502629
 21
4152.1168670745037
 31
0.0
  0
LINE
  5
805D
  8
3
 62
     0
 10
1715.756851450263
 20
3592.1168670745042
 30
0.0
 11
2060.8819834502629
 21
3592.1168670745042
 31
0.0
  0
LINE
  5
805E
  8
3
 62
     0
 10
2040.881983450264
 20
4112.1168670745037
 30
0.0
 11
2040.881983450264
 21
3632.1168670745042
 31
0.0
  0
INSERT
  5
805F
  8
3
 62
     0
  2
_OPEN
 10
2040.881983450264
 20
4152.1168670745046
 30
0.0
 41
40.0
 42
40.0
 43
40.0
 50
90.0
  0
INSERT
  5
8060
  8
3
 62
     0
  2
_OPEN
 10
2040.881983450264
 20
3592.1168670745042
 30
0.0
 41
40.0
 42
40.0
 43
40.0
 50
270.0
  0
TEXT
  8
3
  40
60
  5
80B5
  62
0
  72
0
  71
0
 10
1870.88
 20
3790.14
 30
0.000000
  1
560
  0
POINT
  5
8062
  8
DEFPOINTS
 62
     0
 10
1705.756851450263
 20
4152.1168670745046
 30
0.0
  0
POINT
  5
8063
  8
DEFPOINTS
 62
     0
 10
1705.756851450263
 20
3592.1168670745042
 30
0.0
  0
POINT
  5
8064
  8
DEFPOINTS
 62
     0
 10
2040.881983450264
 20
3592.1168670745042
 30
0.0
  0
ENDBLK
  5
7DAF
  8
0
  0
BLOCK
  8
0
  2
*D10
 70
     1
 10
0.0
 20
0.0
 30
0.0
  3
*D10
  1

  0
LINE
  5
8065
  8
3
 62
     0
 10
3029.2738334977339
 20
2692.4951474345698
 30
0.0
 11
3029.2738334977339
 21
2806.860700402005
 31
0.0
  0
LINE
  5
8066
  8
3
 62
     0
 10
3404.2738334977348
 20
2692.4951474345698
 30
0.0
 11
3404.2738334977348
 21
2806.860700402005
 31
0.0
  0
LINE
  5
8067
  8
3
 62
     0
 10
3069.2738334977348
 20
2786.860700402005
 30
0.0
 11
3364.2738334977348
 21
2786.860700402005
 31
0.0
  0
INSERT
  5
8068
  8
3
 62
     0
  2
_OPEN
 10
3029.2738334977339
 20
2786.860700402005
 30
0.0
 41
40.0
 42
40.0
 43
40.0
 50
180.0
  0
INSERT
  5
8069
  8
3
 62
     0
  2
_OPEN
 10
3404.2738334977348
 20
2786.860700402005
 30
0.0
 41
40.0
 42
40.0
 43
40.0
  0
TEXT
  8
3
  40
60
  5
80B6
  62
0
  72
0
  71
0
 10
3096.77
 20
2730.66
 30
0.000000
  1
375
  0
POINT
  5
806B
  8
DEFPOINTS
 62
     0
 10
3029.2738334977339
 20
2682.4951474345698
 30
0.0
  0
POINT
  5
806C
  8
DEFPOINTS
 62
     0
 10
3404.2738334977348
 20
2682.4951474345698
 30
0.0
  0
POINT
  5
806D
  8
DEFPOINTS
 62
     0
 10
3404.2738334977348
 20
2786.860700402005
 30
0.0
  0
ENDBLK
  5
7EF9
  8
0
  0
BLOCK
  8
0
  2
*D11
 70
     1
 10
0.0
 20
0.0
 30
0.0
  3
*D11
  1

  0
LINE
  5
806E
  8
3
 62
     0
 10
3477.7738334977348
 20
2392.4951474345698
 30
0.0
 11
3679.3523088104198
 21
2392.4951474345698
 31
0.0
  0
LINE
  5
806F
  8
3
 62
     0
 10
3477.7738334977348
 20
1892.4951474345701
 30
0.0
 11
3679.3523088104198
 21
1892.4951474345701
 31
0.0
  0
LINE
  5
8070
  8
3
 62
     0
 10
3659.3523088104198
 20
2352.4951474345698
 30
0.0
 11
3659.3523088104198
 21
1932.4951474345701
 31
0.0
  0
INSERT
  5
8071
  8
3
 62
     0
  2
_OPEN
 10
3659.3523088104198
 20
2392.4951474345698
 30
0.0
 41
40.0
 42
40.0
 43
40.0
 50
90.0
  0
INSERT
  5
8072
  8
3
 62
     0
  2
_OPEN
 10
3659.3523088104198
 20
1892.4951474345701
 30
0.0
 41
40.0
 42
40.0
 43
40.0
 50
270.0
  0
TEXT
  8
3
  40
60
  5
80B7
  62
0
  72
0
  71
0
 10
3489.35
 20
2036.30
 30
0.000000
  1
φ500
  0
POINT
  5
8074
  8
DEFPOINTS
 62
     0
 10
3467.7738334977348
 20
2392.4951474345698
 30
0.0
  0
POINT
  5
8075
  8
DEFPOINTS
 62
     0
 10
3467.7738334977348
 20
1892.4951474345701
 30
0.0
  0
POINT
  5
8076
  8
DEFPOINTS
 62
     0
 10
3659.3523088104198
 20
1892.4951474345701
 30
0.0
  0
ENDBLK
  5
7EE3
  8
0
  0
BLOCK
  8
0
  2
*D12
 70
     1
 10
0.0
 20
0.0
 30
0.0
  3
*D12
  1

  0
LINE
  5
8077
  8
3
 62
     0
 10
2821.7738334977348
 20
2277.4951474345698
 30
0.0
 11
2821.7738334977348
 21
2987.0623208676998
 31
0.0
  0
LINE
  5
8078
  8
3
 62
     0
 10
3216.7738334977348
 20
2892.3892623651332
 30
0.0
 11
3216.7738334977348
 21
2987.0623208676998
 31
0.0
  0
LINE
  5
8079
  8
3
 62
     0
 10
2861.7738334977348
 20
2967.0623208676998
 30
0.0
 11
3176.7738334977348
 21
2967.0623208676998
 31
0.0
  0
INSERT
  5
807A
  8
3
 62
     0
  2
_OPEN
 10
2821.7738334977348
 20
2967.0623208676998
 30
0.0
 41
40.0
 42
40.0
 43
40.0
 50
180.0
  0
INSERT
  5
807B
  8
3
 62
     0
  2
_OPEN
 10
3216.7738334977348
 20
2967.0623208676998
 30
0.0
 41
40.0
 42
40.0
 43
40.0
  0
TEXT
  8
3
  40
60
  5
80B8
  62
0
  72
0
  71
0
 10
2899.27
 20
2960.86
 30
0.000000
  1
MAX
  0
TEXT
  8
3
  40
60
  5
80B9
  62
0
  72
0
  71
0
 10
2899.27
 20
2882.86
 30
0.000000
  1
450
  0
POINT
  5
807D
  8
DEFPOINTS
 62
     0
 10
2821.7738334977348
 20
2267.4951474345698
 30
0.0
  0
POINT
  5
807E
  8
DEFPOINTS
 62
     0
 10
3216.7738334977348
 20
2882.3892623651332
 30
0.0
  0
POINT
  5
807F
  8
DEFPOINTS
 62
     0
 10
3216.7738334977348
 20
2967.0623208676998
 30
0.0
  0
ENDBLK
  5
7F0F
  8
0
  0
BLOCK
  8
0
  2
*D13
 70
     1
 10
0.0
 20
0.0
 30
0.0
  3
*D13
  1

  0
LINE
  5
8080
  8
3
 62
     0
 10
3216.7738334977348
 20
2892.3892623651332
 30
0.0
 11
3216.7738334977348
 21
2988.4227948355551
 31
0.0
  0
LINE
  5
8081
  8
3
 62
     0
 10
3467.7738334977348
 20
2432.4951474345698
 30
0.0
 11
3467.7738334977348
 21
2988.4227948355551
 31
0.0
  0
LINE
  5
8082
  8
3
 62
     0
 10
3256.7738334977348
 20
2968.4227948355551
 30
0.0
 11
3427.7738334977348
 21
2968.4227948355551
 31
0.0
  0
INSERT
  5
8083
  8
3
 62
     0
  2
_OPEN
 10
3216.7738334977348
 20
2968.4227948355551
 30
0.0
 41
40.0
 42
40.0
 43
40.0
 50
180.0
  0
INSERT
  5
8084
  8
3
 62
     0
  2
_OPEN
 10
3467.7738334977348
 20
2968.4227948355551
 30
0.0
 41
40.0
 42
40.0
 43
40.0
  0
TEXT
  8
3
  40
60
  5
80BA
  62
0
  72
0
  71
0
 10
3223.49
 20
2912.22
 30
0.000000
  1
251
  0
POINT
  5
8086
  8
DEFPOINTS
 62
     0
 10
3216.7738334977348
 20
2882.3892623651332
 30
0.0
  0
POINT
  5
8087
  8
DEFPOINTS
 62
     0
 10
3467.7738334977348
 20
2422.4951474345698
 30
0.0
  0
POINT
  5
8088
  8
DEFPOINTS
 62
     0
 10
3467.7738334977348
 20
2968.4227948355551
 30
0.0
  0
ENDBLK
  5
7F04
  8
0
  0
BLOCK
  8
0
  2
*D14
 70
     1
 10
0.0
 20
0.0
 30
0.0
  3
*D14
  1

  0
LINE
  5
8089
  8
3
 62
     0
 10
2886.7738334977348
 20
1712.4951474345701
 30
0.0
 11
2886.7738334977348
 21
1565.904930219569
 31
0.0
  0
LINE
  5
808A
  8
3
 62
     0
 10
3216.7738334977348
 20
1662.316612434571
 30
0.0
 11
3216.7738334977348
 21
1565.904930219569
 31
0.0
  0
LINE
  5
808B
  8
3
 62
     0
 10
2926.7738334977348
 20
1585.904930219569
 30
0.0
 11
3176.7738334977348
 21
1585.904930219569
 31
0.0
  0
INSERT
  5
808C
  8
3
 62
     0
  2
_OPEN
 10
2886.7738334977348
 20
1585.904930219569
 30
0.0
 41
40.0
 42
40.0
 43
40.0
 50
180.0
  0
INSERT
  5
808D
  8
3
 62
     0
  2
_OPEN
 10
3216.7738334977348
 20
1585.904930219569
 30
0.0
 41
40.0
 42
40.0
 43
40.0
  0
TEXT
  8
3
  40
60
  5
80BB
  62
0
  72
0
  71
0
 10
2931.77
 20
1529.70
 30
0.000000
  1
330
  0
POINT
  5
808F
  8
DEFPOINTS
 62
     0
 10
2886.7738334977348
 20
1722.4951474345701
 30
0.0
  0
POINT
  5
8090
  8
DEFPOINTS
 62
     0
 10
3216.7738334977348
 20
1672.3166124345701
 30
0.0
  0
POINT
  5
8091
  8
DEFPOINTS
 62
     0
 10
3216.7738334977348
 20
1585.904930219569
 30
0.0
  0
ENDBLK
  5
7E54
  8
0
  0
BLOCK
  8
0
  2
*D15
 70
     1
 10
0.0
 20
0.0
 30
0.0
  3
*D15
  1

  0
LINE
  5
7E56
  8
0
  6
BYBLOCK
 62
     0
 10
3176.7924955191279
 20
1662.316612434571
 30
0.0
 11
3176.7924955191279
 21
1566.0200708786469
 31
0.0
  0
LINE
  5
7E57
  8
0
  6
BYBLOCK
 62
     0
 10
3406.7924955191288
 20
1712.4951474345701
 30
0.0
 11
3406.7924955191288
 21
1566.0200708786469
 31
0.0
  0
LINE
  5
7E58
  8
0
  6
BYBLOCK
 62
     0
 10
3216.7924955191279
 20
1586.0200708786469
 30
0.0
 11
3366.7924955191279
 21
1586.0200708786469
 31
0.0
  0
TEXT
  5
7E59
  8
3
 62
     0
 10
3213.3032391197348
 20
1617.5020839384281
 30
0.0
 40
60.0
  1
230
  0
INSERT
  5
7E5A
  8
0
  6
BYBLOCK
 62
     0
  2
_OPEN
 10
3176.7924955191279
 20
1586.0200708786469
 30
0.0
 41
40.0
 42
40.0
 43
40.0
 50
180.0
  0
INSERT
  5
7E5B
  8
0
  6
BYBLOCK
 62
     0
  2
_OPEN
 10
3406.7924955191288
 20
1586.0200708786469
 30
0.0
 41
40.0
 42
40.0
 43
40.0
  0
POINT
  5
7E5C
  8
DEFPOINTS
  6
BYBLOCK
 62
     0
 10
3176.7924955191279
 20
1672.3166124345701
 30
0.0
  0
POINT
  5
7E5D
  8
DEFPOINTS
  6
BYBLOCK
 62
     0
 10
3406.7924955191288
 20
1722.4951474345701
 30
0.0
  0
POINT
  5
7E5E
  8
DEFPOINTS
  6
BYBLOCK
 62
     0
 10
3406.7924955191288
 20
1586.0200708786469
 30
0.0
  0
ENDBLK
  5
7E5F
  8
0
  0
BLOCK
  8
0
  2
*D16
 70
     1
 10
0.0
 20
0.0
 30
0.0
  3
*D16
  1

  0
LINE
  5
8092
  8
3
 62
     0
 10
1760.756851450263
 20
2712.4951474345698
 30
0.0
 11
2199.7728320342908
 21
2712.4951474345698
 31
0.0
  0
LINE
  5
8093
  8
3
 62
     0
 10
1715.756851450263
 20
1722.4951474345701
 30
0.0
 11
2199.7728320342908
 21
1722.4951474345701
 31
0.0
  0
LINE
  5
8094
  8
3
 62
     0
 10
2179.7728320342908
 20
2672.4951474345698
 30
0.0
 11
2179.7728320342908
 21
1762.4951474345701
 31
0.0
  0
INSERT
  5
8095
  8
3
 62
     0
  2
_OPEN
 10
2179.7728320342908
 20
2712.4951474345698
 30
0.0
 41
40.0
 42
40.0
 43
40.0
 50
90.0
  0
INSERT
  5
8096
  8
3
 62
     0
  2
_OPEN
 10
2179.7728320342908
 20
1722.4951474345701
 30
0.0
 41
40.0
 42
40.0
 43
40.0
 50
270.0
  0
TEXT
  8
3
  40
60
  5
80BC
  62
0
  72
0
  71
0
 10
2009.77
 20
2130.17
 30
0.000000
  1
990
  0
POINT
  5
8098
  8
DEFPOINTS
 62
     0
 10
1750.756851450263
 20
2712.4951474345698
 30
0.0
  0
POINT
  5
8099
  8
DEFPOINTS
 62
     0
 10
1705.756851450263
 20
1722.4951474345701
 30
0.0
  0
POINT
  5
809A
  8
DEFPOINTS
 62
     0
 10
2179.7728320342908
 20
1722.4951474345701
 30
0.0
  0
ENDBLK
  5
7EC2
  8
0
  0
BLOCK
  8
0
  2
*D17
 70
     1
 10
0.0
 20
0.0
 30
0.0
  3
*D17
  1

  0
LINE
  5
80A4
  8
3
 62
     0
 10
1760.756851450263
 20
2722.4951474345698
 30
0.0
 11
1760.756851450263
 21
2927.6586786377588
 31
0.0
  0
LINE
  5
80A5
  8
3
 62
     0
 10
525.75685145026364
 20
1807.4951474345701
 30
0.0
 11
525.75685145026375
 21
2927.6586786377588
 31
0.0
  0
LINE
  5
80A6
  8
3
 62
     0
 10
1720.756851450263
 20
2907.6586786377588
 30
0.0
 11
565.75685145026375
 21
2907.6586786377588
 31
0.0
  0
INSERT
  5
80A7
  8
3
 62
     0
  2
_OPEN
 10
1760.756851450263
 20
2907.6586786377588
 30
0.0
 41
40.0
 42
40.0
 43
40.0
  0
INSERT
  5
80A8
  8
3
 62
     0
  2
_OPEN
 10
525.75685145026375
 20
2907.6586786377588
 30
0.0
 41
40.0
 42
40.0
 43
40.0
 50
180.0
  0
TEXT
  8
3
  40
60
  5
80BD
  62
0
  72
0
  71
0
 10
1129.55
 20
2851.46
 30
0.000000
  1
1235
  0
POINT
  5
80AA
  8
DEFPOINTS
 62
     0
 10
1760.756851450263
 20
2712.4951474345698
 30
0.0
  0
POINT
  5
80AB
  8
DEFPOINTS
 62
     0
 10
525.75685145026364
 20
1797.4951474345701
 30
0.0
  0
POINT
  5
80AC
  8
DEFPOINTS
 62
     0
 10
525.75685145026375
 20
2907.6586786377588
 30
0.0
  0
ENDBLK
  5
7F20
  8
0
  0
ENDSEC
  0
SECTION
  2
ENTITIES
  0
LINE
  5
7A75
  8
1
 10
954.30886045026375
 20
3734.6168670745042
 30
0.0
 11
954.30886045026375
 21
4109.6168670745037
 31
0.0
  0
LINE
  5
7A76
  8
1
 10
1720.756851450263
 20
3734.6168670745042
 30
0.0
 11
1720.756851450263
 21
4109.6168670745037
 31
0.0
  0
LINE
  5
7A77
  8
1
 10
1750.756851450263
 20
4111.6168670745046
 30
0.0
 11
1750.756851450263
 21
3702.1168670745042
 31
0.0
  0
LINE
  5
7A78
  8
1
 10
525.75685145026364
 20
3592.1168670745042
 30
0.0
 11
525.75685145026364
 21
4152.1168670745046
 31
0.0
  0
LINE
  5
7A79
  8
1
 10
883.25685145026364
 20
3657.1168670745042
 30
0.0
 11
883.25685145026364
 21
4057.1168670745042
 31
0.0
  0
LINE
  5
7A7A
  8
1
 10
598.25685145026364
 20
3657.1168670745042
 30
0.0
 11
598.25685145026364
 21
4057.1168670745042
 31
0.0
  0
CIRCLE
  5
7A7B
  8
1
 10
1390.756851450263
 20
2142.4951474345698
 30
0.0
 40
250.0
  0
CIRCLE
  5
7A84
  8
1
 10
1390.756851450263
 20
2142.4951474345698
 30
0.0
 40
280.0
  0
ARC
  5
7A85
  8
1
 10
740.75685145026364
 20
2014.4951474345701
 30
0.0
 40
143.0
 50
324.34590999999989
 51
215.65408999999991
  0
CIRCLE
  5
7A86
  8
1
 10
740.75685145026364
 20
2014.4951474345701
 30
0.0
 40
75.0
  0
ARC
  5
7A87
  8
1
 10
740.75685145026364
 20
2014.4951474345701
 30
0.0
 40
125.0
 50
101.986357
 51
281.98635699999988
  0
LINE
  5
7A88
  8
1
 10
766.71669645026304
 20
1892.2205124345701
 30
0.0
 11
1416.716696450263
 21
2020.2205124345701
 31
0.0
  0
LINE
  5
7A89
  8
1
 10
756.3327584502631
 20
1941.1303664345701
 30
0.0
 11
1406.332758450264
 21
2069.1303664345701
 31
0.0
  0
LINE
  5
7A8A
  8
2
 10
740.75685145026364
 20
1934.4951474345701
 30
0.0
 11
740.75685145026364
 21
2094.4951474345698
 31
0.0
  0
LINE
  5
7A8B
  8
1
 10
1705.756851450263
 20
1722.4951474345701
 30
0.0
 11
525.75685145026364
 21
1722.4951474345701
 31
0.0
  0
LINE
  5
7A8D
  8
1
 10
610.75685145026364
 20
1882.4951474345701
 30
0.0
 11
660.75685145026364
 21
1882.4951474345701
 31
0.0
  0
LINE
  5
7A8E
  8
1
 10
905.75685145026353
 20
1882.4951474345701
 30
0.0
 11
575.75685145026364
 21
1882.4951474345701
 31
0.0
  0
LINE
  5
7A8F
  8
1
 10
525.75685145026364
 20
1797.4951474345689
 30
0.0
 11
525.75685145026364
 21
1722.4951474345701
 31
0.0
  0
LINE
  5
7A90
  8
1
 10
565.75685145026364
 20
1837.4951474345701
 30
0.0
 11
565.75685145026364
 21
1797.4951474345701
 31
0.0
  0
LINE
  5
7A91
  8
1
 10
610.75685145026364
 20
1882.4951474345701
 30
0.0
 11
610.75685145026364
 21
1897.4951474345701
 31
0.0
  0
LINE
  5
7A92
  8
1
 10
610.75685145026364
 20
1897.4951474345701
 30
0.0
 11
624.78612845026328
 21
1931.68789143457
 31
0.0
  0
LINE
  5
7A93
  8
1
 10
575.75685145026364
 20
1882.4951474345701
 30
0.0
 11
565.75685145026364
 21
1837.4951474345701
 31
0.0
  0
LINE
  5
7A94
  8
1
 10
915.75685145026375
 20
1837.4951474345701
 30
0.0
 11
915.75685145026375
 21
1797.4951474345701
 31
0.0
  0
LINE
  5
7A95
  8
1
 10
870.75685145026364
 20
1897.4951474345701
 30
0.0
 11
856.72757345026355
 21
1931.68789143457
 31
0.0
  0
LINE
  5
7A96
  8
1
 10
870.75685145026364
 20
1882.4951474345701
 30
0.0
 11
870.75685145026364
 21
1897.4951474345701
 31
0.0
  0
LINE
  5
7A97
  8
1
 10
870.75685145026364
 20
1882.4951474345701
 30
0.0
 11
820.75685145026364
 21
1882.4951474345701
 31
0.0
  0
LINE
  5
7A98
  8
1
 10
915.75685145026375
 20
1837.4951474345701
 30
0.0
 11
905.75685145026353
 21
1882.4951474345701
 31
0.0
  0
LINE
  5
7A99
  8
1
 10
1705.756851450263
 20
1797.4951474345689
 30
0.0
 11
1705.756851450263
 21
1722.4951474345701
 31
0.0
  0
LINE
  5
7A9A
  8
1
 10
525.75685145026364
 20
3592.1168670745042
 30
0.0
 11
665.75685145026364
 21
3592.1168670745042
 31
0.0
  0
LINE
  5
7A9B
  8
1
 10
615.75685145026364
 20
3650.1168670745042
 30
0.0
 11
1515.756851450263
 21
3650.1168670745042
 31
0.0
  0
LINE
  5
7A9C
  8
1
 10
615.75685145026364
 20
3527.1168670745051
 30
0.0
 11
1515.756851450263
 21
3527.1168670745051
 31
0.0
  0
LINE
  5
7A9D
  8
1
 10
598.25685145026364
 20
3657.1168670745042
 30
0.0
 11
883.25685145026364
 21
3657.1168670745042
 31
0.0
  0
LINE
  5
7A9E
  8
1
 10
615.75685145026364
 20
3527.1168670745051
 30
0.0
 11
615.75685145026364
 21
3650.1168670745042
 31
0.0
  0
LINE
  5
7A9F
  8
1
 10
714.79700545026287
 20
2136.7697824345701
 30
0.0
 11
1364.7970054502639
 21
2264.7697824345701
 31
0.0
  0
LINE
  5
7AA0
  8
1
 10
725.18094345026293
 20
2087.8599284345701
 30
0.0
 11
1375.1809434502629
 21
2215.8599284345701
 31
0.0
  0
LINE
  5
7AA1
  8
2
 10
660.75685145026364
 20
2014.4951474345701
 30
0.0
 11
820.75685145026364
 21
2014.4951474345701
 31
0.0
  0
LINE
  5
7AA2
  8
1
 10
1750.756851450263
 20
2712.4951474345698
 30
0.0
 11
1750.756851450263
 21
2136.4951474345698
 31
0.0
  0
LINE
  5
7AA3
  8
1
 10
1720.756851450263
 20
2168.4951474345698
 30
0.0
 11
1720.756851450263
 21
2678.0784804345699
 31
0.0
  0
ARC
  5
7AA4
  8
1
 10
1390.756851450263
 20
2142.4951474345698
 30
0.0
 40
125.0
 50
281.98635699999988
 51
101.986357
  0
CIRCLE
  5
7AA5
  8
1
 10
1390.756851450263
 20
2142.4951474345698
 30
0.0
 40
75.0
  0
LINE
  5
7AA6
  8
2
 10
1390.756851450263
 20
1683.7378217340481
 30
0.0
 11
1390.756851450263
 21
2727.0638294345699
 31
0.0
  0
LINE
  5
7AA7
  8
2
 10
590.49602345026324
 20
2142.4951474345698
 30
0.0
 11
1749.3635874502629
 21
2142.4951474345698
 31
0.0
  0
LINE
  5
7AA8
  8
1
 10
1684.836529450263
 20
2168.4951474345698
 30
0.0
 11
1750.756851450263
 21
2168.4951474345698
 31
0.0
  0
LINE
  5
7AA9
  8
1
 10
1750.756851450263
 20
3734.6168670745042
 30
0.0
 11
954.30886045026375
 21
3734.6168670745042
 31
0.0
  0
LINE
  5
7AAA
  8
1
 10
815.75685145026375
 20
3592.1168670745042
 30
0.0
 11
1315.756851450263
 21
3592.1168670745042
 31
0.0
  0
LINE
  5
7AAB
  8
1
 10
815.75685145026375
 20
3620.1168670745042
 30
0.0
 11
815.75685145026375
 21
3557.1168670745042
 31
0.0
  0
LINE
  5
7AAC
  8
1
 10
665.75685145026364
 20
3620.1168670745042
 30
0.0
 11
665.75685145026364
 21
3557.1168670745042
 31
0.0
  0
LINE
  5
7AAD
  8
1
 10
665.75685145026364
 20
3557.1168670745042
 30
0.0
 11
815.75685145026375
 21
3557.1168670745042
 31
0.0
  0
LINE
  5
7AAE
  8
1
 10
721.75685145026364
 20
3620.1168670745042
 30
0.0
 11
721.75685145026364
 21
3657.1168670745042
 31
0.0
  0
LINE
  5
7AAF
  8
1
 10
759.75685145026364
 20
3620.1168670745042
 30
0.0
 11
759.75685145026364
 21
3657.1168670745042
 31
0.0
  0
LINE
  5
7AB0
  8
1
 10
665.75685145026364
 20
3620.1168670745042
 30
0.0
 11
815.75685145026375
 21
3620.1168670745042
 31
0.0
  0
LINE
  5
7AB1
  8
1
 10
1515.756851450263
 20
3527.1168670745051
 30
0.0
 11
1515.756851450263
 21
3650.1168670745042
 31
0.0
  0
LINE
  5
7AB2
  8
1
 10
1315.756851450263
 20
3620.1168670745042
 30
0.0
 11
1315.756851450263
 21
3557.1168670745042
 31
0.0
  0
LINE
  5
7AB3
  8
1
 10
1465.756851450263
 20
3620.1168670745042
 30
0.0
 11
1465.756851450263
 21
3557.1168670745042
 31
0.0
  0
LINE
  5
7AB4
  8
1
 10
1315.756851450263
 20
3557.1168670745042
 30
0.0
 11
1465.756851450263
 21
3557.1168670745042
 31
0.0
  0
LINE
  5
7AB5
  8
1
 10
1465.756851450263
 20
3592.1168670745042
 30
0.0
 11
1705.756851450263
 21
3592.1168670745042
 31
0.0
  0
LINE
  5
7AB6
  8
1
 10
1373.256851450263
 20
3734.6168670745042
 30
0.0
 11
1373.256851450263
 21
3620.1168670745042
 31
0.0
  0
LINE
  5
7AB7
  8
1
 10
1408.256851450263
 20
3734.6168670745042
 30
0.0
 11
1408.256851450263
 21
3620.1168670745042
 31
0.0
  0
LINE
  5
7AB8
  8
1
 10
1315.756851450263
 20
3620.1168670745042
 30
0.0
 11
1465.756851450263
 21
3620.1168670745042
 31
0.0
  0
LINE
  5
7AB9
  8
1
 10
1705.756851450263
 20
3592.1168670745042
 30
0.0
 11
1705.756851450263
 21
3734.6168670745042
 31
0.0
  0
LINE
  5
7ABA
  8
1
 10
525.75685145026364
 20
4152.1168670745046
 30
0.0
 11
1140.756851450263
 21
4152.1168670745046
 31
0.0
  0
LINE
  5
7ABB
  8
1
 10
598.25685145026364
 20
4057.1168670745042
 30
0.0
 11
883.25685145026364
 21
4057.1168670745042
 31
0.0
  0
LINE
  5
7ABC
  8
1
 10
1750.756851450263
 20
4109.6168670745037
 30
0.0
 11
954.30886045026375
 21
4109.6168670745037
 31
0.0
  0
LINE
  5
7ABD
  8
1
 10
1670.756851450263
 20
4173.1168670745037
 30
0.0
 11
1110.756851450263
 21
4173.1168670745037
 31
0.0
  0
LINE
  5
7ABE
  8
1
 10
1140.756851450263
 20
4109.6168670745037
 30
0.0
 11
1140.756851450263
 21
4173.1168670745037
 31
0.0
  0
LINE
  5
7ABF
  8
1
 10
1750.756851450263
 20
4112.1168670745037
 30
0.0
 11
1750.756851450263
 21
4142.1168670745046
 31
0.0
  0
LINE
  5
7AC0
  8
1
 10
1640.756851450263
 20
4109.6168670745037
 30
0.0
 11
1640.756851450263
 21
4173.1168670745037
 31
0.0
  0
LINE
  5
7AC1
  8
1
 10
1640.756851450263
 20
4152.1168670745046
 30
0.0
 11
1705.756851450263
 21
4152.1168670745046
 31
0.0
  0
LINE
  5
7AC2
  8
1
 10
1705.756851450263
 20
4109.6168670745037
 30
0.0
 11
1705.756851450263
 21
4152.1168670745046
 31
0.0
  0
LINE
  5
7AC3
  8
1
 10
3467.7738334977348
 20
1862.4951474345701
 30
0.0
 11
3467.7738334977348
 21
2422.4951474345698
 31
0.0
  0
LINE
  5
7AC4
  8
1
 10
3029.2738334977339
 20
2166.4951474345698
 30
0.0
 11
3029.2738334977339
 21
1797.4951474345689
 31
0.0
  0
LINE
  5
7AC5
  8
1
 10
3404.2738334977348
 20
2166.4951474345698
 30
0.0
 11
3404.2738334977348
 21
1797.4951474345689
 31
0.0
  0
LINE
  5
7AC6
  8
1
 10
2821.7738334977348
 20
1889.4951474345689
 30
0.0
 11
2821.7738334977348
 21
2267.4951474345698
 31
0.0
  0
LINE
  5
7AC7
  8
1
 10
2944.7738334977339
 20
1889.4951474345689
 30
0.0
 11
2944.7738334977339
 21
1951.997398801233
 31
0.0
  0
LINE
  5
7AC8
  8
1
 10
2914.7738334977348
 20
1939.4951474345701
 30
0.0
 11
2914.7738334977348
 21
2079.4951474345698
 31
0.0
  0
LINE
  5
7AC9
  8
1
 10
2851.7738334977339
 20
1939.4951474345701
 30
0.0
 11
2851.7738334977348
 21
2079.4951474345698
 31
0.0
  0
LINE
  5
7ACA
  8
1
 10
3446.7738334977348
 20
1722.4951474345701
 30
0.0
 11
2886.7738334977348
 21
1722.4951474345701
 31
0.0
  0
LINE
  5
7ACC
  8
1
 10
2886.7738334977348
 20
1722.4951474345701
 30
0.0
 11
2886.7738334977348
 21
1797.4951474345689
 31
0.0
  0
LINE
  5
7ACD
  8
1
 10
2914.7738334977348
 20
1939.4951474345701
 30
0.0
 11
2851.7738334977362
 21
1939.4951474345701
 31
0.0
  0
LINE
  5
7ACE
  8
1
 10
2821.7738334977362
 20
1889.4951474345701
 30
0.0
 11
2944.7738334977339
 21
1889.4951474345701
 31
0.0
  0
LINE
  5
7ACF
  8
1
 10
3404.2738334977348
 20
1892.4951474345701
 30
0.0
 11
3467.7738334977348
 21
1892.4951474345701
 31
0.0
  0
LINE
  5
7AD0
  8
1
 10
3446.7738334977348
 20
1722.4951474345701
 30
0.0
 11
3446.7738334977348
 21
1797.4951474345689
 31
0.0
  0
LINE
  5
7AD1
  8
1
 10
2914.7738334977348
 20
2033.4951474345701
 30
0.0
 11
3029.2738334977339
 21
2033.4951474345701
 31
0.0
  0
LINE
  5
7AD2
  8
1
 10
2914.7738334977348
 20
1995.4951474345701
 30
0.0
 11
3029.2738334977339
 21
1995.4951474345701
 31
0.0
  0
LINE
  5
7AD3
  8
1
 10
3029.2738334977339
 20
2159.9951474345698
 30
0.0
 11
2914.7738334977348
 21
2159.9951474345698
 31
0.0
  0
LINE
  5
7AD4
  8
1
 10
3029.2738334977339
 20
2124.9951474345698
 30
0.0
 11
2914.7738334977348
 21
2124.9951474345698
 31
0.0
  0
LINE
  5
7AD5
  8
1
 10
2851.7738334977348
 20
2067.4951474345698
 30
0.0
 11
2851.7738334977348
 21
2217.4951474345698
 31
0.0
  0
LINE
  5
7AD6
  8
1
 10
2914.7738334977348
 20
2067.4951474345698
 30
0.0
 11
2914.7738334977348
 21
2217.4951474345698
 31
0.0
  0
LINE
  5
7AD7
  8
1
 10
2914.7738334977348
 20
2217.4951474345698
 30
0.0
 11
2851.7738334977348
 21
2217.4951474345698
 31
0.0
  0
LINE
  5
7AD8
  8
1
 10
2914.7738334977348
 20
2067.4951474345698
 30
0.0
 11
2851.7738334977348
 21
2067.4951474345698
 31
0.0
  0
LINE
  5
7AD9
  8
1
 10
2821.7738334977348
 20
2267.4951474345698
 30
0.0
 11
2944.7738334977339
 21
2267.4951474345698
 31
0.0
  0
LINE
  5
7ADA
  8
1
 10
2914.7738334977348
 20
2089.4951474345698
 30
0.0
 11
2851.7738334977362
 21
2089.4951474345698
 31
0.0
  0
LINE
  5
7ADB
  8
1
 10
3029.2738334977339
 20
2682.4951474345698
 30
0.0
 11
3029.2738334977339
 21
2166.4951474345698
 31
0.0
  0
LINE
  5
7ADC
  8
1
 10
3404.2738334977348
 20
2682.4951474345698
 30
0.0
 11
3404.2738334977348
 21
2166.4951474345698
 31
0.0
  0
LINE
  5
7ADD
  8
1
 10
3029.2738334977339
 20
2682.4951474345698
 30
0.0
 11
3404.2738334977348
 21
2166.4951474345698
 31
0.0
  0
LINE
  5
7ADE
  8
1
 10
3029.2738334977339
 20
2166.4951474345698
 30
0.0
 11
3404.2738334977348
 21
2682.4951474345698
 31
0.0
  0
LINE
  5
7ADF
  8
1
 10
3029.2738334977339
 20
2166.4951474345698
 30
0.0
 11
3404.2738334977348
 21
2166.4951474345698
 31
0.0
  0
LINE
  5
7AE0
  8
1
 10
3404.2738334977348
 20
2392.4951474345698
 30
0.0
 11
3467.7738334977348
 21
2392.4951474345698
 31
0.0
  0
LINE
  5
7AE1
  8
1
 10
3404.2738334977348
 20
2682.4951474345698
 30
0.0
 11
3029.2738334977339
 21
2682.4951474345698
 31
0.0
  0
DIMENSION
  5
7AF5
  8
3
  2
*D1
 10
1390.756851450263
 20
1585.0936781
 30
0.0
 11
970.09681545026342
 21
1585.0936781
 31
0.0
 70
   128
 13
525.75685145026364
 23
1722.4951474345701
 33
0.0
 14
1390.756851450263
 24
1683.7378217340481
 34
0.0
1001
ACAD
1000
DSTYLE
1002
{
1070
   287
1070
     3
1070
   287
1070
     3
1070
    40
1040
20.0
1070
   143
1040
0.039
1070
   172
1070
     1
1070
   271
1070
     0
1070
   279
1070
     0
1070
   288
1070
     1
1002
}
  0
DIMENSION
  5
7B03
  8
3
  2
*D2
 10
1705.756851450263
 20
1585.0936781
 30
0.0
 11
1574.3282800216921
 21
1585.0936781
 31
0.0
 70
   128
 13
1390.756851450263
 23
1683.7378217340481
 33
0.0
 14
1705.756851450263
 24
1722.4951474345701
 34
0.0
1001
ACAD
1000
DSTYLE
1002
{
1070
   287
1070
     3
1070
   287
1070
     3
1070
    40
1040
20.0
1070
   143
1040
0.039
1070
   172
1070
     1
1070
   271
1070
     0
1070
   279
1070
     0
1070
   288
1070
     1
1002
}
  0
DIMENSION
  5
7B26
  8
3
  2
*D3
 10
1926.060788721825
 20
2168.4951474345698
 30
0.0
 11
1926.060788721825
 21
2437.2434624345701
 31
0.0
 70
   128
 13
1750.756851450263
 23
2680.4951474345698
 33
0.0
 14
1750.756851450263
 24
2168.4951474345698
 34
0.0
 50
90.0
1001
ACAD
1000
DSTYLE
1002
{
1070
   287
1070
     3
1070
   287
1070
     3
1070
    40
1040
20.0
1070
   143
1040
0.039
1070
   172
1070
     1
1070
   271
1070
     0
1070
   279
1070
     0
1070
   288
1070
     1
1002
}
  0
DIMENSION
  5
7B33
  8
3
  2
*D4
 10
2047.3525185831679
 20
2142.4951474345698
 30
0.0
 11
2047.3525185831679
 21
2426.2337294345698
 31
0.0
 70
   128
 13
1750.756851450263
 23
2680.4951474345698
 33
0.0
 14
1689.149658450264
 24
2142.4951474345698
 34
0.0
 50
90.0
1001
ACAD
1000
DSTYLE
1002
{
1070
   287
1070
     3
1070
   287
1070
     3
1070
    40
1040
20.0
1070
   143
1040
0.039
1070
   172
1070
     1
1070
   271
1070
     0
1070
   279
1070
     0
1070
   288
1070
     1
1002
}
  0
DIMENSION
  5
7B3F
  8
3
  2
*D5
 10
2047.3525185831679
 20
1722.4951474345701
 30
0.0
 11
1997.3525185831679
 21
1932.4951474345701
 31
0.0
 70
     0
 13
1689.149658450264
 23
2142.4951474345698
 33
0.0
 14
1705.756851450263
 24
1722.4951474345701
 34
0.0
 50
90.0
1001
ACAD
1000
DSTYLE
1002
{
1070
   287
1070
     3
1070
   287
1070
     3
1070
    40
1040
20.0
1070
   143
1040
0.039
1070
   172
1070
     1
1070
   271
1070
     0
1070
   279
1070
     0
1070
   288
1070
     1
1002
}
  0
DIMENSION
  5
7B4C
  8
3
  2
*D6
 10
1390.756851450263
 20
2788.0889534345702
 30
0.0
 11
1185.0425654502631
 21
2788.0889534345702
 31
0.0
 70
   128
 13
956.02614545026324
 23
2142.4951474345698
 33
0.0
 14
1390.756851450263
 24
2651.4951474345698
 34
0.0
1001
ACAD
1000
DSTYLE
1002
{
1070
   287
1070
     3
1070
   287
1070
     3
1070
    40
1040
20.0
1070
   143
1040
0.039
1070
   172
1070
     1
1070
   271
1070
     0
1070
   279
1070
     0
1070
   288
1070
     1
1002
}
  0
DIMENSION
  5
7B5A
  8
3
  2
*D7
 10
1750.756851450263
 20
2785.2663604345712
 30
0.0
 11
1560.7081084502629
 21
2785.2663604345712
 31
0.0
 70
   128
 13
1390.756851450263
 23
2651.4951474345698
 33
0.0
 14
1750.756851450263
 24
2712.4951474345698
 34
0.0
1001
ACAD
1000
DSTYLE
1002
{
1070
   287
1070
     3
1070
   287
1070
     3
1070
    40
1040
20.0
1070
   143
1040
0.039
1070
   172
1070
     1
1070
   271
1070
     0
1070
   279
1070
     0
1070
   288
1070
     1
1002
}
  0
DIMENSION
  5
7B7D
  8
3
  2
*D8
 10
1705.756851450263
 20
3257.5926480745038
 30
0.0
 11
1134.2007034502631
 21
3257.5926480745038
 31
0.0
 70
   128
 13
525.75685145026364
 23
3592.1168670745042
 33
0.0
 14
1705.756851450263
 24
3592.1168670745042
 34
0.0
1001
ACAD
1000
DSTYLE
1002
{
1070
   287
1070
     3
1070
   287
1070
     3
1070
    40
1040
20.0
1070
   143
1040
0.039
1070
   172
1070
     1
1070
   271
1070
     0
1070
   279
1070
     0
1070
   288
1070
     1
1002
}
  0
DIMENSION
  5
7B8A
  8
3
  2
*D9
 10
2040.881983450264
 20
3592.1168670745042
 30
0.0
 11
2040.8819834502631
 21
3896.3441880745049
 31
0.0
 70
   128
 13
1705.756851450263
 23
4152.1168670745046
 33
0.0
 14
1705.756851450263
 24
3592.1168670745042
 34
0.0
 50
90.0
1001
ACAD
1000
DSTYLE
1002
{
1070
   287
1070
     3
1070
   287
1070
     3
1070
    40
1040
20.0
1070
   143
1040
0.039
1070
   172
1070
     1
1070
   271
1070
     0
1070
   279
1070
     0
1070
   288
1070
     1
1002
}
  0
LINE
  5
7B8B
  8
2
 10
748.11655545026395
 20
3922.1168670745042
 30
0.0
 11
1811.8524954502629
 21
3922.1168670745042
 31
0.0
  0
LINE
  5
7B8C
  8
2
 10
3216.7738334977348
 20
2726.8199875689888
 30
0.0
 11
3216.7738334977348
 21
1672.3166124345701
 31
0.0
  0
DIMENSION
  5
7B9B
  8
3
  2
*D10
 10
3404.2738334977348
 20
2786.860700402005
 30
0.0
 11
3216.7738334977348
 21
2786.860700402005
 31
0.0
 70
   128
 13
3029.2738334977339
 23
2682.4951474345698
 33
0.0
 14
3404.2738334977348
 24
2682.4951474345698
 34
0.0
1001
ACAD
1000
DSTYLE
1002
{
1070
   287
1070
     3
1070
   287
1070
     3
1070
    40
1040
20.0
1070
   143
1040
0.039
1070
   172
1070
     1
1070
   271
1070
     0
1070
   279
1070
     0
1070
   288
1070
     1
1002
}
  0
DIMENSION
  5
7BDB
  8
3
  2
*D11
 10
3659.3523088104198
 20
1892.4951474345701
 30
0.0
 11
3659.3523088104189
 21
2142.4951474345698
 31
0.0
 70
   128
 13
3467.7738334977348
 23
2392.4951474345698
 33
0.0
 14
3467.7738334977348
 24
1892.4951474345701
 34
0.0
 50
90.0
1001
ACAD
1000
DSTYLE
1002
{
1070
   287
1070
     3
1070
   287
1070
     3
1070
     3
1000
φ<>
1070
    40
1040
20.0
1070
   143
1040
0.039
1070
   172
1070
     1
1070
   271
1070
     0
1070
   279
1070
     0
1070
   288
1070
     1
1002
}
  0
DIMENSION
  5
7BEA
  8
3
  2
*D12
 10
3216.7738334977348
 20
2967.0623208676998
 30
0.0
 11
3019.2738334977339
 21
2967.0623208676998
 31
0.0
 70
   128
  1
MAX\P450
 13
2821.7738334977348
 23
2267.4951474345698
 33
0.0
 14
3216.7738334977348
 24
2882.3892623651332
 34
0.0
1001
ACAD
1000
DSTYLE
1002
{
1070
   287
1070
     3
1070
   287
1070
     3
1070
    40
1040
20.0
1070
   143
1040
0.039
1070
   172
1070
     1
1070
   271
1070
     0
1070
   279
1070
     0
1070
   288
1070
     1
1002
}
  0
DIMENSION
  5
7BF8
  8
3
  2
*D13
 10
3467.7738334977348
 20
2968.4227948355551
 30
0.0
 11
3343.4881192120201
 21
2968.4227948355551
 31
0.0
 70
   128
 13
3216.7738334977348
 23
2882.3892623651332
 33
0.0
 14
3467.7738334977348
 24
2422.4951474345698
 34
0.0
1001
ACAD
1000
DSTYLE
1002
{
1070
   287
1070
     3
1070
   287
1070
     3
1070
    40
1040
20.0
1070
   143
1040
0.039
1070
   172
1070
     1
1070
   271
1070
     0
1070
   279
1070
     0
1070
   288
1070
     1
1002
}
  0
DIMENSION
  5
7C1D
  8
3
  2
*D14
 10
3216.7738334977348
 20
1585.904930219569
 30
0.0
 11
3051.7738334977348
 21
1585.904930219569
 31
0.0
 70
   128
 13
2886.7738334977348
 23
1722.4951474345701
 33
0.0
 14
3216.7738334977348
 24
1672.3166124345701
 34
0.0
1001
ACAD
1000
DSTYLE
1002
{
1070
   287
1070
     3
1070
   287
1070
     3
1070
    40
1040
20.0
1070
   143
1040
0.039
1070
   172
1070
     1
1070
   271
1070
     0
1070
   279
1070
     0
1070
   288
1070
     1
1002
}
  0
DIMENSION
  5
7C2B
  8
3
  2
*D15
 10
3446.7738334977348
 20
1586.0200708786469
 30
0.0
 11
3330.4274342411991
 21
1647.5020839384281
 31
0.0
 12
39.981337978606462
 22
0.0
 32
0.0
 70
   128
 13
3216.7738334977348
 23
1672.3166124345701
 33
0.0
 14
3446.7738334977348
 24
1722.4951474345701
 34
0.0
1001
ACAD
1000
DSTYLE
1002
{
1070
   288
1070
     1
1070
   172
1070
     1
1070
    40
1040
20.0
1070
   271
1070
     0
1070
   143
1040
0.039
1002
}
  0
LINE
  5
7C42
  8
2
 10
2689.2859054977348
 20
2142.4951474345698
 30
0.0
 11
3543.112573497735
 21
2142.4951474345698
 31
0.0
  0
LINE
  5
7C43
  8
2
 10
1390.756851450263
 20
3477.7295020483648
 30
0.0
 11
1390.756851450263
 21
4207.736609270738
 31
0.0
  0
LINE
  5
7C44
  8
4
 10
3700.0
 20
1000.0
 30
0.0
 11
3700.0
 21
600.0
 31
0.0
  0
LINE
  5
7C45
  8
4
 10
2300.0
 20
1000.0
 30
0.0
 11
2300.0
 21
600.0
 31
0.0
  0
LINE
  5
7C46
  8
4
 10
1300.0
 20
1000.0
 30
0.0
 11
1300.0
 21
600.0
 31
0.0
  0
LINE
  5
7C49
  8
4
 10
1300.0
 20
600.0
 30
0.0
 11
3700.0
 21
600.0
 31
0.0
  0
LINE
  5
7C4A
  8
4
 10
1300.0
 20
800.0
 30
0.0
 11
3700.0
 21
800.0
 31
0.0
  0
TEXT
  5
7C4B
  8
4
 10
1377.004161999999
 20
863.08605199999977
 30
0.0
 40
100.0
  1
機器名称
  0
TEXT
  5
7C4C
  8
4
 10
1372.5162119999991
 20
643.29031333333319
 30
0.0
 40
100.0
  1
機器型番
  0
TEXT
  5
7C4D
  8
4
 10
2355.3574906666659
 20
845.14353799999992
 30
0.0
 40
86.666666666666657
  1
ミツヤリミットロードファン
  0
TEXT
  5
7C4E
  8
4
 10
2373.308991333332
 20
634.31916866666666
 30
0.0
 40
100.0
  1
LLE#3-4
  0
TEXT
  5
7C50
  8
4
 10
1809.5715306666659
 20
4766.8576826666658
 30
0.0
 40
108.0
  1
床置ベット
  0
TEXT
  5
7C51
  8
4
 10
632.33518666666669
 20
5067.7619526666667
 30
0.0
 40
120.0
  1
ベルト駆動式片吸込両持排煙ファン
  0
LINE
  5
7C52
  8
4
 10
500.0
 20
4938.8175086666661
 30
0.0
 11
3700.0
 21
4938.8175086666661
 31
0.0
  0
LINE
  5
7C53
  8
4
 10
500.0
 20
5338.8175086666661
 30
0.0
 11
3700.0
 21
5338.8175086666661
 31
0.0
  0
LINE
  5
7C54
  8
4
 10
1300.0
 20
1000.0
 30
0.0
 11
3700.0
 21
1000.0
 31
0.0
  0
LINE
  5
7C55
  8
4
 10
500.0
 20
5338.8175086666661
 30
0.0
 11
500.0
 21
4938.8175086666661
 31
0.0
  0
TEXT
  5
7C56
  8
4
 10
937.85386666666648
 20
4764.6389553333329
 30
0.0
 40
108.0
  1
右回転右横向
  0
TEXT
  5
7C57
  8
4
 10
2937.9391186666662
 20
5412.1221626666656
 30
0.0
 40
112.0
  1
No.
  0
TEXT
  5
7C58
  8
4
 10
2622.5921253333331
 20
4766.8576826666658
 30
0.0
 40
108.0
  1
縮尺：1/20
  0
LINE
  5
7C59
  8
4
 10
3700.0
 20
5338.8175086666661
 30
0.0
 11
3700.0
 21
4938.8175086666661
 31
0.0
  0
LINE
  5
7C5B
  8
4
 10
2881.234844666666
 20
5362.5271659999999
 30
0.0
 11
2881.234844666666
 21
5573.3045233333341
 31
0.0
  0
LINE
  5
7C5C
  8
4
 10
2881.234844666666
 20
5573.3045233333341
 30
0.0
 11
3700.0
 21
5573.3045233333341
 31
0.0
  0
LINE
  5
7C5D
  8
4
 10
3700.0
 20
5573.3045233333341
 30
0.0
 11
3700.0
 21
5362.5271659999999
 31
0.0
  0
LINE
  5
7C5E
  8
4
 10
3700.0
 20
5362.5271659999999
 30
0.0
 11
2881.234844666666
 21
5362.5271659999999
 31
0.0
  0
DIMENSION
  5
7C75
  8
3
  2
*D16
 10
2179.7728320342908
 20
1722.4951474345701
 30
0.0
 11
2179.7728320342899
 21
2236.3749384345701
 31
0.0
 70
   128
 13
1750.756851450263
 23
2712.4951474345698
 33
0.0
 14
1705.756851450263
 24
1722.4951474345701
 34
0.0
 50
90.0
1001
ACAD
1000
DSTYLE
1002
{
1070
   287
1070
     3
1070
   287
1070
     3
1070
    40
1040
20.0
1070
   143
1040
0.039
1070
   172
1070
     1
1070
   271
1070
     0
1070
   279
1070
     0
1070
   288
1070
     1
1002
}
  0
LINE
  5
7D44
  8
1
 10
1705.756851450263
 20
1797.4951474345701
 30
0.0
 11
525.75685145026364
 21
1797.4951474345701
 31
0.0
  0
LINE
  5
7D45
  8
1
 10
3446.7738334977348
 20
1797.4951474345701
 30
0.0
 11
2886.7738334977348
 21
1797.4951474345701
 31
0.0
  0
POLYLINE
  5
7D46
  8
1
 66
     1
 10
0.0
 20
0.0
 30
0.0
  0
VERTEX
  5
809B
  8
1
 10
1750.756851450263
 20
2680.4951474345698
 30
0.0
  0
VERTEX
  5
809C
  8
1
 10
1390.756851450263
 20
2651.4951474345698
 30
0.0
 42
0.391482
  0
VERTEX
  5
809D
  8
1
 10
954.30886045026375
 20
2179.4951474345698
 30
0.0
 42
0.3297648538176189
  0
VERTEX
  5
809E
  8
1
 10
1236.9888897778389
 20
1797.4951474345701
 30
0.0
 42
0.388666
  0
SEQEND
  5
809F
  8
1
  0
POLYLINE
  5
7D4C
  8
1
 66
     1
 10
0.0
 20
0.0
 30
0.0
  0
VERTEX
  5
80A0
  8
1
 10
1465.0504701991431
 20
1797.4951474345701
 30
0.0
 42
0.3223275131414234
  0
VERTEX
  5
80A1
  8
1
 10
1690.940649450263
 20
2111.4951474345698
 30
0.0
 42
0.053392
  0
VERTEX
  5
80A2
  8
1
 10
1684.836529450263
 20
2168.4951474345698
 30
0.0
 42
0.393627
  0
SEQEND
  5
80A3
  8
1
  0
LINE
  5
7F10
  8
1
 10
2944.7738334977339
 20
2210.6535773547821
 30
0.0
 11
2944.7738334977339
 21
2267.4951474345698
 31
0.0
  0
DIMENSION
  5
7F21
  8
3
  2
*D17
 10
525.75685145026375
 20
2907.6586786377588
 30
0.0
 11
1249.548905318228
 21
2907.6586786377588
 31
0.0
 70
   128
 13
1760.756851450263
 23
2712.4951474345698
 33
0.0
 14
525.75685145026364
 24
1797.4951474345701
 34
0.0
1001
ACAD
1000
DSTYLE
1002
{
1070
   287
1070
     3
1070
   287
1070
     3
1070
    40
1040
20.0
1070
   143
1040
0.039
1070
   172
1070
     1
1070
   271
1070
     0
1070
   279
1070
     0
1070
   288
1070
     1
1002
}
  0
ENDSEC
  0
EOF
