  0
SECTION
  2
HEADER
  9
$ACADVER
  1
AC1009
  9
$INSBASE
 10
0.0
 20
0.0
 30
0.0
  9
$EXTMIN
 10
500.0
 20
600.0
 30
0.0
  9
$EXTMAX
 10
3700.0
 20
5573.3045233333341
 30
0.0
  9
$LIMMIN
 10
0.0
 20
0.0
  9
$LIMMAX
 10
297.0
 20
210.0
  9
$ORTHOMODE
 70
     0
  9
$REGENMODE
 70
     1
  9
$FILLMODE
 70
     0
  9
$QTEXTMODE
 70
     0
  9
$MIRRTEXT
 70
     1
  9
$DRAGMODE
 70
     2
  9
$LTSCALE
 40
100.0
  9
$OSMODE
 70
    37
  9
$ATTMODE
 70
     1
  9
$TEXTSIZE
 40
180.0
  9
$TRACEWID
 40
0.05
  9
$TEXTSTYLE
  7
STANDARD
  9
$CLAYER
  8
3
  9
$CELTYPE
  6
BYLAYER
  9
$CECOLOR
 62
   256
  9
$DIMSCALE
 40
20.0
  9
$DIMASZ
 40
2.0
  9
$DIMEXO
 40
0.5
  9
$DIMDLI
 40
10.0
  9
$DIMRND
 40
0.0
  9
$DIMDLE
 40
0.0
  9
$DIMEXE
 40
1.0
  9
$DIMTP
 40
1.0
  9
$DIMTM
 40
1.0
  9
$DIMTXT
 40
3.0
  9
$DIMCEN
 40
0.0
  9
$DIMTSZ
 40
0.0
  9
$DIMTOL
 70
     0
  9
$DIMLIM
 70
     0
  9
$DIMTIH
 70
     0
  9
$DIMTOH
 70
     0
  9
$DIMSE1
 70
     0
  9
$DIMSE2
 70
     0
  9
$DIMTAD
 70
     1
  9
$DIMZIN
 70
     8
  9
$DIMBLK
  1

  9
$DIMASO
 70
     1
  9
$DIMSHO
 70
     1
  9
$DIMPOST
  1

  9
$DIMAPOST
  1

  9
$DIMALT
 70
     0
  9
$DIMALTD
 70
     2
  9
$DIMALTF
 40
0.039
  9
$DIMLFAC
 40
1.0
  9
$DIMTOFL
 70
     1
  9
$DIMTVP
 40
0.0
  9
$DIMTIX
 70
     0
  9
$DIMSOXD
 70
     0
  9
$DIMSAH
 70
     1
  9
$DIMBLK1
  1
OPEN
  9
$DIMBLK2
  1
OPEN
  9
$DIMSTYLE
  2
IGA
  9
$DIMCLRD
 70
     0
  9
$DIMCLRE
 70
     0
  9
$DIMCLRT
 70
     0
  9
$DIMTFAC
 40
10.0
  9
$DIMGAP
 40
1.0
  9
$LUNITS
 70
     2
  9
$LUPREC
 70
     3
  9
$SKETCHINC
 40
0.1
  9
$FILLETRAD
 40
50.0
  9
$AUNITS
 70
     0
  9
$AUPREC
 70
     0
  9
$MENU
  1
acad
  9
$ELEVATION
 40
0.0
  9
$PELEVATION
 40
0.0
  9
$THICKNESS
 40
0.0
  9
$LIMCHECK
 70
     0
  9
$BLIPMODE
 70
     0
  9
$CHAMFERA
 40
0.5
  9
$CHAMFERB
 40
0.5
  9
$SKPOLY
 70
     0
  9
$TDCREATE
 40
2450763.6714723371
  9
$TDUPDATE
 40
2454953.6812984599
  9
$TDINDWG
 40
0.0102787269
  9
$TDUSRTIMER
 40
0.0102787269
  9
$USRTIMER
 70
     1
  9
$ANGBASE
 50
0.0
  9
$ANGDIR
 70
     0
  9
$PDMODE
 70
     0
  9
$PDSIZE
 40
0.0
  9
$PLINEWID
 40
0.0
  9
$COORDS
 70
     1
  9
$SPLFRAME
 70
     0
  9
$SPLINETYPE
 70
     6
  9
$SPLINESEGS
 70
     8
  9
$ATTDIA
 70
     0
  9
$ATTREQ
 70
     1
  9
$HANDLING
 70
 10241
  9
$HANDSEED
  5
80C0
  9
$SURFTAB1
 70
     6
  9
$SURFTAB2
 70
     6
  9
$SURFTYPE
 70
     6
  9
$SURFU
 70
     6
  9
$SURFV
 70
     6
  9
$UCSNAME
  2

  9
$UCSORG
 10
0.0
 20
0.0
 30
0.0
  9
$UCSXDIR
 10
1.0
 20
0.0
 30
0.0
  9
$UCSYDIR
 10
0.0
 20
1.0
 30
0.0
  9
$PUCSNAME
  2

  9
$PUCSORG
 10
0.0
 20
0.0
 30
0.0
  9
$PUCSXDIR
 10
1.0
 20
0.0
 30
0.0
  9
$PUCSYDIR
 10
0.0
 20
1.0
 30
0.0
  9
$USERI1
 70
     0
  9
$USERI2
 70
     0
  9
$USERI3
 70
     0
  9
$USERI4
 70
     0
  9
$USERI5
 70
     0
  9
$USERR1
 40
0.0
  9
$USERR2
 40
0.0
  9
$USERR3
 40
0.0
  9
$USERR4
 40
0.0
  9
$USERR5
 40
0.0
  9
$WORLDVIEW
 70
     1
  9
$SHADEDGE
 70
     3
  9
$SHADEDIF
 70
    70
  9
$TILEMODE
 70
     1
  9
$MAXACTVP
 70
    16
  9
$PLIMCHECK
 70
     0
  9
$PEXTMIN
 10
1.0000000000000000E+020
 20
1.0000000000000000E+020
 30
1.0000000000000000E+020
  9
$PEXTMAX
 10
-1.0000000000000000E+020
 20
-1.0000000000000000E+020
 30
-1.0000000000000000E+020
  9
$PLIMMIN
 10
0.0
 20
0.0
  9
$PLIMMAX
 10
12.0
 20
9.0
  9
$UNITMODE
 70
     0
  9
$VISRETAIN
 70
     0
  9
$PLINEGEN
 70
     0
  9
$PSLTSCALE
 70
     1
  0
ENDSEC
  0
SECTION
  2
TABLES
  0
TABLE
  2
VPORT
 70
     2
  0
VPORT
  2
*ACTIVE
 70
     0
 10
0.0
 20
0.0
 11
1.0
 21
1.0
 12
8903.6631769105952
 22
3206.7299729519218
 13
0.0
 23
0.0
 14
10.0
 24
10.0
 15
10.0
 25
10.0
 16
0.0
 26
0.0
 36
1.0
 17
0.0
 27
0.0
 37
0.0
 40
7583.1088968297772
 41
3.1666666666666661
 42
50.0
 43
0.0
 44
0.0
 50
0.0
 51
0.0
 71
     0
 72
   100
 73
     1
 74
     0
 75
     0
 76
     0
 77
     0
 78
     0
  0
ENDTAB
  0
TABLE
  2
LTYPE
 70
     2
  0
LTYPE
  2
CONTINUOUS
 70
     0
  3
Solid line
 72
    65
 73
     0
 40
0.0
  0
LTYPE
  2
CENTER
 70
     0
  3
____ _ ____ _ ____ _ ____ _ ____ _ ____ _ ____ 
 72
    65
 73
     4
 40
2.0
 49
1.25
 49
-0.25
 49
0.25
 49
-0.25
  0
ENDTAB
  0
TABLE
  2
LAYER
 70
     6
  0
LAYER
  2
0
 70
     0
 62
     7
  6
CONTINUOUS
  0
LAYER
  2
3
 70
     0
 62
     2
  6
CONTINUOUS
  0
LAYER
  2
2
 70
     0
 62
     3
  6
CENTER
  0
LAYER
  2
1
 70
     0
 62
     4
  6
CONTINUOUS
  0
LAYER
  2
4
 70
     0
 62
     7
  6
CONTINUOUS
  0
LAYER
  2
DEFPOINTS
 70
     0
 62
     7
  6
CONTINUOUS
  0
ENDTAB
  0
TABLE
  2
STYLE
 70
     1
  0
STYLE
  2
STANDARD
 70
     0
 40
0.0
 41
1.0
 50
0.0
 71
     0
 42
180.0
  3
simplex.shx
  4
extfont.shx
  0
ENDTAB
  0
TABLE
  2
VIEW
 70
     0
  0
ENDTAB
  0
TABLE
  2
UCS
 70
     0
  0
ENDTAB
  0
TABLE
  2
APPID
 70
     1
  0
APPID
  2
ACAD
 70
     0
  0
ENDTAB
  0
TABLE
  2
DIMSTYLE
 70
     1
  0
DIMSTYLE
  2
IGA
 70
     0
  3

  4

  5

  6
OPEN
  7
OPEN
 40
2.0
 41
2.0
 42
0.5
 43
10.0
 44
1.0
 45
0.0
 46
0.0
 47
1.0
 48
1.0
140
3.0
141
0.0
142
0.0
143
0.03937
144
1.0
145
0.0
146
10.0
147
1.0
 71
     0
 72
     0
 73
     0
 74
     0
 75
     0
 76
     0
 77
     1
 78
     8
170
     0
171
     2
172
     0
173
     1
174
     0
175
     0
176
     0
177
     0
178
     0
  0
ENDTAB
  0
ENDSEC
  0
SECTION
  2
BLOCKS
  0
BLOCK
  8
0
  2
$MODEL_SPACE
 70
     0
 10
0.0
 20
0.0
 30
0.0
  3
$MODEL_SPACE
  1

  0
ENDBLK
  5
1B
  8
0
  0
BLOCK
 67
     1
  8
0
  2
$PAPER_SPACE
 70
     0
 10
0.0
 20
0.0
 30
0.0
  3
$PAPER_SPACE
  1

  0
ENDBLK
  5
18
 67
     1
  8
0
  0
BLOCK
  8
0
  2
_OPEN
 70
     0
 10
0.0
 20
0.0
 30
0.0
  3
_OPEN
  1

  0
LINE
  5
7AE2
  8
0
  6
BYBLOCK
 62
     0
 10
-1.0
 20
0.166667
 30
0.0
 11
0.0
 21
0.0
 31
0.0
  0
LINE
  5
7AE3
  8
0
  6
BYBLOCK
 62
     0
 10
0.0
 20
0.0
 30
0.0
 11
-1.0
 21
-0.166667
 31
0.0
  0
LINE
  5
7AE4
  8
0
  6
BYBLOCK
 62
     0
 10
0.0
 20
0.0
 30
0.0
 11
-1.0
 21
0.0
 31
0.0
  0
ENDBLK
  5
7AE5
  8
0
  0
BLOCK
  8
0
  2
*D1
 70
     1
 10
0.0
 20
0.0
 30
0.0
  3
*D1
  1

  0
LINE
  5
8015
  8
3
 62
     0
 10
739.51323665525979
 20
1738.549558011254
 30
0.0
 11
739.51323665525979
 21
1561.297099775476
 31
0.0
  0
LINE
  5
8016
  8
3
 62
     0
 10
1604.5132366552591
 20
1622.155659011253
 30
0.0
 11
1604.5132366552591
 21
1561.297099775476
 31
0.0
  0
LINE
  5
8017
  8
3
 62
     0
 10
779.51323665525967
 20
1581.297099775476
 30
0.0
 11
1564.5132366552591
 21
1581.297099775476
 31
0.0
  0
INSERT
  5
8018
  8
3
 62
     0
  2
_OPEN
 10
739.51323665525979
 20
1581.297099775476
 30
0.0
 41
40.0
 42
40.0
 43
40.0
 50
180.0
  0
INSERT
  5
8019
  8
3
 62
     0
  2
_OPEN
 10
1604.5132366552591
 20
1581.297099775476
 30
0.0
 41
40.0
 42
40.0
 43
40.0
  0
TEXT
  8
3
  40
60
  5
80AE
  62
0
  72
0
  71
0
 10
1045.18
 20
1525.10
 30
0.000000
  1
865
  0
POINT
  5
801B
  8
DEFPOINTS
 62
     0
 10
739.51323665525979
 20
1748.549558011254
 30
0.0
  0
POINT
  5
801C
  8
DEFPOINTS
 62
     0
 10
1604.5132366552591
 20
1632.155659011253
 30
0.0
  0
POINT
  5
801D
  8
DEFPOINTS
 62
     0
 10
1604.5132366552591
 20
1581.297099775476
 30
0.0
  0
ENDBLK
  5
7DC6
  8
0
  0
BLOCK
  8
0
  2
*D2
 70
     1
 10
0.0
 20
0.0
 30
0.0
  3
*D2
  1

  0
LINE
  5
801E
  8
3
 62
     0
 10
1604.5132366552591
 20
1622.155659011253
 30
0.0
 11
1604.5132366552591
 21
1561.297099775476
 31
0.0
  0
LINE
  5
801F
  8
3
 62
     0
 10
1919.51323665526
 20
1738.549558011254
 30
0.0
 11
1919.51323665526
 21
1561.297099775476
 31
0.0
  0
LINE
  5
8020
  8
3
 62
     0
 10
1644.5132366552591
 20
1581.297099775476
 30
0.0
 11
1879.5132366552591
 21
1581.297099775476
 31
0.0
  0
INSERT
  5
8021
  8
3
 62
     0
  2
_OPEN
 10
1604.5132366552591
 20
1581.297099775476
 30
0.0
 41
40.0
 42
40.0
 43
40.0
 50
180.0
  0
INSERT
  5
8022
  8
3
 62
     0
  2
_OPEN
 10
1919.51323665526
 20
1581.297099775476
 30
0.0
 41
40.0
 42
40.0
 43
40.0
  0
TEXT
  8
3
  40
60
  5
80AF
  62
0
  72
0
  71
0
 10
1668.08
 20
1525.10
 30
0.000000
  1
315
  0
POINT
  5
8024
  8
DEFPOINTS
 62
     0
 10
1604.5132366552591
 20
1632.155659011253
 30
0.0
  0
POINT
  5
8025
  8
DEFPOINTS
 62
     0
 10
1919.51323665526
 20
1748.549558011254
 30
0.0
  0
POINT
  5
8026
  8
DEFPOINTS
 62
     0
 10
1919.51323665526
 20
1581.297099775476
 30
0.0
  0
ENDBLK
  5
7DD1
  8
0
  0
BLOCK
  8
0
  2
*D3
 70
     1
 10
0.0
 20
0.0
 30
0.0
  3
*D3
  1

  0
LINE
  5
8027
  8
3
 62
     0
 10
1974.5132366552591
 20
2362.5495580112538
 30
0.0
 11
2148.913702427375
 21
2362.5495580112538
 31
0.0
  0
LINE
  5
8028
  8
3
 62
     0
 10
1974.5132366552591
 20
1850.549558011254
 30
0.0
 11
2148.913702427375
 21
1850.549558011254
 31
0.0
  0
LINE
  5
8029
  8
3
 62
     0
 10
2128.913702427375
 20
2322.5495580112538
 30
0.0
 11
2128.913702427375
 21
1890.549558011254
 31
0.0
  0
INSERT
  5
802A
  8
3
 62
     0
  2
_OPEN
 10
2128.913702427375
 20
2362.5495580112538
 30
0.0
 41
40.0
 42
40.0
 43
40.0
 50
90.0
  0
INSERT
  5
802B
  8
3
 62
     0
  2
_OPEN
 10
2128.913702427375
 20
1850.549558011254
 30
0.0
 41
40.0
 42
40.0
 43
40.0
 50
270.0
  0
TEXT
  8
3
  40
60
  5
80B0
  62
0
  72
0
  71
0
 10
1958.91
 20
2018.47
 30
0.000000
  1
512
  0
POINT
  5
802D
  8
DEFPOINTS
 62
     0
 10
1964.51323665526
 20
2362.5495580112538
 30
0.0
  0
POINT
  5
802E
  8
DEFPOINTS
 62
     0
 10
1964.51323665526
 20
1850.549558011254
 30
0.0
  0
POINT
  5
802F
  8
DEFPOINTS
 62
     0
 10
2128.913702427375
 20
1850.549558011254
 30
0.0
  0
ENDBLK
  5
7E97
  8
0
  0
BLOCK
  8
0
  2
*D4
 70
     1
 10
0.0
 20
0.0
 30
0.0
  3
*D4
  1

  0
LINE
  5
8030
  8
3
 62
     0
 10
1912.9060446552601
 20
2388.5495580112529
 30
0.0
 11
2273.087615385793
 21
2388.5495580112529
 31
0.0
  0
LINE
  5
8031
  8
3
 62
     0
 10
1974.5132366552591
 20
1850.549558011254
 30
0.0
 11
2273.087615385793
 21
1850.549558011254
 31
0.0
  0
LINE
  5
8032
  8
3
 62
     0
 10
2253.0876153857939
 20
2348.5495580112529
 30
0.0
 11
2253.0876153857939
 21
1890.549558011254
 31
0.0
  0
INSERT
  5
8033
  8
3
 62
     0
  2
_OPEN
 10
2253.0876153857939
 20
2388.5495580112529
 30
0.0
 41
40.0
 42
40.0
 43
40.0
 50
90.0
  0
INSERT
  5
8034
  8
3
 62
     0
  2
_OPEN
 10
2253.0876153857939
 20
1850.549558011254
 30
0.0
 41
40.0
 42
40.0
 43
40.0
 50
270.0
  0
TEXT
  8
3
  40
60
  5
80B1
  62
0
  72
0
  71
0
 10
2083.09
 20
1995.18
 30
0.000000
  1
538
  0
POINT
  5
8036
  8
DEFPOINTS
 62
     0
 10
1902.9060446552589
 20
2388.5495580112529
 30
0.0
  0
POINT
  5
8037
  8
DEFPOINTS
 62
     0
 10
1964.51323665526
 20
1850.549558011254
 30
0.0
  0
POINT
  5
8038
  8
DEFPOINTS
 62
     0
 10
2253.0876153857939
 20
1850.549558011254
 30
0.0
  0
ENDBLK
  5
7E76
  8
0
  0
BLOCK
  8
0
  2
*D5
 70
     1
 10
0.0
 20
0.0
 30
0.0
  3
*D5
  1

  0
LINE
  5
8039
  8
3
 62
     0
 10
1612.622242655259
 20
2749.4516260112541
 30
0.0
 11
2380.4987396229658
 21
2749.4516260112541
 31
0.0
  0
LINE
  5
803A
  8
3
 62
     0
 10
1894.5132366552591
 20
2388.5495580112529
 30
0.0
 11
2380.4987396229658
 21
2388.5495580112529
 31
0.0
  0
LINE
  5
803B
  8
3
 62
     0
 10
2360.4987396229658
 20
2709.4516260112532
 30
0.0
 11
2360.4987396229658
 21
2428.5495580112529
 31
0.0
  0
INSERT
  5
803C
  8
3
 62
     0
  2
_OPEN
 10
2360.4987396229658
 20
2749.4516260112541
 30
0.0
 41
40.0
 42
40.0
 43
40.0
 50
90.0
  0
INSERT
  5
803D
  8
3
 62
     0
  2
_OPEN
 10
2360.4987396229658
 20
2388.5495580112529
 30
0.0
 41
40.0
 42
40.0
 43
40.0
 50
270.0
  0
TEXT
  8
3
  40
60
  5
80B2
  62
0
  72
0
  71
0
 10
2190.50
 20
2469.23
 30
0.000000
  1
361
  0
POINT
  5
803F
  8
DEFPOINTS
 62
     0
 10
1602.622242655259
 20
2749.4516260112541
 30
0.0
  0
POINT
  5
8040
  8
DEFPOINTS
 62
     0
 10
1884.5132366552591
 20
2388.5495580112529
 30
0.0
  0
POINT
  5
8041
  8
DEFPOINTS
 62
     0
 10
2360.4987396229658
 20
2388.5495580112529
 30
0.0
  0
ENDBLK
  5
7E6B
  8
0
  0
BLOCK
  8
0
  2
*D6
 70
     1
 10
0.0
 20
0.0
 30
0.0
  3
*D6
  1

  0
LINE
  5
8042
  8
3
 62
     0
 10
1894.5132366552591
 20
2388.5495580112529
 30
0.0
 11
2379.0683311078351
 21
2388.5495580112529
 31
0.0
  0
LINE
  5
8043
  8
3
 62
     0
 10
1929.5132366552591
 20
1748.549558011254
 30
0.0
 11
2379.0683311078351
 21
1748.549558011254
 31
0.0
  0
LINE
  5
8044
  8
3
 62
     0
 10
2359.0683311078351
 20
2348.5495580112529
 30
0.0
 11
2359.0683311078351
 21
1788.549558011254
 31
0.0
  0
INSERT
  5
8045
  8
3
 62
     0
  2
_OPEN
 10
2359.0683311078351
 20
2388.5495580112529
 30
0.0
 41
40.0
 42
40.0
 43
40.0
 50
90.0
  0
INSERT
  5
8046
  8
3
 62
     0
  2
_OPEN
 10
2359.0683311078351
 20
1748.549558011254
 30
0.0
 41
40.0
 42
40.0
 43
40.0
 50
270.0
  0
TEXT
  8
3
  40
60
  5
80B3
  62
0
  72
0
  71
0
 10
2189.07
 20
1962.35
 30
0.000000
  1
640
  0
POINT
  5
8048
  8
DEFPOINTS
 62
     0
 10
1884.5132366552591
 20
2388.5495580112529
 30
0.0
  0
POINT
  5
8049
  8
DEFPOINTS
 62
     0
 10
1919.51323665526
 20
1748.549558011254
 30
0.0
  0
POINT
  5
804A
  8
DEFPOINTS
 62
     0
 10
2359.0683311078351
 20
1748.549558011254
 30
0.0
  0
ENDBLK
  5
7E81
  8
0
  0
BLOCK
  8
0
  2
*D7
 70
     1
 10
0.0
 20
0.0
 30
0.0
  3
*D7
  1

  0
LINE
  5
804B
  8
3
 62
     0
 10
1614.5132366552591
 20
2749.279310011254
 30
0.0
 11
2508.6067974867592
 21
2749.279310011254
 31
0.0
  0
LINE
  5
804C
  8
3
 62
     0
 10
1929.5132366552591
 20
1748.549558011254
 30
0.0
 11
2508.6067974867592
 21
1748.549558011254
 31
0.0
  0
LINE
  5
804D
  8
3
 62
     0
 10
2488.6067974867578
 20
2709.279310011254
 30
0.0
 11
2488.6067974867578
 21
1788.549558011254
 31
0.0
  0
INSERT
  5
804E
  8
3
 62
     0
  2
_OPEN
 10
2488.6067974867578
 20
2749.279310011254
 30
0.0
 41
40.0
 42
40.0
 43
40.0
 50
90.0
  0
INSERT
  5
804F
  8
3
 62
     0
  2
_OPEN
 10
2488.6067974867578
 20
1748.549558011254
 30
0.0
 41
40.0
 42
40.0
 43
40.0
 50
270.0
  0
TEXT
  8
3
  40
60
  5
80B4
  62
0
  72
0
  71
0
 10
2318.61
 20
2126.85
 30
0.000000
  1
1001
  0
POINT
  5
8051
  8
DEFPOINTS
 62
     0
 10
1604.5132366552591
 20
2749.279310011254
 30
0.0
  0
POINT
  5
8052
  8
DEFPOINTS
 62
     0
 10
1919.51323665526
 20
1748.549558011254
 30
0.0
  0
POINT
  5
8053
  8
DEFPOINTS
 62
     0
 10
2488.6067974867578
 20
1748.549558011254
 30
0.0
  0
ENDBLK
  5
7E8C
  8
0
  0
BLOCK
  8
0
  2
*D8
 70
     1
 10
0.0
 20
0.0
 30
0.0
  3
*D8
  1

  0
LINE
  5
8054
  8
3
 62
     0
 10
1169.7825316552589
 20
2398.5495580112529
 30
0.0
 11
1169.7825316552589
 21
2894.0946940112531
 31
0.0
  0
LINE
  5
8055
  8
3
 62
     0
 10
1604.5132366552591
 20
2759.279310011254
 30
0.0
 11
1604.5132366552591
 21
2894.0946940112531
 31
0.0
  0
LINE
  5
8056
  8
3
 62
     0
 10
1209.7825316552589
 20
2874.0946940112531
 30
0.0
 11
1564.5132366552591
 21
2874.0946940112531
 31
0.0
  0
INSERT
  5
8057
  8
3
 62
     0
  2
_OPEN
 10
1169.7825316552589
 20
2874.0946940112531
 30
0.0
 41
40.0
 42
40.0
 43
40.0
 50
180.0
  0
INSERT
  5
8058
  8
3
 62
     0
  2
_OPEN
 10
1604.5132366552591
 20
2874.0946940112531
 30
0.0
 41
40.0
 42
40.0
 43
40.0
  0
TEXT
  8
3
  40
60
  5
80B5
  62
0
  72
0
  71
0
 10
1255.50
 20
2817.89
 30
0.000000
  1
435
  0
POINT
  5
805A
  8
DEFPOINTS
 62
     0
 10
1169.7825316552589
 20
2388.5495580112529
 30
0.0
  0
POINT
  5
805B
  8
DEFPOINTS
 62
     0
 10
1604.5132366552591
 20
2749.279310011254
 30
0.0
  0
POINT
  5
805C
  8
DEFPOINTS
 62
     0
 10
1604.5132366552591
 20
2874.0946940112531
 30
0.0
  0
ENDBLK
  5
7D6E
  8
0
  0
BLOCK
  8
0
  2
*D9
 70
     1
 10
0.0
 20
0.0
 30
0.0
  3
*D9
  1

  0
LINE
  5
805D
  8
3
 62
     0
 10
1604.5132366552591
 20
2759.279310011254
 30
0.0
 11
1604.5132366552591
 21
2894.0946940112531
 31
0.0
  0
LINE
  5
805E
  8
3
 62
     0
 10
1964.51323665526
 20
2404.1495580112528
 30
0.0
 11
1964.51323665526
 21
2894.0946940112531
 31
0.0
  0
LINE
  5
805F
  8
3
 62
     0
 10
1644.5132366552591
 20
2874.0946940112531
 30
0.0
 11
1924.5132366552591
 21
2874.0946940112531
 31
0.0
  0
INSERT
  5
8060
  8
3
 62
     0
  2
_OPEN
 10
1604.5132366552591
 20
2874.0946940112531
 30
0.0
 41
40.0
 42
40.0
 43
40.0
 50
180.0
  0
INSERT
  5
8061
  8
3
 62
     0
  2
_OPEN
 10
1964.51323665526
 20
2874.0946940112531
 30
0.0
 41
40.0
 42
40.0
 43
40.0
  0
TEXT
  8
3
  40
60
  5
80B6
  62
0
  72
0
  71
0
 10
1686.26
 20
2817.89
 30
0.000000
  1
360
  0
POINT
  5
8063
  8
DEFPOINTS
 62
     0
 10
1604.5132366552591
 20
2749.279310011254
 30
0.0
  0
POINT
  5
8064
  8
DEFPOINTS
 62
     0
 10
1964.51323665526
 20
2394.1495580112528
 30
0.0
  0
POINT
  5
8065
  8
DEFPOINTS
 62
     0
 10
1964.51323665526
 20
2874.0946940112531
 30
0.0
  0
ENDBLK
  5
7D63
  8
0
  0
BLOCK
  8
0
  2
*D10
 70
     1
 10
0.0
 20
0.0
 30
0.0
  3
*D10
  1

  0
LINE
  5
8066
  8
3
 62
     0
 10
739.51323665525979
 20
3660.8169478229588
 30
0.0
 11
739.51323665525979
 21
3316.3467718229599
 31
0.0
  0
LINE
  5
8067
  8
3
 62
     0
 10
1919.51323665526
 20
3660.8169478229588
 30
0.0
 11
1919.51323665526
 21
3316.3467718229599
 31
0.0
  0
LINE
  5
8068
  8
3
 62
     0
 10
779.51323665525967
 20
3336.346771822959
 30
0.0
 11
1879.5132366552591
 21
3336.346771822959
 31
0.0
  0
INSERT
  5
8069
  8
3
 62
     0
  2
_OPEN
 10
739.51323665525979
 20
3336.346771822959
 30
0.0
 41
40.0
 42
40.0
 43
40.0
 50
180.0
  0
INSERT
  5
806A
  8
3
 62
     0
  2
_OPEN
 10
1919.51323665526
 20
3336.346771822959
 30
0.0
 41
40.0
 42
40.0
 43
40.0
  0
TEXT
  8
3
  40
60
  5
80B7
  62
0
  72
0
  71
0
 10
1155.84
 20
3280.15
 30
0.000000
  1
1180
  0
POINT
  5
806C
  8
DEFPOINTS
 62
     0
 10
739.51323665525979
 20
3670.8169478229588
 30
0.0
  0
POINT
  5
806D
  8
DEFPOINTS
 62
     0
 10
1919.51323665526
 20
3670.8169478229588
 30
0.0
  0
POINT
  5
806E
  8
DEFPOINTS
 62
     0
 10
1919.51323665526
 20
3336.346771822959
 30
0.0
  0
ENDBLK
  5
7D58
  8
0
  0
BLOCK
  8
0
  2
*D11
 70
     1
 10
0.0
 20
0.0
 30
0.0
  3
*D11
  1

  0
LINE
  5
806F
  8
3
 62
     0
 10
1929.5132366552591
 20
4230.8169478229593
 30
0.0
 11
2219.7685236552602
 21
4230.8169478229584
 31
0.0
  0
LINE
  5
8070
  8
3
 62
     0
 10
1929.5132366552591
 20
3670.8169478229588
 30
0.0
 11
2219.7685236552602
 21
3670.8169478229588
 31
0.0
  0
LINE
  5
8071
  8
3
 62
     0
 10
2199.7685236552602
 20
4190.8169478229584
 30
0.0
 11
2199.7685236552602
 21
3710.8169478229588
 31
0.0
  0
INSERT
  5
8072
  8
3
 62
     0
  2
_OPEN
 10
2199.7685236552602
 20
4230.8169478229584
 30
0.0
 41
40.0
 42
40.0
 43
40.0
 50
90.0
  0
INSERT
  5
8073
  8
3
 62
     0
  2
_OPEN
 10
2199.7685236552602
 20
3670.8169478229588
 30
0.0
 41
40.0
 42
40.0
 43
40.0
 50
270.0
  0
TEXT
  8
3
  40
60
  5
80B8
  62
0
  72
0
  71
0
 10
2029.77
 20
3874.13
 30
0.000000
  1
560
  0
POINT
  5
8075
  8
DEFPOINTS
 62
     0
 10
1919.51323665526
 20
4230.8169478229593
 30
0.0
  0
POINT
  5
8076
  8
DEFPOINTS
 62
     0
 10
1919.51323665526
 20
3670.8169478229588
 30
0.0
  0
POINT
  5
8077
  8
DEFPOINTS
 62
     0
 10
2199.7685236552602
 20
3670.8169478229588
 30
0.0
  0
ENDBLK
  5
7D4D
  8
0
  0
BLOCK
  8
0
  2
*D12
 70
     1
 10
0.0
 20
0.0
 30
0.0
  3
*D12
  1

  0
LINE
  5
8078
  8
3
 62
     0
 10
3041.4804770225678
 20
2760.9975490112538
 30
0.0
 11
3041.4804770225678
 21
2857.405216412862
 31
0.0
  0
LINE
  5
8079
  8
3
 62
     0
 10
3416.4804770225678
 20
2760.9975490112538
 30
0.0
 11
3416.4804770225678
 21
2857.405216412862
 31
0.0
  0
LINE
  5
807A
  8
3
 62
     0
 10
3081.4804770225678
 20
2837.405216412862
 30
0.0
 11
3376.4804770225678
 21
2837.405216412862
 31
0.0
  0
INSERT
  5
807B
  8
3
 62
     0
  2
_OPEN
 10
3041.4804770225678
 20
2837.405216412862
 30
0.0
 41
40.0
 42
40.0
 43
40.0
 50
180.0
  0
INSERT
  5
807C
  8
3
 62
     0
  2
_OPEN
 10
3416.4804770225678
 20
2837.405216412862
 30
0.0
 41
40.0
 42
40.0
 43
40.0
  0
TEXT
  8
3
  40
60
  5
80B9
  62
0
  72
0
  71
0
 10
3112.63
 20
2781.21
 30
0.000000
  1
375
  0
POINT
  5
807E
  8
DEFPOINTS
 62
     0
 10
3041.4804770225678
 20
2750.9975490112538
 30
0.0
  0
POINT
  5
807F
  8
DEFPOINTS
 62
     0
 10
3416.4804770225678
 20
2750.9975490112538
 30
0.0
  0
POINT
  5
8080
  8
DEFPOINTS
 62
     0
 10
3416.4804770225678
 20
2837.405216412862
 30
0.0
  0
ENDBLK
  5
7EEF
  8
0
  0
BLOCK
  8
0
  2
*D13
 70
     1
 10
0.0
 20
0.0
 30
0.0
  3
*D13
  1

  0
LINE
  5
8081
  8
3
 62
     0
 10
2818.9804770225678
 20
2523.5495580112538
 30
0.0
 11
2818.9804770225678
 21
2994.7771274648971
 31
0.0
  0
LINE
  5
8082
  8
3
 62
     0
 10
3228.9804770225678
 20
2934.9239828709592
 30
0.0
 11
3228.9804770225678
 21
2994.7771274648971
 31
0.0
  0
LINE
  5
8083
  8
3
 62
     0
 10
2858.9804770225678
 20
2974.7771274648971
 30
0.0
 11
3188.9804770225678
 21
2974.7771274648971
 31
0.0
  0
INSERT
  5
8084
  8
3
 62
     0
  2
_OPEN
 10
2818.9804770225678
 20
2974.7771274648971
 30
0.0
 41
40.0
 42
40.0
 43
40.0
 50
180.0
  0
INSERT
  5
8085
  8
3
 62
     0
  2
_OPEN
 10
3228.9804770225678
 20
2974.7771274648971
 30
0.0
 41
40.0
 42
40.0
 43
40.0
  0
TEXT
  8
3
  40
60
  5
80BA
  62
0
  72
0
  71
0
 10
2896.12
 20
2968.58
 30
0.000000
  1
MAX
  0
TEXT
  8
3
  40
60
  5
80BB
  62
0
  72
0
  71
0
 10
2896.12
 20
2890.58
 30
0.000000
  1
450
  0
POINT
  5
8087
  8
DEFPOINTS
 62
     0
 10
2818.9804770225678
 20
2513.5495580112538
 30
0.0
  0
POINT
  5
8088
  8
DEFPOINTS
 62
     0
 10
3228.9804770225678
 20
2924.9239828709592
 30
0.0
  0
POINT
  5
8089
  8
DEFPOINTS
 62
     0
 10
3228.9804770225678
 20
2974.7771274648971
 30
0.0
  0
ENDBLK
  5
7F09
  8
0
  0
BLOCK
  8
0
  2
*D14
 70
     1
 10
0.0
 20
0.0
 30
0.0
  3
*D14
  1

  0
LINE
  5
808A
  8
3
 62
     0
 10
3228.9804770225678
 20
2934.9239828709592
 30
0.0
 11
3228.9804770225678
 21
2994.7771274648971
 31
0.0
  0
LINE
  5
808B
  8
3
 62
     0
 10
3479.9804770225692
 20
2678.5495580112529
 30
0.0
 11
3479.9804770225692
 21
2994.7771274648971
 31
0.0
  0
LINE
  5
808C
  8
3
 62
     0
 10
3268.9804770225678
 20
2974.7771274648971
 30
0.0
 11
3439.9804770225678
 21
2974.7771274648971
 31
0.0
  0
INSERT
  5
808D
  8
3
 62
     0
  2
_OPEN
 10
3228.9804770225678
 20
2974.7771274648971
 30
0.0
 41
40.0
 42
40.0
 43
40.0
 50
180.0
  0
INSERT
  5
808E
  8
3
 62
     0
  2
_OPEN
 10
3479.9804770225692
 20
2974.7771274648971
 30
0.0
 41
40.0
 42
40.0
 43
40.0
  0
TEXT
  8
3
  40
60
  5
80BC
  62
0
  72
0
  71
0
 10
3233.27
 20
2918.58
 30
0.000000
  1
251
  0
POINT
  5
8090
  8
DEFPOINTS
 62
     0
 10
3228.9804770225678
 20
2924.9239828709592
 30
0.0
  0
POINT
  5
8091
  8
DEFPOINTS
 62
     0
 10
3479.9804770225692
 20
2668.5495580112529
 30
0.0
  0
POINT
  5
8092
  8
DEFPOINTS
 62
     0
 10
3479.9804770225692
 20
2974.7771274648971
 30
0.0
  0
ENDBLK
  5
7F19
  8
0
  0
BLOCK
  8
0
  2
*D15
 70
     1
 10
0.0
 20
0.0
 30
0.0
  3
*D15
  1

  0
LINE
  5
8093
  8
3
 62
     0
 10
3489.9804770225678
 20
2638.5495580112538
 30
0.0
 11
3636.5749821473851
 21
2638.5495580112538
 31
0.0
  0
LINE
  5
8094
  8
3
 62
     0
 10
3489.9804770225678
 20
2138.5495580112538
 30
0.0
 11
3636.5749821473851
 21
2138.5495580112538
 31
0.0
  0
LINE
  5
8095
  8
3
 62
     0
 10
3616.5749821473842
 20
2598.5495580112529
 30
0.0
 11
3616.5749821473842
 21
2178.5495580112538
 31
0.0
  0
INSERT
  5
8096
  8
3
 62
     0
  2
_OPEN
 10
3616.5749821473842
 20
2638.5495580112538
 30
0.0
 41
40.0
 42
40.0
 43
40.0
 50
90.0
  0
INSERT
  5
8097
  8
3
 62
     0
  2
_OPEN
 10
3616.5749821473842
 20
2138.5495580112538
 30
0.0
 41
40.0
 42
40.0
 43
40.0
 50
270.0
  0
TEXT
  8
3
  40
60
  5
80BD
  62
0
  72
0
  71
0
 10
3446.57
 20
2274.95
 30
0.000000
  1
φ500
  0
POINT
  5
8099
  8
DEFPOINTS
 62
     0
 10
3479.9804770225692
 20
2638.5495580112538
 30
0.0
  0
POINT
  5
809A
  8
DEFPOINTS
 62
     0
 10
3479.9804770225692
 20
2138.5495580112538
 30
0.0
  0
POINT
  5
809B
  8
DEFPOINTS
 62
     0
 10
3616.5749821473842
 20
2138.5495580112538
 30
0.0
  0
ENDBLK
  5
7E13
  8
0
  0
BLOCK
  8
0
  2
*D16
 70
     1
 10
0.0
 20
0.0
 30
0.0
  3
*D16
  1

  0
LINE
  5
809C
  8
3
 62
     0
 10
2898.9804770225678
 20
1738.549558011254
 30
0.0
 11
2898.9804770225678
 21
1569.935543454372
 31
0.0
  0
LINE
  5
809D
  8
3
 62
     0
 10
3228.9804770225678
 20
1680.2905370112539
 30
0.0
 11
3228.9804770225678
 21
1569.935543454372
 31
0.0
  0
LINE
  5
809E
  8
3
 62
     0
 10
2938.9804770225678
 20
1589.935543454372
 30
0.0
 11
3188.9804770225678
 21
1589.935543454372
 31
0.0
  0
INSERT
  5
809F
  8
3
 62
     0
  2
_OPEN
 10
2898.9804770225678
 20
1589.935543454372
 30
0.0
 41
40.0
 42
40.0
 43
40.0
 50
180.0
  0
INSERT
  5
80A0
  8
3
 62
     0
  2
_OPEN
 10
3228.9804770225678
 20
1589.935543454372
 30
0.0
 41
40.0
 42
40.0
 43
40.0
  0
TEXT
  8
3
  40
60
  5
80BE
  62
0
  72
0
  71
0
 10
2971.84
 20
1533.74
 30
0.000000
  1
330
  0
POINT
  5
80A2
  8
DEFPOINTS
 62
     0
 10
2898.9804770225678
 20
1748.549558011254
 30
0.0
  0
POINT
  5
80A3
  8
DEFPOINTS
 62
     0
 10
3228.9804770225678
 20
1690.2905370112539
 30
0.0
  0
POINT
  5
80A4
  8
DEFPOINTS
 62
     0
 10
3228.9804770225678
 20
1589.935543454372
 30
0.0
  0
ENDBLK
  5
7DF2
  8
0
  0
BLOCK
  8
0
  2
*D17
 70
     1
 10
0.0
 20
0.0
 30
0.0
  3
*D17
  1

  0
LINE
  5
7DFF
  8
0
  6
BYBLOCK
 62
     0
 10
3228.9804770225678
 20
1680.2905370112539
 30
0.0
 11
3228.9804770225678
 21
1569.935543454372
 31
0.0
  0
LINE
  5
7E00
  8
0
  6
BYBLOCK
 62
     0
 10
3458.9804770225678
 20
1738.549558011254
 30
0.0
 11
3458.9804770225678
 21
1569.935543454372
 31
0.0
  0
LINE
  5
7E01
  8
0
  6
BYBLOCK
 62
     0
 10
3268.9804770225678
 20
1589.935543454372
 30
0.0
 11
3418.9804770225678
 21
1589.935543454372
 31
0.0
  0
TEXT
  5
7E02
  8
3
 62
     0
 10
3274.5978254988381
 20
1608.2075939978311
 30
0.0
 40
60.0
  1
230
  0
INSERT
  5
7E03
  8
0
  6
BYBLOCK
 62
     0
  2
_OPEN
 10
3228.9804770225678
 20
1589.935543454372
 30
0.0
 41
40.0
 42
40.0
 43
40.0
 50
180.0
  0
INSERT
  5
7E04
  8
0
  6
BYBLOCK
 62
     0
  2
_OPEN
 10
3458.9804770225678
 20
1589.935543454372
 30
0.0
 41
40.0
 42
40.0
 43
40.0
  0
POINT
  5
7E05
  8
DEFPOINTS
  6
BYBLOCK
 62
     0
 10
3228.9804770225678
 20
1690.2905370112539
 30
0.0
  0
POINT
  5
7E06
  8
DEFPOINTS
  6
BYBLOCK
 62
     0
 10
3458.9804770225678
 20
1748.549558011254
 30
0.0
  0
POINT
  5
7E07
  8
DEFPOINTS
  6
BYBLOCK
 62
     0
 10
3458.9804770225678
 20
1589.935543454372
 30
0.0
  0
ENDBLK
  5
7E08
  8
0
  0
BLOCK
  8
0
  2
*D18
 70
     1
 10
0.0
 20
0.0
 30
0.0
  3
*D18
  1

  0
LINE
  5
80A5
  8
3
 62
     0
 10
1964.51323665526
 20
2414.1495580112528
 30
0.0
 11
1964.51323665526
 21
3019.7915978063279
 31
0.0
  0
LINE
  5
80A6
  8
3
 62
     0
 10
739.51323665525979
 20
1823.549558011254
 30
0.0
 11
739.5132366552599
 21
3019.7915978063279
 31
0.0
  0
LINE
  5
80A7
  8
3
 62
     0
 10
1924.5132366552591
 20
2999.7915978063279
 30
0.0
 11
779.5132366552599
 21
2999.7915978063279
 31
0.0
  0
INSERT
  5
80A8
  8
3
 62
     0
  2
_OPEN
 10
1964.51323665526
 20
2999.7915978063279
 30
0.0
 41
40.0
 42
40.0
 43
40.0
  0
INSERT
  5
80A9
  8
3
 62
     0
  2
_OPEN
 10
739.5132366552599
 20
2999.7915978063279
 30
0.0
 41
40.0
 42
40.0
 43
40.0
 50
180.0
  0
TEXT
  8
3
  40
60
  5
80BF
  62
0
  72
0
  71
0
 10
1257.33
 20
2943.59
 30
0.000000
  1
1225
  0
POINT
  5
80AB
  8
DEFPOINTS
 62
     0
 10
1964.51323665526
 20
2404.1495580112528
 30
0.0
  0
POINT
  5
80AC
  8
DEFPOINTS
 62
     0
 10
739.51323665525979
 20
1813.549558011254
 30
0.0
  0
POINT
  5
80AD
  8
DEFPOINTS
 62
     0
 10
739.5132366552599
 20
2999.7915978063279
 30
0.0
  0
ENDBLK
  5
7EFB
  8
0
  0
ENDSEC
  0
SECTION
  2
ENTITIES
  0
LINE
  5
7A74
  8
1
 10
812.01323665525967
 20
3735.8169478229588
 30
0.0
 11
812.01323665525967
 21
4135.8169478229584
 31
0.0
  0
LINE
  5
7A75
  8
1
 10
1097.0132366552591
 20
3735.8169478229588
 30
0.0
 11
1097.0132366552591
 21
4135.8169478229584
 31
0.0
  0
LINE
  5
7A76
  8
1
 10
739.51323665525979
 20
3670.8169478229588
 30
0.0
 11
739.51323665525979
 21
4230.8169478229593
 31
0.0
  0
LINE
  5
7A77
  8
1
 10
1964.51323665526
 20
4190.3169478229593
 30
0.0
 11
1964.51323665526
 21
3780.8169478229588
 31
0.0
  0
LINE
  5
7A78
  8
1
 10
1934.5132366552591
 20
3813.3169478229602
 30
0.0
 11
1934.5132366552591
 21
4188.3169478229602
 31
0.0
  0
LINE
  5
7A79
  8
1
 10
1168.0652466552599
 20
3813.3169478229602
 30
0.0
 11
1168.0652466552599
 21
4188.3169478229602
 31
0.0
  0
LINE
  5
7A7A
  8
2
 10
954.51323665525979
 20
1950.549558011254
 30
0.0
 11
954.51323665525979
 21
2110.5495580112529
 31
0.0
  0
ARC
  5
7A7B
  8
1
 10
954.51323665525979
 20
2030.549558011254
 30
0.0
 40
125.0
 50
118.8446209999999
 51
298.84462100000002
  0
CIRCLE
  5
7A7C
  8
1
 10
954.51323665525979
 20
2030.549558011254
 30
0.0
 40
75.0
  0
ARC
  5
7A7D
  8
1
 10
954.51323665525979
 20
2030.549558011254
 30
0.0
 40
143.0
 50
324.34590999999989
 51
215.65408999999991
  0
POLYLINE
  5
7A7E
  8
1
 66
     1
 10
0.0
 20
0.0
 30
0.0
  0
VERTEX
  5
800E
  8
1
 10
1964.51323665526
 20
1850.549558011254
 30
0.0
  0
VERTEX
  5
800F
  8
1
 10
1604.5132366552591
 20
1879.549558011254
 30
0.0
 42
-0.391482
  0
VERTEX
  5
8010
  8
1
 10
1168.0652466552599
 20
2351.5495580112529
 30
0.0
 42
-0.440232
  0
VERTEX
  5
8011
  8
1
 10
1602.622242655259
 20
2749.4516260112541
 30
0.0
 42
-0.388666
  0
VERTEX
  5
8012
  8
1
 10
1904.6970356552599
 20
2419.5495580112538
 30
0.0
 42
-0.053392
  0
VERTEX
  5
8013
  8
1
 10
1898.592915655259
 20
2362.5495580112538
 30
0.0
 42
-0.393627
  0
SEQEND
  5
8014
  8
1
  0
LINE
  5
7A86
  8
1
 10
1934.5132366552591
 20
2362.5495580112538
 30
0.0
 11
1934.5132366552591
 21
1852.9662250112531
 31
0.0
  0
LINE
  5
7A87
  8
1
 10
1964.51323665526
 20
2394.1495580112528
 30
0.0
 11
1964.51323665526
 21
1818.944375011253
 31
0.0
  0
LINE
  5
7A88
  8
1
 10
1014.817733655259
 20
1921.058154011253
 30
0.0
 11
1664.8177336552601
 21
2279.0581540112539
 31
0.0
  0
LINE
  5
7A89
  8
1
 10
990.69593565525975
 20
1964.854716011253
 30
0.0
 11
1640.6959356552591
 21
2322.8547160112539
 31
0.0
  0
LINE
  5
7A8A
  8
1
 10
1919.51323665526
 20
1813.549558011254
 30
0.0
 11
739.51323665525979
 21
1813.549558011254
 31
0.0
  0
LINE
  5
7A8B
  8
1
 10
1919.51323665526
 20
1748.549558011254
 30
0.0
 11
739.51323665525979
 21
1748.549558011254
 31
0.0
  0
LINE
  5
7A8C
  8
1
 10
1119.5132366552591
 20
1898.549558011254
 30
0.0
 11
789.51323665525979
 21
1898.549558011254
 31
0.0
  0
LINE
  5
7A8D
  8
1
 10
789.51323665525979
 20
1898.549558011254
 30
0.0
 11
779.51323665525967
 21
1853.549558011254
 31
0.0
  0
LINE
  5
7A8E
  8
1
 10
824.51323665525967
 20
1913.549558011254
 30
0.0
 11
838.54251465525965
 21
1947.7423030112541
 31
0.0
  0
LINE
  5
7A8F
  8
1
 10
824.51323665525967
 20
1898.549558011254
 30
0.0
 11
824.51323665525967
 21
1913.549558011254
 31
0.0
  0
LINE
  5
7A90
  8
1
 10
824.51323665525967
 20
1898.549558011254
 30
0.0
 11
874.51323665525967
 21
1898.549558011254
 31
0.0
  0
LINE
  5
7A91
  8
1
 10
779.51323665525967
 20
1853.549558011254
 30
0.0
 11
779.51323665525967
 21
1813.549558011254
 31
0.0
  0
LINE
  5
7A92
  8
1
 10
739.51323665525979
 20
1813.549558011254
 30
0.0
 11
739.51323665525979
 21
1748.549558011254
 31
0.0
  0
LINE
  5
7A93
  8
1
 10
1129.5132366552591
 20
1853.549558011254
 30
0.0
 11
1119.5132366552591
 21
1898.549558011254
 31
0.0
  0
LINE
  5
7A94
  8
1
 10
1084.5132366552591
 20
1898.549558011254
 30
0.0
 11
1034.5132366552591
 21
1898.549558011254
 31
0.0
  0
LINE
  5
7A95
  8
1
 10
1084.5132366552591
 20
1898.549558011254
 30
0.0
 11
1084.5132366552591
 21
1913.549558011254
 31
0.0
  0
LINE
  5
7A96
  8
1
 10
1084.5132366552591
 20
1913.549558011254
 30
0.0
 11
1070.483959655259
 21
1947.7423030112541
 31
0.0
  0
LINE
  5
7A97
  8
1
 10
1129.5132366552591
 20
1853.549558011254
 30
0.0
 11
1129.5132366552591
 21
1813.549558011254
 31
0.0
  0
LINE
  5
7A98
  8
1
 10
1919.51323665526
 20
1813.549558011254
 30
0.0
 11
1919.51323665526
 21
1748.549558011254
 31
0.0
  0
LINE
  5
7A99
  8
1
 10
1029.5132366552591
 20
3670.8169478229588
 30
0.0
 11
1529.5132366552591
 21
3670.8169478229588
 31
0.0
  0
LINE
  5
7A9A
  8
1
 10
829.51323665525979
 20
3605.8169478229588
 30
0.0
 11
1729.5132366552591
 21
3605.8169478229588
 31
0.0
  0
LINE
  5
7A9B
  8
1
 10
829.51323665525979
 20
3728.8169478229588
 30
0.0
 11
1729.5132366552591
 21
3728.8169478229588
 31
0.0
  0
LINE
  5
7A9C
  8
1
 10
1964.51323665526
 20
3813.3169478229602
 30
0.0
 11
1168.0652466552599
 21
3813.3169478229602
 31
0.0
  0
LINE
  5
7A9D
  8
1
 10
894.20874065526004
 20
2140.040963011254
 30
0.0
 11
1544.20874065526
 21
2498.040963011254
 31
0.0
  0
LINE
  5
7A9E
  8
1
 10
918.33053865526017
 20
2096.2444010112531
 30
0.0
 11
1568.3305386552599
 21
2454.2444010112531
 31
0.0
  0
LINE
  5
7A9F
  8
2
 10
874.51323665525967
 20
2030.549558011254
 30
0.0
 11
1034.5132366552591
 21
2030.549558011254
 31
0.0
  0
LINE
  5
7AA0
  8
1
 10
879.51323665525979
 20
3698.8169478229588
 30
0.0
 11
879.51323665525979
 21
3635.8169478229588
 31
0.0
  0
LINE
  5
7AA1
  8
1
 10
1029.5132366552591
 20
3698.8169478229588
 30
0.0
 11
1029.5132366552591
 21
3635.8169478229588
 31
0.0
  0
LINE
  5
7AA2
  8
1
 10
829.51323665525979
 20
3605.8169478229588
 30
0.0
 11
829.51323665525979
 21
3728.8169478229588
 31
0.0
  0
LINE
  5
7AA3
  8
1
 10
879.51323665525979
 20
3635.8169478229588
 30
0.0
 11
1029.5132366552591
 21
3635.8169478229588
 31
0.0
  0
LINE
  5
7AA4
  8
1
 10
812.01323665525967
 20
3735.8169478229588
 30
0.0
 11
1097.0132366552591
 21
3735.8169478229588
 31
0.0
  0
LINE
  5
7AA5
  8
1
 10
879.51323665525979
 20
3698.8169478229588
 30
0.0
 11
1029.5132366552591
 21
3698.8169478229588
 31
0.0
  0
LINE
  5
7AA6
  8
1
 10
935.51323665525967
 20
3698.8169478229588
 30
0.0
 11
935.51323665525967
 21
3735.8169478229588
 31
0.0
  0
LINE
  5
7AA7
  8
1
 10
739.51323665525979
 20
3670.8169478229588
 30
0.0
 11
879.51323665525979
 21
3670.8169478229588
 31
0.0
  0
LINE
  5
7AA8
  8
1
 10
973.51323665525979
 20
3698.8169478229588
 30
0.0
 11
973.51323665525979
 21
3735.8169478229588
 31
0.0
  0
CIRCLE
  5
7AA9
  8
1
 10
1604.5132366552591
 20
2388.5495580112529
 30
0.0
 40
280.0
  0
CIRCLE
  5
7AAA
  8
1
 10
1604.5132366552591
 20
2388.5495580112529
 30
0.0
 40
250.0
  0
LINE
  5
7AAB
  8
2
 10
1604.5132366552591
 20
4346.5828938229597
 30
0.0
 11
1604.5132366552591
 21
3511.7379438229591
 31
0.0
  0
ARC
  5
7AAC
  8
1
 10
1604.5132366552591
 20
2388.5495580112529
 30
0.0
 40
125.0
 50
298.84462100000002
 51
118.8446209999999
  0
CIRCLE
  5
7AAD
  8
1
 10
1604.5132366552591
 20
2388.5495580112529
 30
0.0
 40
75.0
  0
LINE
  5
7AAE
  8
2
 10
1063.83680865526
 20
2388.5495580112529
 30
0.0
 11
2045.204333655259
 21
2388.5495580112529
 31
0.0
  0
LINE
  5
7AAF
  8
1
 10
1898.592915655259
 20
2362.5495580112538
 30
0.0
 11
1964.51323665526
 21
2362.5495580112538
 31
0.0
  0
LINE
  5
7AB0
  8
1
 10
1679.5132366552591
 20
3670.8169478229588
 30
0.0
 11
1919.51323665526
 21
3670.8169478229588
 31
0.0
  0
LINE
  5
7AB1
  8
1
 10
1679.5132366552591
 20
3698.8169478229588
 30
0.0
 11
1679.5132366552591
 21
3635.8169478229588
 31
0.0
  0
LINE
  5
7AB2
  8
1
 10
1529.5132366552591
 20
3698.8169478229588
 30
0.0
 11
1529.5132366552591
 21
3635.8169478229588
 31
0.0
  0
LINE
  5
7AB3
  8
1
 10
1729.5132366552591
 20
3605.8169478229588
 30
0.0
 11
1729.5132366552591
 21
3728.8169478229588
 31
0.0
  0
LINE
  5
7AB4
  8
1
 10
1529.5132366552591
 20
3635.8169478229588
 30
0.0
 11
1679.5132366552591
 21
3635.8169478229588
 31
0.0
  0
LINE
  5
7AB5
  8
1
 10
1529.5132366552591
 20
3698.8169478229588
 30
0.0
 11
1679.5132366552591
 21
3698.8169478229588
 31
0.0
  0
LINE
  5
7AB6
  8
1
 10
1622.0132366552591
 20
3813.3169478229602
 30
0.0
 11
1622.0132366552591
 21
3698.8169478229588
 31
0.0
  0
LINE
  5
7AB7
  8
1
 10
1587.0132366552591
 20
3813.3169478229602
 30
0.0
 11
1587.0132366552591
 21
3698.8169478229588
 31
0.0
  0
LINE
  5
7AB8
  8
1
 10
1919.51323665526
 20
3670.8169478229588
 30
0.0
 11
1919.51323665526
 21
3813.3169478229602
 31
0.0
  0
LINE
  5
7AB9
  8
1
 10
739.51323665525979
 20
4230.8169478229593
 30
0.0
 11
1354.5132366552591
 21
4230.8169478229593
 31
0.0
  0
LINE
  5
7ABA
  8
1
 10
1964.51323665526
 20
4188.3169478229602
 30
0.0
 11
1168.0652466552599
 21
4188.3169478229602
 31
0.0
  0
LINE
  5
7ABB
  8
1
 10
812.01323665525967
 20
4135.8169478229584
 30
0.0
 11
1097.0132366552591
 21
4135.8169478229584
 31
0.0
  0
LINE
  5
7ABC
  8
1
 10
1884.5132366552591
 20
4251.8169478229593
 30
0.0
 11
1324.5132366552591
 21
4251.8169478229593
 31
0.0
  0
LINE
  5
7ABD
  8
1
 10
1354.5132366552591
 20
4188.3169478229602
 30
0.0
 11
1354.5132366552591
 21
4251.8169478229593
 31
0.0
  0
LINE
  5
7ABE
  8
1
 10
1919.51323665526
 20
4188.3169478229602
 30
0.0
 11
1919.51323665526
 21
4230.8169478229593
 31
0.0
  0
LINE
  5
7ABF
  8
1
 10
1854.5132366552591
 20
4230.8169478229593
 30
0.0
 11
1919.51323665526
 21
4230.8169478229593
 31
0.0
  0
LINE
  5
7AC0
  8
1
 10
1854.5132366552591
 20
4188.3169478229602
 30
0.0
 11
1854.5132366552591
 21
4251.8169478229593
 31
0.0
  0
LINE
  5
7AC1
  8
1
 10
1964.51323665526
 20
4190.8169478229593
 30
0.0
 11
1964.51323665526
 21
4220.8169478229593
 31
0.0
  0
LINE
  5
7AC2
  8
1
 10
2848.9804770225678
 20
1955.549558011254
 30
0.0
 11
2848.9804770225678
 21
2105.5495580112529
 31
0.0
  0
LINE
  5
7AC3
  8
1
 10
2941.9804770225678
 20
1955.549558011254
 30
0.0
 11
2941.9804770225678
 21
2105.5495580112529
 31
0.0
  0
LINE
  5
7AC4
  8
1
 10
2971.9804770225678
 20
1905.549558011254
 30
0.0
 11
2971.9804770225692
 21
1983.645378445751
 31
0.0
  0
LINE
  5
7AC5
  8
1
 10
2818.9804770225678
 20
1905.549558011254
 30
0.0
 11
2818.9804770225678
 21
2513.5495580112538
 31
0.0
  0
LINE
  5
7AC6
  8
1
 10
3416.4804770225678
 20
2750.9975490112538
 30
0.0
 11
3416.4804770225678
 21
1813.549558011254
 31
0.0
  0
LINE
  5
7AC7
  8
1
 10
3041.4804770225678
 20
2750.9975490112538
 30
0.0
 11
3041.4804770225678
 21
1813.549558011254
 31
0.0
  0
LINE
  5
7AC8
  8
1
 10
3479.9804770225692
 20
2108.5495580112538
 30
0.0
 11
3479.9804770225692
 21
2668.5495580112529
 31
0.0
  0
LINE
  5
7AC9
  8
1
 10
3041.4804770225678
 20
2362.5495580112538
 30
0.0
 11
3416.4804770225678
 21
1850.549558011254
 31
0.0
  0
LINE
  5
7ACA
  8
1
 10
3041.4804770225678
 20
1850.549558011254
 30
0.0
 11
3416.4804770225678
 21
2362.5495580112538
 31
0.0
  0
LINE
  5
7ACB
  8
1
 10
3458.9804770225678
 20
1813.549558011254
 30
0.0
 11
2898.9804770225678
 21
1813.549558011254
 31
0.0
  0
LINE
  5
7ACC
  8
1
 10
3458.9804770225678
 20
1748.549558011254
 30
0.0
 11
2898.9804770225678
 21
1748.549558011254
 31
0.0
  0
LINE
  5
7ACD
  8
1
 10
3041.4804770225678
 20
1850.549558011254
 30
0.0
 11
3416.4804770225678
 21
1850.549558011254
 31
0.0
  0
LINE
  5
7ACE
  8
1
 10
2818.9804770225678
 20
1905.549558011254
 30
0.0
 11
2971.9804770225678
 21
1905.549558011254
 31
0.0
  0
LINE
  5
7ACF
  8
1
 10
2941.9804770225678
 20
1955.549558011254
 30
0.0
 11
2848.9804770225678
 21
1955.549558011254
 31
0.0
  0
LINE
  5
7AD0
  8
1
 10
2898.9804770225678
 20
1748.549558011254
 30
0.0
 11
2898.9804770225678
 21
1813.549558011254
 31
0.0
  0
LINE
  5
7AD1
  8
1
 10
3458.9804770225678
 20
1748.549558011254
 30
0.0
 11
3458.9804770225678
 21
1813.549558011254
 31
0.0
  0
LINE
  5
7AD2
  8
1
 10
3416.4804770225678
 20
2138.5495580112538
 30
0.0
 11
3479.9804770225692
 21
2138.5495580112538
 31
0.0
  0
LINE
  5
7AD3
  8
1
 10
3041.4804770225678
 20
2362.5495580112538
 30
0.0
 11
3416.4804770225678
 21
2362.5495580112538
 31
0.0
  0
LINE
  5
7AD4
  8
1
 10
3041.4804770225678
 20
2750.9975490112538
 30
0.0
 11
3416.4804770225678
 21
2750.9975490112538
 31
0.0
  0
LINE
  5
7AD5
  8
1
 10
2941.9804770225678
 20
2313.5495580112538
 30
0.0
 11
2941.9804770225678
 21
2463.5495580112538
 31
0.0
  0
LINE
  5
7AD6
  8
1
 10
2848.9804770225678
 20
2313.5495580112538
 30
0.0
 11
2848.9804770225678
 21
2463.5495580112538
 31
0.0
  0
LINE
  5
7AD7
  8
1
 10
3041.4804770225678
 20
2371.0495580112529
 30
0.0
 11
2941.9804770225678
 21
2371.0495580112529
 31
0.0
  0
LINE
  5
7AD8
  8
1
 10
3041.4804770225678
 20
2406.0495580112529
 30
0.0
 11
2941.9804770225678
 21
2406.0495580112529
 31
0.0
  0
LINE
  5
7AD9
  8
1
 10
2941.9804770225678
 20
2011.549558011254
 30
0.0
 11
3041.4804770225678
 21
2011.549558011254
 31
0.0
  0
LINE
  5
7ADA
  8
1
 10
2941.9804770225678
 20
2049.5495580112538
 30
0.0
 11
3041.4804770225678
 21
2049.5495580112538
 31
0.0
  0
LINE
  5
7ADB
  8
1
 10
2941.9804770225678
 20
2105.5495580112529
 30
0.0
 11
2848.9804770225678
 21
2105.5495580112529
 31
0.0
  0
LINE
  5
7ADC
  8
1
 10
2941.9804770225678
 20
2313.5495580112538
 30
0.0
 11
2848.9804770225678
 21
2313.5495580112538
 31
0.0
  0
LINE
  5
7ADD
  8
1
 10
2818.9804770225678
 20
2513.5495580112538
 30
0.0
 11
2971.9804770225678
 21
2513.5495580112538
 31
0.0
  0
LINE
  5
7ADE
  8
1
 10
2941.9804770225678
 20
2463.5495580112538
 30
0.0
 11
2848.9804770225678
 21
2463.5495580112538
 31
0.0
  0
LINE
  5
7ADF
  8
1
 10
3416.4804770225678
 20
2638.5495580112538
 30
0.0
 11
3479.9804770225692
 21
2638.5495580112538
 31
0.0
  0
DIMENSION
  5
7AF3
  8
3
  2
*D1
 10
1604.5132366552591
 20
1581.297099775476
 30
0.0
 11
1165.1767626552601
 21
1581.297099775476
 31
0.0
 70
   128
 13
739.51323665525979
 23
1748.549558011254
 33
0.0
 14
1604.5132366552591
 24
1632.155659011253
 34
0.0
1001
ACAD
1000
DSTYLE
1002
{
1070
   287
1070
     3
1070
   287
1070
     3
1070
    40
1040
20.0
1070
   143
1040
0.039
1070
   172
1070
     1
1070
   271
1070
     0
1070
   279
1070
     0
1070
   288
1070
     1
1002
}
  0
DIMENSION
  5
7B01
  8
3
  2
*D2
 10
1919.51323665526
 20
1581.297099775476
 30
0.0
 11
1788.084665226688
 21
1581.297099775476
 31
0.0
 70
   128
 13
1604.5132366552591
 23
1632.155659011253
 33
0.0
 14
1919.51323665526
 24
1748.549558011254
 34
0.0
1001
ACAD
1000
DSTYLE
1002
{
1070
   287
1070
     3
1070
   287
1070
     3
1070
    40
1040
20.0
1070
   143
1040
0.039
1070
   172
1070
     1
1070
   271
1070
     0
1070
   279
1070
     0
1070
   288
1070
     1
1002
}
  0
DIMENSION
  5
7B24
  8
3
  2
*D3
 10
2128.913702427375
 20
1850.549558011254
 30
0.0
 11
2128.9137024273741
 21
2124.6662480112541
 31
0.0
 70
   128
 13
1964.51323665526
 23
2362.5495580112538
 33
0.0
 14
1964.51323665526
 24
1850.549558011254
 34
0.0
 50
90.0
1001
ACAD
1000
DSTYLE
1002
{
1070
   287
1070
     3
1070
   287
1070
     3
1070
    40
1040
20.0
1070
   143
1040
0.039
1070
   172
1070
     1
1070
   271
1070
     0
1070
   279
1070
     0
1070
   288
1070
     1
1002
}
  0
DIMENSION
  5
7B31
  8
3
  2
*D4
 10
2253.0876153857939
 20
1850.549558011254
 30
0.0
 11
2253.087615385793
 21
2101.3794210093929
 31
0.0
 70
   128
 13
1902.9060446552589
 23
2388.5495580112529
 33
0.0
 14
1964.51323665526
 24
1850.549558011254
 34
0.0
 50
90.0
1001
ACAD
1000
DSTYLE
1002
{
1070
   287
1070
     3
1070
   287
1070
     3
1070
    40
1040
20.0
1070
   143
1040
0.039
1070
   172
1070
     1
1070
   271
1070
     0
1070
   279
1070
     0
1070
   288
1070
     1
1002
}
  0
DIMENSION
  5
7B40
  8
3
  2
*D5
 10
2360.4987396229658
 20
2388.5495580112529
 30
0.0
 11
2360.4987396229658
 21
2575.4267008729798
 31
0.0
 70
   128
 13
1602.622242655259
 23
2749.4516260112541
 33
0.0
 14
1884.5132366552591
 24
2388.5495580112529
 34
0.0
 50
90.0
1001
ACAD
1000
DSTYLE
1002
{
1070
   287
1070
     3
1070
   287
1070
     3
1070
    40
1040
20.0
1070
   143
1040
0.039
1070
   172
1070
     1
1070
   271
1070
     0
1070
   279
1070
     0
1070
   288
1070
     1
1002
}
  0
DIMENSION
  5
7B4C
  8
3
  2
*D6
 10
2359.0683311078351
 20
1748.549558011254
 30
0.0
 11
2309.0683311078351
 21
2068.5495580112538
 31
0.0
 70
     0
 13
1884.5132366552591
 23
2388.5495580112529
 33
0.0
 14
1919.51323665526
 24
1748.549558011254
 34
0.0
 50
90.0
1001
ACAD
1000
DSTYLE
1002
{
1070
   287
1070
     3
1070
   287
1070
     3
1070
    40
1040
20.0
1070
   143
1040
0.039
1070
   172
1070
     1
1070
   271
1070
     0
1070
   279
1070
     0
1070
   288
1070
     1
1002
}
  0
DIMENSION
  5
7B59
  8
3
  2
*D7
 10
2488.6067974867578
 20
1748.549558011254
 30
0.0
 11
2488.6067974867578
 21
2233.0547800769468
 31
0.0
 70
   128
 13
1604.5132366552591
 23
2749.279310011254
 33
0.0
 14
1919.51323665526
 24
1748.549558011254
 34
0.0
 50
90.0
1001
ACAD
1000
DSTYLE
1002
{
1070
   287
1070
     3
1070
   287
1070
     3
1070
    40
1040
20.0
1070
   143
1040
0.039
1070
   172
1070
     1
1070
   271
1070
     0
1070
   279
1070
     0
1070
   288
1070
     1
1002
}
  0
DIMENSION
  5
7B66
  8
3
  2
*D8
 10
1604.5132366552591
 20
2874.0946940112531
 30
0.0
 11
1375.4968176552591
 21
2874.0946940112531
 31
0.0
 70
   128
 13
1169.7825316552589
 23
2388.5495580112529
 33
0.0
 14
1604.5132366552591
 24
2749.279310011254
 34
0.0
1001
ACAD
1000
DSTYLE
1002
{
1070
   287
1070
     3
1070
   287
1070
     3
1070
    40
1040
20.0
1070
   143
1040
0.039
1070
   172
1070
     1
1070
   271
1070
     0
1070
   279
1070
     0
1070
   288
1070
     1
1002
}
  0
DIMENSION
  5
7B74
  8
3
  2
*D9
 10
1964.51323665526
 20
2874.0946940112531
 30
0.0
 11
1806.2609626552601
 21
2874.0946940112531
 31
0.0
 70
   128
 13
1604.5132366552591
 23
2749.279310011254
 33
0.0
 14
1964.51323665526
 24
2394.1495580112528
 34
0.0
1001
ACAD
1000
DSTYLE
1002
{
1070
   287
1070
     3
1070
   287
1070
     3
1070
    40
1040
20.0
1070
   143
1040
0.039
1070
   172
1070
     1
1070
   271
1070
     0
1070
   279
1070
     0
1070
   288
1070
     1
1002
}
  0
DIMENSION
  5
7B97
  8
3
  2
*D10
 10
1919.51323665526
 20
3336.346771822959
 30
0.0
 11
1275.842086655259
 21
3336.346771822959
 31
0.0
 70
   128
 13
739.51323665525979
 23
3670.8169478229588
 33
0.0
 14
1919.51323665526
 24
3670.8169478229588
 34
0.0
1001
ACAD
1000
DSTYLE
1002
{
1070
   287
1070
     3
1070
   287
1070
     3
1070
    40
1040
20.0
1070
   143
1040
0.039
1070
   172
1070
     1
1070
   271
1070
     0
1070
   279
1070
     0
1070
   288
1070
     1
1002
}
  0
DIMENSION
  5
7BA4
  8
3
  2
*D11
 10
2199.7685236552602
 20
3670.8169478229588
 30
0.0
 11
2199.7685236552588
 21
3980.3297868229588
 31
0.0
 70
   128
 13
1919.51323665526
 23
4230.8169478229593
 33
0.0
 14
1919.51323665526
 24
3670.8169478229588
 34
0.0
 50
90.0
1001
ACAD
1000
DSTYLE
1002
{
1070
   287
1070
     3
1070
   287
1070
     3
1070
    40
1040
20.0
1070
   143
1040
0.039
1070
   172
1070
     1
1070
   271
1070
     0
1070
   279
1070
     0
1070
   288
1070
     1
1002
}
  0
LINE
  5
7BA5
  8
2
 10
1000.780486655259
 20
4000.8169478229602
 30
0.0
 11
1999.59274865526
 21
4000.8169478229602
 31
0.0
  0
LINE
  5
7BA6
  8
2
 10
3228.9804770225678
 20
2828.8522703687859
 30
0.0
 11
3228.9804770225678
 21
1690.2905370112539
 31
0.0
  0
DIMENSION
  5
7BB5
  8
3
  2
*D12
 10
3416.4804770225678
 20
2837.405216412862
 30
0.0
 11
3232.6274410919459
 21
2837.405216412862
 31
0.0
 70
   128
 13
3041.4804770225678
 23
2750.9975490112538
 33
0.0
 14
3416.4804770225678
 24
2750.9975490112538
 34
0.0
1001
ACAD
1000
DSTYLE
1002
{
1070
   287
1070
     3
1070
   287
1070
     3
1070
    40
1040
20.0
1070
   143
1040
0.039
1070
   172
1070
     1
1070
   271
1070
     0
1070
   279
1070
     0
1070
   288
1070
     1
1002
}
  0
DIMENSION
  5
7BD2
  8
3
  2
*D13
 10
3228.9804770225678
 20
2974.7771274648971
 30
0.0
 11
3016.1233341654251
 21
2974.7771274648971
 31
0.0
 70
   128
  1
MAX\P450
 13
2818.9804770225678
 23
2513.5495580112538
 33
0.0
 14
3228.9804770225678
 24
2924.9239828709592
 34
0.0
1001
ACAD
1000
DSTYLE
1002
{
1070
   287
1070
     3
1070
   287
1070
     3
1070
    40
1040
20.0
1070
   143
1040
0.039
1070
   172
1070
     1
1070
   271
1070
     0
1070
   279
1070
     0
1070
   288
1070
     1
1002
}
  0
DIMENSION
  5
7BE0
  8
3
  2
*D14
 10
3479.9804770225692
 20
2974.7771274648971
 30
0.0
 11
3353.266191308282
 21
2974.7771274648971
 31
0.0
 70
   128
 13
3228.9804770225678
 23
2924.9239828709592
 33
0.0
 14
3479.9804770225692
 24
2668.5495580112529
 34
0.0
1001
ACAD
1000
DSTYLE
1002
{
1070
   287
1070
     3
1070
   287
1070
     3
1070
    40
1040
20.0
1070
   143
1040
0.039
1070
   172
1070
     1
1070
   271
1070
     0
1070
   279
1070
     0
1070
   288
1070
     1
1002
}
  0
DIMENSION
  5
7C03
  8
3
  2
*D15
 10
3616.5749821473842
 20
2138.5495580112538
 30
0.0
 11
3616.5749821473842
 21
2381.1548835001631
 31
0.0
 70
   128
 13
3479.9804770225692
 23
2638.5495580112538
 33
0.0
 14
3479.9804770225692
 24
2138.5495580112538
 34
0.0
 50
90.0
1001
ACAD
1000
DSTYLE
1002
{
1070
   287
1070
     3
1070
   287
1070
     3
1070
     3
1000
φ<>
1070
    40
1040
20.0
1070
   143
1040
0.039
1070
   172
1070
     1
1070
   271
1070
     0
1070
   279
1070
     0
1070
   288
1070
     1
1002
}
  0
DIMENSION
  5
7C12
  8
3
  2
*D16
 10
3228.9804770225678
 20
1589.935543454372
 30
0.0
 11
3091.8376198797109
 21
1589.935543454372
 31
0.0
 70
   128
 13
2898.9804770225678
 23
1748.549558011254
 33
0.0
 14
3228.9804770225678
 24
1690.2905370112539
 34
0.0
1001
ACAD
1000
DSTYLE
1002
{
1070
   287
1070
     3
1070
   287
1070
     3
1070
    40
1040
20.0
1070
   143
1040
0.039
1070
   172
1070
     1
1070
   271
1070
     0
1070
   279
1070
     0
1070
   288
1070
     1
1002
}
  0
DIMENSION
  5
7C20
  8
3
  2
*D17
 10
3458.9804770225678
 20
1589.935543454372
 30
0.0
 11
3351.740682641695
 21
1638.2075939978311
 31
0.0
 70
   128
 13
3228.9804770225678
 23
1690.2905370112539
 33
0.0
 14
3458.9804770225678
 24
1748.549558011254
 34
0.0
1001
ACAD
1000
DSTYLE
1002
{
1070
   288
1070
     1
1070
   172
1070
     1
1070
    40
1040
20.0
1070
   271
1070
     0
1070
   143
1040
0.039
1002
}
  0
LINE
  5
7C37
  8
2
 10
2789.8402076140701
 20
2388.5495580112529
 30
0.0
 11
3495.7048514599701
 21
2388.5495580112529
 31
0.0
  0
LINE
  5
7C38
  8
2
 10
1604.5132366552591
 20
2791.0633230207341
 30
0.0
 11
1604.5132366552591
 21
1632.155659011253
 31
0.0
  0
LINE
  5
7C39
  8
4
 10
3700.0
 20
1000.0
 30
0.0
 11
3700.0
 21
600.0
 31
0.0
  0
LINE
  5
7C3A
  8
4
 10
2300.0
 20
1000.0
 30
0.0
 11
2300.0
 21
600.0
 31
0.0
  0
LINE
  5
7C3B
  8
4
 10
1300.0
 20
1000.0
 30
0.0
 11
1300.0
 21
600.0
 31
0.0
  0
LINE
  5
7C3E
  8
4
 10
1300.0
 20
600.0
 30
0.0
 11
3700.0
 21
600.0
 31
0.0
  0
LINE
  5
7C3F
  8
4
 10
1300.0
 20
800.0
 30
0.0
 11
3700.0
 21
800.0
 31
0.0
  0
TEXT
  5
7C40
  8
4
 10
1377.004161999999
 20
863.08605199999977
 30
0.0
 40
100.0
  1
機器名称
  0
TEXT
  5
7C41
  8
4
 10
1372.5162119999991
 20
643.29031333333319
 30
0.0
 40
100.0
  1
機器型番
  0
TEXT
  5
7C42
  8
4
 10
2355.3574906666659
 20
845.14353799999992
 30
0.0
 40
86.666666666666657
  1
ミツヤリミットロードファン
  0
TEXT
  5
7C43
  8
4
 10
2373.308991333332
 20
634.31916866666666
 30
0.0
 40
100.0
  1
LLE#3-4
  0
TEXT
  5
7C45
  8
4
 10
1809.5715306666659
 20
4766.8576826666658
 30
0.0
 40
108.0
  1
床置ベット
  0
TEXT
  5
7C46
  8
4
 10
632.33518666666669
 20
5067.7619526666667
 30
0.0
 40
120.0
  1
ベルト駆動式片吸込両持排煙ファン
  0
LINE
  5
7C47
  8
4
 10
500.0
 20
4938.8175086666661
 30
0.0
 11
3700.0
 21
4938.8175086666661
 31
0.0
  0
LINE
  5
7C48
  8
4
 10
500.0
 20
5338.8175086666661
 30
0.0
 11
3700.0
 21
5338.8175086666661
 31
0.0
  0
LINE
  5
7C49
  8
4
 10
1300.0
 20
1000.0
 30
0.0
 11
3700.0
 21
1000.0
 31
0.0
  0
LINE
  5
7C4A
  8
4
 10
500.0
 20
5338.8175086666661
 30
0.0
 11
500.0
 21
4938.8175086666661
 31
0.0
  0
TEXT
  5
7C4B
  8
4
 10
937.85386666666648
 20
4764.6389553333329
 30
0.0
 40
108.0
  1
左回転右横向
  0
TEXT
  5
7C4C
  8
4
 10
2937.9391186666662
 20
5412.1221626666656
 30
0.0
 40
112.0
  1
No.
  0
TEXT
  5
7C4D
  8
4
 10
2622.5921253333331
 20
4766.8576826666658
 30
0.0
 40
108.0
  1
縮尺：1/20
  0
LINE
  5
7C4E
  8
4
 10
3700.0
 20
5338.8175086666661
 30
0.0
 11
3700.0
 21
4938.8175086666661
 31
0.0
  0
LINE
  5
7C50
  8
4
 10
2881.234844666666
 20
5362.5271659999999
 30
0.0
 11
2881.234844666666
 21
5573.3045233333341
 31
0.0
  0
LINE
  5
7C51
  8
4
 10
2881.234844666666
 20
5573.3045233333341
 30
0.0
 11
3700.0
 21
5573.3045233333341
 31
0.0
  0
LINE
  5
7C52
  8
4
 10
3700.0
 20
5573.3045233333341
 30
0.0
 11
3700.0
 21
5362.5271659999999
 31
0.0
  0
LINE
  5
7C53
  8
4
 10
3700.0
 20
5362.5271659999999
 30
0.0
 11
2881.234844666666
 21
5362.5271659999999
 31
0.0
  0
DIMENSION
  5
7EFC
  8
3
  2
*D18
 10
739.5132366552599
 20
2999.7915978063279
 30
0.0
 11
1377.3320531542081
 21
2999.7915978063279
 31
0.0
 70
   128
 13
1964.51323665526
 23
2404.1495580112528
 33
0.0
 14
739.51323665525979
 24
1813.549558011254
 34
0.0
1001
ACAD
1000
DSTYLE
1002
{
1070
   287
1070
     3
1070
   287
1070
     3
1070
    40
1040
20.0
1070
   143
1040
0.039
1070
   172
1070
     1
1070
   271
1070
     0
1070
   279
1070
     0
1070
   288
1070
     1
1002
}
  0
LINE
  5
7EFD
  8
1
 10
2971.9804770225692
 20
2443.2090027777081
 30
0.0
 11
2971.9804770225678
 21
2513.5495580112538
 31
0.0
  0
ENDSEC
  0
EOF
