  0
SECTION
  2
HEADER
  9
$ACADVER
  1
AC1009
  9
$INSBASE
 10
0.0
 20
0.0
 30
0.0
  9
$EXTMIN
 10
391.07693408095201
 20
600.0
 30
0.0
  9
$EXTMAX
 10
3700.0
 20
5573.3045233333341
 30
0.0
  9
$LIMMIN
 10
0.0
 20
0.0
  9
$LIMMAX
 10
297.0
 20
210.0
  9
$ORTHOMODE
 70
     0
  9
$REGENMODE
 70
     1
  9
$FILLMODE
 70
     0
  9
$QTEXTMODE
 70
     0
  9
$MIRRTEXT
 70
     1
  9
$DRAGMODE
 70
     2
  9
$LTSCALE
 40
100.0
  9
$OSMODE
 70
    37
  9
$ATTMODE
 70
     1
  9
$TEXTSIZE
 40
180.0
  9
$TRACEWID
 40
0.05
  9
$TEXTSTYLE
  7
STANDARD
  9
$CLAYER
  8
3
  9
$CELTYPE
  6
BYLAYER
  9
$CECOLOR
 62
   256
  9
$DIMSCALE
 40
20.0
  9
$DIMASZ
 40
2.0
  9
$DIMEXO
 40
0.5
  9
$DIMDLI
 40
10.0
  9
$DIMRND
 40
0.0
  9
$DIMDLE
 40
0.0
  9
$DIMEXE
 40
1.0
  9
$DIMTP
 40
1.0
  9
$DIMTM
 40
1.0
  9
$DIMTXT
 40
3.0
  9
$DIMCEN
 40
0.0
  9
$DIMTSZ
 40
0.0
  9
$DIMTOL
 70
     0
  9
$DIMLIM
 70
     0
  9
$DIMTIH
 70
     0
  9
$DIMTOH
 70
     0
  9
$DIMSE1
 70
     0
  9
$DIMSE2
 70
     0
  9
$DIMTAD
 70
     1
  9
$DIMZIN
 70
     8
  9
$DIMBLK
  1

  9
$DIMASO
 70
     1
  9
$DIMSHO
 70
     1
  9
$DIMPOST
  1

  9
$DIMAPOST
  1

  9
$DIMALT
 70
     0
  9
$DIMALTD
 70
     2
  9
$DIMALTF
 40
0.039
  9
$DIMLFAC
 40
1.0
  9
$DIMTOFL
 70
     1
  9
$DIMTVP
 40
0.0
  9
$DIMTIX
 70
     0
  9
$DIMSOXD
 70
     0
  9
$DIMSAH
 70
     1
  9
$DIMBLK1
  1
OPEN
  9
$DIMBLK2
  1
OPEN
  9
$DIMSTYLE
  2
IGA
  9
$DIMCLRD
 70
     0
  9
$DIMCLRE
 70
     0
  9
$DIMCLRT
 70
     0
  9
$DIMTFAC
 40
10.0
  9
$DIMGAP
 40
1.0
  9
$LUNITS
 70
     2
  9
$LUPREC
 70
     3
  9
$SKETCHINC
 40
0.1
  9
$FILLETRAD
 40
50.0
  9
$AUNITS
 70
     0
  9
$AUPREC
 70
     0
  9
$MENU
  1
acad
  9
$ELEVATION
 40
0.0
  9
$PELEVATION
 40
0.0
  9
$THICKNESS
 40
0.0
  9
$LIMCHECK
 70
     0
  9
$BLIPMODE
 70
     0
  9
$CHAMFERA
 40
0.5
  9
$CHAMFERB
 40
0.5
  9
$SKPOLY
 70
     0
  9
$TDCREATE
 40
2450763.6182798608
  9
$TDUPDATE
 40
2454953.6812490858
  9
$TDINDWG
 40
0.0084714468
  9
$TDUSRTIMER
 40
0.0084714468
  9
$USRTIMER
 70
     1
  9
$ANGBASE
 50
0.0
  9
$ANGDIR
 70
     0
  9
$PDMODE
 70
     0
  9
$PDSIZE
 40
0.0
  9
$PLINEWID
 40
0.0
  9
$COORDS
 70
     1
  9
$SPLFRAME
 70
     0
  9
$SPLINETYPE
 70
     6
  9
$SPLINESEGS
 70
     8
  9
$ATTDIA
 70
     0
  9
$ATTREQ
 70
     1
  9
$HANDLING
 70
 10241
  9
$HANDSEED
  5
8073
  9
$SURFTAB1
 70
     6
  9
$SURFTAB2
 70
     6
  9
$SURFTYPE
 70
     6
  9
$SURFU
 70
     6
  9
$SURFV
 70
     6
  9
$UCSNAME
  2

  9
$UCSORG
 10
0.0
 20
0.0
 30
0.0
  9
$UCSXDIR
 10
1.0
 20
0.0
 30
0.0
  9
$UCSYDIR
 10
0.0
 20
1.0
 30
0.0
  9
$PUCSNAME
  2

  9
$PUCSORG
 10
0.0
 20
0.0
 30
0.0
  9
$PUCSXDIR
 10
1.0
 20
0.0
 30
0.0
  9
$PUCSYDIR
 10
0.0
 20
1.0
 30
0.0
  9
$USERI1
 70
     0
  9
$USERI2
 70
     0
  9
$USERI3
 70
     0
  9
$USERI4
 70
     0
  9
$USERI5
 70
     0
  9
$USERR1
 40
0.0
  9
$USERR2
 40
0.0
  9
$USERR3
 40
0.0
  9
$USERR4
 40
0.0
  9
$USERR5
 40
0.0
  9
$WORLDVIEW
 70
     1
  9
$SHADEDGE
 70
     3
  9
$SHADEDIF
 70
    70
  9
$TILEMODE
 70
     1
  9
$MAXACTVP
 70
    16
  9
$PLIMCHECK
 70
     0
  9
$PEXTMIN
 10
1.0000000000000000E+020
 20
1.0000000000000000E+020
 30
1.0000000000000000E+020
  9
$PEXTMAX
 10
-1.0000000000000000E+020
 20
-1.0000000000000000E+020
 30
-1.0000000000000000E+020
  9
$PLIMMIN
 10
0.0
 20
0.0
  9
$PLIMMAX
 10
12.0
 20
9.0
  9
$UNITMODE
 70
     0
  9
$VISRETAIN
 70
     0
  9
$PLINEGEN
 70
     0
  9
$PSLTSCALE
 70
     1
  0
ENDSEC
  0
SECTION
  2
TABLES
  0
TABLE
  2
VPORT
 70
     2
  0
VPORT
  2
*ACTIVE
 70
     0
 10
0.0
 20
0.0
 11
1.0
 21
1.0
 12
9436.4144471755535
 22
2131.165933460019
 13
0.0
 23
0.0
 14
10.0
 24
10.0
 15
10.0
 25
10.0
 16
0.0
 26
0.0
 36
1.0
 17
0.0
 27
0.0
 37
0.0
 40
7172.3420812667073
 41
3.1666666666666661
 42
50.0
 43
0.0
 44
0.0
 50
0.0
 51
0.0
 71
     0
 72
   100
 73
     1
 74
     0
 75
     0
 76
     0
 77
     0
 78
     0
  0
ENDTAB
  0
TABLE
  2
LTYPE
 70
     2
  0
LTYPE
  2
CONTINUOUS
 70
     0
  3
Solid line
 72
    65
 73
     0
 40
0.0
  0
LTYPE
  2
CENTER
 70
     0
  3
____ _ ____ _ ____ _ ____ _ ____ _ ____ _ ____ 
 72
    65
 73
     4
 40
2.0
 49
1.25
 49
-0.25
 49
0.25
 49
-0.25
  0
ENDTAB
  0
TABLE
  2
LAYER
 70
     6
  0
LAYER
  2
0
 70
     0
 62
     7
  6
CONTINUOUS
  0
LAYER
  2
3
 70
     0
 62
     2
  6
CONTINUOUS
  0
LAYER
  2
2
 70
     0
 62
     3
  6
CENTER
  0
LAYER
  2
1
 70
     0
 62
     4
  6
CONTINUOUS
  0
LAYER
  2
4
 70
     0
 62
     7
  6
CONTINUOUS
  0
LAYER
  2
DEFPOINTS
 70
     0
 62
     7
  6
CONTINUOUS
  0
ENDTAB
  0
TABLE
  2
STYLE
 70
     1
  0
STYLE
  2
STANDARD
 70
     0
 40
0.0
 41
1.0
 50
0.0
 71
     0
 42
180.0
  3
simplex.shx
  4
extfont.shx
  0
ENDTAB
  0
TABLE
  2
VIEW
 70
     0
  0
ENDTAB
  0
TABLE
  2
UCS
 70
     0
  0
ENDTAB
  0
TABLE
  2
APPID
 70
     1
  0
APPID
  2
ACAD
 70
     0
  0
ENDTAB
  0
TABLE
  2
DIMSTYLE
 70
     1
  0
DIMSTYLE
  2
IGA
 70
     0
  3

  4

  5

  6
OPEN
  7
OPEN
 40
2.0
 41
2.0
 42
0.5
 43
10.0
 44
1.0
 45
0.0
 46
0.0
 47
1.0
 48
1.0
140
3.0
141
0.0
142
0.0
143
0.03937
144
1.0
145
0.0
146
10.0
147
1.0
 71
     0
 72
     0
 73
     0
 74
     0
 75
     0
 76
     0
 77
     1
 78
     8
170
     0
171
     2
172
     0
173
     1
174
     0
175
     0
176
     0
177
     0
178
     0
  0
ENDTAB
  0
ENDSEC
  0
SECTION
  2
BLOCKS
  0
BLOCK
  8
0
  2
$MODEL_SPACE
 70
     0
 10
0.0
 20
0.0
 30
0.0
  3
$MODEL_SPACE
  1

  0
ENDBLK
  5
1B
  8
0
  0
BLOCK
 67
     1
  8
0
  2
$PAPER_SPACE
 70
     0
 10
0.0
 20
0.0
 30
0.0
  3
$PAPER_SPACE
  1

  0
ENDBLK
  5
18
 67
     1
  8
0
  0
BLOCK
  8
0
  2
_OPEN
 70
     0
 10
0.0
 20
0.0
 30
0.0
  3
_OPEN
  1

  0
LINE
  5
7AE6
  8
0
  6
BYBLOCK
 62
     0
 10
-1.0
 20
0.166667
 30
0.0
 11
0.0
 21
0.0
 31
0.0
  0
LINE
  5
7AE7
  8
0
  6
BYBLOCK
 62
     0
 10
0.0
 20
0.0
 30
0.0
 11
-1.0
 21
-0.166667
 31
0.0
  0
LINE
  5
7AE8
  8
0
  6
BYBLOCK
 62
     0
 10
0.0
 20
0.0
 30
0.0
 11
-1.0
 21
0.0
 31
0.0
  0
ENDBLK
  5
7AE9
  8
0
  0
BLOCK
  8
0
  2
*D1
 70
     1
 10
0.0
 20
0.0
 30
0.0
  3
*D1
  1

  0
LINE
  5
7FDC
  8
3
 62
     0
 10
617.39437408095182
 20
1701.9968789968509
 30
0.0
 11
617.39437408095182
 21
1541.8075558761659
 31
0.0
  0
LINE
  5
7FDD
  8
3
 62
     0
 10
932.39437408095182
 20
1595.4741379968521
 30
0.0
 11
932.39437408095182
 21
1541.8075558761659
 31
0.0
  0
LINE
  5
7FDE
  8
3
 62
     0
 10
657.39437408095182
 20
1561.8075558761659
 30
0.0
 11
892.39437408095182
 21
1561.8075558761659
 31
0.0
  0
INSERT
  5
7FDF
  8
3
 62
     0
  2
_OPEN
 10
617.39437408095182
 20
1561.8075558761659
 30
0.0
 41
40.0
 42
40.0
 43
40.0
 50
180.0
  0
INSERT
  5
7FE0
  8
3
 62
     0
  2
_OPEN
 10
932.39437408095182
 20
1561.8075558761659
 30
0.0
 41
40.0
 42
40.0
 43
40.0
  0
TEXT
  8
3
  40
60
  5
8063
  62
0
  72
0
  71
0
 10
656.932
 20
1505.61
 30
0.000000
  1
315
  0
POINT
  5
7FE2
  8
DEFPOINTS
 62
     0
 10
617.39437408095182
 20
1711.9968789968509
 30
0.0
  0
POINT
  5
7FE3
  8
DEFPOINTS
 62
     0
 10
932.39437408095182
 20
1605.4741379968521
 30
0.0
  0
POINT
  5
7FE4
  8
DEFPOINTS
 62
     0
 10
932.39437408095182
 20
1561.8075558761659
 30
0.0
  0
ENDBLK
  5
7DBB
  8
0
  0
BLOCK
  8
0
  2
*D2
 70
     1
 10
0.0
 20
0.0
 30
0.0
  3
*D2
  1

  0
LINE
  5
7FE5
  8
3
 62
     0
 10
932.39437408095182
 20
1595.4741379968521
 30
0.0
 11
932.39437408095182
 21
1540.873520334773
 31
0.0
  0
LINE
  5
7FE6
  8
3
 62
     0
 10
1797.3943740809509
 20
1701.9968789968509
 30
0.0
 11
1797.3943740809509
 21
1540.873520334773
 31
0.0
  0
LINE
  5
7FE7
  8
3
 62
     0
 10
972.39437408095182
 20
1560.873520334773
 30
0.0
 11
1757.3943740809509
 21
1560.873520334773
 31
0.0
  0
INSERT
  5
7FE8
  8
3
 62
     0
  2
_OPEN
 10
932.39437408095182
 20
1560.873520334773
 30
0.0
 41
40.0
 42
40.0
 43
40.0
 50
180.0
  0
INSERT
  5
7FE9
  8
3
 62
     0
  2
_OPEN
 10
1797.3943740809509
 20
1560.873520334773
 30
0.0
 41
40.0
 42
40.0
 43
40.0
  0
TEXT
  8
3
  40
60
  5
8064
  62
0
  72
0
  71
0
 10
1244.89
 20
1504.67
 30
0.000000
  1
865
  0
POINT
  5
7FEB
  8
DEFPOINTS
 62
     0
 10
932.39437408095182
 20
1605.4741379968521
 30
0.0
  0
POINT
  5
7FEC
  8
DEFPOINTS
 62
     0
 10
1797.3943740809509
 20
1711.9968789968509
 30
0.0
  0
POINT
  5
7FED
  8
DEFPOINTS
 62
     0
 10
1797.3943740809509
 20
1560.873520334773
 30
0.0
  0
ENDBLK
  5
7E83
  8
0
  0
BLOCK
  8
0
  2
*D3
 70
     1
 10
0.0
 20
0.0
 30
0.0
  3
*D3
  1

  0
LINE
  5
7FEE
  8
3
 62
     0
 10
958.39437408095182
 20
2581.996878996852
 30
0.0
 11
958.39437408095182
 21
2725.7491009968521
 31
0.0
  0
LINE
  5
7FEF
  8
3
 62
     0
 10
1470.3943740809509
 20
2581.996878996852
 30
0.0
 11
1470.3943740809509
 21
2725.7491009968521
 31
0.0
  0
LINE
  5
7FF0
  8
3
 62
     0
 10
998.39437408095182
 20
2705.7491009968521
 30
0.0
 11
1430.3943740809509
 21
2705.7491009968521
 31
0.0
  0
INSERT
  5
7FF1
  8
3
 62
     0
  2
_OPEN
 10
958.39437408095182
 20
2705.7491009968521
 30
0.0
 41
40.0
 42
40.0
 43
40.0
 50
180.0
  0
INSERT
  5
7FF2
  8
3
 62
     0
  2
_OPEN
 10
1470.3943740809509
 20
2705.7491009968521
 30
0.0
 41
40.0
 42
40.0
 43
40.0
  0
TEXT
  8
3
  40
60
  5
8065
  62
0
  72
0
  71
0
 10
1093.21
 20
2649.55
 30
0.000000
  1
512
  0
POINT
  5
7FF4
  8
DEFPOINTS
 62
     0
 10
958.39437408095182
 20
2571.996878996852
 30
0.0
  0
POINT
  5
7FF5
  8
DEFPOINTS
 62
     0
 10
1470.3943740809509
 20
2571.996878996852
 30
0.0
  0
POINT
  5
7FF6
  8
DEFPOINTS
 62
     0
 10
1470.3943740809509
 20
2705.7491009968521
 30
0.0
  0
ENDBLK
  5
7DA5
  8
0
  0
BLOCK
  8
0
  2
*D4
 70
     1
 10
0.0
 20
0.0
 30
0.0
  3
*D4
  1

  0
LINE
  5
7FF7
  8
3
 62
     0
 10
571.66462308095186
 20
2221.996878996852
 30
0.0
 11
571.66462308095186
 21
2889.8725840920401
 31
0.0
  0
LINE
  5
7FF8
  8
3
 62
     0
 10
932.39437408095182
 20
2520.3896859968522
 30
0.0
 11
932.39437408095182
 21
2889.8725840920401
 31
0.0
  0
LINE
  5
7FF9
  8
3
 62
     0
 10
611.66462308095197
 20
2869.8725840920388
 30
0.0
 11
892.39437408095182
 21
2869.8725840920388
 31
0.0
  0
INSERT
  5
7FFA
  8
3
 62
     0
  2
_OPEN
 10
571.66462308095186
 20
2869.8725840920388
 30
0.0
 41
40.0
 42
40.0
 43
40.0
 50
180.0
  0
INSERT
  5
7FFB
  8
3
 62
     0
  2
_OPEN
 10
932.39437408095182
 20
2869.8725840920388
 30
0.0
 41
40.0
 42
40.0
 43
40.0
  0
TEXT
  8
3
  40
60
  5
8066
  62
0
  72
0
  71
0
 10
630.892
 20
2813.67
 30
0.000000
  1
361
  0
POINT
  5
7FFD
  8
DEFPOINTS
 62
     0
 10
571.66462308095186
 20
2211.996878996852
 30
0.0
  0
POINT
  5
7FFE
  8
DEFPOINTS
 62
     0
 10
932.39437408095182
 20
2510.3896859968522
 30
0.0
  0
POINT
  5
7FFF
  8
DEFPOINTS
 62
     0
 10
932.39437408095182
 20
2869.8725840920388
 30
0.0
  0
ENDBLK
  5
7E8E
  8
0
  0
BLOCK
  8
0
  2
*D5
 70
     1
 10
0.0
 20
0.0
 30
0.0
  3
*D5
  1

  0
LINE
  5
8000
  8
3
 62
     0
 10
932.39437408095182
 20
2520.3896859968522
 30
0.0
 11
932.39437408095182
 21
2889.7888659968521
 31
0.0
  0
LINE
  5
8001
  8
3
 62
     0
 10
1470.3943740809509
 20
2581.996878996852
 30
0.0
 11
1470.3943740809509
 21
2889.7888659968521
 31
0.0
  0
LINE
  5
8002
  8
3
 62
     0
 10
972.39437408095182
 20
2869.7888659968521
 30
0.0
 11
1430.3943740809509
 21
2869.7888659968521
 31
0.0
  0
INSERT
  5
8003
  8
3
 62
     0
  2
_OPEN
 10
932.39437408095182
 20
2869.7888659968521
 30
0.0
 41
40.0
 42
40.0
 43
40.0
 50
180.0
  0
INSERT
  5
8004
  8
3
 62
     0
  2
_OPEN
 10
1470.3943740809509
 20
2869.7888659968521
 30
0.0
 41
40.0
 42
40.0
 43
40.0
  0
TEXT
  8
3
  40
60
  5
8067
  62
0
  72
0
  71
0
 10
1081.39
 20
2813.59
 30
0.000000
  1
538
  0
POINT
  5
8006
  8
DEFPOINTS
 62
     0
 10
932.39437408095182
 20
2510.3896859968522
 30
0.0
  0
POINT
  5
8007
  8
DEFPOINTS
 62
     0
 10
1470.3943740809509
 20
2571.996878996852
 30
0.0
  0
POINT
  5
8008
  8
DEFPOINTS
 62
     0
 10
1470.3943740809509
 20
2869.7888659968521
 30
0.0
  0
ENDBLK
  5
7D8F
  8
0
  0
BLOCK
  8
0
  2
*D6
 70
     1
 10
0.0
 20
0.0
 30
0.0
  3
*D6
  1

  0
LINE
  5
8009
  8
3
 62
     0
 10
1511.999557080951
 20
2571.996878996852
 30
0.0
 11
1977.7539824504711
 21
2571.996878996852
 31
0.0
  0
LINE
  5
800A
  8
3
 62
     0
 10
1451.3943740809509
 20
2211.996878996852
 30
0.0
 11
1977.7539824504711
 21
2211.996878996852
 31
0.0
  0
LINE
  5
800B
  8
3
 62
     0
 10
1957.7539824504711
 20
2531.996878996852
 30
0.0
 11
1957.7539824504711
 21
2251.9968789968511
 31
0.0
  0
INSERT
  5
800C
  8
3
 62
     0
  2
_OPEN
 10
1957.7539824504711
 20
2571.996878996852
 30
0.0
 41
40.0
 42
40.0
 43
40.0
 50
90.0
  0
INSERT
  5
800D
  8
3
 62
     0
  2
_OPEN
 10
1957.7539824504711
 20
2211.996878996852
 30
0.0
 41
40.0
 42
40.0
 43
40.0
 50
270.0
  0
TEXT
  8
3
  40
60
  5
8068
  62
0
  72
0
  71
0
 10
1787.75
 20
2290.58
 30
0.000000
  1
360
  0
POINT
  5
800F
  8
DEFPOINTS
 62
     0
 10
1501.999557080951
 20
2571.996878996852
 30
0.0
  0
POINT
  5
8010
  8
DEFPOINTS
 62
     0
 10
1441.3943740809509
 20
2211.996878996852
 30
0.0
  0
POINT
  5
8011
  8
DEFPOINTS
 62
     0
 10
1957.7539824504711
 20
2211.996878996852
 30
0.0
  0
ENDBLK
  5
7E62
  8
0
  0
BLOCK
  8
0
  2
*D7
 70
     1
 10
0.0
 20
0.0
 30
0.0
  3
*D7
  1

  0
LINE
  5
8012
  8
3
 62
     0
 10
1451.3943740809509
 20
2211.996878996852
 30
0.0
 11
1976.808378005546
 21
2211.996878996852
 31
0.0
  0
LINE
  5
8013
  8
3
 62
     0
 10
1807.3943740809509
 20
1711.9968789968509
 30
0.0
 11
1976.808378005546
 21
1711.9968789968509
 31
0.0
  0
LINE
  5
8014
  8
3
 62
     0
 10
1956.808378005546
 20
2171.996878996852
 30
0.0
 11
1956.808378005546
 21
1751.9968789968509
 31
0.0
  0
INSERT
  5
8015
  8
3
 62
     0
  2
_OPEN
 10
1956.808378005546
 20
2211.996878996852
 30
0.0
 41
40.0
 42
40.0
 43
40.0
 50
90.0
  0
INSERT
  5
8016
  8
3
 62
     0
  2
_OPEN
 10
1956.808378005546
 20
1711.9968789968509
 30
0.0
 41
40.0
 42
40.0
 43
40.0
 50
270.0
  0
TEXT
  8
3
  40
60
  5
8069
  62
0
  72
0
  71
0
 10
1786.81
 20
1855.80
 30
0.000000
  1
500
  0
POINT
  5
8018
  8
DEFPOINTS
 62
     0
 10
1441.3943740809509
 20
2211.996878996852
 30
0.0
  0
POINT
  5
8019
  8
DEFPOINTS
 62
     0
 10
1797.3943740809509
 20
1711.9968789968509
 30
0.0
  0
POINT
  5
801A
  8
DEFPOINTS
 62
     0
 10
1956.808378005546
 20
1711.9968789968509
 30
0.0
  0
ENDBLK
  5
7E78
  8
0
  0
BLOCK
  8
0
  2
*D8
 70
     1
 10
0.0
 20
0.0
 30
0.0
  3
*D8
  1

  0
LINE
  5
801B
  8
3
 62
     0
 10
1511.999557080951
 20
2571.996878996852
 30
0.0
 11
2113.8208812815851
 21
2571.996878996852
 31
0.0
  0
LINE
  5
801C
  8
3
 62
     0
 10
1807.3943740809509
 20
1711.9968789968509
 30
0.0
 11
2113.8208812815851
 21
1711.9968789968509
 31
0.0
  0
LINE
  5
801D
  8
3
 62
     0
 10
2093.8208812815851
 20
2531.996878996852
 30
0.0
 11
2093.8208812815851
 21
1751.9968789968509
 31
0.0
  0
INSERT
  5
801E
  8
3
 62
     0
  2
_OPEN
 10
2093.8208812815851
 20
2571.996878996852
 30
0.0
 41
40.0
 42
40.0
 43
40.0
 50
90.0
  0
INSERT
  5
801F
  8
3
 62
     0
  2
_OPEN
 10
2093.8208812815851
 20
1711.9968789968509
 30
0.0
 41
40.0
 42
40.0
 43
40.0
 50
270.0
  0
TEXT
  8
3
  40
60
  5
806A
  62
0
  72
0
  71
0
 10
1923.82
 20
2058.26
 30
0.000000
  1
860
  0
POINT
  5
8021
  8
DEFPOINTS
 62
     0
 10
1501.999557080951
 20
2571.996878996852
 30
0.0
  0
POINT
  5
8022
  8
DEFPOINTS
 62
     0
 10
1797.3943740809509
 20
1711.9968789968509
 30
0.0
  0
POINT
  5
8023
  8
DEFPOINTS
 62
     0
 10
2093.8208812815851
 20
1711.9968789968509
 30
0.0
  0
ENDBLK
  5
7E6D
  8
0
  0
BLOCK
  8
0
  2
*D9
 70
     1
 10
0.0
 20
0.0
 30
0.0
  3
*D9
  1

  0
LINE
  5
8024
  8
3
 62
     0
 10
617.39437408095182
 20
3650.9933896271818
 30
0.0
 11
617.39437408095182
 21
3383.3561364990601
 31
0.0
  0
LINE
  5
8025
  8
3
 62
     0
 10
1797.3943740809509
 20
3650.9933896271818
 30
0.0
 11
1797.3943740809509
 21
3383.3561364990601
 31
0.0
  0
LINE
  5
8026
  8
3
 62
     0
 10
657.39437408095182
 20
3403.3561364990601
 30
0.0
 11
1757.3943740809509
 21
3403.3561364990601
 31
0.0
  0
INSERT
  5
8027
  8
3
 62
     0
  2
_OPEN
 10
617.39437408095182
 20
3403.3561364990601
 30
0.0
 41
40.0
 42
40.0
 43
40.0
 50
180.0
  0
INSERT
  5
8028
  8
3
 62
     0
  2
_OPEN
 10
1797.3943740809509
 20
3403.3561364990601
 30
0.0
 41
40.0
 42
40.0
 43
40.0
  0
TEXT
  8
3
  40
60
  5
806B
  62
0
  72
0
  71
0
 10
1067.89
 20
3347.16
 30
0.000000
  1
1180
  0
POINT
  5
802A
  8
DEFPOINTS
 62
     0
 10
617.39437408095182
 20
3660.9933896271818
 30
0.0
  0
POINT
  5
802B
  8
DEFPOINTS
 62
     0
 10
1797.3943740809509
 20
3660.9933896271818
 30
0.0
  0
POINT
  5
802C
  8
DEFPOINTS
 62
     0
 10
1797.3943740809509
 20
3403.3561364990601
 30
0.0
  0
ENDBLK
  5
7DD1
  8
0
  0
BLOCK
  8
0
  2
*D10
 70
     1
 10
0.0
 20
0.0
 30
0.0
  3
*D10
  1

  0
LINE
  5
802D
  8
3
 62
     0
 10
1807.3943740809509
 20
4220.9933896271823
 30
0.0
 11
2004.433879882678
 21
4220.9933896271823
 31
0.0
  0
LINE
  5
802E
  8
3
 62
     0
 10
1807.3943740809509
 20
3660.9933896271818
 30
0.0
 11
2004.433879882678
 21
3660.9933896271818
 31
0.0
  0
LINE
  5
802F
  8
3
 62
     0
 10
1984.433879882678
 20
4180.9933896271823
 30
0.0
 11
1984.433879882678
 21
3700.9933896271818
 31
0.0
  0
INSERT
  5
8030
  8
3
 62
     0
  2
_OPEN
 10
1984.433879882678
 20
4220.9933896271823
 30
0.0
 41
40.0
 42
40.0
 43
40.0
 50
90.0
  0
INSERT
  5
8031
  8
3
 62
     0
  2
_OPEN
 10
1984.433879882678
 20
3660.9933896271818
 30
0.0
 41
40.0
 42
40.0
 43
40.0
 50
270.0
  0
TEXT
  8
3
  40
60
  5
806C
  62
0
  72
0
  71
0
 10
1814.43
 20
3861.46
 30
0.000000
  1
560
  0
POINT
  5
8033
  8
DEFPOINTS
 62
     0
 10
1797.3943740809509
 20
4220.9933896271823
 30
0.0
  0
POINT
  5
8034
  8
DEFPOINTS
 62
     0
 10
1797.3943740809509
 20
3660.9933896271818
 30
0.0
  0
POINT
  5
8035
  8
DEFPOINTS
 62
     0
 10
1984.433879882678
 20
3660.9933896271818
 30
0.0
  0
ENDBLK
  5
7DC6
  8
0
  0
BLOCK
  8
0
  2
*D11
 70
     1
 10
0.0
 20
0.0
 30
0.0
  3
*D11
  1

  0
LINE
  5
8036
  8
3
 62
     0
 10
2942.0366180065321
 20
2581.996878996852
 30
0.0
 11
2942.0366180065321
 21
2717.1688290743441
 31
0.0
  0
LINE
  5
8037
  8
3
 62
     0
 10
3317.0366180065321
 20
2581.996878996852
 30
0.0
 11
3317.0366180065321
 21
2717.1688290743441
 31
0.0
  0
LINE
  5
8038
  8
3
 62
     0
 10
2982.036618006533
 20
2697.1688290743441
 30
0.0
 11
3277.036618006533
 21
2697.1688290743441
 31
0.0
  0
INSERT
  5
8039
  8
3
 62
     0
  2
_OPEN
 10
2942.0366180065321
 20
2697.1688290743441
 30
0.0
 41
40.0
 42
40.0
 43
40.0
 50
180.0
  0
INSERT
  5
803A
  8
3
 62
     0
  2
_OPEN
 10
3317.0366180065321
 20
2697.1688290743441
 30
0.0
 41
40.0
 42
40.0
 43
40.0
  0
TEXT
  8
3
  40
60
  5
806D
  62
0
  72
0
  71
0
 10
3009.03
 20
2640.97
 30
0.000000
  1
375
  0
POINT
  5
803C
  8
DEFPOINTS
 62
     0
 10
2942.0366180065321
 20
2571.996878996852
 30
0.0
  0
POINT
  5
803D
  8
DEFPOINTS
 62
     0
 10
3317.0366180065321
 20
2571.996878996852
 30
0.0
  0
POINT
  5
803E
  8
DEFPOINTS
 62
     0
 10
3317.0366180065321
 20
2697.1688290743441
 30
0.0
  0
ENDBLK
  5
7E13
  8
0
  0
BLOCK
  8
0
  2
*D12
 70
     1
 10
0.0
 20
0.0
 30
0.0
  3
*D12
  1

  0
LINE
  5
803F
  8
3
 62
     0
 10
2719.536618006533
 20
2346.996878996852
 30
0.0
 11
2719.536618006533
 21
2865.9222527419188
 31
0.0
  0
LINE
  5
8040
  8
3
 62
     0
 10
3129.5366180065321
 20
2798.2410785849502
 30
0.0
 11
3129.5366180065321
 21
2865.9222527419188
 31
0.0
  0
LINE
  5
8041
  8
3
 62
     0
 10
2759.536618006533
 20
2845.9222527419188
 30
0.0
 11
3089.536618006533
 21
2845.9222527419188
 31
0.0
  0
INSERT
  5
8042
  8
3
 62
     0
  2
_OPEN
 10
2719.536618006533
 20
2845.9222527419188
 30
0.0
 41
40.0
 42
40.0
 43
40.0
 50
180.0
  0
INSERT
  5
8043
  8
3
 62
     0
  2
_OPEN
 10
3129.5366180065321
 20
2845.9222527419188
 30
0.0
 41
40.0
 42
40.0
 43
40.0
  0
TEXT
  8
3
  40
60
  5
806E
  62
0
  72
0
  71
0
 10
2810.80
 20
2839.72
 30
0.000000
  1
MAX
  0
TEXT
  8
3
  40
60
  5
806F
  62
0
  72
0
  71
0
 10
2810.80
 20
2761.72
 30
0.000000
  1
450
  0
POINT
  5
8045
  8
DEFPOINTS
 62
     0
 10
2719.536618006533
 20
2336.996878996852
 30
0.0
  0
POINT
  5
8046
  8
DEFPOINTS
 62
     0
 10
3129.5366180065321
 20
2788.2410785849502
 30
0.0
  0
POINT
  5
8047
  8
DEFPOINTS
 62
     0
 10
3129.5366180065321
 20
2845.9222527419188
 30
0.0
  0
ENDBLK
  5
7EF6
  8
0
  0
BLOCK
  8
0
  2
*D13
 70
     1
 10
0.0
 20
0.0
 30
0.0
  3
*D13
  1

  0
LINE
  5
7EE2
  8
0
  6
BYBLOCK
 62
     0
 10
3129.5366180065321
 20
2798.2410785849502
 30
0.0
 11
3129.5366180065321
 21
2865.9222527419188
 31
0.0
  0
LINE
  5
7EE3
  8
0
  6
BYBLOCK
 62
     0
 10
3380.5366180065321
 20
2501.996878996852
 30
0.0
 11
3380.5366180065321
 21
2865.9222527419188
 31
0.0
  0
LINE
  5
7EE4
  8
0
  6
BYBLOCK
 62
     0
 10
3169.536618006533
 20
2845.9222527419188
 30
0.0
 11
3340.536618006533
 21
2845.9222527419188
 31
0.0
  0
TEXT
  5
7EE5
  8
3
 62
     0
 10
3187.9280344875069
 20
2873.7116127561289
 30
0.0
 40
60.0
  1
251
  0
INSERT
  5
7EE6
  8
0
  6
BYBLOCK
 62
     0
  2
_OPEN
 10
3129.5366180065321
 20
2845.9222527419188
 30
0.0
 41
40.0
 42
40.0
 43
40.0
 50
180.0
  0
INSERT
  5
7EE7
  8
0
  6
BYBLOCK
 62
     0
  2
_OPEN
 10
3380.5366180065321
 20
2845.9222527419188
 30
0.0
 41
40.0
 42
40.0
 43
40.0
  0
POINT
  5
7EE8
  8
DEFPOINTS
  6
BYBLOCK
 62
     0
 10
3129.5366180065321
 20
2788.2410785849502
 30
0.0
  0
POINT
  5
7EE9
  8
DEFPOINTS
  6
BYBLOCK
 62
     0
 10
3380.5366180065321
 20
2491.996878996852
 30
0.0
  0
POINT
  5
7EEA
  8
DEFPOINTS
  6
BYBLOCK
 62
     0
 10
3380.5366180065321
 20
2845.9222527419188
 30
0.0
  0
ENDBLK
  5
7EEB
  8
0
  0
BLOCK
  8
0
  2
*D14
 70
     1
 10
0.0
 20
0.0
 30
0.0
  3
*D14
  1

  0
LINE
  5
8048
  8
3
 62
     0
 10
3390.536618006533
 20
2461.996878996852
 30
0.0
 11
3530.9092692511549
 21
2461.996878996852
 31
0.0
  0
LINE
  5
8049
  8
3
 62
     0
 10
3390.536618006533
 20
1961.9968789968509
 30
0.0
 11
3530.9092692511549
 21
1961.9968789968509
 31
0.0
  0
LINE
  5
804A
  8
3
 62
     0
 10
3510.9092692511549
 20
2421.996878996852
 30
0.0
 11
3510.9092692511549
 21
2001.9968789968509
 31
0.0
  0
INSERT
  5
804B
  8
3
 62
     0
  2
_OPEN
 10
3510.9092692511549
 20
2461.996878996852
 30
0.0
 41
40.0
 42
40.0
 43
40.0
 50
90.0
  0
INSERT
  5
804C
  8
3
 62
     0
  2
_OPEN
 10
3510.9092692511549
 20
1961.9968789968509
 30
0.0
 41
40.0
 42
40.0
 43
40.0
 50
270.0
  0
TEXT
  8
3
  40
60
  5
8070
  62
0
  72
0
  71
0
 10
3340.91
 20
2097.60
 30
0.000000
  1
φ500
  0
POINT
  5
804E
  8
DEFPOINTS
 62
     0
 10
3380.5366180065321
 20
2461.996878996852
 30
0.0
  0
POINT
  5
804F
  8
DEFPOINTS
 62
     0
 10
3380.5366180065321
 20
1961.9968789968509
 30
0.0
  0
POINT
  5
8050
  8
DEFPOINTS
 62
     0
 10
3510.9092692511549
 20
1961.9968789968509
 30
0.0
  0
ENDBLK
  5
7DDC
  8
0
  0
BLOCK
  8
0
  2
*D15
 70
     1
 10
0.0
 20
0.0
 30
0.0
  3
*D15
  1

  0
LINE
  5
8051
  8
3
 62
     0
 10
2799.536618006533
 20
1701.9968789968509
 30
0.0
 11
2799.536618006533
 21
1536.6039054291321
 31
0.0
  0
LINE
  5
8052
  8
3
 62
     0
 10
3129.5366180065321
 20
1641.939417996851
 30
0.0
 11
3129.5366180065321
 21
1536.6039054291321
 31
0.0
  0
LINE
  5
8053
  8
3
 62
     0
 10
2839.536618006533
 20
1556.6039054291321
 30
0.0
 11
3089.536618006533
 21
1556.6039054291321
 31
0.0
  0
INSERT
  5
8054
  8
3
 62
     0
  2
_OPEN
 10
2799.536618006533
 20
1556.6039054291321
 30
0.0
 41
40.0
 42
40.0
 43
40.0
 50
180.0
  0
INSERT
  5
8055
  8
3
 62
     0
  2
_OPEN
 10
3129.5366180065321
 20
1556.6039054291321
 30
0.0
 41
40.0
 42
40.0
 43
40.0
  0
TEXT
  8
3
  40
60
  5
8071
  62
0
  72
0
  71
0
 10
2843.55
 20
1500.40
 30
0.000000
  1
330
  0
POINT
  5
8057
  8
DEFPOINTS
 62
     0
 10
2799.536618006533
 20
1711.9968789968509
 30
0.0
  0
POINT
  5
8058
  8
DEFPOINTS
 62
     0
 10
3129.5366180065321
 20
1651.939417996851
 30
0.0
  0
POINT
  5
8059
  8
DEFPOINTS
 62
     0
 10
3129.5366180065321
 20
1556.6039054291321
 30
0.0
  0
ENDBLK
  5
7D21
  8
0
  0
BLOCK
  8
0
  2
*D16
 70
     1
 10
0.0
 20
0.0
 30
0.0
  3
*D16
  1

  0
LINE
  5
7DFF
  8
0
  6
BYBLOCK
 62
     0
 10
3129.5366180065321
 20
1641.939417996851
 30
0.0
 11
3129.5366180065321
 21
1536.1457649012279
 31
0.0
  0
LINE
  5
7E00
  8
0
  6
BYBLOCK
 62
     0
 10
3359.536618006533
 20
1701.9968789968509
 30
0.0
 11
3359.536618006533
 21
1536.1457649012279
 31
0.0
  0
LINE
  5
7E01
  8
0
  6
BYBLOCK
 62
     0
 10
3169.536618006533
 20
1556.1457649012279
 30
0.0
 11
3319.5366180065321
 21
1556.1457649012279
 31
0.0
  0
TEXT
  5
7E02
  8
3
 62
     0
 10
3174.4268149763752
 20
1572.675065232009
 30
0.0
 40
60.0
  1
230
  0
INSERT
  5
7E03
  8
0
  6
BYBLOCK
 62
     0
  2
_OPEN
 10
3129.5366180065321
 20
1556.1457649012279
 30
0.0
 41
40.0
 42
40.0
 43
40.0
 50
180.0
  0
INSERT
  5
7E04
  8
0
  6
BYBLOCK
 62
     0
  2
_OPEN
 10
3359.536618006533
 20
1556.1457649012279
 30
0.0
 41
40.0
 42
40.0
 43
40.0
  0
POINT
  5
7E05
  8
DEFPOINTS
  6
BYBLOCK
 62
     0
 10
3129.5366180065321
 20
1651.939417996851
 30
0.0
  0
POINT
  5
7E06
  8
DEFPOINTS
  6
BYBLOCK
 62
     0
 10
3359.536618006533
 20
1711.9968789968509
 30
0.0
  0
POINT
  5
7E07
  8
DEFPOINTS
  6
BYBLOCK
 62
     0
 10
3359.536618006533
 20
1556.1457649012279
 30
0.0
  0
ENDBLK
  5
7E08
  8
0
  0
BLOCK
  8
0
  2
*D17
 70
     1
 10
0.0
 20
0.0
 30
0.0
  3
*D17
  1

  0
LINE
  5
805A
  8
3
 62
     0
 10
571.66462308095186
 20
2231.996878996852
 30
0.0
 11
571.66462308095186
 21
3010.2849627466549
 31
0.0
  0
LINE
  5
805B
  8
3
 62
     0
 10
1797.3943740809509
 20
1796.9968789968509
 30
0.0
 11
1797.3943740809509
 21
3010.2849627466549
 31
0.0
  0
LINE
  5
805C
  8
3
 62
     0
 10
611.66462308095197
 20
2990.2849627466539
 30
0.0
 11
1757.3943740809509
 21
2990.2849627466539
 31
0.0
  0
INSERT
  5
805D
  8
3
 62
     0
  2
_OPEN
 10
571.66462308095186
 20
2990.2849627466539
 30
0.0
 41
40.0
 42
40.0
 43
40.0
 50
180.0
  0
INSERT
  5
805E
  8
3
 62
     0
  2
_OPEN
 10
1797.3943740809509
 20
2990.2849627466539
 30
0.0
 41
40.0
 42
40.0
 43
40.0
  0
TEXT
  8
3
  40
60
  5
8072
  62
0
  72
0
  71
0
 10
1138.92
 20
2934.08
 30
0.000000
  1
1226
  0
POINT
  5
8060
  8
DEFPOINTS
 62
     0
 10
571.66462308095186
 20
2221.996878996852
 30
0.0
  0
POINT
  5
8061
  8
DEFPOINTS
 62
     0
 10
1797.3943740809509
 20
1786.9968789968509
 30
0.0
  0
POINT
  5
8062
  8
DEFPOINTS
 62
     0
 10
1797.3943740809509
 20
2990.2849627466539
 30
0.0
  0
ENDBLK
  5
7E9A
  8
0
  0
ENDSEC
  0
SECTION
  2
ENTITIES
  0
LINE
  5
7A76
  8
1
 10
569.94638308095182
 20
3803.4933896271818
 30
0.0
 11
569.94638308095182
 21
4178.4933896271823
 31
0.0
  0
LINE
  5
7A77
  8
1
 10
956.39437408095182
 20
3803.4933896271818
 30
0.0
 11
956.39437408095182
 21
4178.4933896271823
 31
0.0
  0
LINE
  5
7A78
  8
1
 10
1472.3943740809509
 20
4178.4933896271823
 30
0.0
 11
1472.3943740809509
 21
3803.4933896271818
 31
0.0
  0
LINE
  5
7A79
  8
1
 10
1472.3943740809509
 20
3803.4933896271818
 30
0.0
 11
956.39437408095182
 21
4178.4933896271823
 31
0.0
  0
LINE
  5
7A7A
  8
1
 10
956.39437408095182
 20
3803.4933896271818
 30
0.0
 11
1472.3943740809509
 21
4178.4933896271823
 31
0.0
  0
LINE
  5
7A7B
  8
1
 10
1797.3943740809509
 20
3660.9933896271818
 30
0.0
 11
1797.3943740809509
 21
4220.9933896271823
 31
0.0
  0
LINE
  5
7A7C
  8
1
 10
1724.8943740809509
 20
3725.9933896271818
 30
0.0
 11
1724.8943740809509
 21
4125.9933896271823
 31
0.0
  0
LINE
  5
7A7D
  8
1
 10
1472.3943740809509
 20
3803.4933896271818
 30
0.0
 11
956.39437408095182
 21
3803.4933896271818
 31
0.0
  0
LINE
  5
7A7E
  8
1
 10
1542.6471780809511
 20
1885.484598996851
 30
0.0
 11
892.64717808095145
 21
2093.4845989968512
 31
0.0
  0
LINE
  5
7A7F
  8
1
 10
1622.141569080952
 20
2122.509158996852
 30
0.0
 11
972.14156908095185
 21
2330.5091589968511
 31
0.0
  0
LINE
  5
7A80
  8
1
 10
1606.2426910809511
 20
2075.104246996852
 30
0.0
 11
956.24269108095177
 21
2283.104246996852
 31
0.0
  0
LINE
  5
7A81
  8
1
 10
1558.546057080951
 20
1932.889510996851
 30
0.0
 11
908.54605708095175
 21
2140.8895109968521
 31
0.0
  0
LINE
  5
7A82
  8
1
 10
926.79437408095134
 20
2571.996878996852
 30
0.0
 11
1501.999557080951
 21
2571.996878996852
 31
0.0
  0
LINE
  5
7A83
  8
1
 10
958.39437408095182
 20
2541.996878996852
 30
0.0
 11
1467.9777070809521
 21
2541.996878996852
 31
0.0
  0
POLYLINE
  5
7A84
  8
1
 66
     1
 10
0.0
 20
0.0
 30
0.0
  0
VERTEX
  5
7FD5
  8
1
 10
1470.3943740809509
 20
2571.996878996852
 30
0.0
  0
VERTEX
  5
7FD6
  8
1
 10
1441.3943740809509
 20
2211.996878996852
 30
0.0
 42
-0.391482
  0
VERTEX
  5
7FD7
  8
1
 10
969.39437408095171
 20
1775.5488879968509
 30
0.0
 42
-0.440232
  0
VERTEX
  5
7FD8
  8
1
 10
571.49230708095183
 20
2210.1058849968508
 30
0.0
 42
-0.388666
  0
VERTEX
  5
7FD9
  8
1
 10
901.39437408095171
 20
2512.1806769968512
 30
0.0
 42
-0.053392
  0
VERTEX
  5
7FDA
  8
1
 10
958.39437408095182
 20
2506.0765569968512
 30
0.0
 42
-0.393627
  0
SEQEND
  5
7FDB
  8
1
  0
LINE
  5
7A8C
  8
1
 10
617.39437408095182
 20
1711.9968789968509
 30
0.0
 11
1797.3943740809509
 21
1711.9968789968509
 31
0.0
  0
LINE
  5
7A8E
  8
1
 10
1707.3943740809509
 20
3718.9933896271818
 30
0.0
 11
807.39437408095182
 21
3718.9933896271818
 31
0.0
  0
LINE
  5
7A8F
  8
1
 10
1707.3943740809509
 20
3595.9933896271818
 30
0.0
 11
807.39437408095182
 21
3595.9933896271818
 31
0.0
  0
LINE
  5
7A90
  8
1
 10
1507.3943740809509
 20
3660.9933896271818
 30
0.0
 11
1007.394374080951
 21
3660.9933896271818
 31
0.0
  0
CIRCLE
  5
7A91
  8
1
 10
932.39437408095182
 20
2211.996878996852
 30
0.0
 40
280.0
  0
LINE
  5
7A92
  8
1
 10
617.39437408095182
 20
1786.9968789968509
 30
0.0
 11
617.39437408095182
 21
1711.9968789968509
 31
0.0
  0
CIRCLE
  5
7A93
  8
1
 10
932.39437408095182
 20
2211.996878996852
 30
0.0
 40
250.0
  0
CIRCLE
  5
7A94
  8
1
 10
932.39437408095182
 20
2211.996878996852
 30
0.0
 40
75.0
  0
ARC
  5
7A95
  8
1
 10
932.39437408095182
 20
2211.996878996852
 30
0.0
 40
125.0
 50
71.459339999999997
 51
251.45934
  0
LINE
  5
7A96
  8
2
 10
391.07693408095201
 20
2211.996878996852
 30
0.0
 11
1665.9618630809509
 21
2211.996878996852
 31
0.0
  0
LINE
  5
7A97
  8
2
 10
932.39437408095182
 20
1605.4741379968521
 30
0.0
 11
932.39437408095182
 21
2614.5806769968508
 31
0.0
  0
LINE
  5
7A98
  8
1
 10
958.39437408095182
 20
2506.0765569968512
 30
0.0
 11
958.39437408095182
 21
2571.996878996852
 31
0.0
  0
LINE
  5
7A99
  8
1
 10
956.39437408095182
 20
3803.4933896271818
 30
0.0
 11
569.94638308095182
 21
3803.4933896271818
 31
0.0
  0
LINE
  5
7A9A
  8
1
 10
857.39437408095182
 20
3660.9933896271818
 30
0.0
 11
617.39437408095182
 21
3660.9933896271818
 31
0.0
  0
LINE
  5
7A9B
  8
1
 10
617.39437408095182
 20
3660.9933896271818
 30
0.0
 11
617.39437408095182
 21
3803.4933896271818
 31
0.0
  0
LINE
  5
7A9C
  8
1
 10
807.39437408095182
 20
3595.9933896271818
 30
0.0
 11
807.39437408095182
 21
3718.9933896271818
 31
0.0
  0
LINE
  5
7A9D
  8
1
 10
1007.394374080951
 20
3688.9933896271818
 30
0.0
 11
1007.394374080951
 21
3625.9933896271818
 31
0.0
  0
LINE
  5
7A9E
  8
1
 10
857.39437408095182
 20
3688.9933896271818
 30
0.0
 11
857.39437408095182
 21
3625.9933896271818
 31
0.0
  0
LINE
  5
7A9F
  8
1
 10
1007.394374080951
 20
3625.9933896271818
 30
0.0
 11
857.39437408095182
 21
3625.9933896271818
 31
0.0
  0
LINE
  5
7AA0
  8
1
 10
1007.394374080951
 20
3688.9933896271818
 30
0.0
 11
857.39437408095182
 21
3688.9933896271818
 31
0.0
  0
LINE
  5
7AA1
  8
1
 10
914.89437408095171
 20
3803.4933896271818
 30
0.0
 11
914.89437408095171
 21
3688.9933896271818
 31
0.0
  0
LINE
  5
7AA2
  8
1
 10
949.89437408095193
 20
3803.4933896271818
 30
0.0
 11
949.89437408095193
 21
3688.9933896271818
 31
0.0
  0
ARC
  5
7AA3
  8
1
 10
1582.3943740809509
 20
2003.9968789968509
 30
0.0
 40
143.0
 50
324.34590999999989
 51
215.65408999999991
  0
CIRCLE
  5
7AA4
  8
1
 10
1582.3943740809509
 20
2003.9968789968509
 30
0.0
 40
75.0
  0
ARC
  5
7AA5
  8
1
 10
1582.3943740809509
 20
2003.9968789968509
 30
0.0
 40
125.0
 50
251.45934
 51
71.459339999999997
  0
LINE
  5
7AA6
  8
2
 10
1582.3943740809509
 20
1923.9968789968509
 30
0.0
 11
1582.3943740809509
 21
2083.996878996852
 31
0.0
  0
LINE
  5
7AA7
  8
1
 10
1417.3943740809509
 20
1871.9968789968509
 30
0.0
 11
1747.3943740809509
 21
1871.9968789968509
 31
0.0
  0
LINE
  5
7AA8
  8
1
 10
1407.394374080952
 20
1826.9968789968509
 30
0.0
 11
1407.394374080952
 21
1786.9968789968509
 31
0.0
  0
LINE
  5
7AA9
  8
1
 10
1452.3943740809509
 20
1886.9968789968509
 30
0.0
 11
1466.423651080951
 21
1921.189622996852
 31
0.0
  0
LINE
  5
7AAA
  8
1
 10
1452.3943740809509
 20
1871.9968789968509
 30
0.0
 11
1452.3943740809509
 21
1886.9968789968509
 31
0.0
  0
LINE
  5
7AAB
  8
1
 10
1452.3943740809509
 20
1871.9968789968509
 30
0.0
 11
1502.3943740809509
 21
1871.9968789968509
 31
0.0
  0
LINE
  5
7AAC
  8
1
 10
1407.394374080952
 20
1826.9968789968509
 30
0.0
 11
1417.3943740809509
 21
1871.9968789968509
 31
0.0
  0
LINE
  5
7AAD
  8
1
 10
1797.3943740809509
 20
1786.9968789968509
 30
0.0
 11
1797.3943740809509
 21
1711.9968789968509
 31
0.0
  0
LINE
  5
7AAE
  8
1
 10
1757.3943740809509
 20
1826.9968789968509
 30
0.0
 11
1757.3943740809509
 21
1786.9968789968509
 31
0.0
  0
LINE
  5
7AAF
  8
1
 10
1712.3943740809509
 20
1871.9968789968509
 30
0.0
 11
1662.3943740809509
 21
1871.9968789968509
 31
0.0
  0
LINE
  5
7AB0
  8
1
 10
1712.3943740809509
 20
1871.9968789968509
 30
0.0
 11
1712.3943740809509
 21
1886.9968789968509
 31
0.0
  0
LINE
  5
7AB1
  8
1
 10
1712.3943740809509
 20
1886.9968789968509
 30
0.0
 11
1698.3650960809509
 21
1921.189622996852
 31
0.0
  0
LINE
  5
7AB2
  8
1
 10
1747.3943740809509
 20
1871.9968789968509
 30
0.0
 11
1757.3943740809509
 21
1826.9968789968509
 31
0.0
  0
LINE
  5
7AB3
  8
2
 10
1662.3943740809509
 20
2003.9968789968509
 30
0.0
 11
1502.3943740809509
 21
2003.9968789968509
 31
0.0
  0
LINE
  5
7AB4
  8
1
 10
1707.3943740809509
 20
3595.9933896271818
 30
0.0
 11
1707.3943740809509
 21
3718.9933896271818
 31
0.0
  0
LINE
  5
7AB5
  8
1
 10
1507.3943740809509
 20
3688.9933896271818
 30
0.0
 11
1507.3943740809509
 21
3625.9933896271818
 31
0.0
  0
LINE
  5
7AB6
  8
1
 10
1657.394374080952
 20
3688.9933896271818
 30
0.0
 11
1657.394374080952
 21
3625.9933896271818
 31
0.0
  0
LINE
  5
7AB7
  8
1
 10
1657.394374080952
 20
3625.9933896271818
 30
0.0
 11
1507.3943740809509
 21
3625.9933896271818
 31
0.0
  0
LINE
  5
7AB8
  8
1
 10
1657.394374080952
 20
3688.9933896271818
 30
0.0
 11
1507.3943740809509
 21
3688.9933896271818
 31
0.0
  0
LINE
  5
7AB9
  8
1
 10
1724.8943740809509
 20
3725.9933896271818
 30
0.0
 11
1439.8943740809509
 21
3725.9933896271818
 31
0.0
  0
LINE
  5
7ABA
  8
1
 10
1439.8943740809509
 20
3725.9933896271818
 30
0.0
 11
1439.8943740809509
 21
3803.4933896271818
 31
0.0
  0
LINE
  5
7ABB
  8
1
 10
1797.3943740809509
 20
3660.9933896271818
 30
0.0
 11
1657.394374080952
 21
3660.9933896271818
 31
0.0
  0
LINE
  5
7ABC
  8
1
 10
1601.3943740809509
 20
3688.9933896271818
 30
0.0
 11
1601.3943740809509
 21
3725.9933896271818
 31
0.0
  0
LINE
  5
7ABD
  8
1
 10
1563.3943740809509
 20
3688.9933896271818
 30
0.0
 11
1563.3943740809509
 21
3725.9933896271818
 31
0.0
  0
LINE
  5
7ABE
  8
1
 10
1472.3943740809509
 20
4178.4933896271823
 30
0.0
 11
956.39437408095182
 21
4178.4933896271823
 31
0.0
  0
LINE
  5
7ABF
  8
1
 10
1797.3943740809509
 20
4220.9933896271823
 30
0.0
 11
1182.3943740809509
 21
4220.9933896271823
 31
0.0
  0
LINE
  5
7AC0
  8
1
 10
956.39437408095182
 20
4178.4933896271823
 30
0.0
 11
569.94638308095182
 21
4178.4933896271823
 31
0.0
  0
LINE
  5
7AC1
  8
1
 10
682.39437408095182
 20
4220.9933896271823
 30
0.0
 11
617.39437408095182
 21
4220.9933896271823
 31
0.0
  0
LINE
  5
7AC2
  8
1
 10
617.39437408095182
 20
4178.4933896271823
 30
0.0
 11
617.39437408095182
 21
4220.9933896271823
 31
0.0
  0
LINE
  5
7AC3
  8
1
 10
652.39437408095182
 20
4241.9933896271814
 30
0.0
 11
1212.3943740809509
 21
4241.9933896271814
 31
0.0
  0
LINE
  5
7AC4
  8
1
 10
682.39437408095182
 20
4178.4933896271823
 30
0.0
 11
682.39437408095182
 21
4241.9933896271814
 31
0.0
  0
LINE
  5
7AC5
  8
1
 10
1182.3943740809509
 20
4178.4933896271823
 30
0.0
 11
1182.3943740809509
 21
4241.9933896271814
 31
0.0
  0
LINE
  5
7AC6
  8
1
 10
1724.8943740809509
 20
4125.9933896271823
 30
0.0
 11
1472.3943740809509
 21
4125.9933896271823
 31
0.0
  0
LINE
  5
7AC7
  8
1
 10
2749.536618006533
 20
1928.9968789968509
 30
0.0
 11
2749.536618006533
 21
2078.996878996852
 31
0.0
  0
LINE
  5
7AC8
  8
1
 10
2827.536618006533
 20
1928.9968789968509
 30
0.0
 11
2827.536618006533
 21
2078.996878996852
 31
0.0
  0
LINE
  5
7AC9
  8
1
 10
2857.536618006533
 20
1878.9968789968509
 30
0.0
 11
2857.536618006533
 21
1945.4162713973981
 31
0.0
  0
LINE
  5
7ACA
  8
1
 10
2719.536618006533
 20
1878.9968789968509
 30
0.0
 11
2719.536618006533
 21
2336.996878996852
 31
0.0
  0
LINE
  5
7ACB
  8
1
 10
3317.0366180065321
 20
2235.9968789968511
 30
0.0
 11
3317.0366180065321
 21
1786.9968789968509
 31
0.0
  0
LINE
  5
7ACC
  8
1
 10
2942.0366180065321
 20
2155.996878996852
 30
0.0
 11
2942.0366180065321
 21
1786.9968789968509
 31
0.0
  0
LINE
  5
7ACD
  8
1
 10
3380.5366180065321
 20
1931.9968789968509
 30
0.0
 11
3380.5366180065321
 21
2491.996878996852
 31
0.0
  0
LINE
  5
7ACF
  8
1
 10
3359.536618006533
 20
1711.9968789968509
 30
0.0
 11
2799.536618006533
 21
1711.9968789968509
 31
0.0
  0
LINE
  5
7AD0
  8
1
 10
2719.536618006533
 20
1878.9968789968509
 30
0.0
 11
2857.536618006533
 21
1878.9968789968509
 31
0.0
  0
LINE
  5
7AD1
  8
1
 10
2827.536618006533
 20
1928.9968789968509
 30
0.0
 11
2749.536618006533
 21
1928.9968789968509
 31
0.0
  0
LINE
  5
7AD2
  8
1
 10
2799.536618006533
 20
1711.9968789968509
 30
0.0
 11
2799.536618006533
 21
1786.9968789968509
 31
0.0
  0
LINE
  5
7AD3
  8
1
 10
3317.0366180065321
 20
1961.9968789968509
 30
0.0
 11
3380.5366180065321
 21
1961.9968789968509
 31
0.0
  0
LINE
  5
7AD4
  8
1
 10
3359.536618006533
 20
1711.9968789968509
 30
0.0
 11
3359.536618006533
 21
1786.9968789968509
 31
0.0
  0
LINE
  5
7AD5
  8
1
 10
2909.536618006533
 20
2571.996878996852
 30
0.0
 11
3349.536618006533
 21
2571.996878996852
 31
0.0
  0
LINE
  5
7AD6
  8
1
 10
2942.0366180065321
 20
2541.996878996852
 30
0.0
 11
3317.0366180065321
 21
2541.996878996852
 31
0.0
  0
LINE
  5
7AD7
  8
1
 10
2942.0366180065321
 20
2571.996878996852
 30
0.0
 11
2942.0366180065321
 21
2155.996878996852
 31
0.0
  0
LINE
  5
7AD8
  8
1
 10
2827.536618006533
 20
2078.996878996852
 30
0.0
 11
2749.536618006533
 21
2078.996878996852
 31
0.0
  0
LINE
  5
7AD9
  8
1
 10
2719.536618006533
 20
2336.996878996852
 30
0.0
 11
2857.536618006533
 21
2336.996878996852
 31
0.0
  0
LINE
  5
7ADA
  8
1
 10
2827.536618006533
 20
2136.996878996852
 30
0.0
 11
2749.536618006533
 21
2136.996878996852
 31
0.0
  0
LINE
  5
7ADB
  8
1
 10
2827.536618006533
 20
2286.996878996852
 30
0.0
 11
2749.536618006533
 21
2286.996878996852
 31
0.0
  0
LINE
  5
7ADC
  8
1
 10
2749.536618006533
 20
2136.996878996852
 30
0.0
 11
2749.536618006533
 21
2286.996878996852
 31
0.0
  0
LINE
  5
7ADD
  8
1
 10
2942.0366180065321
 20
2194.496878996852
 30
0.0
 11
2827.536618006533
 21
2194.496878996852
 31
0.0
  0
LINE
  5
7ADE
  8
1
 10
2942.0366180065321
 20
2229.496878996852
 30
0.0
 11
2827.536618006533
 21
2229.496878996852
 31
0.0
  0
LINE
  5
7ADF
  8
1
 10
2827.536618006533
 20
1984.9968789968509
 30
0.0
 11
2942.0366180065321
 21
1984.9968789968509
 31
0.0
  0
LINE
  5
7AE0
  8
1
 10
2827.536618006533
 20
2022.9968789968509
 30
0.0
 11
2942.0366180065321
 21
2022.9968789968509
 31
0.0
  0
LINE
  5
7AE1
  8
1
 10
2827.536618006533
 20
2136.996878996852
 30
0.0
 11
2827.536618006533
 21
2286.996878996852
 31
0.0
  0
LINE
  5
7AE2
  8
1
 10
3317.0366180065321
 20
2571.996878996852
 30
0.0
 11
3317.0366180065321
 21
2235.9968789968511
 31
0.0
  0
LINE
  5
7AE3
  8
1
 10
3317.0366180065321
 20
2461.996878996852
 30
0.0
 11
3380.5366180065321
 21
2461.996878996852
 31
0.0
  0
DIMENSION
  5
7AF9
  8
3
  2
*D1
 10
932.39437408095182
 20
1561.8075558761659
 30
0.0
 11
776.93177814938815
 21
1561.8075558761659
 31
0.0
 70
   128
 13
617.39437408095182
 23
1711.9968789968509
 33
0.0
 14
932.39437408095182
 24
1605.4741379968521
 34
0.0
1001
ACAD
1000
DSTYLE
1002
{
1070
   287
1070
     3
1070
   287
1070
     3
1070
    40
1040
20.0
1070
   143
1040
0.039
1070
   172
1070
     1
1070
   271
1070
     0
1070
   279
1070
     0
1070
   288
1070
     1
1002
}
  0
DIMENSION
  5
7B05
  8
3
  2
*D2
 10
1797.3943740809509
 20
1560.873520334773
 30
0.0
 11
1364.8943740809509
 21
1610.873520334773
 31
0.0
 70
     0
 13
932.39437408095182
 23
1605.4741379968521
 33
0.0
 14
1797.3943740809509
 24
1711.9968789968509
 34
0.0
1001
ACAD
1000
DSTYLE
1002
{
1070
   287
1070
     3
1070
   287
1070
     3
1070
    40
1040
20.0
1070
   143
1040
0.039
1070
   172
1070
     1
1070
   271
1070
     0
1070
   279
1070
     0
1070
   288
1070
     1
1002
}
  0
DIMENSION
  5
7B12
  8
3
  2
*D3
 10
1470.3943740809509
 20
2705.7491009968521
 30
0.0
 11
1213.213115080951
 21
2705.7491009968521
 31
0.0
 70
   128
 13
958.39437408095182
 23
2571.996878996852
 33
0.0
 14
1470.3943740809509
 24
2571.996878996852
 34
0.0
1001
ACAD
1000
DSTYLE
1002
{
1070
   287
1070
     3
1070
   287
1070
     3
1070
    40
1040
20.0
1070
   143
1040
0.039
1070
   172
1070
     1
1070
   271
1070
     0
1070
   279
1070
     0
1070
   288
1070
     1
1002
}
  0
DIMENSION
  5
7B21
  8
3
  2
*D4
 10
932.39437408095182
 20
2869.8725840920388
 30
0.0
 11
750.8920406766556
 21
2869.8725840920388
 31
0.0
 70
   128
 13
571.66462308095186
 23
2211.996878996852
 33
0.0
 14
932.39437408095182
 24
2510.3896859968522
 34
0.0
1001
ACAD
1000
DSTYLE
1002
{
1070
   287
1070
     3
1070
   287
1070
     3
1070
    40
1040
20.0
1070
   143
1040
0.039
1070
   172
1070
     1
1070
   271
1070
     0
1070
   279
1070
     0
1070
   288
1070
     1
1002
}
  0
DIMENSION
  5
7B2D
  8
3
  2
*D5
 10
1470.3943740809509
 20
2869.7888659968521
 30
0.0
 11
1201.3943740809509
 21
2919.7888659968521
 31
0.0
 70
     0
 13
932.39437408095182
 23
2510.3896859968522
 33
0.0
 14
1470.3943740809509
 24
2571.996878996852
 34
0.0
1001
ACAD
1000
DSTYLE
1002
{
1070
   287
1070
     3
1070
   287
1070
     3
1070
    40
1040
20.0
1070
   143
1040
0.039
1070
   172
1070
     1
1070
   271
1070
     0
1070
   279
1070
     0
1070
   288
1070
     1
1002
}
  0
DIMENSION
  5
7B3C
  8
3
  2
*D6
 10
1957.7539824504711
 20
2211.996878996852
 30
0.0
 11
1957.7539824504711
 21
2396.7776336908391
 31
0.0
 70
   128
 13
1501.999557080951
 23
2571.996878996852
 33
0.0
 14
1441.3943740809509
 24
2211.996878996852
 34
0.0
 50
90.0
1001
ACAD
1000
DSTYLE
1002
{
1070
   287
1070
     3
1070
   287
1070
     3
1070
    40
1040
20.0
1070
   143
1040
0.039
1070
   172
1070
     1
1070
   271
1070
     0
1070
   279
1070
     0
1070
   288
1070
     1
1002
}
  0
DIMENSION
  5
7B48
  8
3
  2
*D7
 10
1956.808378005546
 20
1711.9968789968509
 30
0.0
 11
1906.808378005546
 21
1961.996878996852
 31
0.0
 70
     0
 13
1441.3943740809509
 23
2211.996878996852
 33
0.0
 14
1797.3943740809509
 24
1711.9968789968509
 34
0.0
 50
90.0
1001
ACAD
1000
DSTYLE
1002
{
1070
   287
1070
     3
1070
   287
1070
     3
1070
    40
1040
20.0
1070
   143
1040
0.039
1070
   172
1070
     1
1070
   271
1070
     0
1070
   279
1070
     0
1070
   288
1070
     1
1002
}
  0
DIMENSION
  5
7B55
  8
3
  2
*D8
 10
2093.8208812815851
 20
1711.9968789968509
 30
0.0
 11
2093.8208812815851
 21
2164.4648227678731
 31
0.0
 70
   128
 13
1501.999557080951
 23
2571.996878996852
 33
0.0
 14
1797.3943740809509
 24
1711.9968789968509
 34
0.0
 50
90.0
1001
ACAD
1000
DSTYLE
1002
{
1070
   287
1070
     3
1070
   287
1070
     3
1070
    40
1040
20.0
1070
   143
1040
0.039
1070
   172
1070
     1
1070
   271
1070
     0
1070
   279
1070
     0
1070
   288
1070
     1
1002
}
  0
DIMENSION
  5
7B62
  8
3
  2
*D9
 10
1797.3943740809509
 20
3403.3561364990601
 30
0.0
 11
1187.8946150809511
 21
3403.3561364990601
 31
0.0
 70
   128
 13
617.39437408095182
 23
3660.9933896271818
 33
0.0
 14
1797.3943740809509
 24
3660.9933896271818
 34
0.0
1001
ACAD
1000
DSTYLE
1002
{
1070
   287
1070
     3
1070
   287
1070
     3
1070
    40
1040
20.0
1070
   143
1040
0.039
1070
   172
1070
     1
1070
   271
1070
     0
1070
   279
1070
     0
1070
   288
1070
     1
1002
}
  0
DIMENSION
  5
7B6F
  8
3
  2
*D10
 10
1984.433879882678
 20
3660.9933896271818
 30
0.0
 11
1984.433879882677
 21
3967.663423627183
 31
0.0
 70
   128
 13
1797.3943740809509
 23
4220.9933896271823
 33
0.0
 14
1797.3943740809509
 24
3660.9933896271818
 34
0.0
 50
90.0
1001
ACAD
1000
DSTYLE
1002
{
1070
   287
1070
     3
1070
   287
1070
     3
1070
    40
1040
20.0
1070
   143
1040
0.039
1070
   172
1070
     1
1070
   271
1070
     0
1070
   279
1070
     0
1070
   288
1070
     1
1002
}
  0
LINE
  5
7B70
  8
2
 10
1566.072966080952
 20
3990.9933896271818
 30
0.0
 11
520.43468008095158
 21
3990.9933896271818
 31
0.0
  0
LINE
  5
7B71
  8
2
 10
3129.5366180065321
 20
2685.3885783277251
 30
0.0
 11
3129.5366180065321
 21
1651.939417996851
 31
0.0
  0
DIMENSION
  5
7B80
  8
3
  2
*D11
 10
3317.0366180065321
 20
2697.1688290743441
 30
0.0
 11
3129.0270507278979
 21
2697.1688290743441
 31
0.0
 70
   128
 13
2942.0366180065321
 23
2571.996878996852
 33
0.0
 14
3317.0366180065321
 24
2571.996878996852
 34
0.0
1001
ACAD
1000
DSTYLE
1002
{
1070
   287
1070
     3
1070
   287
1070
     3
1070
    40
1040
20.0
1070
   143
1040
0.039
1070
   172
1070
     1
1070
   271
1070
     0
1070
   279
1070
     0
1070
   288
1070
     1
1002
}
  0
DIMENSION
  5
7B8E
  8
3
  2
*D12
 10
3129.5366180065321
 20
2845.9222527419188
 30
0.0
 11
2930.7964750494052
 21
2845.9222527419188
 31
0.0
 70
   128
  1
MAX\P450
 13
2719.536618006533
 23
2336.996878996852
 33
0.0
 14
3129.5366180065321
 24
2788.2410785849502
 34
0.0
1001
ACAD
1000
DSTYLE
1002
{
1070
   287
1070
     3
1070
   287
1070
     3
1070
    40
1040
20.0
1070
   143
1040
0.039
1070
   172
1070
     1
1070
   271
1070
     0
1070
   279
1070
     0
1070
   288
1070
     1
1002
}
  0
DIMENSION
  5
7B9C
  8
3
  2
*D13
 10
3380.5366180065321
 20
2845.9222527419188
 30
0.0
 11
3252.2137487732211
 21
2853.7116127561289
 31
0.0
 70
   128
 13
3129.5366180065321
 23
2788.2410785849502
 33
0.0
 14
3380.5366180065321
 24
2491.996878996852
 34
0.0
1001
ACAD
1000
DSTYLE
1002
{
1070
   288
1070
     1
1070
   172
1070
     1
1070
    40
1040
20.0
1070
   271
1070
     0
1070
   143
1040
0.039
1002
}
  0
DIMENSION
  5
7BBF
  8
3
  2
*D14
 10
3510.9092692511549
 20
1961.9968789968509
 30
0.0
 11
3510.9092692511549
 21
2203.8017846914731
 31
0.0
 70
   128
 13
3380.5366180065321
 23
2461.996878996852
 33
0.0
 14
3380.5366180065321
 24
1961.9968789968509
 34
0.0
 50
90.0
1001
ACAD
1000
DSTYLE
1002
{
1070
   287
1070
     3
1070
   287
1070
     3
1070
     3
1000
φ<>
1070
    40
1040
20.0
1070
   143
1040
0.039
1070
   172
1070
     1
1070
   271
1070
     0
1070
   279
1070
     0
1070
   288
1070
     1
1002
}
  0
DIMENSION
  5
7BCE
  8
3
  2
*D15
 10
3129.5366180065321
 20
1556.6039054291321
 30
0.0
 11
2963.5539065849289
 21
1556.6039054291321
 31
0.0
 70
   128
 13
2799.536618006533
 23
1711.9968789968509
 33
0.0
 14
3129.5366180065321
 24
1651.939417996851
 34
0.0
1001
ACAD
1000
DSTYLE
1002
{
1070
   287
1070
     3
1070
   287
1070
     3
1070
    40
1040
20.0
1070
   143
1040
0.039
1070
   172
1070
     1
1070
   271
1070
     0
1070
   279
1070
     0
1070
   288
1070
     1
1002
}
  0
DIMENSION
  5
7BDC
  8
3
  2
*D16
 10
3359.536618006533
 20
1556.1457649012279
 30
0.0
 11
3251.569672119233
 21
1602.675065232009
 31
0.0
 70
   128
 13
3129.5366180065321
 23
1651.939417996851
 33
0.0
 14
3359.536618006533
 24
1711.9968789968509
 34
0.0
1001
ACAD
1000
DSTYLE
1002
{
1070
   288
1070
     1
1070
   172
1070
     1
1070
    40
1040
20.0
1070
   271
1070
     0
1070
   143
1040
0.039
1002
}
  0
LINE
  5
7BF3
  8
2
 10
2675.7994393936679
 20
2211.996878996852
 30
0.0
 11
3356.8425740065331
 21
2211.996878996852
 31
0.0
  0
LINE
  5
7BF4
  8
2
 10
932.39437408095182
 20
3517.2475985897099
 30
0.0
 11
932.39437408095182
 21
4302.9368548808461
 31
0.0
  0
LINE
  5
7BF5
  8
4
 10
3700.0
 20
1000.0
 30
0.0
 11
3700.0
 21
600.0
 31
0.0
  0
LINE
  5
7BF6
  8
4
 10
2300.0
 20
1000.0
 30
0.0
 11
2300.0
 21
600.0
 31
0.0
  0
LINE
  5
7BF7
  8
4
 10
1300.0
 20
1000.0
 30
0.0
 11
1300.0
 21
600.0
 31
0.0
  0
LINE
  5
7BFA
  8
4
 10
1300.0
 20
600.0
 30
0.0
 11
3700.0
 21
600.0
 31
0.0
  0
LINE
  5
7BFB
  8
4
 10
1300.0
 20
800.0
 30
0.0
 11
3700.0
 21
800.0
 31
0.0
  0
TEXT
  5
7BFC
  8
4
 10
1377.004161999999
 20
863.08605199999977
 30
0.0
 40
100.0
  1
機器名称
  0
TEXT
  5
7BFD
  8
4
 10
1372.5162119999991
 20
643.29031333333319
 30
0.0
 40
100.0
  1
機器型番
  0
TEXT
  5
7BFE
  8
4
 10
2355.3574906666659
 20
845.14353799999992
 30
0.0
 40
86.666666666666657
  1
ミツヤリミットロードファン
  0
TEXT
  5
7BFF
  8
4
 10
2373.308991333332
 20
634.31916866666666
 30
0.0
 40
100.0
  1
LLE#3-4
  0
TEXT
  5
7C01
  8
4
 10
1809.5715306666659
 20
4766.8576826666658
 30
0.0
 40
108.0
  1
床置ベット
  0
TEXT
  5
7C02
  8
4
 10
632.33518666666669
 20
5067.7619526666667
 30
0.0
 40
120.0
  1
ベルト駆動式片吸込両持排煙ファン
  0
LINE
  5
7C03
  8
4
 10
500.0
 20
4938.8175086666661
 30
0.0
 11
3700.0
 21
4938.8175086666661
 31
0.0
  0
LINE
  5
7C04
  8
4
 10
500.0
 20
5338.8175086666661
 30
0.0
 11
3700.0
 21
5338.8175086666661
 31
0.0
  0
LINE
  5
7C05
  8
4
 10
1300.0
 20
1000.0
 30
0.0
 11
3700.0
 21
1000.0
 31
0.0
  0
LINE
  5
7C06
  8
4
 10
500.0
 20
5338.8175086666661
 30
0.0
 11
500.0
 21
4938.8175086666661
 31
0.0
  0
TEXT
  5
7C07
  8
4
 10
937.85386666666648
 20
4764.6389553333329
 30
0.0
 40
108.0
  1
左回転上向
  0
TEXT
  5
7C08
  8
4
 10
2937.9391186666662
 20
5412.1221626666656
 30
0.0
 40
112.0
  1
No.
  0
TEXT
  5
7C09
  8
4
 10
2622.5921253333331
 20
4766.8576826666658
 30
0.0
 40
108.0
  1
縮尺：1/20
  0
LINE
  5
7C0A
  8
4
 10
3700.0
 20
5338.8175086666661
 30
0.0
 11
3700.0
 21
4938.8175086666661
 31
0.0
  0
LINE
  5
7C0C
  8
4
 10
2881.234844666666
 20
5362.5271659999999
 30
0.0
 11
2881.234844666666
 21
5573.3045233333341
 31
0.0
  0
LINE
  5
7C0D
  8
4
 10
2881.234844666666
 20
5573.3045233333341
 30
0.0
 11
3700.0
 21
5573.3045233333341
 31
0.0
  0
LINE
  5
7C0E
  8
4
 10
3700.0
 20
5573.3045233333341
 30
0.0
 11
3700.0
 21
5362.5271659999999
 31
0.0
  0
LINE
  5
7C0F
  8
4
 10
3700.0
 20
5362.5271659999999
 30
0.0
 11
2881.234844666666
 21
5362.5271659999999
 31
0.0
  0
LINE
  5
7CB9
  8
1
 10
617.39437408095182
 20
1786.9968789968509
 30
0.0
 11
1797.3943740809509
 21
1786.9968789968509
 31
0.0
  0
LINE
  5
7CBA
  8
1
 10
3359.536618006533
 20
1786.9968789968509
 30
0.0
 11
2799.536618006533
 21
1786.9968789968509
 31
0.0
  0
DIMENSION
  5
7E9B
  8
3
  2
*D17
 10
1797.3943740809509
 20
2990.2849627466539
 30
0.0
 11
1258.918336281047
 21
2990.2849627466539
 31
0.0
 70
   128
 13
571.66462308095186
 23
2221.996878996852
 33
0.0
 14
1797.3943740809509
 24
1786.9968789968509
 34
0.0
1001
ACAD
1000
DSTYLE
1002
{
1070
   287
1070
     3
1070
   287
1070
     3
1070
    40
1040
20.0
1070
   143
1040
0.039
1070
   172
1070
     1
1070
   271
1070
     0
1070
   279
1070
     0
1070
   288
1070
     1
1002
}
  0
LINE
  5
7EA7
  8
1
 10
2857.536618006533
 20
2275.5792415407141
 30
0.0
 11
2857.536618006533
 21
2336.996878996852
 31
0.0
  0
ENDSEC
  0
EOF
