  0
SECTION
  2
HEADER
  9
$ACADVER
  1
AC1009
  9
$INSBASE
 10
0.0
 20
0.0
 30
0.0
  9
$EXTMIN
 10
500.0
 20
600.0
 30
0.0
  9
$EXTMAX
 10
3700.0
 20
5573.3045233333341
 30
0.0
  9
$LIMMIN
 10
0.0
 20
0.0
  9
$LIMMAX
 10
297.0
 20
210.0
  9
$ORTHOMODE
 70
     0
  9
$REGENMODE
 70
     1
  9
$FILLMODE
 70
     0
  9
$QTEXTMODE
 70
     0
  9
$MIRRTEXT
 70
     1
  9
$DRAGMODE
 70
     2
  9
$LTSCALE
 40
100.0
  9
$OSMODE
 70
    37
  9
$ATTMODE
 70
     1
  9
$TEXTSIZE
 40
180.0
  9
$TRACEWID
 40
0.05
  9
$TEXTSTYLE
  7
STANDARD
  9
$CLAYER
  8
3
  9
$CELTYPE
  6
BYLAYER
  9
$CECOLOR
 62
   256
  9
$DIMSCALE
 40
20.0
  9
$DIMASZ
 40
2.0
  9
$DIMEXO
 40
0.5
  9
$DIMDLI
 40
10.0
  9
$DIMRND
 40
0.0
  9
$DIMDLE
 40
0.0
  9
$DIMEXE
 40
1.0
  9
$DIMTP
 40
1.0
  9
$DIMTM
 40
1.0
  9
$DIMTXT
 40
3.0
  9
$DIMCEN
 40
0.0
  9
$DIMTSZ
 40
0.0
  9
$DIMTOL
 70
     0
  9
$DIMLIM
 70
     0
  9
$DIMTIH
 70
     0
  9
$DIMTOH
 70
     0
  9
$DIMSE1
 70
     0
  9
$DIMSE2
 70
     0
  9
$DIMTAD
 70
     1
  9
$DIMZIN
 70
     8
  9
$DIMBLK
  1

  9
$DIMASO
 70
     1
  9
$DIMSHO
 70
     1
  9
$DIMPOST
  1

  9
$DIMAPOST
  1

  9
$DIMALT
 70
     0
  9
$DIMALTD
 70
     2
  9
$DIMALTF
 40
0.039
  9
$DIMLFAC
 40
1.0
  9
$DIMTOFL
 70
     1
  9
$DIMTVP
 40
0.0
  9
$DIMTIX
 70
     0
  9
$DIMSOXD
 70
     0
  9
$DIMSAH
 70
     1
  9
$DIMBLK1
  1
OPEN
  9
$DIMBLK2
  1
OPEN
  9
$DIMSTYLE
  2
IGA
  9
$DIMCLRD
 70
     0
  9
$DIMCLRE
 70
     0
  9
$DIMCLRT
 70
     0
  9
$DIMTFAC
 40
10.0
  9
$DIMGAP
 40
1.0
  9
$LUNITS
 70
     2
  9
$LUPREC
 70
     3
  9
$SKETCHINC
 40
0.1
  9
$FILLETRAD
 40
50.0
  9
$AUNITS
 70
     0
  9
$AUPREC
 70
     0
  9
$MENU
  1
acad
  9
$ELEVATION
 40
0.0
  9
$PELEVATION
 40
0.0
  9
$THICKNESS
 40
0.0
  9
$LIMCHECK
 70
     0
  9
$BLIPMODE
 70
     0
  9
$CHAMFERA
 40
0.5
  9
$CHAMFERB
 40
0.5
  9
$SKPOLY
 70
     0
  9
$TDCREATE
 40
2450763.590554513
  9
$TDUPDATE
 40
2454953.681195382
  9
$TDINDWG
 40
0.0179904167
  9
$TDUSRTIMER
 40
0.0179904167
  9
$USRTIMER
 70
     1
  9
$ANGBASE
 50
0.0
  9
$ANGDIR
 70
     0
  9
$PDMODE
 70
     0
  9
$PDSIZE
 40
0.0
  9
$PLINEWID
 40
0.0
  9
$COORDS
 70
     1
  9
$SPLFRAME
 70
     0
  9
$SPLINETYPE
 70
     6
  9
$SPLINESEGS
 70
     8
  9
$ATTDIA
 70
     0
  9
$ATTREQ
 70
     1
  9
$HANDLING
 70
 10241
  9
$HANDSEED
  5
80BD
  9
$SURFTAB1
 70
     6
  9
$SURFTAB2
 70
     6
  9
$SURFTYPE
 70
     6
  9
$SURFU
 70
     6
  9
$SURFV
 70
     6
  9
$UCSNAME
  2

  9
$UCSORG
 10
0.0
 20
0.0
 30
0.0
  9
$UCSXDIR
 10
1.0
 20
0.0
 30
0.0
  9
$UCSYDIR
 10
0.0
 20
1.0
 30
0.0
  9
$PUCSNAME
  2

  9
$PUCSORG
 10
0.0
 20
0.0
 30
0.0
  9
$PUCSXDIR
 10
1.0
 20
0.0
 30
0.0
  9
$PUCSYDIR
 10
0.0
 20
1.0
 30
0.0
  9
$USERI1
 70
     0
  9
$USERI2
 70
     0
  9
$USERI3
 70
     0
  9
$USERI4
 70
     0
  9
$USERI5
 70
     0
  9
$USERR1
 40
0.0
  9
$USERR2
 40
0.0
  9
$USERR3
 40
0.0
  9
$USERR4
 40
0.0
  9
$USERR5
 40
0.0
  9
$WORLDVIEW
 70
     1
  9
$SHADEDGE
 70
     3
  9
$SHADEDIF
 70
    70
  9
$TILEMODE
 70
     1
  9
$MAXACTVP
 70
    16
  9
$PLIMCHECK
 70
     0
  9
$PEXTMIN
 10
1.0000000000000000E+020
 20
1.0000000000000000E+020
 30
1.0000000000000000E+020
  9
$PEXTMAX
 10
-1.0000000000000000E+020
 20
-1.0000000000000000E+020
 30
-1.0000000000000000E+020
  9
$PLIMMIN
 10
0.0
 20
0.0
  9
$PLIMMAX
 10
12.0
 20
9.0
  9
$UNITMODE
 70
     0
  9
$VISRETAIN
 70
     0
  9
$PLINEGEN
 70
     0
  9
$PSLTSCALE
 70
     1
  0
ENDSEC
  0
SECTION
  2
TABLES
  0
TABLE
  2
VPORT
 70
     2
  0
VPORT
  2
*ACTIVE
 70
     0
 10
0.0
 20
0.0
 11
1.0
 21
1.0
 12
10026.79803917501
 22
2941.3505384181371
 13
0.0
 23
0.0
 14
10.0
 24
10.0
 15
10.0
 25
10.0
 16
0.0
 26
0.0
 36
1.0
 17
0.0
 27
0.0
 37
0.0
 40
8162.8571688556067
 41
3.1666666666666661
 42
50.0
 43
0.0
 44
0.0
 50
0.0
 51
0.0
 71
     0
 72
   100
 73
     1
 74
     0
 75
     0
 76
     0
 77
     0
 78
     0
  0
ENDTAB
  0
TABLE
  2
LTYPE
 70
     2
  0
LTYPE
  2
CONTINUOUS
 70
     0
  3
Solid line
 72
    65
 73
     0
 40
0.0
  0
LTYPE
  2
CENTER
 70
     0
  3
____ _ ____ _ ____ _ ____ _ ____ _ ____ _ ____ 
 72
    65
 73
     4
 40
2.0
 49
1.25
 49
-0.25
 49
0.25
 49
-0.25
  0
ENDTAB
  0
TABLE
  2
LAYER
 70
     6
  0
LAYER
  2
0
 70
     0
 62
     7
  6
CONTINUOUS
  0
LAYER
  2
3
 70
     0
 62
     2
  6
CONTINUOUS
  0
LAYER
  2
2
 70
     0
 62
     3
  6
CENTER
  0
LAYER
  2
1
 70
     0
 62
     4
  6
CONTINUOUS
  0
LAYER
  2
4
 70
     0
 62
     7
  6
CONTINUOUS
  0
LAYER
  2
DEFPOINTS
 70
     0
 62
     7
  6
CONTINUOUS
  0
ENDTAB
  0
TABLE
  2
STYLE
 70
     1
  0
STYLE
  2
STANDARD
 70
     0
 40
0.0
 41
1.0
 50
0.0
 71
     0
 42
180.0
  3
simplex.shx
  4
extfont.shx
  0
ENDTAB
  0
TABLE
  2
VIEW
 70
     0
  0
ENDTAB
  0
TABLE
  2
UCS
 70
     0
  0
ENDTAB
  0
TABLE
  2
APPID
 70
     1
  0
APPID
  2
ACAD
 70
     0
  0
ENDTAB
  0
TABLE
  2
DIMSTYLE
 70
     1
  0
DIMSTYLE
  2
IGA
 70
     0
  3

  4

  5

  6
OPEN
  7
OPEN
 40
2.0
 41
2.0
 42
0.5
 43
10.0
 44
1.0
 45
0.0
 46
0.0
 47
1.0
 48
1.0
140
3.0
141
0.0
142
0.0
143
0.03937
144
1.0
145
0.0
146
10.0
147
1.0
 71
     0
 72
     0
 73
     0
 74
     0
 75
     0
 76
     0
 77
     1
 78
     8
170
     0
171
     2
172
     0
173
     1
174
     0
175
     0
176
     0
177
     0
178
     0
  0
ENDTAB
  0
ENDSEC
  0
SECTION
  2
BLOCKS
  0
BLOCK
  8
0
  2
$MODEL_SPACE
 70
     0
 10
0.0
 20
0.0
 30
0.0
  3
$MODEL_SPACE
  1

  0
ENDBLK
  5
1B
  8
0
  0
BLOCK
 67
     1
  8
0
  2
$PAPER_SPACE
 70
     0
 10
0.0
 20
0.0
 30
0.0
  3
$PAPER_SPACE
  1

  0
ENDBLK
  5
18
 67
     1
  8
0
  0
BLOCK
  8
0
  2
_OPEN
 70
     0
 10
0.0
 20
0.0
 30
0.0
  3
_OPEN
  1

  0
LINE
  5
7AE4
  8
0
  6
BYBLOCK
 62
     0
 10
-1.0
 20
0.166667
 30
0.0
 11
0.0
 21
0.0
 31
0.0
  0
LINE
  5
7AE5
  8
0
  6
BYBLOCK
 62
     0
 10
0.0
 20
0.0
 30
0.0
 11
-1.0
 21
-0.166667
 31
0.0
  0
LINE
  5
7AE6
  8
0
  6
BYBLOCK
 62
     0
 10
0.0
 20
0.0
 30
0.0
 11
-1.0
 21
0.0
 31
0.0
  0
ENDBLK
  5
7AE7
  8
0
  0
BLOCK
  8
0
  2
*D1
 70
     1
 10
0.0
 20
0.0
 30
0.0
  3
*D1
  1

  0
LINE
  5
8013
  8
3
 62
     0
 10
1131.406660894994
 20
1789.1438122585571
 30
0.0
 11
1131.406660894994
 21
1635.4065775886049
 31
0.0
  0
LINE
  5
8014
  8
3
 62
     0
 10
1446.406660894994
 20
1726.952173258557
 30
0.0
 11
1446.406660894994
 21
1635.4065775886049
 31
0.0
  0
LINE
  5
8015
  8
3
 62
     0
 10
1171.406660894994
 20
1655.406577588604
 30
0.0
 11
1406.406660894994
 21
1655.406577588604
 31
0.0
  0
INSERT
  5
8016
  8
3
 62
     0
  2
_OPEN
 10
1131.406660894994
 20
1655.406577588604
 30
0.0
 41
40.0
 42
40.0
 43
40.0
 50
180.0
  0
INSERT
  5
8017
  8
3
 62
     0
  2
_OPEN
 10
1446.406660894994
 20
1655.406577588604
 30
0.0
 41
40.0
 42
40.0
 43
40.0
  0
TEXT
  8
3
  40
60
  5
80AC
  62
0
  72
0
  71
0
 10
1168.91
 20
1599.21
 30
0.000000
  1
315
  0
POINT
  5
8019
  8
DEFPOINTS
 62
     0
 10
1131.406660894994
 20
1799.1438122585571
 30
0.0
  0
POINT
  5
801A
  8
DEFPOINTS
 62
     0
 10
1446.406660894994
 20
1736.9521732585581
 30
0.0
  0
POINT
  5
801B
  8
DEFPOINTS
 62
     0
 10
1446.406660894994
 20
1655.406577588604
 30
0.0
  0
ENDBLK
  5
7DD1
  8
0
  0
BLOCK
  8
0
  2
*D2
 70
     1
 10
0.0
 20
0.0
 30
0.0
  3
*D2
  1

  0
LINE
  5
801C
  8
3
 62
     0
 10
1446.406660894994
 20
1726.952173258557
 30
0.0
 11
1446.406660894994
 21
1637.295998284334
 31
0.0
  0
LINE
  5
801D
  8
3
 62
     0
 10
2311.4066608949938
 20
1789.1438122585571
 30
0.0
 11
2311.4066608949938
 21
1637.295998284334
 31
0.0
  0
LINE
  5
801E
  8
3
 62
     0
 10
1486.406660894994
 20
1657.2959982843349
 30
0.0
 11
2271.4066608949938
 21
1657.2959982843349
 31
0.0
  0
INSERT
  5
801F
  8
3
 62
     0
  2
_OPEN
 10
1446.406660894994
 20
1657.2959982843349
 30
0.0
 41
40.0
 42
40.0
 43
40.0
 50
180.0
  0
INSERT
  5
8020
  8
3
 62
     0
  2
_OPEN
 10
2311.4066608949938
 20
1657.2959982843349
 30
0.0
 41
40.0
 42
40.0
 43
40.0
  0
TEXT
  8
3
  40
60
  5
80AD
  62
0
  72
0
  71
0
 10
1758.91
 20
1601.10
 30
0.000000
  1
865
  0
POINT
  5
8022
  8
DEFPOINTS
 62
     0
 10
1446.406660894994
 20
1736.9521732585581
 30
0.0
  0
POINT
  5
8023
  8
DEFPOINTS
 62
     0
 10
2311.4066608949938
 20
1799.1438122585571
 30
0.0
  0
POINT
  5
8024
  8
DEFPOINTS
 62
     0
 10
2311.4066608949938
 20
1657.2959982843349
 30
0.0
  0
ENDBLK
  5
7E13
  8
0
  0
BLOCK
  8
0
  2
*D3
 70
     1
 10
0.0
 20
0.0
 30
0.0
  3
*D3
  1

  0
LINE
  5
8025
  8
3
 62
     0
 10
1076.406660894994
 20
2757.1438122585578
 30
0.0
 11
930.61645851514959
 21
2757.1438122585578
 31
0.0
  0
LINE
  5
8026
  8
3
 62
     0
 10
1076.406660894994
 20
2245.1438122585569
 30
0.0
 11
930.61645851514936
 21
2245.1438122585578
 31
0.0
  0
LINE
  5
8027
  8
3
 62
     0
 10
950.61645851514947
 20
2717.1438122585578
 30
0.0
 11
950.61645851514947
 21
2285.1438122585578
 31
0.0
  0
INSERT
  5
8028
  8
3
 62
     0
  2
_OPEN
 10
950.61645851514947
 20
2757.1438122585578
 30
0.0
 41
40.0
 42
40.0
 43
40.0
 50
90.0
  0
INSERT
  5
8029
  8
3
 62
     0
  2
_OPEN
 10
950.61645851514947
 20
2245.1438122585578
 30
0.0
 41
40.0
 42
40.0
 43
40.0
 50
270.0
  0
TEXT
  8
3
  40
60
  5
80AE
  62
0
  72
0
  71
0
 10
780.616
 20
2417.22
 30
0.000000
  1
512
  0
POINT
  5
802B
  8
DEFPOINTS
 62
     0
 10
1086.406660894994
 20
2757.1438122585578
 30
0.0
  0
POINT
  5
802C
  8
DEFPOINTS
 62
     0
 10
1086.406660894994
 20
2245.1438122585569
 30
0.0
  0
POINT
  5
802D
  8
DEFPOINTS
 62
     0
 10
950.61645851514947
 20
2245.1438122585578
 30
0.0
  0
ENDBLK
  5
7EEF
  8
0
  0
BLOCK
  8
0
  2
*D4
 70
     1
 10
0.0
 20
0.0
 30
0.0
  3
*D4
  1

  0
LINE
  5
802E
  8
3
 62
     0
 10
1076.406660894994
 20
2757.1438122585578
 30
0.0
 11
806.8450616694148
 21
2757.1438122585578
 31
0.0
  0
LINE
  5
802F
  8
3
 62
     0
 10
1138.013854894994
 20
2219.1438122585569
 30
0.0
 11
806.8450616694148
 21
2219.1438122585578
 31
0.0
  0
LINE
  5
8030
  8
3
 62
     0
 10
826.84506166941492
 20
2717.1438122585578
 30
0.0
 11
826.84506166941469
 21
2259.1438122585578
 31
0.0
  0
INSERT
  5
8031
  8
3
 62
     0
  2
_OPEN
 10
826.84506166941492
 20
2757.1438122585578
 30
0.0
 41
40.0
 42
40.0
 43
40.0
 50
90.0
  0
INSERT
  5
8032
  8
3
 62
     0
  2
_OPEN
 10
826.84506166941469
 20
2219.1438122585578
 30
0.0
 41
40.0
 42
40.0
 43
40.0
 50
270.0
  0
TEXT
  8
3
  40
60
  5
80AF
  62
0
  72
0
  71
0
 10
656.845
 20
2449.19
 30
0.000000
  1
538
  0
POINT
  5
8034
  8
DEFPOINTS
 62
     0
 10
1086.406660894994
 20
2757.1438122585578
 30
0.0
  0
POINT
  5
8035
  8
DEFPOINTS
 62
     0
 10
1148.013854894994
 20
2219.1438122585569
 30
0.0
  0
POINT
  5
8036
  8
DEFPOINTS
 62
     0
 10
826.84506166941469
 20
2219.1438122585578
 30
0.0
  0
ENDBLK
  5
7EE4
  8
0
  0
BLOCK
  8
0
  2
*D5
 70
     1
 10
0.0
 20
0.0
 30
0.0
  3
*D5
  1

  0
LINE
  5
8037
  8
3
 62
     0
 10
1138.013854894994
 20
2219.1438122585569
 30
0.0
 11
806.84506166941435
 21
2219.1438122585578
 31
0.0
  0
LINE
  5
8038
  8
3
 62
     0
 10
1121.406660894994
 20
1799.1438122585571
 30
0.0
 11
806.84506166941435
 21
1799.1438122585571
 31
0.0
  0
LINE
  5
8039
  8
3
 62
     0
 10
826.84506166941435
 20
2179.1438122585578
 30
0.0
 11
826.84506166941435
 21
1839.1438122585571
 31
0.0
  0
INSERT
  5
803A
  8
3
 62
     0
  2
_OPEN
 10
826.84506166941435
 20
2219.1438122585578
 30
0.0
 41
40.0
 42
40.0
 43
40.0
 50
90.0
  0
INSERT
  5
803B
  8
3
 62
     0
  2
_OPEN
 10
826.84506166941435
 20
1799.1438122585571
 30
0.0
 41
40.0
 42
40.0
 43
40.0
 50
270.0
  0
TEXT
  8
3
  40
60
  5
80B0
  62
0
  72
0
  71
0
 10
656.845
 20
1902.94
 30
0.000000
  1
420
  0
POINT
  5
803D
  8
DEFPOINTS
 62
     0
 10
1148.013854894994
 20
2219.1438122585569
 30
0.0
  0
POINT
  5
803E
  8
DEFPOINTS
 62
     0
 10
1131.406660894994
 20
1799.1438122585571
 30
0.0
  0
POINT
  5
803F
  8
DEFPOINTS
 62
     0
 10
826.84506166941435
 20
1799.1438122585571
 30
0.0
  0
ENDBLK
  5
7ED9
  8
0
  0
BLOCK
  8
0
  2
*D6
 70
     1
 10
0.0
 20
0.0
 30
0.0
  3
*D6
  1

  0
LINE
  5
8040
  8
3
 62
     0
 10
1086.406660894994
 20
2799.1438122585578
 30
0.0
 11
1086.406660894994
 21
2918.2700290480911
 31
0.0
  0
LINE
  5
8041
  8
3
 62
     0
 10
1446.406660894994
 20
2738.1438122585578
 30
0.0
 11
1446.406660894994
 21
2918.2700290480911
 31
0.0
  0
LINE
  5
8042
  8
3
 62
     0
 10
1126.406660894994
 20
2898.2700290480921
 30
0.0
 11
1406.406660894994
 21
2898.2700290480921
 31
0.0
  0
INSERT
  5
8043
  8
3
 62
     0
  2
_OPEN
 10
1086.406660894994
 20
2898.2700290480921
 30
0.0
 41
40.0
 42
40.0
 43
40.0
 50
180.0
  0
INSERT
  5
8044
  8
3
 62
     0
  2
_OPEN
 10
1446.406660894994
 20
2898.2700290480921
 30
0.0
 41
40.0
 42
40.0
 43
40.0
  0
TEXT
  8
3
  40
60
  5
80B1
  62
0
  72
0
  71
0
 10
1146.41
 20
2842.07
 30
0.000000
  1
360
  0
POINT
  5
8046
  8
DEFPOINTS
 62
     0
 10
1086.406660894994
 20
2789.1438122585578
 30
0.0
  0
POINT
  5
8047
  8
DEFPOINTS
 62
     0
 10
1446.406660894994
 20
2728.1438122585569
 30
0.0
  0
POINT
  5
8048
  8
DEFPOINTS
 62
     0
 10
1446.406660894994
 20
2898.2700290480921
 30
0.0
  0
ENDBLK
  5
7E08
  8
0
  0
BLOCK
  8
0
  2
*D7
 70
     1
 10
0.0
 20
0.0
 30
0.0
  3
*D7
  1

  0
LINE
  5
8049
  8
3
 62
     0
 10
1446.406660894994
 20
2738.1438122585578
 30
0.0
 11
1446.406660894994
 21
2917.1649032585569
 31
0.0
  0
LINE
  5
804A
  8
3
 62
     0
 10
1881.1373668949941
 20
2229.1438122585569
 30
0.0
 11
1881.1373668949941
 21
2917.1649032585569
 31
0.0
  0
LINE
  5
804B
  8
3
 62
     0
 10
1486.406660894994
 20
2897.1649032585569
 30
0.0
 11
1841.1373668949941
 21
2897.1649032585569
 31
0.0
  0
INSERT
  5
804C
  8
3
 62
     0
  2
_OPEN
 10
1446.406660894994
 20
2897.1649032585569
 30
0.0
 41
40.0
 42
40.0
 43
40.0
 50
180.0
  0
INSERT
  5
804D
  8
3
 62
     0
  2
_OPEN
 10
1881.1373668949941
 20
2897.1649032585569
 30
0.0
 41
40.0
 42
40.0
 43
40.0
  0
TEXT
  8
3
  40
60
  5
80B2
  62
0
  72
0
  71
0
 10
1543.77
 20
2840.96
 30
0.000000
  1
435
  0
POINT
  5
804F
  8
DEFPOINTS
 62
     0
 10
1446.406660894994
 20
2728.1438122585569
 30
0.0
  0
POINT
  5
8050
  8
DEFPOINTS
 62
     0
 10
1881.1373668949941
 20
2219.1438122585569
 30
0.0
  0
POINT
  5
8051
  8
DEFPOINTS
 62
     0
 10
1881.1373668949941
 20
2897.1649032585569
 30
0.0
  0
ENDBLK
  5
7D8F
  8
0
  0
BLOCK
  8
0
  2
*D8
 70
     1
 10
0.0
 20
0.0
 30
0.0
  3
*D8
  1

  0
LINE
  5
8052
  8
3
 62
     0
 10
1131.406660894994
 20
3656.2822549576072
 30
0.0
 11
1131.406660894994
 21
3372.0122397912828
 31
0.0
  0
LINE
  5
8053
  8
3
 62
     0
 10
2311.4066608949938
 20
3656.2822549576072
 30
0.0
 11
2311.4066608949938
 21
3372.0122397912828
 31
0.0
  0
LINE
  5
8054
  8
3
 62
     0
 10
1171.406660894994
 20
3392.0122397912828
 30
0.0
 11
2271.4066608949938
 21
3392.0122397912828
 31
0.0
  0
INSERT
  5
8055
  8
3
 62
     0
  2
_OPEN
 10
1131.406660894994
 20
3392.0122397912828
 30
0.0
 41
40.0
 42
40.0
 43
40.0
 50
180.0
  0
INSERT
  5
8056
  8
3
 62
     0
  2
_OPEN
 10
2311.4066608949938
 20
3392.0122397912828
 30
0.0
 41
40.0
 42
40.0
 43
40.0
  0
TEXT
  8
3
  40
60
  5
80B3
  62
0
  72
0
  71
0
 10
1648.34
 20
3335.81
 30
0.000000
  1
1180
  0
POINT
  5
8058
  8
DEFPOINTS
 62
     0
 10
1131.406660894994
 20
3666.2822549576072
 30
0.0
  0
POINT
  5
8059
  8
DEFPOINTS
 62
     0
 10
2311.4066608949938
 20
3666.2822549576072
 30
0.0
  0
POINT
  5
805A
  8
DEFPOINTS
 62
     0
 10
2311.4066608949938
 20
3392.0122397912828
 30
0.0
  0
ENDBLK
  5
7F05
  8
0
  0
BLOCK
  8
0
  2
*D9
 70
     1
 10
0.0
 20
0.0
 30
0.0
  3
*D9
  1

  0
LINE
  5
805B
  8
3
 62
     0
 10
2321.4066608949938
 20
4226.2822549576058
 30
0.0
 11
2540.7044248548882
 21
4226.2822549576058
 31
0.0
  0
LINE
  5
805C
  8
3
 62
     0
 10
2321.4066608949938
 20
3666.2822549576072
 30
0.0
 11
2540.7044248548882
 21
3666.2822549576072
 31
0.0
  0
LINE
  5
805D
  8
3
 62
     0
 10
2520.7044248548882
 20
4186.2822549576058
 30
0.0
 11
2520.7044248548882
 21
3706.2822549576058
 31
0.0
  0
INSERT
  5
805E
  8
3
 62
     0
  2
_OPEN
 10
2520.7044248548882
 20
4226.2822549576058
 30
0.0
 41
40.0
 42
40.0
 43
40.0
 50
90.0
  0
INSERT
  5
805F
  8
3
 62
     0
  2
_OPEN
 10
2520.7044248548882
 20
3666.2822549576072
 30
0.0
 41
40.0
 42
40.0
 43
40.0
 50
270.0
  0
TEXT
  8
3
  40
60
  5
80B4
  62
0
  72
0
  71
0
 10
2350.70
 20
3845.58
 30
0.000000
  1
560
  0
POINT
  5
8061
  8
DEFPOINTS
 62
     0
 10
2311.4066608949938
 20
4226.2822549576058
 30
0.0
  0
POINT
  5
8062
  8
DEFPOINTS
 62
     0
 10
2311.4066608949938
 20
3666.2822549576072
 30
0.0
  0
POINT
  5
8063
  8
DEFPOINTS
 62
     0
 10
2520.7044248548882
 20
3666.2822549576072
 30
0.0
  0
ENDBLK
  5
7EFA
  8
0
  0
BLOCK
  8
0
  2
*D10
 70
     1
 10
0.0
 20
0.0
 30
0.0
  3
*D10
  1

  0
LINE
  5
8064
  8
3
 62
     0
 10
2927.819575559874
 20
1789.1438122585571
 30
0.0
 11
2927.819575559874
 21
1646.036734927784
 31
0.0
  0
LINE
  5
8065
  8
3
 62
     0
 10
3257.819575559874
 20
1738.1262694681409
 30
0.0
 11
3257.819575559874
 21
1646.036734927784
 31
0.0
  0
LINE
  5
8066
  8
3
 62
     0
 10
2967.819575559874
 20
1666.036734927784
 30
0.0
 11
3217.819575559874
 21
1666.036734927784
 31
0.0
  0
INSERT
  5
8067
  8
3
 62
     0
  2
_OPEN
 10
2927.819575559874
 20
1666.036734927784
 30
0.0
 41
40.0
 42
40.0
 43
40.0
 50
180.0
  0
INSERT
  5
8068
  8
3
 62
     0
  2
_OPEN
 10
3257.819575559874
 20
1666.036734927784
 30
0.0
 41
40.0
 42
40.0
 43
40.0
  0
TEXT
  8
3
  40
60
  5
80B5
  62
0
  72
0
  71
0
 10
2972.82
 20
1609.84
 30
0.000000
  1
330
  0
POINT
  5
806A
  8
DEFPOINTS
 62
     0
 10
2927.819575559874
 20
1799.1438122585571
 30
0.0
  0
POINT
  5
806B
  8
DEFPOINTS
 62
     0
 10
3257.819575559874
 20
1748.1262694681409
 30
0.0
  0
POINT
  5
806C
  8
DEFPOINTS
 62
     0
 10
3257.819575559874
 20
1666.036734927784
 30
0.0
  0
ENDBLK
  5
7E4A
  8
0
  0
BLOCK
  8
0
  2
*D11
 70
     1
 10
0.0
 20
0.0
 30
0.0
  3
*D11
  1

  0
LINE
  5
7E4C
  8
0
  6
BYBLOCK
 62
     0
 10
3257.819575559874
 20
1738.1262694681409
 30
0.0
 11
3257.819575559874
 21
1645.2255360327649
 31
0.0
  0
LINE
  5
7E4D
  8
0
  6
BYBLOCK
 62
     0
 10
3487.819575559874
 20
1789.1438122585571
 30
0.0
 11
3487.819575559874
 21
1645.2255360327649
 31
0.0
  0
LINE
  5
7E4E
  8
0
  6
BYBLOCK
 62
     0
 10
3297.819575559874
 20
1665.2255360327649
 30
0.0
 11
3447.819575559874
 21
1665.2255360327649
 31
0.0
  0
TEXT
  5
7E4F
  8
3
 62
     0
 10
3298.7951902554169
 20
1681.582889231458
 30
0.0
 40
60.0
  1
230
  0
INSERT
  5
7E50
  8
0
  6
BYBLOCK
 62
     0
  2
_OPEN
 10
3257.819575559874
 20
1665.2255360327649
 30
0.0
 41
40.0
 42
40.0
 43
40.0
 50
180.0
  0
INSERT
  5
7E51
  8
0
  6
BYBLOCK
 62
     0
  2
_OPEN
 10
3487.819575559874
 20
1665.2255360327649
 30
0.0
 41
40.0
 42
40.0
 43
40.0
  0
POINT
  5
7E52
  8
DEFPOINTS
  6
BYBLOCK
 62
     0
 10
3257.819575559874
 20
1748.1262694681409
 30
0.0
  0
POINT
  5
7E53
  8
DEFPOINTS
  6
BYBLOCK
 62
     0
 10
3487.819575559874
 20
1799.1438122585571
 30
0.0
  0
POINT
  5
7E54
  8
DEFPOINTS
  6
BYBLOCK
 62
     0
 10
3487.819575559874
 20
1665.2255360327649
 30
0.0
  0
ENDBLK
  5
7E55
  8
0
  0
BLOCK
  8
0
  2
*D12
 70
     1
 10
0.0
 20
0.0
 30
0.0
  3
*D12
  1

  0
LINE
  5
806D
  8
3
 62
     0
 10
3518.8195755598749
 20
2469.1438122585578
 30
0.0
 11
3690.8479261952562
 21
2469.1438122585578
 31
0.0
  0
LINE
  5
806E
  8
3
 62
     0
 10
3518.8195755598749
 20
1969.1438122585571
 30
0.0
 11
3690.8479261952562
 21
1969.1438122585571
 31
0.0
  0
LINE
  5
806F
  8
3
 62
     0
 10
3670.8479261952571
 20
2429.1438122585578
 30
0.0
 11
3670.8479261952571
 21
2009.1438122585571
 31
0.0
  0
INSERT
  5
8070
  8
3
 62
     0
  2
_OPEN
 10
3670.8479261952571
 20
2469.1438122585578
 30
0.0
 41
40.0
 42
40.0
 43
40.0
 50
90.0
  0
INSERT
  5
8071
  8
3
 62
     0
  2
_OPEN
 10
3670.8479261952571
 20
1969.1438122585571
 30
0.0
 41
40.0
 42
40.0
 43
40.0
 50
270.0
  0
TEXT
  8
3
  40
60
  5
80B6
  62
0
  72
0
  71
0
 10
3500.85
 20
2112.94
 30
0.000000
  1
φ500
  0
POINT
  5
8073
  8
DEFPOINTS
 62
     0
 10
3508.819575559874
 20
2469.1438122585578
 30
0.0
  0
POINT
  5
8074
  8
DEFPOINTS
 62
     0
 10
3508.819575559874
 20
1969.1438122585571
 30
0.0
  0
POINT
  5
8075
  8
DEFPOINTS
 62
     0
 10
3670.8479261952571
 20
1969.1438122585571
 30
0.0
  0
ENDBLK
  5
7E60
  8
0
  0
BLOCK
  8
0
  2
*D13
 70
     1
 10
0.0
 20
0.0
 30
0.0
  3
*D13
  1

  0
LINE
  5
8076
  8
3
 62
     0
 10
3070.319575559874
 20
2769.1438122585569
 30
0.0
 11
3070.319575559874
 21
2865.562762572793
 31
0.0
  0
LINE
  5
8077
  8
3
 62
     0
 10
3445.319575559874
 20
2769.1438122585569
 30
0.0
 11
3445.319575559874
 21
2865.562762572793
 31
0.0
  0
LINE
  5
8078
  8
3
 62
     0
 10
3110.319575559874
 20
2845.562762572793
 30
0.0
 11
3405.319575559874
 21
2845.562762572793
 31
0.0
  0
INSERT
  5
8079
  8
3
 62
     0
  2
_OPEN
 10
3070.319575559874
 20
2845.562762572793
 30
0.0
 41
40.0
 42
40.0
 43
40.0
 50
180.0
  0
INSERT
  5
807A
  8
3
 62
     0
  2
_OPEN
 10
3445.319575559874
 20
2845.562762572793
 30
0.0
 41
40.0
 42
40.0
 43
40.0
  0
TEXT
  8
3
  40
60
  5
80B7
  62
0
  72
0
  71
0
 10
3137.82
 20
2789.36
 30
0.000000
  1
375
  0
POINT
  5
807C
  8
DEFPOINTS
 62
     0
 10
3070.319575559874
 20
2759.1438122585578
 30
0.0
  0
POINT
  5
807D
  8
DEFPOINTS
 62
     0
 10
3445.319575559874
 20
2759.1438122585578
 30
0.0
  0
POINT
  5
807E
  8
DEFPOINTS
 62
     0
 10
3445.319575559874
 20
2845.562762572793
 30
0.0
  0
ENDBLK
  5
7EC3
  8
0
  0
BLOCK
  8
0
  2
*D14
 70
     1
 10
0.0
 20
0.0
 30
0.0
  3
*D14
  1

  0
LINE
  5
807F
  8
3
 62
     0
 10
2847.819575559874
 20
2354.1438122585569
 30
0.0
 11
2847.819575559874
 21
3015.925952667485
 31
0.0
  0
LINE
  5
8080
  8
3
 62
     0
 10
3257.819575559874
 20
2956.343048743634
 30
0.0
 11
3257.819575559874
 21
3015.925952667485
 31
0.0
  0
LINE
  5
8081
  8
3
 62
     0
 10
2887.819575559874
 20
2995.925952667485
 30
0.0
 11
3217.819575559874
 21
2995.925952667485
 31
0.0
  0
INSERT
  5
8082
  8
3
 62
     0
  2
_OPEN
 10
2847.819575559874
 20
2995.925952667485
 30
0.0
 41
40.0
 42
40.0
 43
40.0
 50
180.0
  0
INSERT
  5
8083
  8
3
 62
     0
  2
_OPEN
 10
3257.819575559874
 20
2995.925952667485
 30
0.0
 41
40.0
 42
40.0
 43
40.0
  0
TEXT
  8
3
  40
60
  5
80B8
  62
0
  72
0
  71
0
 10
2937.22
 20
2989.73
 30
0.000000
  1
MAX
  0
TEXT
  8
3
  40
60
  5
80B9
  62
0
  72
0
  71
0
 10
2937.22
 20
2911.73
 30
0.000000
  1
450
  0
POINT
  5
8085
  8
DEFPOINTS
 62
     0
 10
2847.819575559874
 20
2344.1438122585569
 30
0.0
  0
POINT
  5
8086
  8
DEFPOINTS
 62
     0
 10
3257.819575559874
 20
2946.343048743634
 30
0.0
  0
POINT
  5
8087
  8
DEFPOINTS
 62
     0
 10
3257.819575559874
 20
2995.925952667485
 30
0.0
  0
ENDBLK
  5
7F14
  8
0
  0
BLOCK
  8
0
  2
*D15
 70
     1
 10
0.0
 20
0.0
 30
0.0
  3
*D15
  1

  0
LINE
  5
8088
  8
3
 62
     0
 10
3257.819575559874
 20
2956.343048743634
 30
0.0
 11
3257.819575559874
 21
3015.8297316235448
 31
0.0
  0
LINE
  5
8089
  8
3
 62
     0
 10
3508.819575559874
 20
2509.1438122585578
 30
0.0
 11
3508.819575559874
 21
3015.8297316235448
 31
0.0
  0
LINE
  5
808A
  8
3
 62
     0
 10
3297.819575559874
 20
2995.8297316235462
 30
0.0
 11
3468.8195755598749
 21
2995.8297316235462
 31
0.0
  0
INSERT
  5
808B
  8
3
 62
     0
  2
_OPEN
 10
3257.819575559874
 20
2995.8297316235462
 30
0.0
 41
40.0
 42
40.0
 43
40.0
 50
180.0
  0
INSERT
  5
808C
  8
3
 62
     0
  2
_OPEN
 10
3508.819575559874
 20
2995.8297316235462
 30
0.0
 41
40.0
 42
40.0
 43
40.0
  0
TEXT
  8
3
  40
60
  5
80BA
  62
0
  72
0
  71
0
 10
3262.11
 20
2939.63
 30
0.000000
  1
251
  0
POINT
  5
808E
  8
DEFPOINTS
 62
     0
 10
3257.819575559874
 20
2946.343048743634
 30
0.0
  0
POINT
  5
808F
  8
DEFPOINTS
 62
     0
 10
3508.819575559874
 20
2499.1438122585569
 30
0.0
  0
POINT
  5
8090
  8
DEFPOINTS
 62
     0
 10
3508.819575559874
 20
2995.8297316235462
 30
0.0
  0
ENDBLK
  5
7EAD
  8
0
  0
BLOCK
  8
0
  2
*D16
 70
     1
 10
0.0
 20
0.0
 30
0.0
  3
*D16
  1

  0
LINE
  5
8091
  8
3
 62
     0
 10
1076.406660894994
 20
2789.1438122585578
 30
0.0
 11
697.38959435779304
 21
2789.1438122585578
 31
0.0
  0
LINE
  5
8092
  8
3
 62
     0
 10
1121.406660894994
 20
1799.1438122585571
 30
0.0
 11
697.38959435779304
 21
1799.1438122585571
 31
0.0
  0
LINE
  5
8093
  8
3
 62
     0
 10
717.38959435779316
 20
2749.1438122585578
 30
0.0
 11
717.38959435779304
 21
1839.1438122585571
 31
0.0
  0
INSERT
  5
8094
  8
3
 62
     0
  2
_OPEN
 10
717.38959435779316
 20
2789.1438122585578
 30
0.0
 41
40.0
 42
40.0
 43
40.0
 50
90.0
  0
INSERT
  5
8095
  8
3
 62
     0
  2
_OPEN
 10
717.38959435779304
 20
1799.1438122585571
 30
0.0
 41
40.0
 42
40.0
 43
40.0
 50
270.0
  0
TEXT
  8
3
  40
60
  5
80BB
  62
0
  72
0
  71
0
 10
547.390
 20
2189.66
 30
0.000000
  1
990
  0
POINT
  5
8097
  8
DEFPOINTS
 62
     0
 10
1086.406660894994
 20
2789.1438122585578
 30
0.0
  0
POINT
  5
8098
  8
DEFPOINTS
 62
     0
 10
1131.406660894994
 20
1799.1438122585571
 30
0.0
  0
POINT
  5
8099
  8
DEFPOINTS
 62
     0
 10
717.38959435779304
 20
1799.1438122585571
 30
0.0
  0
ENDBLK
  5
7ECE
  8
0
  0
BLOCK
  8
0
  2
*D17
 70
     1
 10
0.0
 20
0.0
 30
0.0
  3
*D17
  1

  0
LINE
  5
80A3
  8
3
 62
     0
 10
1086.406660894994
 20
2809.1438122585569
 30
0.0
 11
1086.406660894994
 21
3067.8748000551041
 31
0.0
  0
LINE
  5
80A4
  8
3
 62
     0
 10
2311.4066608949929
 20
1884.1438122585571
 30
0.0
 11
2311.4066608949929
 21
3067.8748000551041
 31
0.0
  0
LINE
  5
80A5
  8
3
 62
     0
 10
1126.406660894994
 20
3047.8748000551041
 30
0.0
 11
2271.4066608949929
 21
3047.8748000551041
 31
0.0
  0
INSERT
  5
80A6
  8
3
 62
     0
  2
_OPEN
 10
1086.406660894994
 20
3047.8748000551041
 30
0.0
 41
40.0
 42
40.0
 43
40.0
 50
180.0
  0
INSERT
  5
80A7
  8
3
 62
     0
  2
_OPEN
 10
2311.4066608949929
 20
3047.8748000551041
 30
0.0
 41
40.0
 42
40.0
 43
40.0
  0
TEXT
  8
3
  40
60
  5
80BC
  62
0
  72
0
  71
0
 10
1630.99
 20
2991.67
 30
0.000000
  1
1225
  0
POINT
  5
80A9
  8
DEFPOINTS
 62
     0
 10
1086.406660894994
 20
2799.1438122585578
 30
0.0
  0
POINT
  5
80AA
  8
DEFPOINTS
 62
     0
 10
2311.4066608949929
 20
1874.1438122585571
 30
0.0
  0
POINT
  5
80AB
  8
DEFPOINTS
 62
     0
 10
2311.4066608949929
 20
3047.8748000551041
 30
0.0
  0
ENDBLK
  5
7F20
  8
0
  0
ENDSEC
  0
SECTION
  2
ENTITIES
  0
LINE
  5
7A75
  8
1
 10
2238.9066608949938
 20
3731.2822549576072
 30
0.0
 11
2238.9066608949938
 21
4131.2822549576058
 31
0.0
  0
LINE
  5
7A76
  8
1
 10
1953.906660894994
 20
3731.2822549576072
 30
0.0
 11
1953.906660894994
 21
4131.2822549576058
 31
0.0
  0
LINE
  5
7A77
  8
1
 10
2311.4066608949938
 20
3666.2822549576072
 30
0.0
 11
2311.4066608949938
 21
4226.2822549576058
 31
0.0
  0
LINE
  5
7A78
  8
1
 10
1086.406660894994
 20
4185.7822549576067
 30
0.0
 11
1086.406660894994
 21
3776.2822549576058
 31
0.0
  0
LINE
  5
7A79
  8
1
 10
1116.406660894994
 20
3808.7822549576058
 30
0.0
 11
1116.406660894994
 21
4183.7822549576058
 31
0.0
  0
LINE
  5
7A7A
  8
1
 10
1882.8546508949939
 20
3808.7822549576058
 30
0.0
 11
1882.8546508949939
 21
4183.7822549576058
 31
0.0
  0
LINE
  5
7A7B
  8
1
 10
2021.406660894994
 20
3666.2822549576072
 30
0.0
 11
1521.406660894994
 21
3666.2822549576072
 31
0.0
  0
LINE
  5
7A7C
  8
1
 10
2221.4066608949938
 20
3601.2822549576058
 30
0.0
 11
1321.406660894994
 21
3601.2822549576058
 31
0.0
  0
LINE
  5
7A7D
  8
1
 10
2221.4066608949938
 20
3724.2822549576072
 30
0.0
 11
1321.406660894994
 21
3724.2822549576072
 31
0.0
  0
LINE
  5
7A7E
  8
1
 10
2080.8307528949931
 20
2017.7790312585571
 30
0.0
 11
1430.8307528949931
 21
2145.7790312585571
 31
0.0
  0
LINE
  5
7A7F
  8
1
 10
2111.9825678949928
 20
2164.5085932585562
 30
0.0
 11
1461.9825678949931
 21
2292.5085932585571
 31
0.0
  0
LINE
  5
7A80
  8
1
 10
2070.4468148949941
 20
1968.8691772585571
 30
0.0
 11
1420.4468148949941
 21
2096.8691772585571
 31
0.0
  0
LINE
  5
7A81
  8
1
 10
2122.3665058949932
 20
2213.4184472585571
 30
0.0
 11
1472.366505894993
 21
2341.4184472585571
 31
0.0
  0
CIRCLE
  5
7A82
  8
1
 10
1446.406660894994
 20
2219.1438122585569
 30
0.0
 40
280.0
  0
LINE
  5
7A84
  8
1
 10
1131.406660894994
 20
1799.1438122585571
 30
0.0
 11
2311.4066608949938
 21
1799.1438122585571
 31
0.0
  0
CIRCLE
  5
7A8D
  8
1
 10
1446.406660894994
 20
2219.1438122585569
 30
0.0
 40
250.0
  0
LINE
  5
7A8E
  8
1
 10
1086.406660894994
 20
3808.7822549576058
 30
0.0
 11
1882.8546508949939
 21
3808.7822549576058
 31
0.0
  0
LINE
  5
7A8F
  8
1
 10
1131.406660894994
 20
1874.1438122585571
 30
0.0
 11
1131.406660894994
 21
1799.1438122585571
 31
0.0
  0
LINE
  5
7A90
  8
1
 10
1116.406660894994
 20
2245.1438122585569
 30
0.0
 11
1116.406660894994
 21
2754.7271452585569
 31
0.0
  0
LINE
  5
7A91
  8
1
 10
1086.406660894994
 20
2789.1438122585578
 30
0.0
 11
1086.406660894994
 21
2213.1438122585569
 31
0.0
  0
LINE
  5
7A92
  8
1
 10
1152.326981894993
 20
2245.1438122585569
 30
0.0
 11
1086.406660894994
 21
2245.1438122585569
 31
0.0
  0
LINE
  5
7A93
  8
2
 10
3538.7209046737771
 20
2219.1438122585569
 30
0.0
 11
2809.4259562344519
 21
2219.1438122585569
 31
0.0
  0
LINE
  5
7A94
  8
2
 10
1446.406660894994
 20
1708.065486258557
 30
0.0
 11
1446.406660894994
 21
2801.9779862585569
 31
0.0
  0
ARC
  5
7A95
  8
1
 10
1446.406660894994
 20
2219.1438122585569
 30
0.0
 40
125.0
 50
78.013643000000002
 51
258.013643
  0
CIRCLE
  5
7A96
  8
1
 10
1446.406660894994
 20
2219.1438122585569
 30
0.0
 40
75.0
  0
LINE
  5
7A97
  8
1
 10
1371.406660894994
 20
3694.2822549576072
 30
0.0
 11
1371.406660894994
 21
3631.2822549576072
 31
0.0
  0
LINE
  5
7A98
  8
1
 10
1521.406660894994
 20
3694.2822549576072
 30
0.0
 11
1521.406660894994
 21
3631.2822549576072
 31
0.0
  0
LINE
  5
7A99
  8
1
 10
1321.406660894994
 20
3601.2822549576058
 30
0.0
 11
1321.406660894994
 21
3724.2822549576072
 31
0.0
  0
LINE
  5
7A9A
  8
1
 10
1521.406660894994
 20
3631.2822549576072
 30
0.0
 11
1371.406660894994
 21
3631.2822549576072
 31
0.0
  0
LINE
  5
7A9B
  8
1
 10
1371.406660894994
 20
3666.2822549576072
 30
0.0
 11
1131.406660894994
 21
3666.2822549576072
 31
0.0
  0
LINE
  5
7A9C
  8
1
 10
1131.406660894994
 20
3666.2822549576072
 30
0.0
 11
1131.406660894994
 21
3808.7822549576058
 31
0.0
  0
LINE
  5
7A9D
  8
1
 10
1521.406660894994
 20
3694.2822549576072
 30
0.0
 11
1371.406660894994
 21
3694.2822549576072
 31
0.0
  0
LINE
  5
7A9E
  8
1
 10
1428.906660894994
 20
3808.7822549576058
 30
0.0
 11
1428.906660894994
 21
3694.2822549576072
 31
0.0
  0
LINE
  5
7A9F
  8
1
 10
1463.906660894994
 20
3808.7822549576058
 30
0.0
 11
1463.906660894994
 21
3694.2822549576072
 31
0.0
  0
LINE
  5
7AA0
  8
2
 10
2096.4066608949938
 20
2011.1438122585571
 30
0.0
 11
2096.4066608949938
 21
2171.1438122585569
 31
0.0
  0
ARC
  5
7AA1
  8
1
 10
2096.4066608949938
 20
2091.1438122585569
 30
0.0
 40
125.0
 50
258.013643
 51
78.013643000000002
  0
CIRCLE
  5
7AA2
  8
1
 10
2096.4066608949938
 20
2091.1438122585569
 30
0.0
 40
75.0
  0
ARC
  5
7AA3
  8
1
 10
2096.4066608949938
 20
2091.1438122585569
 30
0.0
 40
143.0
 50
324.34590999999989
 51
215.65408999999991
  0
LINE
  5
7AA4
  8
1
 10
1931.406660894994
 20
1959.1438122585571
 30
0.0
 11
2261.4066608949938
 21
1959.1438122585571
 31
0.0
  0
LINE
  5
7AA5
  8
1
 10
1921.406660894994
 20
1914.1438122585571
 30
0.0
 11
1931.406660894994
 21
1959.1438122585571
 31
0.0
  0
LINE
  5
7AA6
  8
1
 10
1966.406660894994
 20
1959.1438122585571
 30
0.0
 11
2016.406660894994
 21
1959.1438122585571
 31
0.0
  0
LINE
  5
7AA7
  8
1
 10
1966.406660894994
 20
1959.1438122585571
 30
0.0
 11
1966.406660894994
 21
1974.1438122585571
 31
0.0
  0
LINE
  5
7AA8
  8
1
 10
1966.406660894994
 20
1974.1438122585571
 30
0.0
 11
1980.435937894993
 21
2008.3365562585559
 31
0.0
  0
LINE
  5
7AA9
  8
1
 10
1921.406660894994
 20
1914.1438122585571
 30
0.0
 11
1921.406660894994
 21
1874.1438122585571
 31
0.0
  0
LINE
  5
7AAA
  8
1
 10
2261.4066608949938
 20
1959.1438122585571
 30
0.0
 11
2271.4066608949938
 21
1914.1438122585571
 31
0.0
  0
LINE
  5
7AAB
  8
1
 10
2226.4066608949938
 20
1974.1438122585571
 30
0.0
 11
2212.3773828949938
 21
2008.3365562585559
 31
0.0
  0
LINE
  5
7AAC
  8
1
 10
2226.4066608949938
 20
1959.1438122585571
 30
0.0
 11
2226.4066608949938
 21
1974.1438122585571
 31
0.0
  0
LINE
  5
7AAD
  8
1
 10
2226.4066608949938
 20
1959.1438122585571
 30
0.0
 11
2176.4066608949938
 21
1959.1438122585571
 31
0.0
  0
LINE
  5
7AAE
  8
1
 10
2271.4066608949938
 20
1914.1438122585571
 30
0.0
 11
2271.4066608949938
 21
1874.1438122585571
 31
0.0
  0
LINE
  5
7AAF
  8
1
 10
2311.4066608949929
 20
1874.1438122585571
 30
0.0
 11
2311.4066608949938
 21
1799.1438122585571
 31
0.0
  0
LINE
  5
7AB0
  8
2
 10
2176.4066608949938
 20
2091.1438122585569
 30
0.0
 11
2016.406660894994
 21
2091.1438122585569
 31
0.0
  0
LINE
  5
7AB1
  8
1
 10
2238.9066608949938
 20
3731.2822549576072
 30
0.0
 11
1953.906660894994
 21
3731.2822549576072
 31
0.0
  0
LINE
  5
7AB2
  8
1
 10
2171.4066608949938
 20
3694.2822549576072
 30
0.0
 11
2021.406660894994
 21
3694.2822549576072
 31
0.0
  0
LINE
  5
7AB3
  8
1
 10
2171.4066608949938
 20
3631.2822549576072
 30
0.0
 11
2021.406660894994
 21
3631.2822549576072
 31
0.0
  0
LINE
  5
7AB4
  8
1
 10
2021.406660894994
 20
3694.2822549576072
 30
0.0
 11
2021.406660894994
 21
3631.2822549576072
 31
0.0
  0
LINE
  5
7AB5
  8
1
 10
2077.4066608949938
 20
3694.2822549576072
 30
0.0
 11
2077.4066608949938
 21
3731.2822549576072
 31
0.0
  0
LINE
  5
7AB6
  8
1
 10
2115.4066608949938
 20
3694.2822549576072
 30
0.0
 11
2115.4066608949938
 21
3731.2822549576072
 31
0.0
  0
LINE
  5
7AB7
  8
1
 10
2171.4066608949938
 20
3694.2822549576072
 30
0.0
 11
2171.4066608949938
 21
3631.2822549576072
 31
0.0
  0
LINE
  5
7AB8
  8
1
 10
2221.4066608949938
 20
3601.2822549576058
 30
0.0
 11
2221.4066608949938
 21
3724.2822549576072
 31
0.0
  0
LINE
  5
7AB9
  8
1
 10
2311.4066608949938
 20
3666.2822549576072
 30
0.0
 11
2171.4066608949938
 21
3666.2822549576072
 31
0.0
  0
LINE
  5
7ABA
  8
1
 10
1166.406660894994
 20
4247.2822549576058
 30
0.0
 11
1726.406660894994
 21
4247.2822549576058
 31
0.0
  0
LINE
  5
7ABB
  8
1
 10
1086.406660894994
 20
4183.7822549576058
 30
0.0
 11
1882.8546508949939
 21
4183.7822549576058
 31
0.0
  0
LINE
  5
7ABC
  8
1
 10
1131.406660894994
 20
4183.7822549576058
 30
0.0
 11
1131.406660894994
 21
4226.2822549576058
 31
0.0
  0
LINE
  5
7ABD
  8
1
 10
1196.406660894994
 20
4226.2822549576058
 30
0.0
 11
1131.406660894994
 21
4226.2822549576058
 31
0.0
  0
LINE
  5
7ABE
  8
1
 10
1196.406660894994
 20
4183.7822549576058
 30
0.0
 11
1196.406660894994
 21
4247.2822549576058
 31
0.0
  0
LINE
  5
7ABF
  8
1
 10
1086.406660894994
 20
4186.2822549576058
 30
0.0
 11
1086.406660894994
 21
4216.2822549576067
 31
0.0
  0
LINE
  5
7AC0
  8
1
 10
2238.9066608949938
 20
4131.2822549576058
 30
0.0
 11
1953.906660894994
 21
4131.2822549576058
 31
0.0
  0
LINE
  5
7AC1
  8
1
 10
2311.4066608949938
 20
4226.2822549576058
 30
0.0
 11
1696.406660894994
 21
4226.2822549576058
 31
0.0
  0
LINE
  5
7AC2
  8
1
 10
1696.406660894994
 20
4183.7822549576058
 30
0.0
 11
1696.406660894994
 21
4247.2822549576058
 31
0.0
  0
LINE
  5
7AC3
  8
1
 10
3508.819575559874
 20
1939.1438122585571
 30
0.0
 11
3508.819575559874
 21
2499.1438122585569
 31
0.0
  0
LINE
  5
7AC4
  8
1
 10
3070.319575559874
 20
2243.1438122585578
 30
0.0
 11
3070.3195755598731
 21
1874.1438122585571
 31
0.0
  0
LINE
  5
7AC5
  8
1
 10
3445.319575559874
 20
2243.1438122585578
 30
0.0
 11
3445.3195755598731
 21
1874.1438122585571
 31
0.0
  0
LINE
  5
7AC6
  8
1
 10
2847.819575559874
 20
1966.1438122585571
 30
0.0
 11
2847.819575559874
 21
2344.1438122585569
 31
0.0
  0
LINE
  5
7AC7
  8
1
 10
2985.819575559874
 20
1966.1438122585571
 30
0.0
 11
2985.819575559874
 21
2344.1438122585569
 31
0.0
  0
LINE
  5
7AC8
  8
1
 10
2955.819575559874
 20
2016.1438122585571
 30
0.0
 11
2955.819575559874
 21
2156.1438122585569
 31
0.0
  0
LINE
  5
7AC9
  8
1
 10
2877.819575559874
 20
2016.1438122585571
 30
0.0
 11
2877.819575559874
 21
2156.1438122585569
 31
0.0
  0
LINE
  5
7ACA
  8
1
 10
3487.819575559874
 20
1799.1438122585571
 30
0.0
 11
2927.819575559874
 21
1799.1438122585571
 31
0.0
  0
LINE
  5
7ACC
  8
1
 10
2927.819575559874
 20
1799.1438122585571
 30
0.0
 11
2927.819575559874
 21
1874.1438122585571
 31
0.0
  0
LINE
  5
7ACD
  8
1
 10
2955.819575559874
 20
2016.1438122585571
 30
0.0
 11
2877.819575559874
 21
2016.1438122585571
 31
0.0
  0
LINE
  5
7ACE
  8
1
 10
2847.819575559874
 20
1966.1438122585571
 30
0.0
 11
2985.819575559874
 21
1966.1438122585571
 31
0.0
  0
LINE
  5
7ACF
  8
1
 10
3445.319575559874
 20
1969.1438122585571
 30
0.0
 11
3508.819575559874
 21
1969.1438122585571
 31
0.0
  0
LINE
  5
7AD0
  8
1
 10
3487.819575559874
 20
1799.1438122585571
 30
0.0
 11
3487.819575559874
 21
1874.1438122585571
 31
0.0
  0
LINE
  5
7AD1
  8
1
 10
2955.819575559874
 20
2110.1438122585569
 30
0.0
 11
3070.319575559874
 21
2110.1438122585569
 31
0.0
  0
LINE
  5
7AD2
  8
1
 10
2955.819575559874
 20
2072.1438122585569
 30
0.0
 11
3070.319575559874
 21
2072.1438122585569
 31
0.0
  0
LINE
  5
7AD3
  8
1
 10
3070.319575559874
 20
2236.6438122585569
 30
0.0
 11
2955.819575559874
 21
2236.6438122585569
 31
0.0
  0
LINE
  5
7AD4
  8
1
 10
3070.319575559874
 20
2201.6438122585569
 30
0.0
 11
2955.819575559874
 21
2201.6438122585569
 31
0.0
  0
LINE
  5
7AD5
  8
1
 10
2877.819575559874
 20
2144.1438122585569
 30
0.0
 11
2877.819575559874
 21
2294.1438122585569
 31
0.0
  0
LINE
  5
7AD6
  8
1
 10
2955.819575559874
 20
2144.1438122585569
 30
0.0
 11
2955.819575559874
 21
2294.1438122585569
 31
0.0
  0
LINE
  5
7AD7
  8
1
 10
2955.819575559874
 20
2294.1438122585569
 30
0.0
 11
2877.819575559874
 21
2294.1438122585569
 31
0.0
  0
LINE
  5
7AD8
  8
1
 10
2955.819575559874
 20
2144.1438122585569
 30
0.0
 11
2877.819575559874
 21
2144.1438122585569
 31
0.0
  0
LINE
  5
7AD9
  8
1
 10
2847.819575559874
 20
2344.1438122585569
 30
0.0
 11
2985.819575559874
 21
2344.1438122585569
 31
0.0
  0
LINE
  5
7ADA
  8
1
 10
2955.819575559874
 20
2166.1438122585569
 30
0.0
 11
2877.819575559874
 21
2166.1438122585569
 31
0.0
  0
LINE
  5
7ADB
  8
1
 10
3070.319575559874
 20
2759.1438122585578
 30
0.0
 11
3070.319575559874
 21
2243.1438122585578
 31
0.0
  0
LINE
  5
7ADC
  8
1
 10
3445.319575559874
 20
2759.1438122585578
 30
0.0
 11
3445.319575559874
 21
2243.1438122585578
 31
0.0
  0
LINE
  5
7ADD
  8
1
 10
3070.319575559874
 20
2759.1438122585578
 30
0.0
 11
3445.319575559874
 21
2243.1438122585578
 31
0.0
  0
LINE
  5
7ADE
  8
1
 10
3070.319575559874
 20
2243.1438122585578
 30
0.0
 11
3445.319575559874
 21
2759.1438122585578
 31
0.0
  0
LINE
  5
7ADF
  8
1
 10
3070.319575559874
 20
2243.1438122585578
 30
0.0
 11
3445.319575559874
 21
2243.1438122585578
 31
0.0
  0
LINE
  5
7AE0
  8
1
 10
3445.319575559874
 20
2469.1438122585578
 30
0.0
 11
3508.819575559874
 21
2469.1438122585578
 31
0.0
  0
LINE
  5
7AE1
  8
1
 10
3445.319575559874
 20
2759.1438122585578
 30
0.0
 11
3070.319575559874
 21
2759.1438122585578
 31
0.0
  0
DIMENSION
  5
7AF7
  8
3
  2
*D1
 10
1446.406660894994
 20
1655.406577588604
 30
0.0
 11
1288.906660894994
 21
1655.406577588604
 31
0.0
 70
   128
 13
1131.406660894994
 23
1799.1438122585571
 33
0.0
 14
1446.406660894994
 24
1736.9521732585581
 34
0.0
1001
ACAD
1000
DSTYLE
1002
{
1070
   287
1070
     3
1070
   287
1070
     3
1070
    40
1040
20.0
1070
   143
1040
0.039
1070
   172
1070
     1
1070
   271
1070
     0
1070
   279
1070
     0
1070
   288
1070
     1
1002
}
  0
DIMENSION
  5
7B03
  8
3
  2
*D2
 10
2311.4066608949938
 20
1657.2959982843349
 30
0.0
 11
1878.906660894994
 21
1707.2959982843349
 31
0.0
 70
     0
 13
1446.406660894994
 23
1736.9521732585581
 33
0.0
 14
2311.4066608949938
 24
1799.1438122585571
 34
0.0
1001
ACAD
1000
DSTYLE
1002
{
1070
   287
1070
     3
1070
   287
1070
     3
1070
    40
1040
20.0
1070
   143
1040
0.039
1070
   172
1070
     1
1070
   271
1070
     0
1070
   279
1070
     0
1070
   288
1070
     1
1002
}
  0
DIMENSION
  5
7B10
  8
3
  2
*D3
 10
950.61645851514947
 20
2245.1438122585578
 30
0.0
 11
950.61645851514913
 21
2523.4180142585569
 31
0.0
 70
   128
 13
1086.406660894994
 23
2757.1438122585578
 33
0.0
 14
1086.406660894994
 24
2245.1438122585569
 34
0.0
 50
90.0
1001
ACAD
1000
DSTYLE
1002
{
1070
   287
1070
     3
1070
   287
1070
     3
1070
    40
1040
20.0
1070
   143
1040
0.039
1070
   172
1070
     1
1070
   271
1070
     0
1070
   279
1070
     0
1070
   288
1070
     1
1002
}
  0
DIMENSION
  5
7B1D
  8
3
  2
*D4
 10
826.84506166941469
 20
2219.1438122585578
 30
0.0
 11
826.84506166941435
 21
2555.3943071778108
 31
0.0
 70
   128
 13
1086.406660894994
 23
2757.1438122585578
 33
0.0
 14
1148.013854894994
 24
2219.1438122585569
 34
0.0
 50
90.0
1001
ACAD
1000
DSTYLE
1002
{
1070
   287
1070
     3
1070
   287
1070
     3
1070
    40
1040
20.0
1070
   143
1040
0.039
1070
   172
1070
     1
1070
   271
1070
     0
1070
   279
1070
     0
1070
   288
1070
     1
1002
}
  0
DIMENSION
  5
7B29
  8
3
  2
*D5
 10
826.84506166941435
 20
1799.1438122585571
 30
0.0
 11
776.84506166941412
 21
2009.143812258558
 31
0.0
 70
     0
 13
1148.013854894994
 23
2219.1438122585569
 33
0.0
 14
1131.406660894994
 24
1799.1438122585571
 34
0.0
 50
90.0
1001
ACAD
1000
DSTYLE
1002
{
1070
   287
1070
     3
1070
   287
1070
     3
1070
    40
1040
20.0
1070
   143
1040
0.039
1070
   172
1070
     1
1070
   271
1070
     0
1070
   279
1070
     0
1070
   288
1070
     1
1002
}
  0
DIMENSION
  5
7B38
  8
3
  2
*D6
 10
1446.406660894994
 20
2898.2700290480921
 30
0.0
 11
1266.406660894994
 21
2898.2700290480921
 31
0.0
 70
   128
 13
1086.406660894994
 23
2789.1438122585578
 33
0.0
 14
1446.406660894994
 24
2728.1438122585569
 34
0.0
1001
ACAD
1000
DSTYLE
1002
{
1070
   287
1070
     3
1070
   287
1070
     3
1070
    40
1040
20.0
1070
   143
1040
0.039
1070
   172
1070
     1
1070
   271
1070
     0
1070
   279
1070
     0
1070
   288
1070
     1
1002
}
  0
DIMENSION
  5
7B44
  8
3
  2
*D7
 10
1881.1373668949941
 20
2897.1649032585569
 30
0.0
 11
1663.772013894994
 21
2947.1649032585569
 31
0.0
 70
     0
 13
1446.406660894994
 23
2728.1438122585569
 33
0.0
 14
1881.1373668949941
 24
2219.1438122585569
 34
0.0
1001
ACAD
1000
DSTYLE
1002
{
1070
   287
1070
     3
1070
   287
1070
     3
1070
    40
1040
20.0
1070
   143
1040
0.039
1070
   172
1070
     1
1070
   271
1070
     0
1070
   279
1070
     0
1070
   288
1070
     1
1002
}
  0
DIMENSION
  5
7B51
  8
3
  2
*D8
 10
2311.4066608949938
 20
3392.0122397912828
 30
0.0
 11
1768.3376258949929
 21
3392.0122397912828
 31
0.0
 70
   128
 13
1131.406660894994
 23
3666.2822549576072
 33
0.0
 14
2311.4066608949938
 24
3666.2822549576072
 34
0.0
1001
ACAD
1000
DSTYLE
1002
{
1070
   287
1070
     3
1070
   287
1070
     3
1070
    40
1040
20.0
1070
   143
1040
0.039
1070
   172
1070
     1
1070
   271
1070
     0
1070
   279
1070
     0
1070
   288
1070
     1
1002
}
  0
DIMENSION
  5
7B5E
  8
3
  2
*D9
 10
2520.7044248548882
 20
3666.2822549576072
 30
0.0
 11
2520.7044248548882
 21
3951.7816209576072
 31
0.0
 70
   128
 13
2311.4066608949938
 23
4226.2822549576058
 33
0.0
 14
2311.4066608949938
 24
3666.2822549576072
 34
0.0
 50
90.0
1001
ACAD
1000
DSTYLE
1002
{
1070
   287
1070
     3
1070
   287
1070
     3
1070
    40
1040
20.0
1070
   143
1040
0.039
1070
   172
1070
     1
1070
   271
1070
     0
1070
   279
1070
     0
1070
   288
1070
     1
1002
}
  0
LINE
  5
7B5F
  8
2
 10
1954.0093128949929
 20
3996.2822549576058
 30
0.0
 11
996.97432089499387
 21
3996.2822549576058
 31
0.0
  0
LINE
  5
7B60
  8
2
 10
3257.819575559874
 20
2839.8609913331979
 30
0.0
 11
3257.819575559874
 21
1748.1262694681409
 31
0.0
  0
DIMENSION
  5
7B6F
  8
3
  2
*D10
 10
3257.819575559874
 20
1666.036734927784
 30
0.0
 11
3092.819575559874
 21
1666.036734927784
 31
0.0
 70
   128
 13
2927.819575559874
 23
1799.1438122585571
 33
0.0
 14
3257.819575559874
 24
1748.1262694681409
 34
0.0
1001
ACAD
1000
DSTYLE
1002
{
1070
   287
1070
     3
1070
   287
1070
     3
1070
    40
1040
20.0
1070
   143
1040
0.039
1070
   172
1070
     1
1070
   271
1070
     0
1070
   279
1070
     0
1070
   288
1070
     1
1002
}
  0
DIMENSION
  5
7B7D
  8
3
  2
*D11
 10
3487.819575559874
 20
1665.2255360327649
 30
0.0
 11
3375.9380473982742
 21
1711.582889231458
 31
0.0
 70
   128
 13
3257.819575559874
 23
1748.1262694681409
 33
0.0
 14
3487.819575559874
 24
1799.1438122585571
 34
0.0
1001
ACAD
1000
DSTYLE
1002
{
1070
   288
1070
     1
1070
   172
1070
     1
1070
    40
1040
20.0
1070
   271
1070
     0
1070
   143
1040
0.039
1002
}
  0
DIMENSION
  5
7BA0
  8
3
  2
*D12
 10
3670.8479261952571
 20
1969.1438122585571
 30
0.0
 11
3670.8479261952562
 21
2219.1438122585569
 31
0.0
 70
   128
 13
3508.819575559874
 23
2469.1438122585578
 33
0.0
 14
3508.819575559874
 24
1969.1438122585571
 34
0.0
 50
90.0
1001
ACAD
1000
DSTYLE
1002
{
1070
   287
1070
     3
1070
   287
1070
     3
1070
     3
1000
φ<>
1070
    40
1040
20.0
1070
   143
1040
0.039
1070
   172
1070
     1
1070
   271
1070
     0
1070
   279
1070
     0
1070
   288
1070
     1
1002
}
  0
DIMENSION
  5
7BAF
  8
3
  2
*D13
 10
3445.319575559874
 20
2845.562762572793
 30
0.0
 11
3257.819575559874
 21
2845.562762572793
 31
0.0
 70
   128
 13
3070.319575559874
 23
2759.1438122585578
 33
0.0
 14
3445.319575559874
 24
2759.1438122585578
 34
0.0
1001
ACAD
1000
DSTYLE
1002
{
1070
   287
1070
     3
1070
   287
1070
     3
1070
    40
1040
20.0
1070
   143
1040
0.039
1070
   172
1070
     1
1070
   271
1070
     0
1070
   279
1070
     0
1070
   288
1070
     1
1002
}
  0
DIMENSION
  5
7BBC
  8
3
  2
*D14
 10
3257.819575559874
 20
2995.925952667485
 30
0.0
 11
3057.2173867696729
 21
2995.925952667485
 31
0.0
 70
   128
  1
MAX\P450
 13
2847.819575559874
 23
2344.1438122585569
 33
0.0
 14
3257.819575559874
 24
2946.343048743634
 34
0.0
1001
ACAD
1000
DSTYLE
1002
{
1070
   287
1070
     3
1070
   287
1070
     3
1070
    40
1040
20.0
1070
   143
1040
0.039
1070
   172
1070
     1
1070
   271
1070
     0
1070
   279
1070
     0
1070
   288
1070
     1
1002
}
  0
DIMENSION
  5
7BCA
  8
3
  2
*D15
 10
3508.819575559874
 20
2995.8297316235462
 30
0.0
 11
3382.1052898455891
 21
2995.8297316235462
 31
0.0
 70
   128
 13
3257.819575559874
 23
2946.343048743634
 33
0.0
 14
3508.819575559874
 24
2499.1438122585569
 34
0.0
1001
ACAD
1000
DSTYLE
1002
{
1070
   287
1070
     3
1070
   287
1070
     3
1070
    40
1040
20.0
1070
   143
1040
0.039
1070
   172
1070
     1
1070
   271
1070
     0
1070
   279
1070
     0
1070
   288
1070
     1
1002
}
  0
LINE
  5
7BE1
  8
2
 10
2288.7310048949939
 20
2219.1438122585569
 30
0.0
 11
1068.4464508949941
 21
2219.1438122585569
 31
0.0
  0
LINE
  5
7BE2
  8
2
 10
1446.406660894994
 20
3458.974573957606
 30
0.0
 11
1446.406660894994
 21
4305.445745957607
 31
0.0
  0
LINE
  5
7BE3
  8
4
 10
3700.0
 20
1000.0
 30
0.0
 11
3700.0
 21
600.0
 31
0.0
  0
LINE
  5
7BE4
  8
4
 10
2300.0
 20
1000.0
 30
0.0
 11
2300.0
 21
600.0
 31
0.0
  0
LINE
  5
7BE5
  8
4
 10
1300.0
 20
1000.0
 30
0.0
 11
1300.0
 21
600.0
 31
0.0
  0
LINE
  5
7BE8
  8
4
 10
1300.0
 20
600.0
 30
0.0
 11
3700.0
 21
600.0
 31
0.0
  0
LINE
  5
7BE9
  8
4
 10
1300.0
 20
800.0
 30
0.0
 11
3700.0
 21
800.0
 31
0.0
  0
TEXT
  5
7BEA
  8
4
 10
1377.004161999999
 20
863.08605199999977
 30
0.0
 40
100.0
  1
機器名称
  0
TEXT
  5
7BEB
  8
4
 10
1372.5162119999991
 20
643.29031333333319
 30
0.0
 40
100.0
  1
機器型番
  0
TEXT
  5
7BEC
  8
4
 10
2355.3574906666659
 20
845.14353799999992
 30
0.0
 40
86.666666666666657
  1
ミツヤリミットロードファン
  0
TEXT
  5
7BED
  8
4
 10
2373.308991333332
 20
634.31916866666666
 30
0.0
 40
100.0
  1
LLE#3-4
  0
TEXT
  5
7BEF
  8
4
 10
1809.5715306666659
 20
4766.8576826666658
 30
0.0
 40
108.0
  1
床置ベット
  0
TEXT
  5
7BF0
  8
4
 10
632.33518666666669
 20
5067.7619526666667
 30
0.0
 40
120.0
  1
ベルト駆動式片吸込両持排煙ファン
  0
LINE
  5
7BF1
  8
4
 10
500.0
 20
4938.8175086666661
 30
0.0
 11
3700.0
 21
4938.8175086666661
 31
0.0
  0
LINE
  5
7BF2
  8
4
 10
500.0
 20
5338.8175086666661
 30
0.0
 11
3700.0
 21
5338.8175086666661
 31
0.0
  0
LINE
  5
7BF3
  8
4
 10
1300.0
 20
1000.0
 30
0.0
 11
3700.0
 21
1000.0
 31
0.0
  0
LINE
  5
7BF4
  8
4
 10
500.0
 20
5338.8175086666661
 30
0.0
 11
500.0
 21
4938.8175086666661
 31
0.0
  0
TEXT
  5
7BF5
  8
4
 10
937.85386666666648
 20
4764.6389553333329
 30
0.0
 40
108.0
  1
左回転左横向
  0
TEXT
  5
7BF6
  8
4
 10
2937.9391186666662
 20
5412.1221626666656
 30
0.0
 40
112.0
  1
No.
  0
TEXT
  5
7BF7
  8
4
 10
2622.5921253333331
 20
4766.8576826666658
 30
0.0
 40
108.0
  1
縮尺：1/20
  0
LINE
  5
7BF8
  8
4
 10
3700.0
 20
5338.8175086666661
 30
0.0
 11
3700.0
 21
4938.8175086666661
 31
0.0
  0
LINE
  5
7BFA
  8
4
 10
2881.234844666666
 20
5362.5271659999999
 30
0.0
 11
2881.234844666666
 21
5573.3045233333341
 31
0.0
  0
LINE
  5
7BFB
  8
4
 10
2881.234844666666
 20
5573.3045233333341
 30
0.0
 11
3700.0
 21
5573.3045233333341
 31
0.0
  0
LINE
  5
7BFC
  8
4
 10
3700.0
 20
5573.3045233333341
 30
0.0
 11
3700.0
 21
5362.5271659999999
 31
0.0
  0
LINE
  5
7BFD
  8
4
 10
3700.0
 20
5362.5271659999999
 30
0.0
 11
2881.234844666666
 21
5362.5271659999999
 31
0.0
  0
DIMENSION
  5
7C14
  8
3
  2
*D16
 10
717.38959435779304
 20
1799.1438122585571
 30
0.0
 11
717.38959435779259
 21
2295.859036303596
 31
0.0
 70
   128
 13
1086.406660894994
 23
2789.1438122585578
 33
0.0
 14
1131.406660894994
 24
1799.1438122585571
 34
0.0
 50
90.0
1001
ACAD
1000
DSTYLE
1002
{
1070
   287
1070
     3
1070
   287
1070
     3
1070
    40
1040
20.0
1070
   143
1040
0.039
1070
   172
1070
     1
1070
   271
1070
     0
1070
   279
1070
     0
1070
   288
1070
     1
1002
}
  0
LINE
  5
7D0F
  8
1
 10
1131.406660894994
 20
1874.1438122585571
 30
0.0
 11
2311.4066608949938
 21
1874.1438122585571
 31
0.0
  0
LINE
  5
7D10
  8
1
 10
3487.819575559874
 20
1874.1438122585571
 30
0.0
 11
2927.819575559874
 21
1874.1438122585571
 31
0.0
  0
POLYLINE
  5
7D11
  8
1
 66
     1
 10
0.0
 20
0.0
 30
0.0
  0
VERTEX
  5
809A
  8
1
 10
1086.406660894994
 20
2757.1438122585578
 30
0.0
  0
VERTEX
  5
809B
  8
1
 10
1446.406660894994
 20
2728.1438122585569
 30
0.0
 42
-0.391482
  0
VERTEX
  5
809C
  8
1
 10
1882.8546508949939
 20
2256.1438122585569
 30
0.0
 42
-0.3297648541835848
  0
VERTEX
  5
809D
  8
1
 10
1600.1746218547321
 20
1874.1438122585571
 30
0.0
 42
-0.388666
  0
SEQEND
  5
809E
  8
1
  0
POLYLINE
  5
7D17
  8
1
 66
     1
 10
0.0
 20
0.0
 30
0.0
  0
VERTEX
  5
809F
  8
1
 10
1372.1130421461121
 20
1874.1438122585571
 30
0.0
 42
-0.3223275131414231
  0
VERTEX
  5
80A0
  8
1
 10
1146.222862894994
 20
2188.1438122585569
 30
0.0
 42
-0.053392
  0
VERTEX
  5
80A1
  8
1
 10
1152.326981894993
 20
2245.1438122585569
 30
0.0
 42
-0.393627
  0
SEQEND
  5
80A2
  8
1
  0
DIMENSION
  5
7F21
  8
3
  2
*D17
 10
2311.4066608949929
 20
3047.8748000551041
 30
0.0
 11
1750.992515283491
 21
3047.8748000551041
 31
0.0
 70
   128
 13
1086.406660894994
 23
2799.1438122585578
 33
0.0
 14
2311.4066608949929
 24
1874.1438122585571
 34
0.0
1001
ACAD
1000
DSTYLE
1002
{
1070
   287
1070
     3
1070
   287
1070
     3
1070
    40
1040
20.0
1070
   143
1040
0.039
1070
   172
1070
     1
1070
   271
1070
     0
1070
   279
1070
     0
1070
   288
1070
     1
1002
}
  0
ENDSEC
  0
EOF
