  0
SECTION
  2
HEADER
  9
$ACADVER
  1
AC1009
  9
$INSBASE
 10
0.0
 20
0.0
 30
0.0
  9
$EXTMIN
 10
-6746.4204398848642
 20
-1817.2033734408101
 30
0.0
  9
$EXTMAX
 10
-2546.4204398848628
 20
4082.796626559189
 30
0.0
  9
$LIMMIN
 10
0.0
 20
0.0
  9
$LIMMAX
 10
297.0
 20
210.0
  9
$ORTHOMODE
 70
     0
  9
$REGENMODE
 70
     1
  9
$FILLMODE
 70
     0
  9
$QTEXTMODE
 70
     0
  9
$MIRRTEXT
 70
     1
  9
$DRAGMODE
 70
     2
  9
$LTSCALE
 40
100.0
  9
$OSMODE
 70
    37
  9
$ATTMODE
 70
     1
  9
$TEXTSIZE
 40
180.0
  9
$TRACEWID
 40
0.05
  9
$TEXTSTYLE
  7
STANDARD
  9
$CLAYER
  8
3
  9
$CELTYPE
  6
BYLAYER
  9
$CECOLOR
 62
   256
  9
$DIMSCALE
 40
20.0
  9
$DIMASZ
 40
2.0
  9
$DIMEXO
 40
0.5
  9
$DIMDLI
 40
10.0
  9
$DIMRND
 40
0.0
  9
$DIMDLE
 40
0.0
  9
$DIMEXE
 40
1.0
  9
$DIMTP
 40
1.0
  9
$DIMTM
 40
1.0
  9
$DIMTXT
 40
3.0
  9
$DIMCEN
 40
0.0
  9
$DIMTSZ
 40
0.0
  9
$DIMTOL
 70
     0
  9
$DIMLIM
 70
     0
  9
$DIMTIH
 70
     0
  9
$DIMTOH
 70
     0
  9
$DIMSE1
 70
     0
  9
$DIMSE2
 70
     0
  9
$DIMTAD
 70
     1
  9
$DIMZIN
 70
     8
  9
$DIMBLK
  1

  9
$DIMASO
 70
     1
  9
$DIMSHO
 70
     1
  9
$DIMPOST
  1

  9
$DIMAPOST
  1

  9
$DIMALT
 70
     0
  9
$DIMALTD
 70
     2
  9
$DIMALTF
 40
0.039
  9
$DIMLFAC
 40
1.0
  9
$DIMTOFL
 70
     1
  9
$DIMTVP
 40
0.0
  9
$DIMTIX
 70
     0
  9
$DIMSOXD
 70
     0
  9
$DIMSAH
 70
     1
  9
$DIMBLK1
  1
OPEN
  9
$DIMBLK2
  1
OPEN
  9
$DIMSTYLE
  2
IGA
  9
$DIMCLRD
 70
     0
  9
$DIMCLRE
 70
     0
  9
$DIMCLRT
 70
     0
  9
$DIMTFAC
 40
10.0
  9
$DIMGAP
 40
1.0
  9
$LUNITS
 70
     2
  9
$LUPREC
 70
     3
  9
$SKETCHINC
 40
0.1
  9
$FILLETRAD
 40
8.0
  9
$AUNITS
 70
     0
  9
$AUPREC
 70
     0
  9
$MENU
  1
acad
  9
$ELEVATION
 40
0.0
  9
$PELEVATION
 40
0.0
  9
$THICKNESS
 40
0.0
  9
$LIMCHECK
 70
     0
  9
$BLIPMODE
 70
     0
  9
$CHAMFERA
 40
0.5
  9
$CHAMFERB
 40
0.5
  9
$SKPOLY
 70
     0
  9
$TDCREATE
 40
2453249.427640046
  9
$TDUPDATE
 40
2454953.6304436112
  9
$TDINDWG
 40
0.1815527199
  9
$TDUSRTIMER
 40
0.1815527199
  9
$USRTIMER
 70
     1
  9
$ANGBASE
 50
0.0
  9
$ANGDIR
 70
     0
  9
$PDMODE
 70
     0
  9
$PDSIZE
 40
0.0
  9
$PLINEWID
 40
0.0
  9
$COORDS
 70
     1
  9
$SPLFRAME
 70
     0
  9
$SPLINETYPE
 70
     6
  9
$SPLINESEGS
 70
     8
  9
$ATTDIA
 70
     0
  9
$ATTREQ
 70
     1
  9
$HANDLING
 70
 10241
  9
$HANDSEED
  5
95F4
  9
$SURFTAB1
 70
     6
  9
$SURFTAB2
 70
     6
  9
$SURFTYPE
 70
     6
  9
$SURFU
 70
     6
  9
$SURFV
 70
     6
  9
$UCSNAME
  2

  9
$UCSORG
 10
0.0
 20
0.0
 30
0.0
  9
$UCSXDIR
 10
1.0
 20
0.0
 30
0.0
  9
$UCSYDIR
 10
0.0
 20
1.0
 30
0.0
  9
$PUCSNAME
  2

  9
$PUCSORG
 10
0.0
 20
0.0
 30
0.0
  9
$PUCSXDIR
 10
1.0
 20
0.0
 30
0.0
  9
$PUCSYDIR
 10
0.0
 20
1.0
 30
0.0
  9
$USERI1
 70
     0
  9
$USERI2
 70
     0
  9
$USERI3
 70
     0
  9
$USERI4
 70
     0
  9
$USERI5
 70
     0
  9
$USERR1
 40
0.0
  9
$USERR2
 40
0.0
  9
$USERR3
 40
0.0
  9
$USERR4
 40
0.0
  9
$USERR5
 40
0.0
  9
$WORLDVIEW
 70
     1
  9
$SHADEDGE
 70
     3
  9
$SHADEDIF
 70
    70
  9
$TILEMODE
 70
     1
  9
$MAXACTVP
 70
    16
  9
$PLIMCHECK
 70
     0
  9
$PEXTMIN
 10
1.0000000000000000E+020
 20
1.0000000000000000E+020
 30
1.0000000000000000E+020
  9
$PEXTMAX
 10
-1.0000000000000000E+020
 20
-1.0000000000000000E+020
 30
-1.0000000000000000E+020
  9
$PLIMMIN
 10
0.0
 20
0.0
  9
$PLIMMAX
 10
12.0
 20
9.0
  9
$UNITMODE
 70
     0
  9
$VISRETAIN
 70
     0
  9
$PLINEGEN
 70
     0
  9
$PSLTSCALE
 70
     1
  0
ENDSEC
  0
SECTION
  2
TABLES
  0
TABLE
  2
VPORT
 70
     2
  0
VPORT
  2
*ACTIVE
 70
     0
 10
0.0
 20
0.0
 11
1.0
 21
1.0
 12
-2866.2106769166398
 22
-1157.9127126857641
 13
0.0
 23
0.0
 14
10.0
 24
10.0
 15
10.0
 25
10.0
 16
0.0
 26
0.0
 36
1.0
 17
0.0
 27
0.0
 37
0.0
 40
1673.509291373942
 41
3.1666666666666661
 42
50.0
 43
0.0
 44
0.0
 50
0.0
 51
0.0
 71
     0
 72
   100
 73
     1
 74
     0
 75
     0
 76
     0
 77
     0
 78
     0
  0
ENDTAB
  0
TABLE
  2
LTYPE
 70
     2
  0
LTYPE
  2
CONTINUOUS
 70
     0
  3
Solid line
 72
    65
 73
     0
 40
0.0
  0
LTYPE
  2
CENTER
 70
     0
  3
____ _ ____ _ ____ _ ____ _ ____ _ ____ _ ____ 
 72
    65
 73
     4
 40
2.0
 49
1.25
 49
-0.25
 49
0.25
 49
-0.25
  0
ENDTAB
  0
TABLE
  2
LAYER
 70
     6
  0
LAYER
  2
0
 70
     0
 62
     7
  6
CONTINUOUS
  0
LAYER
  2
3
 70
     0
 62
     2
  6
CONTINUOUS
  0
LAYER
  2
2
 70
     0
 62
     3
  6
CENTER
  0
LAYER
  2
1
 70
     0
 62
     4
  6
CONTINUOUS
  0
LAYER
  2
4
 70
     0
 62
     7
  6
CONTINUOUS
  0
LAYER
  2
DEFPOINTS
 70
     0
 62
     7
  6
CONTINUOUS
  0
ENDTAB
  0
TABLE
  2
STYLE
 70
     1
  0
STYLE
  2
STANDARD
 70
     0
 40
0.0
 41
1.0
 50
0.0
 71
     0
 42
180.0
  3
simplex.shx
  4
extfont.shx
  0
ENDTAB
  0
TABLE
  2
VIEW
 70
     0
  0
ENDTAB
  0
TABLE
  2
UCS
 70
     0
  0
ENDTAB
  0
TABLE
  2
APPID
 70
     1
  0
APPID
  2
ACAD
 70
     0
  0
ENDTAB
  0
TABLE
  2
DIMSTYLE
 70
     2
  0
DIMSTYLE
  2
IGA
 70
     0
  3

  4

  5

  6
OPEN
  7
OPEN
 40
2.0
 41
2.0
 42
0.5
 43
10.0
 44
1.0
 45
0.0
 46
0.0
 47
1.0
 48
1.0
140
3.0
141
0.0
142
0.0
143
0.03937
144
1.0
145
0.0
146
10.0
147
1.0
 71
     0
 72
     0
 73
     0
 74
     0
 75
     0
 76
     0
 77
     1
 78
     8
170
     0
171
     2
172
     0
173
     1
174
     0
175
     0
176
     0
177
     0
178
     0
  0
DIMSTYLE
  2
STANDARD
 70
     0
  3

  4

  5

  6

  7

 40
1.0
 41
0.18
 42
0.0625
 43
0.38
 44
0.18
 45
0.0
 46
0.0
 47
0.0
 48
0.0
140
0.18
141
0.09
142
0.0
143
25.399999999999999
144
1.0
145
0.0
146
1.0
147
0.09
 71
     0
 72
     0
 73
     1
 74
     1
 75
     0
 76
     0
 77
     0
 78
     0
170
     0
171
     2
172
     0
173
     0
174
     0
175
     0
176
     0
177
     0
178
     0
  0
ENDTAB
  0
ENDSEC
  0
SECTION
  2
BLOCKS
  0
BLOCK
  8
0
  2
$MODEL_SPACE
 70
     0
 10
0.0
 20
0.0
 30
0.0
  3
$MODEL_SPACE
  1

  0
ENDBLK
  5
1B
  8
0
  0
BLOCK
 67
     1
  8
0
  2
$PAPER_SPACE
 70
     0
 10
0.0
 20
0.0
 30
0.0
  3
$PAPER_SPACE
  1

  0
ENDBLK
  5
18
 67
     1
  8
0
  0
BLOCK
  8
0
  2
_OPEN
 70
     0
 10
0.0
 20
0.0
 30
0.0
  3
_OPEN
  1

  0
LINE
  5
79FD
  8
0
  6
BYBLOCK
 62
     0
 10
-1.0
 20
0.1666666666666666
 30
0.0
 11
0.0
 21
0.0
 31
0.0
  0
LINE
  5
79FE
  8
0
  6
BYBLOCK
 62
     0
 10
0.0
 20
0.0
 30
0.0
 11
-1.0
 21
-0.1666666666666666
 31
0.0
  0
LINE
  5
79FF
  8
0
  6
BYBLOCK
 62
     0
 10
0.0
 20
0.0
 30
0.0
 11
-1.0
 21
0.0
 31
0.0
  0
ENDBLK
  5
7A01
  8
0
  0
BLOCK
  8
0
  2
*D1
 70
     1
 10
0.0
 20
0.0
 30
0.0
  3
*D1
  1

  0
LINE
  5
958D
  8
3
 62
     0
 10
-6227.8919455255163
 20
-553.96387843161938
 30
0.0
 11
-6227.8919455255163
 21
-739.8916374590026
 31
0.0
  0
LINE
  5
958E
  8
3
 62
     0
 10
-5007.8919455255136
 20
-553.96387843159107
 30
0.0
 11
-5007.8919455255136
 21
-739.8916374590026
 31
0.0
  0
LINE
  5
958F
  8
3
 62
     0
 10
-6187.8919455255163
 20
-719.8916374590026
 30
0.0
 11
-5047.8919455255136
 21
-719.8916374590026
 31
0.0
  0
INSERT
  5
9590
  8
3
 62
     0
  2
_OPEN
 10
-6227.8919455255163
 20
-719.8916374590026
 30
0.0
 41
40.0
 42
40.0
 43
40.0
 50
180.0
  0
INSERT
  5
9591
  8
3
 62
     0
  2
_OPEN
 10
-5007.8919455255136
 20
-719.8916374590026
 30
0.0
 41
40.0
 42
40.0
 43
40.0
  0
TEXT
  8
3
  40
60
  5
95EA
  62
0
  72
0
  71
0
 10
-5720.97
 20
-776.092
 30
0.000000
  1
1220
  0
POINT
  5
9593
  8
DEFPOINTS
 62
     0
 10
-6227.8919455255163
 20
-543.96387843161926
 30
0.0
  0
POINT
  5
9594
  8
DEFPOINTS
 62
     0
 10
-5007.8919455255136
 20
-543.96387843159118
 30
0.0
  0
POINT
  5
9595
  8
DEFPOINTS
 62
     0
 10
-5007.8919455255136
 20
-719.8916374590026
 30
0.0
  0
ENDBLK
  5
905F
  8
0
  0
BLOCK
  8
0
  2
*D2
 70
     1
 10
0.0
 20
0.0
 30
0.0
  3
*D2
  1

  0
LINE
  5
9596
  8
3
 62
     0
 10
-4428.9014777753318
 20
761.03612156838085
 30
0.0
 11
-4428.9014777753318
 21
2322.5551626462361
 31
0.0
  0
LINE
  5
9597
  8
3
 62
     0
 10
-2686.9014777753318
 20
761.03612156838085
 30
0.0
 11
-2686.9014777753318
 21
2322.5551626462361
 31
0.0
  0
LINE
  5
9598
  8
3
 62
     0
 10
-4388.9014777753328
 20
2302.5551626462361
 30
0.0
 11
-2726.9014777753318
 21
2302.5551626462361
 31
0.0
  0
INSERT
  5
9599
  8
3
 62
     0
  2
_OPEN
 10
-4428.9014777753318
 20
2302.5551626462361
 30
0.0
 41
40.0
 42
40.0
 43
40.0
 50
180.0
  0
INSERT
  5
959A
  8
3
 62
     0
  2
_OPEN
 10
-2686.9014777753318
 20
2302.5551626462361
 30
0.0
 41
40.0
 42
40.0
 43
40.0
  0
TEXT
  8
3
  40
60
  5
95EB
  62
0
  72
0
  71
0
 10
-3772.26
 20
2246.36
 30
0.000000
  1
1742
  0
POINT
  5
959C
  8
DEFPOINTS
 62
     0
 10
-4428.9014777753318
 20
751.03612156838085
 30
0.0
  0
POINT
  5
959D
  8
DEFPOINTS
 62
     0
 10
-2686.9014777753318
 20
751.03612156838085
 30
0.0
  0
POINT
  5
959E
  8
DEFPOINTS
 62
     0
 10
-2686.9014777753318
 20
2302.5551626462361
 30
0.0
  0
ENDBLK
  5
906C
  8
0
  0
BLOCK
  8
0
  2
*D3
 70
     1
 10
0.0
 20
0.0
 30
0.0
  3
*D3
  1

  0
LINE
  5
959F
  8
3
 62
     0
 10
-4497.9014777753318
 20
751.03612156838085
 30
0.0
 11
-4486.431132862057
 21
751.03612156838085
 31
0.0
  0
LINE
  5
95A0
  8
3
 62
     0
 10
-4367.8919455255182
 20
-308.96387843161909
 30
0.0
 11
-4526.431132862057
 21
-308.96387843161898
 31
0.0
  0
LINE
  5
95A1
  8
3
 62
     0
 10
-4506.431132862057
 20
711.03612156838085
 30
0.0
 11
-4506.431132862057
 21
-268.96387843161909
 31
0.0
  0
INSERT
  5
95A2
  8
3
 62
     0
  2
_OPEN
 10
-4506.431132862057
 20
751.03612156838085
 30
0.0
 41
40.0
 42
40.0
 43
40.0
 50
90.0
  0
INSERT
  5
95A3
  8
3
 62
     0
  2
_OPEN
 10
-4506.431132862057
 20
-308.96387843161898
 30
0.0
 41
40.0
 42
40.0
 43
40.0
 50
270.0
  0
TEXT
  8
3
  40
60
  5
95EC
  62
0
  72
0
  71
0
 10
-4676.43
 20
84.0509
 30
0.000000
  1
1060
  0
POINT
  5
95A5
  8
DEFPOINTS
 62
     0
 10
-4507.9014777753328
 20
751.03612156838085
 30
0.0
  0
POINT
  5
95A6
  8
DEFPOINTS
 62
     0
 10
-4357.8919455255182
 20
-308.96387843161909
 30
0.0
  0
POINT
  5
95A7
  8
DEFPOINTS
 62
     0
 10
-4506.431132862057
 20
-308.96387843161898
 30
0.0
  0
ENDBLK
  5
90E0
  8
0
  0
BLOCK
  8
0
  2
*D4
 70
     1
 10
0.0
 20
0.0
 30
0.0
  3
*D4
  1

  0
LINE
  5
95A8
  8
3
 62
     0
 10
-4367.8919455255182
 20
-308.96387843161909
 30
0.0
 11
-4526.431132862057
 21
-308.96387843161898
 31
0.0
  0
LINE
  5
95A9
  8
3
 62
     0
 10
-4367.89194552552
 20
-418.96387843161909
 30
0.0
 11
-4526.431132862057
 21
-418.96387843161909
 31
0.0
  0
LINE
  5
95AA
  8
3
 62
     0
 10
-4506.431132862057
 20
-268.96387843161909
 30
0.0
 11
-4506.431132862057
 21
-228.96387843161909
 31
0.0
  0
LINE
  5
95AB
  8
3
 62
     0
 10
-4506.431132862057
 20
-458.96387843161909
 30
0.0
 11
-4506.431132862057
 21
-498.96387843161898
 31
0.0
  0
TEXT
  8
3
  40
60
  5
95ED
  62
0
  72
0
  71
0
 10
-4699.94
 20
-463.444
 30
0.000000
  1
110
  0
LINE
  5
95AD
  8
3
 62
     0
 10
-4506.431132862057
 20
-308.96387843161898
 30
0.0
 11
-4506.431132862057
 21
-418.96387843161909
 31
0.0
  0
INSERT
  5
95AE
  8
3
 62
     0
  2
_OPEN
 10
-4506.431132862057
 20
-308.96387843161898
 30
0.0
 41
40.0
 42
40.0
 43
40.0
 50
270.0
  0
INSERT
  5
95AF
  8
3
 62
     0
  2
_OPEN
 10
-4506.431132862057
 20
-418.96387843161909
 30
0.0
 41
40.0
 42
40.0
 43
40.0
 50
90.0
  0
POINT
  5
95B0
  8
DEFPOINTS
 62
     0
 10
-4357.8919455255182
 20
-308.96387843161909
 30
0.0
  0
POINT
  5
95B1
  8
DEFPOINTS
 62
     0
 10
-4357.89194552552
 20
-418.96387843161909
 30
0.0
  0
POINT
  5
95B2
  8
DEFPOINTS
 62
     0
 10
-4506.431132862057
 20
-418.96387843161909
 30
0.0
  0
ENDBLK
  5
90EF
  8
0
  0
BLOCK
  8
0
  2
*D5
 70
     1
 10
0.0
 20
0.0
 30
0.0
  3
*D5
  1

  0
LINE
  5
95B3
  8
3
 62
     0
 10
-4367.89194552552
 20
-418.96387843161909
 30
0.0
 11
-4526.431132862057
 21
-418.96387843161898
 31
0.0
  0
LINE
  5
95B4
  8
3
 62
     0
 10
-4367.8919455255182
 20
-543.96387843161915
 30
0.0
 11
-4526.431132862057
 21
-543.96387843161915
 31
0.0
  0
LINE
  5
95B5
  8
3
 62
     0
 10
-4506.431132862057
 20
-458.96387843161898
 30
0.0
 11
-4506.431132862057
 21
-503.96387843161909
 31
0.0
  0
LINE
  5
95B6
  8
3
 62
     0
 10
-4506.431132862057
 20
-543.96387843161915
 30
0.0
 11
-4506.431132862057
 21
-766.82102128876193
 31
0.0
  0
INSERT
  5
95B7
  8
3
 62
     0
  2
_OPEN
 10
-4506.431132862057
 20
-418.96387843161898
 30
0.0
 41
40.0
 42
40.0
 43
40.0
 50
90.0
  0
INSERT
  5
95B8
  8
3
 62
     0
  2
_OPEN
 10
-4506.431132862057
 20
-543.96387843161915
 30
0.0
 41
40.0
 42
40.0
 43
40.0
 50
270.0
  0
TEXT
  8
3
  40
60
  5
95EE
  62
0
  72
0
  71
0
 10
-4676.43
 20
-781.592
 30
0.000000
  1
125
  0
POINT
  5
95BA
  8
DEFPOINTS
 62
     0
 10
-4357.89194552552
 20
-418.96387843161909
 30
0.0
  0
POINT
  5
95BB
  8
DEFPOINTS
 62
     0
 10
-4357.8919455255182
 20
-543.96387843161915
 30
0.0
  0
POINT
  5
95BC
  8
DEFPOINTS
 62
     0
 10
-4506.431132862057
 20
-543.96387843161915
 30
0.0
  0
ENDBLK
  5
9116
  8
0
  0
BLOCK
  8
0
  2
*D6
 70
     1
 10
0.0
 20
0.0
 30
0.0
  3
*D6
  1

  0
LINE
  5
95BD
  8
3
 62
     0
 10
-4496.4311328620561
 20
751.03612156838085
 30
0.0
 11
-4750.0106276067627
 21
751.03612156838085
 31
0.0
  0
LINE
  5
95BE
  8
3
 62
     0
 10
-4367.8919455255182
 20
-543.96387843161915
 30
0.0
 11
-4750.0106276067627
 21
-543.96387843161915
 31
0.0
  0
LINE
  5
95BF
  8
3
 62
     0
 10
-4730.0106276067627
 20
711.03612156838085
 30
0.0
 11
-4730.0106276067627
 21
-503.96387843161909
 31
0.0
  0
INSERT
  5
95C0
  8
3
 62
     0
  2
_OPEN
 10
-4730.0106276067627
 20
751.03612156838085
 30
0.0
 41
40.0
 42
40.0
 43
40.0
 50
90.0
  0
INSERT
  5
95C1
  8
3
 62
     0
  2
_OPEN
 10
-4730.0106276067627
 20
-543.96387843161915
 30
0.0
 41
40.0
 42
40.0
 43
40.0
 50
270.0
  0
TEXT
  8
3
  40
60
  5
95EF
  62
0
  72
0
  71
0
 10
-4900.01
 20
-0.557906
 30
0.000000
  1
1295
  0
POINT
  5
95C3
  8
DEFPOINTS
 62
     0
 10
-4486.431132862057
 20
751.03612156838085
 30
0.0
  0
POINT
  5
95C4
  8
DEFPOINTS
 62
     0
 10
-4357.8919455255182
 20
-543.96387843161915
 30
0.0
  0
POINT
  5
95C5
  8
DEFPOINTS
 62
     0
 10
-4730.0106276067627
 20
-543.96387843161915
 30
0.0
  0
ENDBLK
  5
9123
  8
0
  0
BLOCK
  8
0
  2
*D7
 70
     1
 10
0.0
 20
0.0
 30
0.0
  3
*D7
  1

  0
LINE
  5
95C6
  8
3
 62
     0
 10
-3567.9014777753309
 20
2092.0361215683802
 30
0.0
 11
-4744.7349476030458
 21
2092.0361215683802
 31
0.0
  0
LINE
  5
95C7
  8
3
 62
     0
 10
-4496.4311328620561
 20
751.03612156838085
 30
0.0
 11
-4744.7349476030458
 21
751.03612156838085
 31
0.0
  0
LINE
  5
95C8
  8
3
 62
     0
 10
-4724.7349476030449
 20
2052.0361215683802
 30
0.0
 11
-4724.7349476030467
 21
791.03612156838085
 31
0.0
  0
INSERT
  5
95C9
  8
3
 62
     0
  2
_OPEN
 10
-4724.7349476030449
 20
2092.0361215683802
 30
0.0
 41
40.0
 42
40.0
 43
40.0
 50
90.0
  0
INSERT
  5
95CA
  8
3
 62
     0
  2
_OPEN
 10
-4724.7349476030467
 20
751.03612156838085
 30
0.0
 41
40.0
 42
40.0
 43
40.0
 50
270.0
  0
TEXT
  8
3
  40
60
  5
95F0
  62
0
  72
0
  71
0
 10
-4894.73
 20
1290.71
 30
0.000000
  1
MAX.1800
  0
POINT
  5
95CC
  8
DEFPOINTS
 62
     0
 10
-3557.9014777753318
 20
2092.0361215683802
 30
0.0
  0
POINT
  5
95CD
  8
DEFPOINTS
 62
     0
 10
-4486.431132862057
 20
751.03612156838085
 30
0.0
  0
POINT
  5
95CE
  8
DEFPOINTS
 62
     0
 10
-4724.7349476030467
 20
751.03612156838085
 30
0.0
  0
ENDBLK
  5
9130
  8
0
  0
BLOCK
  8
0
  2
*D8
 70
     1
 10
0.0
 20
0.0
 30
0.0
  3
*D8
  1

  0
LINE
  5
95CF
  8
3
 62
     0
 10
-4357.8919455255182
 20
-553.96387843161915
 30
0.0
 11
-4357.8919455255182
 21
-771.44462594744073
 31
0.0
  0
LINE
  5
95D0
  8
3
 62
     0
 10
-2757.9110100251469
 20
-553.96387843161915
 30
0.0
 11
-2757.9110100251469
 21
-771.44462594744073
 31
0.0
  0
LINE
  5
95D1
  8
3
 62
     0
 10
-4317.8919455255182
 20
-751.44462594744073
 30
0.0
 11
-2797.9110100251469
 21
-751.44462594744073
 31
0.0
  0
INSERT
  5
95D2
  8
3
 62
     0
  2
_OPEN
 10
-4357.8919455255182
 20
-751.44462594744073
 30
0.0
 41
40.0
 42
40.0
 43
40.0
 50
180.0
  0
INSERT
  5
95D3
  8
3
 62
     0
  2
_OPEN
 10
-2757.9110100251469
 20
-751.44462594744073
 30
0.0
 41
40.0
 42
40.0
 43
40.0
  0
TEXT
  8
3
  40
60
  5
95F1
  62
0
  72
0
  71
0
 10
-3658.09
 20
-807.645
 30
0.000000
  1
1600
  0
POINT
  5
95D5
  8
DEFPOINTS
 62
     0
 10
-4357.8919455255182
 20
-543.96387843161915
 30
0.0
  0
POINT
  5
95D6
  8
DEFPOINTS
 62
     0
 10
-2757.9110100251469
 20
-543.96387843161915
 30
0.0
  0
POINT
  5
95D7
  8
DEFPOINTS
 62
     0
 10
-2757.9110100251469
 20
-751.44462594744073
 30
0.0
  0
ENDBLK
  5
9146
  8
0
  0
BLOCK
  8
0
  2
*D9
 70
     1
 10
0.0
 20
0.0
 30
0.0
  3
*D9
  1

  0
LINE
  5
95D8
  8
3
 62
     0
 10
-6227.8919455255154
 20
1626.0361215683799
 30
0.0
 11
-6227.8919455255154
 21
2335.301966677067
 31
0.0
  0
LINE
  5
95D9
  8
3
 62
     0
 10
-5007.8919455255136
 20
1626.0361215683799
 30
0.0
 11
-5007.8919455255136
 21
2335.301966677067
 31
0.0
  0
LINE
  5
95DA
  8
3
 62
     0
 10
-6187.8919455255136
 20
2315.301966677067
 30
0.0
 11
-5047.8919455255136
 21
2315.301966677067
 31
0.0
  0
INSERT
  5
95DB
  8
3
 62
     0
  2
_OPEN
 10
-6227.8919455255154
 20
2315.301966677067
 30
0.0
 41
40.0
 42
40.0
 43
40.0
 50
180.0
  0
INSERT
  5
95DC
  8
3
 62
     0
  2
_OPEN
 10
-5007.8919455255136
 20
2315.301966677067
 30
0.0
 41
40.0
 42
40.0
 43
40.0
  0
TEXT
  8
3
  40
60
  5
95F2
  62
0
  72
0
  71
0
 10
-5780.81
 20
2259.10
 30
0.000000
  1
1220
  0
POINT
  5
95DE
  8
DEFPOINTS
 62
     0
 10
-6227.8919455255154
 20
1616.0361215683811
 30
0.0
  0
POINT
  5
95DF
  8
DEFPOINTS
 62
     0
 10
-5007.8919455255136
 20
1616.0361215683811
 30
0.0
  0
POINT
  5
95E0
  8
DEFPOINTS
 62
     0
 10
-5007.8919455255136
 20
2315.301966677067
 30
0.0
  0
ENDBLK
  5
9283
  8
0
  0
BLOCK
  8
0
  2
*D10
 70
     1
 10
0.0
 20
0.0
 30
0.0
  3
*D10
  1

  0
LINE
  5
95E1
  8
3
 62
     0
 10
-6302.8919455255163
 20
1551.0361215683799
 30
0.0
 11
-6481.2488933189516
 21
1551.0361215683799
 31
0.0
  0
LINE
  5
95E2
  8
3
 62
     0
 10
-6302.8919455255154
 20
-48.963878431619378
 30
0.0
 11
-6481.2488933189516
 21
-48.963878431619321
 31
0.0
  0
LINE
  5
95E3
  8
3
 62
     0
 10
-6461.2488933189516
 20
1511.0361215683799
 30
0.0
 11
-6461.2488933189516
 21
-8.9638784316193352
 31
0.0
  0
INSERT
  5
95E4
  8
3
 62
     0
  2
_OPEN
 10
-6461.2488933189516
 20
1551.0361215683799
 30
0.0
 41
40.0
 42
40.0
 43
40.0
 50
90.0
  0
INSERT
  5
95E5
  8
3
 62
     0
  2
_OPEN
 10
-6461.2488933189516
 20
-48.963878431619328
 30
0.0
 41
40.0
 42
40.0
 43
40.0
 50
270.0
  0
TEXT
  8
3
  40
60
  5
95F3
  62
0
  72
0
  71
0
 10
-6631.25
 20
664.645
 30
0.000000
  1
φ1600
  0
POINT
  5
95E7
  8
DEFPOINTS
 62
     0
 10
-6292.8919455255154
 20
1551.0361215683799
 30
0.0
  0
POINT
  5
95E8
  8
DEFPOINTS
 62
     0
 10
-6292.8919455255136
 20
-48.963878431619378
 30
0.0
  0
POINT
  5
95E9
  8
DEFPOINTS
 62
     0
 10
-6461.2488933189516
 20
-48.963878431619328
 30
0.0
  0
ENDBLK
  5
9290
  8
0
  0
ENDSEC
  0
SECTION
  2
ENTITIES
  0
LINE
  5
7D76
  8
1
 10
-3660.4014777753318
 20
1661.0361215683811
 30
0.0
 11
-3719.9014777753318
 21
1661.0361215683811
 31
0.0
  0
LINE
  5
7D77
  8
1
 10
-3663.4014777753318
 20
1681.0361215683799
 30
0.0
 11
-3716.9014777753318
 21
1681.0361215683799
 31
0.0
  0
LINE
  5
7D78
  8
2
 10
-3362.4490547753339
 20
1841.0361215683799
 30
0.0
 11
-3753.3539007753329
 21
1841.0361215683799
 31
0.0
  0
LINE
  5
7D79
  8
1
 10
-3378.4899787753329
 20
2041.0361215683799
 30
0.0
 11
-3737.3129767753321
 21
2041.0361215683799
 31
0.0
  0
LINE
  5
7D7A
  8
1
 10
-3792.9014777753332
 20
1661.0361215683811
 30
0.0
 11
-3322.9014777753318
 21
1661.0361215683799
 31
0.0
  0
ARC
  5
7D7B
  8
1
 10
-3557.9014777753332
 20
1841.0361215683799
 30
0.0
 40
185.0
 50
287.94525099999993
 51
252.05474899999999
  0
LINE
  5
7D81
  8
1
 10
-3792.9014777753332
 20
1611.0361215683811
 30
0.0
 11
-3322.9014777753318
 21
1611.0361215683799
 31
0.0
  0
LINE
  5
7D86
  8
2
 10
-4507.9014777753328
 20
751.03612156838085
 30
0.0
 11
-2607.9014777753332
 21
751.03612156838085
 31
0.0
  0
LINE
  5
7D89
  8
1
 10
-5126.8919455255136
 20
631.03612156838074
 30
0.0
 11
-5126.8919455255136
 21
1941.0361215683811
 31
0.0
  0
LINE
  5
7D8A
  8
1
 10
-5206.8919455255127
 20
631.03612156838074
 30
0.0
 11
-5206.8919455255154
 21
1941.0361215683811
 31
0.0
  0
LINE
  5
7D8B
  8
1
 10
-5012.3919455255127
 20
1616.036121568382
 30
0.0
 11
-5012.3919455255127
 21
-113.96387843161909
 31
0.0
  0
LINE
  5
7D8C
  8
1
 10
-6223.3919455255163
 20
1616.0361215683811
 30
0.0
 11
-6223.3919455255136
 21
-113.96387843161931
 31
0.0
  0
LINE
  5
7D8D
  8
1
 10
-6227.8919455255154
 20
1585.0361215683811
 30
0.0
 11
-6227.8919455255127
 21
-48.963878431619378
 31
0.0
  0
LINE
  5
7D8E
  8
1
 10
-5007.8919455255154
 20
1585.0361215683799
 30
0.0
 11
-5007.8919455255118
 21
-48.96387843161893
 31
0.0
  0
LINE
  5
7D8F
  8
1
 10
-4942.8919455255154
 20
1551.0361215683799
 30
0.0
 11
-4942.8919455255163
 21
-48.96387843161893
 31
0.0
  0
LINE
  5
7D90
  8
1
 10
-6292.8919455255154
 20
1551.0361215683799
 30
0.0
 11
-6292.8919455255136
 21
-48.963878431619378
 31
0.0
  0
LINE
  5
7D91
  8
1
 10
-5003.8919455255136
 20
-110.96387843161909
 30
0.0
 11
-5003.8919455255136
 21
1613.0361215683811
 31
0.0
  0
LINE
  5
7D92
  8
1
 10
-6231.8919455255127
 20
-110.96387843161931
 30
0.0
 11
-6231.8919455255127
 21
1613.0361215683811
 31
0.0
  0
LINE
  5
7D94
  8
2
 10
-6327.8919455255136
 20
751.03612156838085
 30
0.0
 11
-4921.0544090327039
 21
751.03612156838085
 31
0.0
  0
LINE
  5
7D95
  8
1
 10
-6227.8919455255154
 20
-48.963878431619378
 30
0.0
 11
-6277.8919455255154
 21
-48.963878431619378
 31
0.0
  0
LINE
  5
7D96
  8
1
 10
-6238.3919455255136
 20
-52.963878431619371
 30
0.0
 11
-6289.8919455255136
 21
-52.963878431619371
 31
0.0
  0
LINE
  5
7D97
  8
1
 10
-6245.0829308473731
 20
-91.463878431619364
 30
0.0
 11
-6206.7552450241856
 21
-91.463878431619364
 31
0.0
  0
LINE
  5
7D98
  8
1
 10
-6292.8919455255136
 20
-48.963878431619378
 30
0.0
 11
-6292.8919455255136
 21
-49.963878431619371
 31
0.0
  0
ARC
  5
7D99
  8
1
 10
-6289.8919455255136
 20
-49.963878431619371
 30
0.0
 40
3.0
 50
180.0
 51
270.0
  0
LINE
  5
7D9A
  8
1
 10
-6087.8919455255136
 20
986.03612156838074
 30
0.0
 11
-6087.8919455255136
 21
516.03612156838085
 31
0.0
  0
LINE
  5
7D9B
  8
1
 10
-6102.8919455255154
 20
986.03612156838074
 30
0.0
 11
-6102.8919455255154
 21
516.03612156838085
 31
0.0
  0
LINE
  5
7D9C
  8
1
 10
-5937.8919455255136
 20
1001.0361215683801
 30
0.0
 11
-5937.8919455255136
 21
501.03612156838079
 31
0.0
  0
LINE
  5
7D9D
  8
1
 10
-6207.8919455255136
 20
1001.0361215683801
 30
0.0
 11
-6207.8919455255136
 21
501.03612156838079
 31
0.0
  0
LINE
  5
7D9E
  8
1
 10
-6207.8919455255136
 20
516.03612156838085
 30
0.0
 11
-5937.8919455255136
 21
516.03612156838051
 31
0.0
  0
LINE
  5
7D9F
  8
1
 10
-6207.8919455255136
 20
501.03612156838079
 30
0.0
 11
-5937.8919455255136
 21
501.03612156838079
 31
0.0
  0
LINE
  5
7DA0
  8
1
 10
-6048.8675552816139
 20
-44.963878431618923
 30
0.0
 11
-5937.8919455255136
 21
501.03612156838079
 31
0.0
  0
LINE
  5
7DA1
  8
1
 10
-6096.9163357694151
 20
-44.963878431618923
 30
0.0
 11
-6207.8919455255136
 21
501.03612156838079
 31
0.0
  0
LINE
  5
7DA2
  8
1
 10
-6096.9163357694151
 20
-44.963878431618923
 30
0.0
 11
-6048.8675552816139
 21
-44.963878431618923
 31
0.0
  0
ARC
  5
7DA3
  8
1
 10
-6238.3919455255136
 20
-59.463878431619378
 30
0.0
 40
6.5
 50
0.0
 51
90.0
  0
LINE
  5
7DA4
  8
1
 10
-6223.3919455255154
 20
-113.96387843161931
 30
0.0
 11
-6227.8919455255154
 21
-113.96387843161931
 31
0.0
  0
LINE
  5
7DA5
  8
1
 10
-6227.8919455255154
 20
-113.96387843161931
 30
0.0
 11
-6228.8919455255136
 21
-113.96387843161931
 31
0.0
  0
ARC
  5
7DA6
  8
1
 10
-6228.8919455255136
 20
-110.96387843161931
 30
0.0
 40
3.0
 50
180.00000000000031
 51
270.0
  0
LINE
  5
7DA7
  8
1
 10
-6227.8919455255154
 20
-48.963878431619378
 30
0.0
 11
-6227.8919455255154
 21
-98.963878431619392
 31
0.0
  0
LINE
  5
7DA8
  8
1
 10
-6207.8919455255136
 20
986.03612156838074
 30
0.0
 11
-5937.8919455255136
 21
986.03612156838062
 31
0.0
  0
LINE
  5
7DA9
  8
1
 10
-6207.8919455255136
 20
1001.0361215683801
 30
0.0
 11
-5937.8919455255136
 21
1001.0361215683801
 31
0.0
  0
LINE
  5
7DAA
  8
1
 10
-6122.8919455255136
 20
811.03612156838074
 30
0.0
 11
-6022.8919455255154
 21
811.03612156838074
 31
0.0
  0
LINE
  5
7DAB
  8
1
 10
-6122.8919455255136
 20
691.03612156838085
 30
0.0
 11
-6022.8919455255154
 21
691.03612156838085
 31
0.0
  0
LINE
  5
7DAC
  8
1
 10
-6122.8919455255136
 20
811.03612156838074
 30
0.0
 11
-6122.8919455255136
 21
691.03612156838085
 31
0.0
  0
LINE
  5
7DAD
  8
1
 10
-6022.8919455255154
 20
811.03612156838074
 30
0.0
 11
-6022.8919455255154
 21
691.03612156838085
 31
0.0
  0
LINE
  5
7DAE
  8
1
 10
-5030.2015884743232
 20
-91.463878431619165
 30
0.0
 11
-4984.2083714778864
 21
-91.463878431619165
 31
0.0
  0
LINE
  5
7DAF
  8
1
 10
-5126.8919455255136
 20
631.03612156838085
 30
0.0
 11
-5206.8919455255154
 21
631.03612156838085
 31
0.0
  0
LINE
  5
7DB0
  8
1
 10
-5126.8919455255136
 20
871.03612156838085
 30
0.0
 11
-5206.8919455255154
 21
871.03612156838085
 31
0.0
  0
LINE
  5
7DB1
  8
1
 10
-4997.3919455255154
 20
-52.96387843161915
 30
0.0
 11
-4945.8919455255154
 21
-52.96387843161915
 31
0.0
  0
LINE
  5
7DB2
  8
1
 10
-4942.8919455255154
 20
-48.96387843161915
 30
0.0
 11
-4942.8919455255154
 21
-49.96387843161915
 31
0.0
  0
ARC
  5
7DB3
  8
1
 10
-4945.8919455255154
 20
-49.96387843161915
 30
0.0
 40
3.0
 50
270.0
 51
0.0
  0
LINE
  5
7DB4
  8
1
 10
-4942.8919455255154
 20
-48.96387843161915
 30
0.0
 11
-4942.8919455255154
 21
-49.96387843161915
 31
0.0
  0
LINE
  5
7DB5
  8
1
 10
-5012.3919455255136
 20
-113.96387843161909
 30
0.0
 11
-5007.8919455255136
 21
-113.96387843161909
 31
0.0
  0
LINE
  5
7DB6
  8
1
 10
-5007.8919455255136
 20
-113.96387843161909
 30
0.0
 11
-5006.8919455255154
 21
-113.96387843161909
 31
0.0
  0
ARC
  5
7DB7
  8
1
 10
-5006.8919455255154
 20
-110.96387843161909
 30
0.0
 40
3.0
 50
270.0
 51
359.9999999999996
  0
LINE
  5
7DB8
  8
1
 10
-5007.8919455255136
 20
-113.96387843161909
 30
0.0
 11
-5006.8919455255154
 21
-113.96387843161909
 31
0.0
  0
LINE
  5
7DB9
  8
1
 10
-5007.8919455255136
 20
-48.96387843161915
 30
0.0
 11
-5007.8919455255136
 21
-98.963878431619165
 31
0.0
  0
LINE
  5
7DBA
  8
1
 10
-5007.8919455255136
 20
-48.96387843161915
 30
0.0
 11
-5007.8919455255136
 21
-98.963878431619165
 31
0.0
  0
LINE
  5
7DBB
  8
1
 10
-5007.8919455255136
 20
-48.96387843161915
 30
0.0
 11
-4957.8919455255136
 21
-48.96387843161915
 31
0.0
  0
ARC
  5
7DBC
  8
1
 10
-4997.3919455255154
 20
-59.46387843161915
 30
0.0
 40
6.5
 50
90.0
 51
180.0
  0
CIRCLE
  5
7DBD
  8
1
 10
-5478.3919455255154
 20
2062.0361215683802
 30
0.0
 40
17.5
  0
LINE
  5
7DBE
  8
1
 10
-5478.3919455255154
 20
2044.5361215683799
 30
0.0
 11
-5466.8373805255151
 21
2043.2981455683801
 31
0.0
  0
LINE
  5
7DBF
  8
1
 10
-5466.8373805255151
 20
2043.2981455683801
 30
0.0
 11
-5489.9465115255152
 21
2043.2981455683801
 31
0.0
  0
LINE
  5
7DC0
  8
1
 10
-5519.8602685255164
 20
2062.0361215683802
 30
0.0
 11
-5438.5098655255151
 21
2062.0361215683802
 31
0.0
  0
ARC
  5
7DC1
  8
1
 10
-5478.3919455255154
 20
2062.0361215683802
 30
0.0
 40
29.999988999999999
 50
305.60385099999991
 51
234.39613299999999
  0
LINE
  5
7DC2
  8
1
 10
-5419.3919455255136
 20
1965.0361215683799
 30
0.0
 11
-5537.3919455255154
 21
1965.0361215683799
 31
0.0
  0
LINE
  5
7DC3
  8
1
 10
-5540.3919455255154
 20
1958.0361215683799
 30
0.0
 11
-5416.3919455255136
 21
1958.0361215683799
 31
0.0
  0
LINE
  5
7DC4
  8
2
 10
-5538.7122585255147
 20
1891.0361215683799
 30
0.0
 11
-5414.7048115255138
 21
1891.0361215683799
 31
0.0
  0
LINE
  5
7DC5
  8
1
 10
-5422.8919455255136
 20
1667.0361215683799
 30
0.0
 11
-5478.3919455255154
 21
1667.0361215683799
 31
0.0
  0
LINE
  5
7DC6
  8
1
 10
-5537.3919455255154
 20
1743.3382455683809
 30
0.0
 11
-5419.3919455255136
 21
1743.3382455683809
 31
0.0
  0
LINE
  5
7DC7
  8
1
 10
-5416.3919455255136
 20
1763.33824556838
 30
0.0
 11
-5540.3919455255154
 21
1763.33824556838
 31
0.0
  0
LINE
  5
7DC8
  8
2
 10
-5811.8010035255156
 20
1841.0361215683799
 30
0.0
 11
-5117.1021505255158
 21
1841.0361215683799
 31
0.0
  0
LINE
  5
7DC9
  8
1
 10
-5358.3919455255136
 20
2032.0361215683799
 30
0.0
 11
-5478.3919455255154
 21
2032.0361215683799
 31
0.0
  0
LINE
  5
7DCA
  8
1
 10
-5289.8919455255136
 20
1655.0361215683799
 30
0.0
 11
-5665.8919455255154
 21
1655.0361215683799
 31
0.0
  0
LINE
  5
7DCB
  8
1
 10
-5289.8919455255136
 20
1661.0361215683811
 30
0.0
 11
-5665.8919455255154
 21
1661.0361215683811
 31
0.0
  0
LINE
  5
7DCC
  8
1
 10
-6223.3919455255154
 20
1555.536121568382
 30
0.0
 11
-5587.8919455255136
 21
1555.5361215683811
 31
0.0
  0
LINE
  5
7DCD
  8
1
 10
-5047.8919455255136
 20
1495.0361215683799
 30
0.0
 11
-6162.8919455255136
 21
1495.0361215683811
 31
0.0
  0
LINE
  5
7DCE
  8
1
 10
-5047.8919455255154
 20
1531.0361215683811
 30
0.0
 11
-6162.8919455255136
 21
1531.0361215683811
 31
0.0
  0
LINE
  5
7DCF
  8
1
 10
-5337.8919455255136
 20
1617.0361215683799
 30
0.0
 11
-5617.8919455255136
 21
1617.0361215683799
 31
0.0
  0
LINE
  5
7DD0
  8
1
 10
-6238.3919455255136
 20
1555.0361215683811
 30
0.0
 11
-6289.8919455255136
 21
1555.0361215683811
 31
0.0
  0
LINE
  5
7DD1
  8
1
 10
-6245.0829308473731
 20
1593.5361215683811
 30
0.0
 11
-6206.7552450241856
 21
1593.5361215683799
 31
0.0
  0
LINE
  5
7DD2
  8
1
 10
-6292.8919455255136
 20
1551.0361215683799
 30
0.0
 11
-6292.8919455255136
 21
1552.0361215683799
 31
0.0
  0
ARC
  5
7DD3
  8
1
 10
-6289.8919455255136
 20
1552.0361215683799
 30
0.0
 40
3.0
 50
90.0
 51
180.0
  0
LINE
  5
7DD4
  8
1
 10
-5567.3919455255136
 20
1935.0361215683799
 30
0.0
 11
-5567.3919455255136
 21
1773.33824556838
 31
0.0
  0
LINE
  5
7DD5
  8
1
 10
-5560.3919455255136
 20
1938.0361215683799
 30
0.0
 11
-5560.3919455255136
 21
1783.33824556838
 31
0.0
  0
LINE
  5
7DD6
  8
1
 10
-5658.3919455255154
 20
2025.7227665683799
 30
0.0
 11
-5658.3919455255154
 21
1665.0361215683799
 31
0.0
  0
LINE
  5
7DD7
  8
1
 10
-5608.3919455255136
 20
1681.0361215683799
 30
0.0
 11
-5608.3919455255136
 21
2026.0361215683811
 31
0.0
  0
LINE
  5
7DD8
  8
1
 10
-5798.3919455255154
 20
1978.1494025683801
 30
0.0
 11
-5798.3919455255154
 21
1703.9228395683799
 31
0.0
  0
LINE
  5
7DD9
  8
1
 10
-5738.2919705255163
 20
2014.4088625683801
 30
0.0
 11
-5738.2919705255163
 21
1667.6624635683811
 31
0.0
  0
LINE
  5
7DDA
  8
1
 10
-5689.991921525515
 20
1667.5361215683799
 30
0.0
 11
-5689.991921525515
 21
2014.8494755683801
 31
0.0
  0
LINE
  5
7DDB
  8
2
 10
-5478.3919455255154
 20
2099.5342905683801
 30
0.0
 11
-5478.3919455255154
 21
1648.79088156838
 31
0.0
  0
LINE
  5
7DDC
  8
1
 10
-5683.1224145255146
 20
1665.0361215683799
 30
0.0
 11
-5645.2124536012034
 21
1665.0361215683799
 31
0.0
  0
LINE
  5
7DDE
  8
1
 10
-6162.8919455255136
 20
1531.0361215683799
 30
0.0
 11
-6162.8919455255136
 21
1495.0361215683799
 31
0.0
  0
LINE
  5
7DDF
  8
1
 10
-6223.3919455255154
 20
1616.0361215683811
 30
0.0
 11
-6227.8919455255154
 21
1616.0361215683811
 31
0.0
  0
LINE
  5
7DE0
  8
1
 10
-6227.8919455255154
 20
1616.0361215683811
 30
0.0
 11
-6228.8919455255136
 21
1616.0361215683811
 31
0.0
  0
ARC
  5
7DE1
  8
1
 10
-6228.8919455255136
 20
1613.0361215683811
 30
0.0
 40
3.0
 50
90.0
 51
179.9999999999996
  0
ARC
  5
7DE2
  8
1
 10
-6238.3919455255136
 20
1561.5361215683799
 30
0.0
 40
6.5
 50
270.0
 51
0.0
  0
LINE
  5
7DE3
  8
1
 10
-6227.8919455255154
 20
1551.0361215683799
 30
0.0
 11
-6227.8919455255154
 21
1616.0361215683811
 31
0.0
  0
LINE
  5
7DE4
  8
1
 10
-5743.8489765255163
 20
1669.5457645683809
 30
0.0
 11
-5795.8919455255136
 21
1699.59276156838
 31
0.0
  0
ARC
  5
7DE5
  8
1
 10
-5793.3919455255136
 20
1703.9228395683799
 30
0.0
 40
5.0
 50
180.0
 51
239.99972500000001
  0
LINE
  5
7DE6
  8
1
 10
-5736.3489765255163
 20
1667.5361215683799
 30
0.0
 11
-5689.991921525515
 21
1667.5361215683799
 31
0.0
  0
ARC
  5
7DE7
  8
1
 10
-5736.3489765255163
 20
1682.5361215683799
 30
0.0
 40
15.0
 50
239.999954
 51
270.0
  0
LINE
  5
7DE8
  8
1
 10
-5683.1224145255146
 20
1665.0361215683799
 30
0.0
 11
-5689.991921525515
 21
1667.5361215683799
 31
0.0
  0
LINE
  5
7DE9
  8
1
 10
-5671.8919455255154
 20
1649.0361215683799
 30
0.0
 11
-5671.8919455255154
 21
1611.0361215683811
 31
0.0
  0
LINE
  5
7DEA
  8
1
 10
-5677.8919455255154
 20
1649.0361215683799
 30
0.0
 11
-5677.8919455255154
 21
1611.0361215683811
 31
0.0
  0
LINE
  5
7DEB
  8
1
 10
-5617.8919455255136
 20
1531.0361215683811
 30
0.0
 11
-5617.8919455255136
 21
1639.0361215683799
 31
0.0
  0
LINE
  5
7DEC
  8
1
 10
-5637.8919455255136
 20
1639.0361215683799
 30
0.0
 11
-5637.8919455255136
 21
1531.0361215683811
 31
0.0
  0
LINE
  5
7DED
  8
2
 10
-5627.8919455255154
 20
1742.5023157417661
 30
0.0
 11
-5627.8919455255154
 21
1516.637617274343
 31
0.0
  0
LINE
  5
7DEE
  8
1
 10
-5671.8919455255154
 20
1611.0361215683811
 30
0.0
 11
-5677.8919455255154
 21
1611.0361215683811
 31
0.0
  0
LINE
  5
7DEF
  8
1
 10
-5637.8919455255136
 20
1617.0361215683799
 30
0.0
 11
-5671.8919455255154
 21
1617.0361215683799
 31
0.0
  0
LINE
  5
7DF0
  8
1
 10
-5618.3919455255136
 20
1681.0361215683799
 30
0.0
 11
-5561.3919455255136
 21
1681.0361215683799
 31
0.0
  0
LINE
  5
7DF1
  8
1
 10
-5538.8919455255154
 20
1661.0361215683811
 30
0.0
 11
-5621.3919455255136
 21
1661.0361215683811
 31
0.0
  0
LINE
  5
7DF2
  8
1
 10
-5598.8919455255136
 20
1685.13804956838
 30
0.0
 11
-5598.8919455255136
 21
1657.2072635683801
 31
0.0
  0
ARC
  5
7DF3
  8
1
 10
-5603.780495525516
 20
1684.0361215683811
 30
0.0
 40
3.0
 50
270.0
 51
0.0
  0
LINE
  5
7DF4
  8
1
 10
-5617.8919455255136
 20
1708.5361215683811
 30
0.0
 11
-5637.8919455255136
 21
1708.5361215683811
 31
0.0
  0
LINE
  5
7DF5
  8
1
 10
-5612.8919455255154
 20
1677.0361215683811
 30
0.0
 11
-5610.5714374498248
 21
1675.696375606225
 31
0.0
  0
ARC
  5
7DF6
  8
1
 10
-5614.9015644687479
 20
1669.3686533231121
 30
0.0
 40
7.6674682452691139
 50
55.615752531956161
 51
124.3842474680438
  0
LINE
  5
7DF7
  8
1
 10
-5642.8919455255154
 20
1677.0361215683811
 30
0.0
 11
-5645.2124536012034
 21
1675.696375606225
 31
0.0
  0
ARC
  5
7DF8
  8
1
 10
-5640.8823265822812
 20
1669.3686533231121
 30
0.0
 40
7.6674682452691139
 50
55.615752531956161
 51
124.3842474680438
  0
ARC
  5
7DF9
  8
1
 10
-5627.8919455255154
 20
1648.375867530536
 30
0.0
 40
28.66025403784414
 50
72.412046226006169
 51
107.5879537739938
  0
LINE
  5
7DFA
  8
1
 10
-5610.5714374498248
 20
1655.0361215683799
 30
0.0
 11
-5645.2124536012043
 21
1655.0361215683799
 31
0.0
  0
LINE
  5
7DFB
  8
1
 10
-5645.2124536012034
 20
1661.0361215683811
 30
0.0
 11
-5610.5714374498248
 21
1661.0361215683811
 31
0.0
  0
LINE
  5
7DFC
  8
1
 10
-5645.2124536012034
 20
1675.696375606225
 30
0.0
 11
-5645.2124536012034
 21
1661.0361215683811
 31
0.0
  0
LINE
  5
7DFD
  8
1
 10
-5636.552199563359
 20
1675.696375606225
 30
0.0
 11
-5636.552199563359
 21
1661.0361215683811
 31
0.0
  0
LINE
  5
7DFE
  8
1
 10
-5619.2316914876692
 20
1675.696375606225
 30
0.0
 11
-5619.2316914876692
 21
1661.0361215683811
 31
0.0
  0
LINE
  5
7DFF
  8
1
 10
-5610.5714374498248
 20
1675.696375606225
 30
0.0
 11
-5610.5714374498248
 21
1661.0361215683811
 31
0.0
  0
LINE
  5
7E00
  8
1
 10
-5642.8919455255154
 20
1677.0361215683811
 30
0.0
 11
-5612.8919455255154
 21
1677.0361215683811
 31
0.0
  0
LINE
  5
7E01
  8
1
 10
-5617.8919455255136
 20
1677.0361215683811
 30
0.0
 11
-5617.8919455255136
 21
1708.5361215683811
 31
0.0
  0
LINE
  5
7E02
  8
1
 10
-5637.8919455255136
 20
1708.5361215683811
 30
0.0
 11
-5637.8919455255136
 21
1677.0361215683811
 31
0.0
  0
ARC
  5
7E03
  8
1
 10
-5627.8919455255154
 20
1667.696375606225
 30
0.0
 40
28.66025403784414
 50
252.41204622600611
 51
287.58795377399377
  0
LINE
  5
7E04
  8
1
 10
-5612.8919455255154
 20
1639.0361215683799
 30
0.0
 11
-5642.8919455255154
 21
1639.0361215683799
 31
0.0
  0
LINE
  5
7E05
  8
1
 10
-5642.8919455255154
 20
1639.0361215683799
 30
0.0
 11
-5645.2124536012034
 21
1640.375867530536
 31
0.0
  0
ARC
  5
7E06
  8
1
 10
-5640.8823265822812
 20
1646.7035898136489
 30
0.0
 40
7.6674682452691139
 50
235.6157525319561
 51
304.38424746804378
  0
LINE
  5
7E07
  8
1
 10
-5612.8919455255154
 20
1639.0361215683799
 30
0.0
 11
-5610.5714374498248
 21
1640.375867530536
 31
0.0
  0
ARC
  5
7E08
  8
1
 10
-5614.9015644687479
 20
1646.7035898136489
 30
0.0
 40
7.6674682452691139
 50
235.6157525319561
 51
304.38424746804378
  0
ARC
  5
7E09
  8
1
 10
-5665.8919455255154
 20
1649.0361215683799
 30
0.0
 40
12.0
 50
90.0
 51
180.0
  0
ARC
  5
7E0A
  8
1
 10
-5665.8919455255154
 20
1649.0361215683799
 30
0.0
 40
6.0
 50
90.0
 51
180.0
  0
LINE
  5
7E0B
  8
1
 10
-5636.552199563359
 20
1640.375867530536
 30
0.0
 11
-5636.552199563359
 21
1655.0361215683799
 31
0.0
  0
LINE
  5
7E0C
  8
1
 10
-5645.2124536012034
 20
1640.375867530536
 30
0.0
 11
-5645.2124536012034
 21
1655.0361215683799
 31
0.0
  0
LINE
  5
7E0D
  8
1
 10
-5610.5714374498248
 20
1640.375867530536
 30
0.0
 11
-5610.5714374498248
 21
1655.0361215683799
 31
0.0
  0
LINE
  5
7E0E
  8
1
 10
-5619.2316914876692
 20
1640.375867530536
 30
0.0
 11
-5619.2316914876692
 21
1655.0361215683799
 31
0.0
  0
LINE
  5
7E0F
  8
1
 10
-5493.3919455255136
 20
1702.09984156838
 30
0.0
 11
-5493.3919455255136
 21
1734.1149785683799
 31
0.0
  0
ARC
  5
7E10
  8
1
 10
-5513.3919455255154
 20
1702.09984156838
 30
0.0
 40
19.999980999999998
 50
271.26357999999999
 51
0.0
  0
ARC
  5
7E11
  8
1
 10
-5533.8919455255136
 20
1662.0361215683799
 30
0.0
 40
5.0
 50
90.0
 51
180.0
  0
LINE
  5
7E12
  8
1
 10
-5538.8919455255154
 20
1662.0361215683799
 30
0.0
 11
-5538.8919455255154
 21
1661.0361215683811
 31
0.0
  0
ARC
  5
7E13
  8
1
 10
-5540.3919455255154
 20
1783.33824556838
 30
0.0
 40
20.0
 50
180.0
 51
270.0
  0
ARC
  5
7E14
  8
1
 10
-5537.3919455255154
 20
1773.33824556838
 30
0.0
 40
30.0
 50
180.0
 51
270.0
  0
LINE
  5
7E15
  8
1
 10
-5533.8919455255136
 20
1667.0361215683799
 30
0.0
 11
-5478.3919455255154
 21
1667.0361215683799
 31
0.0
  0
LINE
  5
7E16
  8
1
 10
-5512.9509055255148
 20
1682.1047245683801
 30
0.0
 11
-5561.3919455255136
 21
1681.0361215683799
 31
0.0
  0
LINE
  5
7E17
  8
1
 10
-5661.7053005255148
 20
2024.8303105683799
 30
0.0
 11
-5686.6785665255147
 21
2015.741931568381
 31
0.0
  0
LINE
  5
7E18
  8
1
 10
-5743.8489765255163
 20
2012.5264775683811
 30
0.0
 11
-5795.8919455255136
 21
1982.47948056838
 31
0.0
  0
ARC
  5
7E19
  8
1
 10
-5793.3919455255136
 20
1978.1494025683801
 30
0.0
 40
5.0
 50
120.000282
 51
180.0
  0
LINE
  5
7E1A
  8
1
 10
-5736.3489765255163
 20
2014.5361215683799
 30
0.0
 11
-5693.518166525515
 21
2014.5361215683799
 31
0.0
  0
ARC
  5
7E1B
  8
1
 10
-5736.3489765255163
 20
1999.5361215683799
 30
0.0
 40
15.0
 50
90.0
 51
120.000046
  0
ARC
  5
7E1C
  8
1
 10
-5693.518166525515
 20
2034.5361215683799
 30
0.0
 40
20.0
 50
270.0
 51
289.99749800000001
  0
LINE
  5
7E1D
  8
1
 10
-5598.3919455255154
 20
2032.0361215683799
 30
0.0
 11
-5478.3919455255154
 21
2032.0361215683799
 31
0.0
  0
LINE
  5
7E1E
  8
1
 10
-5598.3919455255154
 20
2032.0361215683799
 30
0.0
 11
-5608.3919455255136
 21
2023.7820925683809
 31
0.0
  0
ARC
  5
7E1F
  8
1
 10
-5654.8657005255154
 20
2006.0361215683799
 30
0.0
 40
20.0
 50
90.0
 51
109.997505
  0
LINE
  5
7E20
  8
1
 10
-5654.8657005255154
 20
2026.0361215683811
 30
0.0
 11
-5608.3919455255136
 21
2026.0361215683811
 31
0.0
  0
ARC
  5
7E21
  8
1
 10
-5478.3919455255154
 20
2062.0361215683802
 30
0.0
 40
30.0
 50
234.39613299999999
 51
234.80995200000001
  0
ARC
  5
7E22
  8
1
 10
-5489.6269315255158
 20
2040.31523456838
 30
0.0
 40
3.0
 50
96.115172999999999
 51
174.80557300000001
  0
LINE
  5
7E23
  8
1
 10
-5478.3919455255154
 20
2044.5361215683799
 30
0.0
 11
-5489.9465115255152
 21
2043.2981455683801
 31
0.0
  0
ARC
  5
7E24
  8
1
 10
-5499.3503195255153
 20
2032.7659185683799
 30
0.0
 40
6.0
 50
354.80557299999992
 51
54.396262999999998
  0
LINE
  5
7E25
  8
1
 10
-5492.6146015255163
 20
2040.5868415683799
 30
0.0
 11
-5493.3919455255136
 21
2032.0361215683799
 31
0.0
  0
ARC
  5
7E26
  8
1
 10
-5537.3919455255154
 20
1935.0361215683799
 30
0.0
 40
30.0
 50
90.0
 51
180.0
  0
ARC
  5
7E27
  8
1
 10
-5540.3919455255154
 20
1938.0361215683799
 30
0.0
 40
20.0
 50
90.0
 51
180.0
  0
LINE
  5
7E28
  8
1
 10
-5091.8919455255154
 20
1555.536121568374
 30
0.0
 11
-5012.3919455255136
 21
1555.5361215683929
 31
0.0
  0
LINE
  5
7E29
  8
1
 10
-5030.2015884743232
 20
1593.5361215683811
 30
0.0
 11
-4984.2083714778864
 21
1593.5361215683811
 31
0.0
  0
LINE
  5
7E2A
  8
1
 10
-5136.8919455255154
 20
1817.0361215683811
 30
0.0
 11
-5136.8919455255154
 21
1865.0361215683779
 31
0.0
  0
LINE
  5
7E2B
  8
1
 10
-5236.8919455255136
 20
1816.0361215683799
 30
0.0
 11
-5236.8919455255136
 21
1866.0361215683799
 31
0.0
  0
LINE
  5
7E2C
  8
1
 10
-5246.8919455255154
 20
1904.0361215683799
 30
0.0
 11
-5246.8919455255154
 21
1841.0361215683799
 31
0.0
  0
LINE
  5
7E2D
  8
1
 10
-5323.3919455255136
 20
2006.0361215683799
 30
0.0
 11
-5323.3919455255136
 21
1841.0361215683799
 31
0.0
  0
LINE
  5
7E2E
  8
1
 10
-5389.3919455255136
 20
1935.0361215683799
 30
0.0
 11
-5389.3919455255136
 21
1773.33824556838
 31
0.0
  0
LINE
  5
7E2F
  8
1
 10
-5396.3919455255154
 20
1938.0361215683799
 30
0.0
 11
-5396.3919455255154
 21
1783.33824556838
 31
0.0
  0
LINE
  5
7E30
  8
1
 10
-5231.8919455255136
 20
1520.7389328161521
 30
0.0
 11
-5231.8919455255136
 21
2041.0361215683799
 31
0.0
  0
LINE
  5
7E31
  8
1
 10
-5091.8919455255154
 20
1520.7389328161521
 30
0.0
 11
-5091.8919455255154
 21
2041.0361215683799
 31
0.0
  0
LINE
  5
7E32
  8
1
 10
-5217.8919455255154
 20
1711.0361215683811
 30
0.0
 11
-5277.8919455255154
 21
1711.0361215683811
 31
0.0
  0
LINE
  5
7E33
  8
1
 10
-5268.3367695255138
 20
1702.1389045683809
 30
0.0
 11
-5291.5105975255146
 21
1678.9650765683809
 31
0.0
  0
LINE
  5
7E34
  8
1
 10
-5266.1233134068661
 20
1631.0361215683811
 30
0.0
 11
-5290.5803725535443
 21
1631.0361215683811
 31
0.0
  0
LINE
  5
7E35
  8
1
 10
-5283.8919455255136
 20
1649.0361215683799
 30
0.0
 11
-5283.8919455255136
 21
1611.0361215683811
 31
0.0
  0
LINE
  5
7E36
  8
1
 10
-5317.8919455255154
 20
1531.0361215683811
 30
0.0
 11
-5317.8919455255154
 21
1639.0361215683799
 31
0.0
  0
LINE
  5
7E37
  8
1
 10
-5337.8919455255136
 20
1639.0361215683799
 30
0.0
 11
-5337.8919455255136
 21
1531.0361215683811
 31
0.0
  0
LINE
  5
7E38
  8
2
 10
-5327.8919455255136
 20
1742.5023157417661
 30
0.0
 11
-5327.8919455255136
 21
1516.637617274343
 31
0.0
  0
LINE
  5
7E39
  8
1
 10
-5277.8919455255154
 20
1711.0361215683811
 30
0.0
 11
-5277.8919455255154
 21
1531.0361215683799
 31
0.0
  0
LINE
  5
7E3A
  8
1
 10
-5277.8919455255154
 20
1611.0361215683811
 30
0.0
 11
-5283.8919455255136
 21
1611.0361215683811
 31
0.0
  0
LINE
  5
7E3B
  8
1
 10
-5283.8919455255136
 20
1617.0361215683799
 30
0.0
 11
-5317.8919455255154
 21
1617.0361215683799
 31
0.0
  0
LINE
  5
7E3C
  8
1
 10
-5417.8919455255136
 20
1661.0361215683811
 30
0.0
 11
-5335.3919455255154
 21
1661.0361215683811
 31
0.0
  0
LINE
  5
7E3D
  8
1
 10
-5338.3919455255154
 20
1681.0361215683799
 30
0.0
 11
-5395.3919455255136
 21
1681.0361215683799
 31
0.0
  0
ARC
  5
7E3E
  8
1
 10
-5422.8919455255136
 20
1662.0361215683799
 30
0.0
 40
5.0
 50
0.0
 51
90.0
  0
LINE
  5
7E3F
  8
1
 10
-5417.8919455255136
 20
1662.0361215683799
 30
0.0
 11
-5417.8919455255136
 21
1661.0361215683811
 31
0.0
  0
LINE
  5
7E40
  8
1
 10
-5443.8329855255151
 20
1682.1047245683801
 30
0.0
 11
-5395.3919455255136
 21
1681.0361215683799
 31
0.0
  0
LINE
  5
7E41
  8
1
 10
-5463.3919455255154
 20
1702.09984156838
 30
0.0
 11
-5463.3919455255154
 21
1734.1149785683799
 31
0.0
  0
ARC
  5
7E42
  8
1
 10
-5443.3919455255136
 20
1702.09984156838
 30
0.0
 40
20.0
 50
180.0
 51
268.73642000000001
  0
ARC
  5
7E43
  8
1
 10
-5416.3919455255136
 20
1783.33824556838
 30
0.0
 40
20.0
 50
270.0
 51
0.0
  0
ARC
  5
7E44
  8
1
 10
-5419.3919455255136
 20
1773.33824556838
 30
0.0
 40
30.0
 50
270.0
 51
0.0
  0
LINE
  5
7E45
  8
1
 10
-5317.8919455255154
 20
1708.5361215683811
 30
0.0
 11
-5337.8919455255136
 21
1708.5361215683811
 31
0.0
  0
LINE
  5
7E46
  8
1
 10
-5357.8919455255154
 20
1685.13804956838
 30
0.0
 11
-5357.8919455255154
 21
1657.2072635683801
 31
0.0
  0
LINE
  5
7E47
  8
1
 10
-5298.5816425255152
 20
1676.0361215683799
 30
0.0
 11
-5311.1154138522843
 21
1676.0361215683799
 31
0.0
  0
LINE
  5
7E48
  8
1
 10
-5337.8919455255136
 20
1682.7758920683809
 30
0.0
 11
-5338.3919455255154
 21
1681.0361215683799
 31
0.0
  0
ARC
  5
7E49
  8
1
 10
-5338.3919455255154
 20
1678.0361215683799
 30
0.0
 40
3.0
 50
80.405931773139471
 51
90.0
  0
ARC
  5
7E4A
  8
1
 10
-5298.5816425255152
 20
1686.0361215683799
 30
0.0
 40
10.0
 50
270.0
 51
315.0
  0
LINE
  5
7E4B
  8
1
 10
-5345.2124536012034
 20
1661.0361215683811
 30
0.0
 11
-5310.5714374498257
 21
1661.0361215683811
 31
0.0
  0
LINE
  5
7E4C
  8
1
 10
-5342.8919455255154
 20
1677.0361215683811
 30
0.0
 11
-5312.8919455255136
 21
1677.0361215683811
 31
0.0
  0
ARC
  5
7E4D
  8
1
 10
-5327.8919455255136
 20
1648.3758675305371
 30
0.0
 40
28.66025403784414
 50
72.412046226006169
 51
107.5879537739938
  0
LINE
  5
7E4E
  8
1
 10
-5336.552199563359
 20
1675.696375606226
 30
0.0
 11
-5336.552199563359
 21
1661.0361215683811
 31
0.0
  0
LINE
  5
7E4F
  8
1
 10
-5345.2124536012034
 20
1675.696375606226
 30
0.0
 11
-5345.2124536012034
 21
1661.0361215683811
 31
0.0
  0
ARC
  5
7E50
  8
1
 10
-5340.8823265822812
 20
1669.368653323113
 30
0.0
 40
7.6674682452691139
 50
55.615752531956161
 51
124.3842474680438
  0
LINE
  5
7E51
  8
1
 10
-5342.8919455255154
 20
1677.0361215683811
 30
0.0
 11
-5345.2124536012034
 21
1675.696375606226
 31
0.0
  0
LINE
  5
7E52
  8
1
 10
-5310.5714374498257
 20
1675.696375606226
 30
0.0
 11
-5310.5714374498257
 21
1661.0361215683811
 31
0.0
  0
LINE
  5
7E53
  8
1
 10
-5319.2316914876701
 20
1675.696375606226
 30
0.0
 11
-5319.2316914876701
 21
1661.0361215683811
 31
0.0
  0
LINE
  5
7E54
  8
1
 10
-5327.8919455255136
 20
1684.036073458255
 30
0.0
 11
-5327.8919455255136
 21
1654.228412896224
 31
0.0
  0
ARC
  5
7E55
  8
1
 10
-5314.9015644687479
 20
1669.368653323113
 30
0.0
 40
7.6674682452691139
 50
55.615752531956161
 51
124.3842474680438
  0
LINE
  5
7E56
  8
1
 10
-5312.8919455255136
 20
1677.0361215683811
 30
0.0
 11
-5310.5714374498257
 21
1675.696375606226
 31
0.0
  0
LINE
  5
7E57
  8
1
 10
-5310.5714374498257
 20
1655.0361215683799
 30
0.0
 11
-5345.2124536012034
 21
1655.0361215683799
 31
0.0
  0
LINE
  5
7E58
  8
1
 10
-5337.8919455255136
 20
1708.5361215683811
 30
0.0
 11
-5337.8919455255136
 21
1677.0361215683811
 31
0.0
  0
LINE
  5
7E59
  8
1
 10
-5317.8919455255154
 20
1677.0361215683811
 30
0.0
 11
-5317.8919455255154
 21
1708.5361215683811
 31
0.0
  0
LINE
  5
7E5A
  8
1
 10
-5323.3919455255136
 20
1708.5361215683811
 30
0.0
 11
-5323.3919455255136
 21
1841.0361215683799
 31
0.0
  0
LINE
  5
7E5B
  8
1
 10
-5312.8919455255136
 20
1639.0361215683799
 30
0.0
 11
-5342.8919455255154
 21
1639.0361215683799
 31
0.0
  0
ARC
  5
7E5C
  8
1
 10
-5327.8919455255136
 20
1667.696375606225
 30
0.0
 40
28.66025403784414
 50
252.41204622600611
 51
287.58795377399377
  0
ARC
  5
7E5D
  8
1
 10
-5314.9015644687479
 20
1646.7035898136489
 30
0.0
 40
7.6674682452691139
 50
235.6157525319561
 51
304.38424746804378
  0
LINE
  5
7E5E
  8
1
 10
-5312.8919455255136
 20
1639.0361215683799
 30
0.0
 11
-5310.5714374498257
 21
1640.375867530536
 31
0.0
  0
ARC
  5
7E5F
  8
1
 10
-5340.8823265822812
 20
1646.7035898136489
 30
0.0
 40
7.6674682452691139
 50
235.6157525319561
 51
304.38424746804378
  0
LINE
  5
7E60
  8
1
 10
-5342.8919455255154
 20
1639.0361215683799
 30
0.0
 11
-5345.2124536012034
 21
1640.375867530536
 31
0.0
  0
LINE
  5
7E61
  8
1
 10
-5319.2316914876701
 20
1640.375867530536
 30
0.0
 11
-5319.2316914876701
 21
1655.0361215683799
 31
0.0
  0
LINE
  5
7E62
  8
1
 10
-5310.5714374498257
 20
1640.375867530536
 30
0.0
 11
-5310.5714374498257
 21
1655.0361215683799
 31
0.0
  0
LINE
  5
7E63
  8
1
 10
-5345.2124536012034
 20
1640.375867530536
 30
0.0
 11
-5345.2124536012034
 21
1655.0361215683799
 31
0.0
  0
LINE
  5
7E64
  8
1
 10
-5336.552199563359
 20
1640.375867530536
 30
0.0
 11
-5336.552199563359
 21
1655.0361215683799
 31
0.0
  0
LINE
  5
7E65
  8
1
 10
-5327.8919455255136
 20
1632.0361696785069
 30
0.0
 11
-5327.8919455255136
 21
1661.843830240537
 31
0.0
  0
ARC
  5
7E66
  8
1
 10
-5289.8919455255136
 20
1649.0361215683799
 30
0.0
 40
6.0
 50
0.0
 51
90.0
  0
ARC
  5
7E67
  8
1
 10
-5289.8919455255136
 20
1649.0361215683799
 30
0.0
 40
12.0
 50
0.0
 51
90.0
  0
LINE
  5
7E68
  8
1
 10
-5097.8919455255136
 20
1531.0361215683799
 30
0.0
 11
-5217.8919455255154
 21
1711.0361215683811
 31
0.0
  0
LINE
  5
7E69
  8
1
 10
-5271.8919455255136
 20
1711.0361215683811
 30
0.0
 11
-5271.8919455255136
 21
1531.0361215683799
 31
0.0
  0
LINE
  5
7E6A
  8
1
 10
-5047.8919455255136
 20
1531.0361215683799
 30
0.0
 11
-5047.8919455255136
 21
1495.0361215683799
 31
0.0
  0
LINE
  5
7E6B
  8
1
 10
-5126.8919455255136
 20
1741.0361215683799
 30
0.0
 11
-5206.8919455255154
 21
1741.0361215683799
 31
0.0
  0
LINE
  5
7E6C
  8
1
 10
-5236.8919455255136
 20
1817.0361215683811
 30
0.0
 11
-5136.8919455255154
 21
1817.0361215683811
 31
0.0
  0
LINE
  5
7E6D
  8
1
 10
-5236.8919455255136
 20
1816.0361215683799
 30
0.0
 11
-5246.8919455255154
 21
1816.0361215683799
 31
0.0
  0
LINE
  5
7E6E
  8
1
 10
-5261.8919455255154
 20
1776.0361215683799
 30
0.0
 11
-5248.8919455255136
 21
1776.0361215683799
 31
0.0
  0
ARC
  5
7E6F
  8
1
 10
-5248.8919455255136
 20
1778.0361215683799
 30
0.0
 40
2.0
 50
270.0
 51
0.0
  0
LINE
  5
7E70
  8
1
 10
-5246.8919455255154
 20
1778.0361215683799
 30
0.0
 11
-5246.8919455255154
 21
1841.0361215683799
 31
0.0
  0
ARC
  5
7E71
  8
1
 10
-5275.4079365255147
 20
1709.2099495683799
 30
0.0
 40
10.00005399999999
 50
315.0004879999999
 51
357.00027499999999
  0
LINE
  5
7E72
  8
1
 10
-5261.8919455255154
 20
1776.0361215683799
 30
0.0
 11
-5265.4216085255157
 21
1708.686633568381
 31
0.0
  0
LINE
  5
7E73
  8
1
 10
-5268.3367695255138
 20
1979.9333375683809
 30
0.0
 11
-5291.5105975255146
 21
2003.1071665683801
 31
0.0
  0
ARC
  5
7E74
  8
1
 10
-5467.1569605255163
 20
2040.31523456838
 30
0.0
 40
3.0
 50
5.1944290000000004
 51
83.884827000000001
  0
ARC
  5
7E75
  8
1
 10
-5457.4335715255138
 20
2032.7659185683799
 30
0.0
 40
6.0
 50
125.603737
 51
185.19442699999999
  0
LINE
  5
7E76
  8
1
 10
-5464.1692895255137
 20
2040.5868415683799
 30
0.0
 11
-5463.3919455255154
 21
2032.0361215683799
 31
0.0
  0
ARC
  5
7E77
  8
1
 10
-5419.3919455255136
 20
1935.0361215683799
 30
0.0
 40
30.0
 50
0.0
 51
90.0
  0
ARC
  5
7E78
  8
1
 10
-5416.3919455255136
 20
1938.0361215683799
 30
0.0
 40
20.0
 50
0.0
 51
90.0
  0
LINE
  5
7E79
  8
1
 10
-5341.4303975255152
 20
2018.0361215683799
 30
0.0
 11
-5358.3919455255136
 21
2032.0361215683799
 31
0.0
  0
LINE
  5
7E7A
  8
1
 10
-5298.5816425255152
 20
2006.0361215683799
 30
0.0
 11
-5323.3919455255136
 21
2006.0361215683799
 31
0.0
  0
LINE
  5
7E7B
  8
1
 10
-5341.4303975255152
 20
2018.0361215683799
 30
0.0
 11
-5333.3919455255154
 21
1988.0361215683799
 31
0.0
  0
LINE
  5
7E7C
  8
1
 10
-5328.3919455255136
 20
1988.0361215683799
 30
0.0
 11
-5323.3919455255136
 21
1988.0361215683799
 31
0.0
  0
LINE
  5
7E7D
  8
1
 10
-5333.3919455255154
 20
1988.0361215683799
 30
0.0
 11
-5328.3919455255136
 21
1988.0361215683799
 31
0.0
  0
LINE
  5
7E7E
  8
1
 10
-5328.3919455255136
 20
1988.0361215683799
 30
0.0
 11
-5333.3919455255154
 21
1988.0361215683799
 31
0.0
  0
ARC
  5
7E7F
  8
1
 10
-5298.5816425255152
 20
1996.0361215683799
 30
0.0
 40
9.9999679999999991
 50
45.0
 51
90.0
  0
LINE
  5
7E80
  8
1
 10
-5126.8919455255136
 20
1941.0361215683811
 30
0.0
 11
-5206.8919455255154
 21
1941.0361215683811
 31
0.0
  0
LINE
  5
7E81
  8
1
 10
-5091.8919455255154
 20
2041.0361215683799
 30
0.0
 11
-5231.8919455255136
 21
2041.0361215683799
 31
0.0
  0
LINE
  5
7E82
  8
1
 10
-5236.8919455255136
 20
1865.0361215683799
 30
0.0
 11
-5136.8919455255154
 21
1865.0361215683779
 31
0.0
  0
ARC
  5
7E83
  8
1
 10
-5275.4079365255147
 20
1972.8622925683801
 30
0.0
 40
10.000031
 50
2.9997379999999998
 51
44.999503999999988
  0
LINE
  5
7E84
  8
1
 10
-5261.8919455255154
 20
1906.0361215683799
 30
0.0
 11
-5248.8919455255136
 21
1906.0361215683799
 31
0.0
  0
ARC
  5
7E85
  8
1
 10
-5248.8919455255136
 20
1904.0361215683799
 30
0.0
 40
2.0
 50
0.0
 51
90.0
  0
LINE
  5
7E86
  8
1
 10
-5261.8919455255154
 20
1906.0361215683799
 30
0.0
 11
-5265.4216085255157
 21
1973.385608568381
 31
0.0
  0
LINE
  5
7E87
  8
1
 10
-5236.8919455255136
 20
1866.0361215683799
 30
0.0
 11
-5246.8919455255154
 21
1866.0361215683799
 31
0.0
  0
LINE
  5
7E88
  8
1
 10
-4997.3919455255154
 20
1555.0361215683811
 30
0.0
 11
-4945.8919455255154
 21
1555.0361215683811
 31
0.0
  0
LINE
  5
7E89
  8
1
 10
-4942.8919455255154
 20
1551.0361215683799
 30
0.0
 11
-4942.8919455255154
 21
1552.0361215683799
 31
0.0
  0
ARC
  5
7E8A
  8
1
 10
-4945.8919455255154
 20
1552.0361215683799
 30
0.0
 40
3.0
 50
0.0
 51
90.0
  0
LINE
  5
7E8B
  8
1
 10
-5012.3919455255136
 20
1616.0361215683811
 30
0.0
 11
-5007.8919455255136
 21
1616.0361215683811
 31
0.0
  0
LINE
  5
7E8C
  8
1
 10
-5007.8919455255136
 20
1616.0361215683811
 30
0.0
 11
-5006.8919455255154
 21
1616.0361215683811
 31
0.0
  0
ARC
  5
7E8D
  8
1
 10
-5006.8919455255154
 20
1613.0361215683811
 30
0.0
 40
3.0
 50
0.0000000000003053
 51
90.0
  0
LINE
  5
7E8E
  8
1
 10
-5007.8919455255136
 20
1551.0361215683799
 30
0.0
 11
-5007.8919455255136
 21
1616.0361215683811
 31
0.0
  0
ARC
  5
7E8F
  8
1
 10
-4997.3919455255154
 20
1561.5361215683799
 30
0.0
 40
6.5
 50
180.0
 51
270.0
  0
LINE
  5
7E9B
  8
1
 10
-3757.9014777753332
 20
1831.0361215683799
 30
0.0
 11
-3757.9014777753332
 21
1948.0550415683799
 31
0.0
  0
LINE
  5
7E9C
  8
1
 10
-3747.9014777753318
 20
1951.0361215683799
 30
0.0
 11
-3747.9014777753318
 21
1831.0361215683799
 31
0.0
  0
ARC
  5
7E9D
  8
1
 10
-2889.5305067753329
 20
1827.5673715683799
 30
0.0
 40
1000.0
 50
174.84371899999991
 51
184.269531
  0
LINE
  5
7E9E
  8
1
 10
-3770.3163947753328
 20
1961.8608285683799
 30
0.0
 11
-3889.1874277753318
 21
1741.929797568381
 31
0.0
  0
LINE
  5
7E9F
  8
1
 10
-3767.149402775332
 20
1960.149036568381
 30
0.0
 11
-3886.0204357753341
 21
1740.2180055683809
 31
0.0
  0
LINE
  5
7EA0
  8
1
 10
-3737.3129767753321
 20
2041.0361215683799
 30
0.0
 11
-3737.3129767753321
 21
1530.6587957041279
 31
0.0
  0
LINE
  5
7EA1
  8
1
 10
-3815.4014777753318
 20
1671.0361215683799
 30
0.0
 11
-3815.4014777753318
 21
1591.0361215683811
 31
0.0
  0
LINE
  5
7EA2
  8
1
 10
-3830.4014777753332
 20
1671.0361215683799
 30
0.0
 11
-3830.4014777753332
 21
1591.0361215683811
 31
0.0
  0
LINE
  5
7EA4
  8
1
 10
-3792.9014777753332
 20
1589.73511405615
 30
0.0
 11
-3792.9014777753332
 21
1711.0361215683811
 31
0.0
  0
LINE
  5
7EA5
  8
1
 10
-3842.9014777753332
 20
1574.0889752782739
 30
0.0
 11
-3842.9014777753332
 21
1711.0361215683811
 31
0.0
  0
LINE
  5
7EA6
  8
1
 10
-3798.9014777753332
 20
1588.0307452070269
 30
0.0
 11
-3798.9014777753318
 21
1711.0361215683811
 31
0.0
  0
ARC
  5
7EA7
  8
1
 10
-3822.9014777753318
 20
1591.0361215683811
 30
0.0
 40
7.5
 50
180.0
 51
0.0
  0
LINE
  5
7EA8
  8
1
 10
-3880.1733287753318
 20
1751.0361215683799
 30
0.0
 11
-3776.7292977753332
 21
1751.0361215683799
 31
0.0
  0
ARC
  5
7EA9
  8
1
 10
-3888.3076667753339
 20
1741.454211568381
 30
0.0
 40
0.999915
 50
151.60498000000001
 51
241.60781899999989
  0
ARC
  5
7EAA
  8
1
 10
-3886.9001967753338
 20
1740.6934695683799
 30
0.0
 40
0.999915
 50
241.6049799999999
 51
331.60781900000001
  0
LINE
  5
7EAB
  8
1
 10
-3887.375781775334
 20
1739.81370856838
 30
0.0
 11
-3888.7832527753321
 21
1740.5745735683799
 31
0.0
  0
LINE
  5
7EAC
  8
1
 10
-3883.957080775333
 20
1751.6066775683801
 30
0.0
 11
-3886.7554207753328
 21
1753.119128568381
 31
0.0
  0
LINE
  5
7EAD
  8
1
 10
-3827.9014777753318
 20
1768.4305305683799
 30
0.0
 11
-3827.9014777753318
 21
1729.43651156838
 31
0.0
  0
LINE
  5
7EAE
  8
1
 10
-3757.9014777753332
 20
1831.0361215683799
 30
0.0
 11
-3742.6310927753329
 21
1831.0361215683799
 31
0.0
  0
LINE
  5
7EAF
  8
1
 10
-3719.9014777753318
 20
1736.2951545683809
 30
0.0
 11
-3713.5175057753331
 21
1740.9929085683809
 31
0.0
  0
ARC
  5
7EB0
  8
1
 10
-3776.729236775333
 20
1761.0361215683799
 30
0.0
 40
9.9999520000000004
 50
270.0
 51
352.87489299999999
  0
ARC
  5
7EB1
  8
1
 10
-3822.9014777753318
 20
1671.0361215683799
 30
0.0
 40
7.5
 50
0.0
 51
180.0
  0
ARC
  5
7EB2
  8
1
 10
-3716.9014777753318
 20
1678.0361215683799
 30
0.0
 40
3.0
 50
90.0
 51
180.0
  0
LINE
  5
7EB3
  8
1
 10
-3719.9014777753318
 20
1736.2951545683809
 30
0.0
 11
-3719.9014777753318
 21
1661.0361215683811
 31
0.0
  0
LINE
  5
7EB4
  8
1
 10
-3757.9014777753332
 20
1831.0361215683799
 30
0.0
 11
-3766.8065077753322
 21
1759.7957645683809
 31
0.0
  0
LINE
  5
7EB5
  8
1
 10
-3792.9014777753332
 20
1711.0361215683811
 30
0.0
 11
-3842.9014777753332
 21
1711.0361215683799
 31
0.0
  0
LINE
  5
7EB6
  8
1
 10
-3772.0375867753341
 20
1958.67650156838
 30
0.0
 11
-3848.2206917753329
 21
1953.7619515683809
 31
0.0
  0
ARC
  5
7EB7
  8
1
 10
-3845.6457407753328
 20
1913.84495856838
 30
0.0
 40
40.0
 50
93.690903000000006
 51
174.84380100000001
  0
ARC
  5
7EB8
  8
1
 10
-3762.9013557753328
 20
1948.0550415683799
 30
0.0
 40
4.9998969999999989
 50
0.0
 51
61.609809999999989
  0
LINE
  5
7EB9
  8
1
 10
-3768.870471775334
 20
1956.96483256838
 30
0.0
 11
-3760.5240367753322
 21
1952.45360156838
 31
0.0
  0
ARC
  5
7EBA
  8
1
 10
-3768.029163775333
 20
1960.6244995683801
 30
0.0
 40
1.0000219999999991
 50
331.61114500000002
 51
61.611136999999999
  0
ARC
  5
7EBB
  8
1
 10
-3769.436756775332
 20
1961.3853645683801
 30
0.0
 40
0.999915
 50
61.604987999999992
 51
151.60781299999999
  0
LINE
  5
7EBC
  8
1
 10
-3768.9611707753329
 20
1962.2650025683799
 30
0.0
 11
-3767.5536997753329
 21
1961.50426056838
 31
0.0
  0
LINE
  5
7EBD
  8
1
 10
-3733.8815807753322
 20
1891.0361215683799
 30
0.0
 11
-3775.1955457753338
 21
1891.0361215683799
 31
0.0
  0
LINE
  5
7EBE
  8
1
 10
-3758.887348775334
 20
1951.0361215683799
 30
0.0
 11
-3706.6462287753329
 21
1951.0361215683799
 31
0.0
  0
LINE
  5
7EC7
  8
2
 10
-3557.9014777753332
 20
-593.96387843161915
 30
0.0
 11
-3557.9014777753332
 21
2140.4087302645939
 31
0.0
  0
CIRCLE
  5
7ED1
  8
1
 10
-3557.9014777753332
 20
751.03612156838085
 30
0.0
 40
120.0
  0
CIRCLE
  5
7EF9
  8
1
 10
-3557.9014777753332
 20
1841.0361215683799
 30
0.0
 40
100.0
  0
LINE
  5
7EFA
  8
1
 10
-3378.4899787753329
 20
2041.0361215683799
 30
0.0
 11
-3378.4899787753329
 21
1530.6587957041279
 31
0.0
  0
LINE
  5
7EFB
  8
1
 10
-3614.9014777753332
 20
1665.0361215683799
 30
0.0
 11
-3500.9014777753318
 21
1665.0361215683799
 31
0.0
  0
LINE
  5
7EFC
  8
1
 10
-3697.4014777753318
 20
1685.176868568381
 30
0.0
 11
-3697.4014777753318
 21
1656.814075568381
 31
0.0
  0
LINE
  5
7EFD
  8
1
 10
-3660.4014777753318
 20
1666.1846805683811
 30
0.0
 11
-3650.8947637753331
 21
1681.1072885683809
 31
0.0
  0
LINE
  5
7EFE
  8
1
 10
-3660.4014777753318
 20
1678.0361215683799
 30
0.0
 11
-3660.4014777753318
 21
1661.0361215683811
 31
0.0
  0
LINE
  5
7EFF
  8
1
 10
-3668.7253907753329
 20
1681.0361215683799
 30
0.0
 11
-3663.545642775332
 21
1689.16673656838
 31
0.0
  0
ARC
  5
7F00
  8
1
 10
-3663.4014777753318
 20
1678.0361215683799
 30
0.0
 40
3.0
 50
0.0
 51
90.0
  0
LINE
  5
7F01
  8
1
 10
-3285.4014777753318
 20
1671.0361215683799
 30
0.0
 11
-3285.4014777753318
 21
1591.0361215683811
 31
0.0
  0
LINE
  5
7F02
  8
1
 10
-3300.4014777753318
 20
1671.0361215683799
 30
0.0
 11
-3300.4014777753318
 21
1591.0361215683811
 31
0.0
  0
LINE
  5
7F04
  8
1
 10
-3322.9014777753318
 20
1589.73511405615
 30
0.0
 11
-3322.9014777753318
 21
1711.0361215683811
 31
0.0
  0
LINE
  5
7F05
  8
1
 10
-3316.9014777753332
 20
1588.0307452070269
 30
0.0
 11
-3316.9014777753318
 21
1711.0361215683811
 31
0.0
  0
LINE
  5
7F06
  8
1
 10
-3272.9014777753332
 20
1574.0889752782739
 30
0.0
 11
-3272.9014777753332
 21
1711.0361215683811
 31
0.0
  0
ARC
  5
7F07
  8
1
 10
-3292.9014777753332
 20
1591.0361215683811
 30
0.0
 40
7.5
 50
180.0
 51
0.0
  0
LINE
  5
7F08
  8
1
 10
-3395.9014777753318
 20
1736.2951545683809
 30
0.0
 11
-3402.2853887753331
 21
1740.9929085683809
 31
0.0
  0
LINE
  5
7F09
  8
1
 10
-3455.4014777753332
 20
1661.0361215683811
 30
0.0
 11
-3395.9014777753318
 21
1661.0361215683811
 31
0.0
  0
ARC
  5
7F0A
  8
1
 10
-3398.9014777753318
 20
1678.0361215683799
 30
0.0
 40
3.0
 50
0.0
 51
90.0
  0
LINE
  5
7F0B
  8
1
 10
-3455.4014777753332
 20
1666.1846805683811
 30
0.0
 11
-3464.9081917753329
 21
1681.1072885683809
 31
0.0
  0
LINE
  5
7F0C
  8
1
 10
-3418.4014777753318
 20
1685.176868568381
 30
0.0
 11
-3418.4014777753318
 21
1656.814075568381
 31
0.0
  0
LINE
  5
7F0D
  8
1
 10
-3455.4014777753332
 20
1678.0361215683799
 30
0.0
 11
-3455.4014777753332
 21
1661.0361215683811
 31
0.0
  0
LINE
  5
7F0E
  8
1
 10
-3452.4014777753332
 20
1681.0361215683799
 30
0.0
 11
-3398.9014777753318
 21
1681.0361215683799
 31
0.0
  0
LINE
  5
7F0F
  8
1
 10
-3447.0775637753318
 20
1681.0361215683799
 30
0.0
 11
-3452.257312775333
 21
1689.16673656838
 31
0.0
  0
ARC
  5
7F10
  8
1
 10
-3452.4014777753332
 20
1678.0361215683799
 30
0.0
 40
3.0
 50
90.0
 51
180.0
  0
LINE
  5
7F11
  8
1
 10
-3322.9014777753318
 20
1711.0361215683811
 30
0.0
 11
-3272.9014777753332
 21
1711.0361215683799
 31
0.0
  0
ARC
  5
7F12
  8
1
 10
-3292.9014777753332
 20
1671.0361215683799
 30
0.0
 40
7.5
 50
0.0
 51
180.0
  0
LINE
  5
7F13
  8
1
 10
-3395.9014777753318
 20
1736.2951545683809
 30
0.0
 11
-3395.9014777753318
 21
1661.0361215683811
 31
0.0
  0
LINE
  5
7F14
  8
1
 10
-3551.6514777753332
 20
2085.7861215683802
 30
0.0
 11
-3551.6514777753332
 21
2037.75694656838
 31
0.0
  0
LINE
  5
7F15
  8
1
 10
-3564.1514777753318
 20
2085.7861215683802
 30
0.0
 11
-3564.1514777753318
 21
2037.4687385683801
 31
0.0
  0
ARC
  5
7F16
  8
1
 10
-3546.6665077753328
 20
2040.31523456838
 30
0.0
 40
3.0
 50
5.1944030000000003
 51
83.884536999999995
  0
LINE
  5
7F17
  8
1
 10
-3551.6514777753332
 20
2043.8665045683799
 30
0.0
 11
-3546.3469117753339
 21
2043.298145568381
 31
0.0
  0
LINE
  5
7F18
  8
1
 10
-3539.4014777753318
 20
2032.0361215683799
 30
0.0
 11
-3539.4014777753318
 21
2025.1087525683799
 31
0.0
  0
LINE
  5
7F19
  8
1
 10
-3549.0693847753332
 20
2025.8251835683809
 30
0.0
 11
-3548.719043775332
 21
2028.9739875683799
 31
0.0
  0
LINE
  5
7F1A
  8
1
 10
-3542.5382567753331
 20
2025.3970835683799
 30
0.0
 11
-3542.4745977753341
 21
2028.5646855683799
 31
0.0
  0
ARC
  5
7F1B
  8
1
 10
-3545.737414775333
 20
2028.6422005683801
 30
0.0
 40
2.9999380000000002
 50
86.290451000000004
 51
173.650406
  0
ARC
  5
7F1C
  8
1
 10
-3557.9014777753332
 20
1841.0361215683799
 30
0.0
 40
191.00003100000001
 50
86.209778
 51
86.290237000000005
  0
ARC
  5
7F1D
  8
1
 10
-3545.4739867753319
 20
2028.62486656838
 30
0.0
 40
2.999992999999999
 50
358.85055499999987
 51
86.210021999999995
  0
LINE
  5
7F1E
  8
1
 10
-3543.678820775332
 20
2040.5868415683799
 30
0.0
 11
-3542.9014777753332
 21
2032.0361215683799
 31
0.0
  0
ARC
  5
7F1F
  8
1
 10
-3569.1364477753318
 20
2040.31523456838
 30
0.0
 40
3.0
 50
96.115463000000005
 51
174.80560299999991
  0
LINE
  5
7F20
  8
1
 10
-3564.1514777753318
 20
2043.8665045683799
 30
0.0
 11
-3569.4560427753331
 21
2043.298145568381
 31
0.0
  0
LINE
  5
7F21
  8
1
 10
-3576.4014777753332
 20
2032.0361215683799
 30
0.0
 11
-3576.4014777753332
 21
2025.1087525683799
 31
0.0
  0
LINE
  5
7F22
  8
1
 10
-3566.7335697753329
 20
2025.8251835683809
 30
0.0
 11
-3567.083911775333
 21
2028.9739875683799
 31
0.0
  0
LINE
  5
7F23
  8
1
 10
-3573.2646977753338
 20
2025.3970835683799
 30
0.0
 11
-3573.3283577753341
 21
2028.5646855683799
 31
0.0
  0
ARC
  5
7F24
  8
1
 10
-3570.065539775333
 20
2028.6422005683801
 30
0.0
 40
3.000032
 50
6.349588999999999
 51
93.709548999999996
  0
ARC
  5
7F25
  8
1
 10
-3557.9014777753332
 20
1841.0361215683799
 30
0.0
 40
190.999954
 50
93.709762999999995
 51
93.790221999999986
  0
ARC
  5
7F26
  8
1
 10
-3570.3289677753319
 20
2028.62486656838
 30
0.0
 40
3.000090999999999
 50
93.789963
 51
181.1494449999999
  0
LINE
  5
7F27
  8
1
 10
-3572.1241337753322
 20
2040.5868415683799
 30
0.0
 11
-3572.9014777753318
 21
2032.0361215683799
 31
0.0
  0
ARC
  5
7F28
  8
1
 10
-3567.1514777753332
 20
2037.4687385683801
 30
0.0
 40
3.0
 50
270.0
 51
0.0
  0
LINE
  5
7F29
  8
1
 10
-3576.4014777753332
 20
2032.0361215683799
 30
0.0
 11
-3539.4014777753318
 21
2032.0361215683799
 31
0.0
  0
ARC
  5
7F2A
  8
1
 10
-3548.6514777753332
 20
2037.75694656838
 30
0.0
 40
3.0
 50
180.0
 51
270.0
  0
ARC
  5
7F2B
  8
1
 10
-3557.9014777753332
 20
2085.7861215683802
 30
0.0
 40
6.25
 50
0.0
 51
180.0
  0
LINE
  5
7F40
  8
1
 10
-5617.8919455255136
 20
1555.5361215683811
 30
0.0
 11
-5337.8919455255163
 21
1555.5361215683811
 31
0.0
  0
LINE
  5
7F41
  8
1
 10
-5317.8919455255154
 20
1555.5361215683811
 30
0.0
 11
-5277.8919455255154
 21
1555.536121568382
 31
0.0
  0
LINE
  5
7F44
  8
1
 10
-6292.8919455255136
 20
1551.0361215683799
 30
0.0
 11
-6227.8919455255154
 21
1551.0361215683799
 31
0.0
  0
LINE
  5
7F45
  8
1
 10
-6292.8919455255136
 20
-48.963878431619378
 30
0.0
 11
-6227.8919455255154
 21
-48.963878431619378
 31
0.0
  0
LINE
  5
7F46
  8
1
 10
-5007.8919455255136
 20
-48.96387843161893
 30
0.0
 11
-4942.8919455255154
 21
-48.96387843161893
 31
0.0
  0
LINE
  5
7F47
  8
1
 10
-5007.8919455255136
 20
1551.0361215683799
 30
0.0
 11
-4942.8919455255154
 21
1551.0361215683799
 31
0.0
  0
LINE
  5
8006
  8
4
 10
-3046.4204398848628
 20
-817.20337344081042
 30
0.0
 11
-3046.4204398848628
 21
-1217.2033734408101
 31
0.0
  0
LINE
  5
8007
  8
4
 10
-4446.4204398848633
 20
-817.20337344081042
 30
0.0
 11
-4446.4204398848642
 21
-1217.2033734408101
 31
0.0
  0
LINE
  5
8008
  8
4
 10
-5446.4204398848642
 20
-817.20337344081042
 30
0.0
 11
-5446.4204398848642
 21
-1217.2033734408101
 31
0.0
  0
LINE
  5
800B
  8
4
 10
-5446.4204398848642
 20
-1217.2033734408101
 30
0.0
 11
-3046.4204398848628
 21
-1217.2033734408101
 31
0.0
  0
LINE
  5
800C
  8
4
 10
-5446.4204398848642
 20
-1017.20337344081
 30
0.0
 11
-3046.4204398848628
 21
-1017.20337344081
 31
0.0
  0
TEXT
  5
800D
  8
4
 10
-5369.41627819106
 20
-954.11732170758467
 30
0.0
 40
100.0
  1
機器名称
  0
TEXT
  5
800E
  8
4
 10
-5373.9042278352681
 20
-1173.913059976788
 30
0.0
 40
100.0
  1
機器型番
  0
TEXT
  5
800F
  8
4
 10
-4391.0629489095327
 20
-972.05983552567341
 30
0.0
 40
100.0
  1
ミツヤ軸流ファン
  0
TEXT
  5
8010
  8
4
 10
-4373.1114487139021
 20
-1182.8842048809231
 30
0.0
 40
100.0
  1
AP＃1600-2
  0
TEXT
  5
8012
  8
4
 10
-5064.0605725408959
 20
2949.6543092242209
 30
0.0
 40
107.9999999999999
  1
床置防振ベット
  0
TEXT
  5
8013
  8
4
 10
-6114.0852532259714
 20
3250.5585789577849
 30
0.0
 40
144.0
  1
ベルト駆動式横型軸流ファン
  0
LINE
  5
8014
  8
4
 10
-6246.4204398848642
 20
3121.6141350887988
 30
0.0
 11
-3046.4204398848628
 21
3121.6141350887988
 31
0.0
  0
LINE
  5
8015
  8
4
 10
-6246.4204398848642
 20
3521.6141350887988
 30
0.0
 11
-3046.4204398848628
 21
3521.6141350887988
 31
0.0
  0
LINE
  5
8016
  8
4
 10
-5446.4204398848642
 20
-817.20337344081042
 30
0.0
 11
-3046.4204398848628
 21
-817.20337344081042
 31
0.0
  0
LINE
  5
8017
  8
4
 10
-6246.4204398848642
 20
3521.6141350887988
 30
0.0
 11
-6246.4204398848642
 21
3121.6141350887988
 31
0.0
  0
TEXT
  5
8018
  8
4
 10
-6105.4642621031298
 20
2947.4355816518769
 30
0.0
 40
107.9999999999999
  1
右回転後方吐出
  0
TEXT
  5
8019
  8
4
 10
-3808.4813213862831
 20
3594.9187895498071
 30
0.0
 40
112.0
  1
No.
  0
TEXT
  5
801A
  8
4
 10
-4123.8283146848371
 20
2949.6543092242209
 30
0.0
 40
107.9999999999999
  1
縮尺：1/20
  0
LINE
  5
801B
  8
4
 10
-3046.4204398848628
 20
3521.6141350887988
 30
0.0
 11
-3046.4204398848628
 21
3121.6141350887988
 31
0.0
  0
LINE
  5
801C
  8
4
 10
-2546.4204398848628
 20
4082.796626559189
 30
0.0
 11
-2546.4204398848628
 21
4082.796626559189
 31
0.0
  0
LINE
  5
801D
  8
4
 10
-3865.1855951651341
 20
3545.3237928099911
 30
0.0
 11
-3865.1855951651341
 21
3756.1011496586939
 31
0.0
  0
LINE
  5
801E
  8
4
 10
-3865.1855951651341
 20
3756.1011496586939
 30
0.0
 11
-3046.4204398848628
 21
3756.1011496586939
 31
0.0
  0
LINE
  5
801F
  8
4
 10
-3046.4204398848628
 20
3756.1011496586939
 30
0.0
 11
-3046.4204398848628
 21
3545.3237928099911
 31
0.0
  0
LINE
  5
8020
  8
4
 10
-3046.4204398848628
 20
3545.3237928099911
 30
0.0
 11
-3865.1855951651341
 21
3545.3237928099911
 31
0.0
  0
LINE
  5
8021
  8
4
 10
-6746.4204398848642
 20
-1817.2033734408101
 30
0.0
 11
-6746.4204398848642
 21
4082.796626559189
 31
0.0
  0
LINE
  5
8022
  8
4
 10
-6746.4204398848642
 20
4082.796626559189
 30
0.0
 11
-2546.4204398848628
 21
4082.796626559189
 31
0.0
  0
LINE
  5
8023
  8
4
 10
-2546.4204398848628
 20
4082.796626559189
 30
0.0
 11
-2546.4204398848628
 21
-1817.2033734408101
 31
0.0
  0
LINE
  5
8024
  8
4
 10
-2546.4204398848628
 20
-1817.2033734408101
 30
0.0
 11
-6746.4204398848642
 21
-1817.2033734408101
 31
0.0
  0
LINE
  5
8039
  8
1
 10
-4357.89194552552
 20
-418.96387843161909
 30
0.0
 11
-3557.9014777753332
 21
-418.96387843161909
 31
0.0
  0
LINE
  5
8170
  8
1
 10
-4284.7483463281233
 20
-183.96387843161909
 30
0.0
 11
-4089.985732179442
 21
61.451212934771661
 31
0.0
  0
LINE
  5
8171
  8
1
 10
-4293.0165393997358
 20
-183.96387843161909
 30
0.0
 11
-4094.7462234055938
 21
65.150767380685565
 31
0.0
  0
LINE
  5
81B8
  8
1
 10
-4095.9533059341052
 20
-359.98887843161918
 30
0.0
 11
-4095.9533059341052
 21
-418.96387843161909
 31
0.0
  0
LINE
  5
81B9
  8
1
 10
-4154.8283059341038
 20
-359.98887843161918
 30
0.0
 11
-4154.8283059341038
 21
-418.96387843161909
 31
0.0
  0
LINE
  5
81BB
  8
1
 10
-4154.4358059341048
 20
-308.96387843161909
 30
0.0
 11
-4096.3458059341046
 21
-308.96387843161909
 31
0.0
  0
LINE
  5
81BC
  8
1
 10
-4160.7158059341036
 20
-359.98887843161918
 30
0.0
 11
-4090.0658059341049
 21
-359.98887843161918
 31
0.0
  0
ARC
  5
81BD
  8
1
 10
-4154.4358059341048
 20
-315.24387843161912
 30
0.0
 40
6.2800000000000002
 50
90.0
 51
180.0
  0
LINE
  5
81BE
  8
1
 10
-4160.7158059341036
 20
-315.24387843161912
 30
0.0
 11
-4160.7158059341036
 21
-359.98887843161918
 31
0.0
  0
ARC
  5
81BF
  8
1
 10
-4096.3458059341046
 20
-315.24387843161912
 30
0.0
 40
6.2800000000000002
 50
0.0
 51
90.0
  0
LINE
  5
81C0
  8
1
 10
-4090.0658059341049
 20
-315.24387843161912
 30
0.0
 11
-4090.0658059341049
 21
-359.98887843161918
 31
0.0
  0
LINE
  5
81C1
  8
1
 10
-2954.9481183992721
 20
-315.24387843161912
 30
0.0
 11
-2954.9481183992721
 21
-359.98887843161918
 31
0.0
  0
LINE
  5
81C2
  8
1
 10
-3025.5981183992731
 20
-315.24387843161912
 30
0.0
 11
-3025.5981183992731
 21
-359.98887843161918
 31
0.0
  0
LINE
  5
81C3
  8
1
 10
-3025.5981183992731
 20
-359.98887843161918
 30
0.0
 11
-2954.9481183992721
 21
-359.98887843161918
 31
0.0
  0
LINE
  5
81C5
  8
1
 10
-3019.7106183992728
 20
-359.98887843161918
 30
0.0
 11
-3019.7106183992719
 21
-418.96387843161909
 31
0.0
  0
LINE
  5
81C6
  8
1
 10
-2960.8356183992719
 20
-359.98887843161918
 30
0.0
 11
-2960.8356183992719
 21
-418.96387843161909
 31
0.0
  0
LINE
  5
81C7
  8
1
 10
-3019.318118399272
 20
-308.96387843161909
 30
0.0
 11
-2961.2281183992718
 21
-308.96387843161909
 31
0.0
  0
ARC
  5
81C8
  8
1
 10
-3019.318118399272
 20
-315.24387843161912
 30
0.0
 40
6.2800000000000002
 50
90.0
 51
180.0
  0
ARC
  5
81C9
  8
1
 10
-2961.2281183992718
 20
-315.24387843161912
 30
0.0
 40
6.2800000000000002
 50
0.0
 51
90.0
  0
LINE
  5
81CB
  8
1
 10
-6223.3919455255136
 20
-53.46387843161915
 30
0.0
 11
-5012.3919455255154
 21
-53.46387843161915
 31
0.0
  0
LINE
  5
81CC
  8
1
 10
-6227.8919455255127
 20
-48.96387843161915
 30
0.0
 11
-5007.8919455255136
 21
-48.96387843161915
 31
0.0
  0
LINE
  5
8212
  8
1
 10
-5007.8919455255182
 20
-48.96387843161915
 30
0.0
 11
-5007.8919455255136
 21
-203.96387843161909
 31
0.0
  0
LINE
  5
8228
  8
1
 10
-6227.8919455255182
 20
-48.963878431619378
 30
0.0
 11
-6227.8919455255163
 21
-203.96387843161929
 31
0.0
  0
LINE
  5
8291
  8
1
 10
-6113.6431838046447
 20
-315.24387843161912
 30
0.0
 11
-6113.6431838046447
 21
-359.98887843161901
 31
0.0
  0
LINE
  5
8292
  8
1
 10
-6184.2931838046452
 20
-315.24387843161912
 30
0.0
 11
-6184.2931838046452
 21
-359.98887843161901
 31
0.0
  0
LINE
  5
8293
  8
1
 10
-6184.2931838046452
 20
-359.98887843161901
 30
0.0
 11
-6113.6431838046447
 21
-359.98887843161901
 31
0.0
  0
LINE
  5
8295
  8
1
 10
-6178.4056838046454
 20
-359.98887843161901
 30
0.0
 11
-6178.4056838046454
 21
-418.96387843161932
 31
0.0
  0
LINE
  5
8296
  8
1
 10
-6119.5306838046454
 20
-359.98887843161901
 30
0.0
 11
-6119.5306838046454
 21
-418.96387843161932
 31
0.0
  0
LINE
  5
8297
  8
1
 10
-6178.0131838046464
 20
-308.96387843161932
 30
0.0
 11
-6119.9231838046453
 21
-308.96387843161932
 31
0.0
  0
ARC
  5
8298
  8
1
 10
-6178.0131838046464
 20
-315.24387843161912
 30
0.0
 40
6.2800000000000002
 50
90.0
 51
180.0
  0
ARC
  5
8299
  8
1
 10
-6119.9231838046453
 20
-315.24387843161912
 30
0.0
 40
6.2800000000000002
 50
0.0
 51
90.0
  0
LINE
  5
829A
  8
1
 10
-5038.4625121552017
 20
-315.24387843161912
 30
0.0
 11
-5038.4625121552017
 21
-359.98887843161918
 31
0.0
  0
LINE
  5
829B
  8
1
 10
-5109.1125121552031
 20
-315.24387843161912
 30
0.0
 11
-5109.1125121552031
 21
-359.98887843161918
 31
0.0
  0
LINE
  5
829C
  8
1
 10
-5109.1125121552031
 20
-359.98887843161918
 30
0.0
 11
-5038.4625121552017
 21
-359.98887843161918
 31
0.0
  0
LINE
  5
829D
  8
1
 10
-5044.3500121552024
 20
-359.98887843161918
 30
0.0
 11
-5044.3500121552024
 21
-418.96387843161909
 31
0.0
  0
LINE
  5
829E
  8
1
 10
-5103.2250121552033
 20
-359.98887843161918
 30
0.0
 11
-5103.2250121552033
 21
-418.96387843161909
 31
0.0
  0
ARC
  5
82A0
  8
1
 10
-5102.8325121552016
 20
-315.24387843161912
 30
0.0
 40
6.2800000000000002
 50
90.0
 51
180.0
  0
ARC
  5
82A1
  8
1
 10
-5044.7425121552023
 20
-315.24387843161912
 30
0.0
 40
6.2800000000000002
 50
0.0
 51
90.0
  0
LINE
  5
82A2
  8
1
 10
-5102.8325121552016
 20
-308.96387843161909
 30
0.0
 11
-5044.7425121552023
 21
-308.96387843161909
 31
0.0
  0
LINE
  5
8CC3
  8
1
 10
-4357.8919455255182
 20
-543.96387843161915
 30
0.0
 11
-3557.9014777753332
 21
-543.96387843161915
 31
0.0
  0
LINE
  5
8CD3
  8
1
 10
-5607.8919455255209
 20
-418.96387843161909
 30
0.0
 11
-6227.8919455255173
 21
-418.96387843161909
 31
0.0
  0
LINE
  5
8CD4
  8
1
 10
-5607.8919455255182
 20
-543.96387843161915
 30
0.0
 11
-6227.8919455255163
 21
-543.96387843161915
 31
0.0
  0
LINE
  5
8CD8
  8
1
 10
-5607.89194552552
 20
-428.96387843161909
 30
0.0
 11
-6227.8919455255163
 21
-428.96387843161909
 31
0.0
  0
LINE
  5
8CD9
  8
1
 10
-5607.8919455255182
 20
-533.96387843161915
 30
0.0
 11
-6227.8919455255163
 21
-533.96387843161915
 31
0.0
  0
LINE
  5
8CDF
  8
1
 10
-5607.8919455255173
 20
-543.96387843161915
 30
0.0
 11
-5007.8919455255136
 21
-543.96387843159118
 31
0.0
  0
LINE
  5
8CE0
  8
1
 10
-5607.8919455255209
 20
-418.96387843161909
 30
0.0
 11
-5007.8919455255136
 21
-418.96387843159118
 31
0.0
  0
LINE
  5
8CE1
  8
1
 10
-5607.8919455255182
 20
-533.96387843161915
 30
0.0
 11
-5007.8919455255182
 21
-533.96387843159096
 31
0.0
  0
LINE
  5
8CE2
  8
1
 10
-5607.8919455255209
 20
-428.96387843161909
 30
0.0
 11
-5007.8919455255209
 21
-428.96387843159101
 31
0.0
  0
LINE
  5
8CEB
  8
1
 10
-4292.8919455255209
 20
-428.96387843161898
 30
0.0
 11
-3557.9014777753332
 21
-428.96387843161909
 31
0.0
  0
LINE
  5
8CEC
  8
1
 10
-4292.8919455255191
 20
-533.96387843161904
 30
0.0
 11
-3557.9014777753332
 21
-533.96387843161915
 31
0.0
  0
LINE
  5
8E46
  8
1
 10
-4306.1946995835387
 20
-430.90588581303922
 30
0.0
 11
-4357.8919455255218
 21
-426.3829628576043
 31
0.0
  0
LINE
  5
8E47
  8
1
 10
-4306.1946995835369
 20
-532.02187105019902
 30
0.0
 11
-4357.8919455255182
 21
-536.54479400563378
 31
0.0
  0
LINE
  5
8E48
  8
1
 10
-4357.8919455255182
 20
-536.54479400563378
 30
0.0
 11
-4357.8919455255182
 21
-543.96387843161915
 31
0.0
  0
LINE
  5
8E49
  8
1
 10
-4357.89194552552
 20
-418.96387843161909
 30
0.0
 11
-4357.89194552552
 21
-426.38296285760453
 31
0.0
  0
LINE
  5
8E4A
  8
1
 10
-4292.8919455255209
 20
-418.96387843161909
 30
0.0
 11
-4292.8919455255182
 21
-543.96387843161915
 31
0.0
  0
ARC
  5
8E4B
  8
1
 10
-4306.89194552552
 20
-524.05231346546395
 30
0.0
 40
8.0
 50
275.00000000000517
 51
359.99999999999022
  0
ARC
  5
8E4C
  8
1
 10
-4306.89194552552
 20
-438.87544339777202
 30
0.0
 40
8.0
 50
359.99999999999551
 51
84.99999999999973
  0
LINE
  5
8E4D
  8
1
 10
-4298.89194552552
 20
-438.87544339777241
 30
0.0
 11
-4298.8919455255182
 21
-524.05231346546543
 31
0.0
  0
LINE
  5
8E4F
  8
1
 10
-6227.8919455255163
 20
-418.96387843161932
 30
0.0
 11
-6227.8919455255163
 21
-543.96387843161926
 31
0.0
  0
LINE
  5
8E50
  8
1
 10
-5007.8919455255136
 20
-418.96387843159118
 30
0.0
 11
-5007.8919455255136
 21
-543.96387843159118
 31
0.0
  0
LINE
  5
8E51
  8
1
 10
-5607.8919455255173
 20
-308.96387843161909
 30
0.0
 11
-5007.8919455255136
 21
-308.96387843159118
 31
0.0
  0
LINE
  5
8E52
  8
1
 10
-5607.8919455255209
 20
-183.96387843161909
 30
0.0
 11
-5007.8919455255136
 21
-183.9638784315911
 31
0.0
  0
LINE
  5
8E53
  8
1
 10
-5607.8919455255209
 20
-193.96387843161909
 30
0.0
 11
-5007.8919455255209
 21
-193.9638784315909
 31
0.0
  0
LINE
  5
8E54
  8
1
 10
-5607.8919455255182
 20
-298.96387843161909
 30
0.0
 11
-5007.8919455255182
 21
-298.9638784315909
 31
0.0
  0
LINE
  5
8E55
  8
1
 10
-5607.8919455255182
 20
-308.96387843161909
 30
0.0
 11
-6227.8919455255163
 21
-308.96387843161909
 31
0.0
  0
LINE
  5
8E56
  8
1
 10
-5607.8919455255209
 20
-183.96387843161909
 30
0.0
 11
-6227.8919455255173
 21
-183.96387843161909
 31
0.0
  0
LINE
  5
8E57
  8
1
 10
-5607.8919455255182
 20
-298.96387843161909
 30
0.0
 11
-6227.8919455255163
 21
-298.96387843161909
 31
0.0
  0
LINE
  5
8E58
  8
1
 10
-5607.89194552552
 20
-193.96387843161909
 30
0.0
 11
-6227.8919455255163
 21
-193.96387843161909
 31
0.0
  0
LINE
  5
8E59
  8
1
 10
-6227.8919455255163
 20
-183.96387843161929
 30
0.0
 11
-6227.8919455255163
 21
-308.96387843161932
 31
0.0
  0
LINE
  5
8E5A
  8
1
 10
-5007.8919455255136
 20
-183.9638784315911
 30
0.0
 11
-5007.8919455255136
 21
-308.96387843159118
 31
0.0
  0
LINE
  5
8E5B
  8
1
 10
-2822.9110100251428
 20
-418.96387843161909
 30
0.0
 11
-2822.9110100251469
 21
-543.96387843161915
 31
0.0
  0
LINE
  5
8E5C
  8
1
 10
-2809.6082559671272
 20
-430.90588581303922
 30
0.0
 11
-2757.9110100251428
 21
-426.3829628576043
 31
0.0
  0
LINE
  5
8E5D
  8
1
 10
-2816.9110100251451
 20
-438.87544339777241
 30
0.0
 11
-2816.9110100251469
 21
-524.05231346546543
 31
0.0
  0
ARC
  5
8E5E
  8
1
 10
-2808.9110100251451
 20
-438.87544339777202
 30
0.0
 40
8.0
 50
95.000000000000284
 51
180.00000000000441
  0
ARC
  5
8E5F
  8
1
 10
-2808.9110100251451
 20
-524.05231346546395
 30
0.0
 40
8.0
 50
180.00000000000981
 51
264.99999999999471
  0
LINE
  5
8E60
  8
1
 10
-2757.9110100251469
 20
-536.54479400563378
 30
0.0
 11
-2757.9110100251469
 21
-543.96387843161915
 31
0.0
  0
LINE
  5
8E61
  8
1
 10
-2809.608255967129
 20
-532.02187105019902
 30
0.0
 11
-2757.9110100251469
 21
-536.54479400563378
 31
0.0
  0
LINE
  5
8E62
  8
1
 10
-2757.9110100251451
 20
-418.96387843161909
 30
0.0
 11
-2757.9110100251451
 21
-426.38296285760453
 31
0.0
  0
LINE
  5
8E63
  8
1
 10
-2822.911010025146
 20
-533.96387843161904
 30
0.0
 11
-3557.9014777753332
 21
-533.96387843161915
 31
0.0
  0
LINE
  5
8E64
  8
1
 10
-2822.9110100251428
 20
-428.96387843161909
 30
0.0
 11
-3557.9014777753332
 21
-428.96387843161909
 31
0.0
  0
LINE
  5
8E65
  8
1
 10
-2757.9110100251469
 20
-543.96387843161915
 30
0.0
 11
-3557.9014777753332
 21
-543.96387843161915
 31
0.0
  0
LINE
  5
8E66
  8
1
 10
-2757.9110100251451
 20
-418.96387843161898
 30
0.0
 11
-3557.9014777753332
 21
-418.96387843161909
 31
0.0
  0
LINE
  5
8E67
  8
1
 10
-4292.8919455255209
 20
-183.96387843161909
 30
0.0
 11
-4292.8919455255182
 21
-308.96387843161909
 31
0.0
  0
LINE
  5
8E68
  8
1
 10
-4306.1946995835387
 20
-195.90588581303919
 30
0.0
 11
-4357.8919455255218
 21
-191.38296285760421
 31
0.0
  0
LINE
  5
8E69
  8
1
 10
-4298.89194552552
 20
-203.87544339777239
 30
0.0
 11
-4298.8919455255182
 21
-289.05231346546537
 31
0.0
  0
ARC
  5
8E6A
  8
1
 10
-4306.89194552552
 20
-203.8754433977719
 30
0.0
 40
8.0
 50
359.99999999999551
 51
84.99999999999973
  0
ARC
  5
8E6B
  8
1
 10
-4306.89194552552
 20
-289.05231346546401
 30
0.0
 40
8.0
 50
275.00000000000517
 51
359.99999999999022
  0
LINE
  5
8E6C
  8
1
 10
-4357.8919455255182
 20
-301.54479400563372
 30
0.0
 11
-4357.8919455255182
 21
-308.96387843161909
 31
0.0
  0
LINE
  5
8E6D
  8
1
 10
-4306.1946995835369
 20
-297.02187105019902
 30
0.0
 11
-4357.8919455255182
 21
-301.54479400563372
 31
0.0
  0
LINE
  5
8E6E
  8
1
 10
-4357.89194552552
 20
-183.96387843161909
 30
0.0
 11
-4357.89194552552
 21
-191.3829628576045
 31
0.0
  0
LINE
  5
8E6F
  8
1
 10
-4292.8919455255191
 20
-298.96387843161909
 30
0.0
 11
-3557.9014777753332
 21
-298.96387843161909
 31
0.0
  0
LINE
  5
8E70
  8
1
 10
-4292.8919455255209
 20
-193.96387843161909
 30
0.0
 11
-3557.9014777753332
 21
-193.96387843161909
 31
0.0
  0
LINE
  5
8E71
  8
1
 10
-4357.8919455255182
 20
-308.96387843161909
 30
0.0
 11
-3557.9014777753332
 21
-308.96387843161909
 31
0.0
  0
LINE
  5
8E72
  8
1
 10
-4357.89194552552
 20
-183.96387843161909
 30
0.0
 11
-3557.9014777753332
 21
-183.96387843161909
 31
0.0
  0
LINE
  5
8E73
  8
1
 10
-2757.9110100251451
 20
-183.96387843161909
 30
0.0
 11
-3557.9014777753332
 21
-183.96387843161909
 31
0.0
  0
LINE
  5
8E74
  8
1
 10
-2757.9110100251469
 20
-308.96387843161909
 30
0.0
 11
-3557.9014777753332
 21
-308.96387843161909
 31
0.0
  0
LINE
  5
8E75
  8
1
 10
-2822.9110100251428
 20
-193.96387843161909
 30
0.0
 11
-3557.9014777753332
 21
-193.96387843161909
 31
0.0
  0
LINE
  5
8E76
  8
1
 10
-2822.9110100251469
 20
-298.96387843161909
 30
0.0
 11
-3557.9014777753332
 21
-298.96387843161909
 31
0.0
  0
LINE
  5
8E77
  8
1
 10
-2809.608255967129
 20
-297.02187105019902
 30
0.0
 11
-2757.9110100251469
 21
-301.54479400563372
 31
0.0
  0
LINE
  5
8E78
  8
1
 10
-2809.6082559671272
 20
-195.90588581303919
 30
0.0
 11
-2757.9110100251428
 21
-191.38296285760421
 31
0.0
  0
LINE
  5
8E79
  8
1
 10
-2822.9110100251428
 20
-183.96387843161909
 30
0.0
 11
-2822.9110100251469
 21
-308.96387843161909
 31
0.0
  0
ARC
  5
8E7A
  8
1
 10
-2808.9110100251451
 20
-289.05231346546401
 30
0.0
 40
8.0
 50
180.00000000000981
 51
264.99999999999471
  0
ARC
  5
8E7B
  8
1
 10
-2808.9110100251451
 20
-203.8754433977719
 30
0.0
 40
8.0
 50
95.000000000000284
 51
180.00000000000441
  0
LINE
  5
8E7C
  8
1
 10
-2816.9110100251451
 20
-203.87544339777239
 30
0.0
 11
-2816.9110100251469
 21
-289.05231346546537
 31
0.0
  0
LINE
  5
8E7D
  8
1
 10
-2757.9110100251469
 20
-301.54479400563372
 30
0.0
 11
-2757.9110100251469
 21
-308.96387843161909
 31
0.0
  0
LINE
  5
8E7E
  8
1
 10
-2757.9110100251451
 20
-183.96387843161909
 30
0.0
 11
-2757.9110100251451
 21
-191.3829628576045
 31
0.0
  0
LINE
  5
8F82
  8
1
 10
-3657.9014777753318
 20
1841.0361215683799
 30
0.0
 11
-3677.9014777753318
 21
751.03612156838085
 31
0.0
  0
LINE
  5
8F83
  8
1
 10
-3457.9014777753332
 20
1841.0361215683799
 30
0.0
 11
-3437.9014777753318
 21
751.03612156838085
 31
0.0
  0
CIRCLE
  5
8F85
  8
1
 10
-3557.9014777753332
 20
751.03612156838085
 30
0.0
 40
800.0
  0
CIRCLE
  5
8F86
  8
1
 10
-3557.9014777753332
 20
751.03612156838085
 30
0.0
 40
806.0
  0
CIRCLE
  5
8F87
  8
1
 10
-3557.9014777753332
 20
751.03612156838085
 30
0.0
 40
871.0
  0
LINE
  5
8F8A
  8
1
 10
-2831.0546092225418
 20
-183.96387843161949
 30
0.0
 11
-3025.817223371223
 21
61.451212934771434
 31
0.0
  0
LINE
  5
8F8B
  8
1
 10
-2822.7864161509292
 20
-183.96387843161949
 30
0.0
 11
-3021.0567321450708
 21
65.150767380685465
 31
0.0
  0
LINE
  5
8FF7
  8
1
 10
-6096.9163357694151
 20
1547.0361215683799
 30
0.0
 11
-6048.8675552816139
 21
1547.0361215683799
 31
0.0
  0
LINE
  5
8FF8
  8
1
 10
-6048.8675552816139
 20
1547.0361215683799
 30
0.0
 11
-5937.8919455255136
 21
1001.0361215683801
 31
0.0
  0
LINE
  5
8FF9
  8
1
 10
-6096.9163357694151
 20
1547.0361215683799
 30
0.0
 11
-6207.8919455255136
 21
1001.0361215683801
 31
0.0
  0
DIMENSION
  5
9053
  8
3
  2
*D1
 10
-5007.8919455255136
 20
-719.8916374590026
 30
0.0
 11
-5600.9732111301782
 21
-719.8916374590026
 31
0.0
 70
   128
 13
-6227.8919455255163
 23
-543.96387843161926
 33
0.0
 14
-5007.8919455255136
 24
-543.96387843159118
 34
0.0
1001
ACAD
1000
DSTYLE
1002
{
1070
   287
1070
     3
1070
   287
1070
     3
1070
   287
1070
     3
1070
   287
1070
     3
1070
   287
1070
     3
1070
   287
1070
     3
1070
    40
1040
20.0
1070
   143
1040
0.039
1070
   172
1070
     1
1070
   271
1070
     0
1070
   279
1070
     0
1070
   288
1070
     1
1002
}
  0
DIMENSION
  5
9060
  8
3
  2
*D2
 10
-2686.9014777753318
 20
2302.5551626462361
 30
0.0
 11
-3652.2641976367122
 21
2302.5551626462361
 31
0.0
 70
   128
 13
-4428.9014777753318
 23
751.03612156838085
 33
0.0
 14
-2686.9014777753318
 24
751.03612156838085
 34
0.0
1001
ACAD
1000
DSTYLE
1002
{
1070
   287
1070
     3
1070
   287
1070
     3
1070
   287
1070
     3
1070
   287
1070
     3
1070
   287
1070
     3
1070
   287
1070
     3
1070
    40
1040
20.0
1070
   143
1040
0.039
1070
   172
1070
     1
1070
   271
1070
     0
1070
   279
1070
     0
1070
   288
1070
     1
1002
}
  0
DIMENSION
  5
90D4
  8
3
  2
*D3
 10
-4506.431132862057
 20
-308.96387843161898
 30
0.0
 11
-4506.431132862057
 21
190.25086312196251
 31
0.0
 70
   128
 13
-4507.9014777753328
 23
751.03612156838085
 33
0.0
 14
-4357.8919455255182
 24
-308.96387843161909
 34
0.0
 50
90.0
1001
ACAD
1000
DSTYLE
1002
{
1070
   287
1070
     3
1070
   287
1070
     3
1070
   287
1070
     3
1070
   287
1070
     3
1070
   287
1070
     3
1070
   287
1070
     3
1070
    40
1040
20.0
1070
   143
1040
0.039
1070
   172
1070
     1
1070
   271
1070
     0
1070
   279
1070
     0
1070
   288
1070
     1
1002
}
  0
DIMENSION
  5
90E1
  8
3
  2
*D4
 10
-4506.431132862057
 20
-418.96387843161909
 30
0.0
 11
-4529.9417885865441
 21
-357.24351506153829
 31
0.0
 70
   128
 13
-4357.8919455255182
 23
-308.96387843161909
 33
0.0
 14
-4357.89194552552
 24
-418.96387843161909
 34
0.0
 50
90.0
1001
ACAD
1000
DSTYLE
1002
{
1070
   287
1070
     4
1070
   287
1070
     4
1070
   287
1070
     4
1070
   287
1070
     4
1070
   287
1070
     4
1070
   287
1070
     4
1070
    40
1040
20.0
1070
   143
1040
0.039
1070
   172
1070
     1
1070
   271
1070
     0
1070
   279
1070
     1
1070
   288
1070
     1
1070
   289
1070
     3
1002
}
  0
DIMENSION
  5
9109
  8
3
  2
*D5
 10
-4506.431132862057
 20
-543.96387843161915
 30
0.0
 11
-4506.431132862057
 21
-675.39244986019139
 31
0.0
 70
   128
 13
-4357.89194552552
 23
-418.96387843161909
 33
0.0
 14
-4357.8919455255182
 24
-543.96387843161915
 34
0.0
 50
90.0
1001
ACAD
1000
DSTYLE
1002
{
1070
   287
1070
     3
1070
   287
1070
     3
1070
   287
1070
     3
1070
   287
1070
     3
1070
   287
1070
     3
1070
   287
1070
     3
1070
    40
1040
20.0
1070
   143
1040
0.039
1070
   172
1070
     1
1070
   271
1070
     0
1070
   279
1070
     0
1070
   288
1070
     1
1002
}
  0
DIMENSION
  5
9117
  8
3
  2
*D6
 10
-4730.0106276067627
 20
-543.96387843161915
 30
0.0
 11
-4730.0106276067627
 21
105.6420943172142
 31
0.0
 70
   128
 13
-4486.431132862057
 23
751.03612156838085
 33
0.0
 14
-4357.8919455255182
 24
-543.96387843161915
 34
0.0
 50
90.0
1001
ACAD
1000
DSTYLE
1002
{
1070
   287
1070
     3
1070
   287
1070
     3
1070
   287
1070
     3
1070
   287
1070
     3
1070
   287
1070
     3
1070
   287
1070
     3
1070
    40
1040
20.0
1070
   143
1040
0.039
1070
   172
1070
     1
1070
   271
1070
     0
1070
   279
1070
     0
1070
   288
1070
     1
1002
}
  0
DIMENSION
  5
9124
  8
3
  2
*D7
 10
-4724.7349476030467
 20
751.03612156838085
 30
0.0
 11
-4724.7349476030467
 21
1396.9085585033549
 31
0.0
 70
   128
  1
MAX.1800
 13
-3557.9014777753318
 23
2092.0361215683802
 33
0.0
 14
-4486.431132862057
 24
751.03612156838085
 34
0.0
 50
90.0
1001
ACAD
1000
DSTYLE
1002
{
1070
   287
1070
     3
1070
   287
1070
     3
1070
   287
1070
     3
1070
   287
1070
     3
1070
   287
1070
     3
1070
   287
1070
     3
1070
    40
1040
20.0
1070
   143
1040
0.039
1070
   172
1070
     1
1070
   271
1070
     0
1070
   279
1070
     0
1070
   288
1070
     1
1002
}
  0
DIMENSION
  5
913A
  8
3
  2
*D8
 10
-2757.9110100251469
 20
-751.44462594744073
 30
0.0
 11
-3538.0864995448278
 21
-751.44462594744073
 31
0.0
 70
   128
 13
-4357.8919455255182
 23
-543.96387843161915
 33
0.0
 14
-2757.9110100251469
 24
-543.96387843161915
 34
0.0
1001
ACAD
1000
DSTYLE
1002
{
1070
   287
1070
     3
1070
   287
1070
     3
1070
   287
1070
     3
1070
   287
1070
     3
1070
   287
1070
     3
1070
   287
1070
     3
1070
    40
1040
20.0
1070
   143
1040
0.039
1070
   172
1070
     1
1070
   271
1070
     0
1070
   279
1070
     0
1070
   288
1070
     1
1002
}
  0
DIMENSION
  5
9277
  8
3
  2
*D9
 10
-5007.8919455255136
 20
2315.301966677067
 30
0.0
 11
-5660.8144021610206
 21
2315.301966677067
 31
0.0
 70
   128
 13
-6227.8919455255154
 23
1616.0361215683811
 33
0.0
 14
-5007.8919455255136
 24
1616.0361215683811
 34
0.0
1001
ACAD
1000
DSTYLE
1002
{
1070
   287
1070
     3
1070
   287
1070
     3
1070
   287
1070
     3
1070
   287
1070
     3
1070
    40
1040
20.0
1070
   143
1040
0.039
1070
   172
1070
     1
1070
   271
1070
     0
1070
   279
1070
     0
1070
   288
1070
     1
1002
}
  0
DIMENSION
  5
9284
  8
3
  2
*D10
 10
-6461.2488933189516
 20
-48.963878431619328
 30
0.0
 11
-6461.2488933189516
 21
770.84534715835787
 31
0.0
 70
   128
 13
-6292.8919455255154
 23
1551.0361215683799
 33
0.0
 14
-6292.8919455255136
 24
-48.963878431619378
 34
0.0
 50
90.0
1001
ACAD
1000
DSTYLE
1002
{
1070
   287
1070
     3
1070
   287
1070
     3
1070
   287
1070
     3
1070
   287
1070
     3
1070
     3
1000
φ<>
1070
    40
1040
20.0
1070
   143
1040
0.039
1070
   172
1070
     1
1070
   271
1070
     0
1070
   279
1070
     0
1070
   288
1070
     1
1002
}
  0
ENDSEC
  0
EOF
