  0
SECTION
  2
HEADER
  9
$ACADVER
  1
AC1009
  9
$INSBASE
 10
0.0
 20
0.0
 30
0.0
  9
$EXTMIN
 10
-6746.4204398848642
 20
-1817.2033734408101
 30
0.0
  9
$EXTMAX
 10
-2546.4204398848628
 20
4082.796626559189
 30
0.0
  9
$LIMMIN
 10
0.0
 20
0.0
  9
$LIMMAX
 10
297.0
 20
210.0
  9
$ORTHOMODE
 70
     0
  9
$REGENMODE
 70
     1
  9
$FILLMODE
 70
     0
  9
$QTEXTMODE
 70
     0
  9
$MIRRTEXT
 70
     1
  9
$DRAGMODE
 70
     2
  9
$LTSCALE
 40
100.0
  9
$OSMODE
 70
    37
  9
$ATTMODE
 70
     1
  9
$TEXTSIZE
 40
180.0
  9
$TRACEWID
 40
0.05
  9
$TEXTSTYLE
  7
STANDARD
  9
$CLAYER
  8
3
  9
$CELTYPE
  6
BYLAYER
  9
$CECOLOR
 62
   256
  9
$DIMSCALE
 40
20.0
  9
$DIMASZ
 40
2.0
  9
$DIMEXO
 40
0.5
  9
$DIMDLI
 40
10.0
  9
$DIMRND
 40
0.0
  9
$DIMDLE
 40
0.0
  9
$DIMEXE
 40
1.0
  9
$DIMTP
 40
1.0
  9
$DIMTM
 40
1.0
  9
$DIMTXT
 40
3.0
  9
$DIMCEN
 40
0.0
  9
$DIMTSZ
 40
0.0
  9
$DIMTOL
 70
     0
  9
$DIMLIM
 70
     0
  9
$DIMTIH
 70
     0
  9
$DIMTOH
 70
     0
  9
$DIMSE1
 70
     0
  9
$DIMSE2
 70
     0
  9
$DIMTAD
 70
     1
  9
$DIMZIN
 70
     8
  9
$DIMBLK
  1

  9
$DIMASO
 70
     1
  9
$DIMSHO
 70
     1
  9
$DIMPOST
  1

  9
$DIMAPOST
  1

  9
$DIMALT
 70
     0
  9
$DIMALTD
 70
     2
  9
$DIMALTF
 40
0.039
  9
$DIMLFAC
 40
1.0
  9
$DIMTOFL
 70
     1
  9
$DIMTVP
 40
0.0
  9
$DIMTIX
 70
     0
  9
$DIMSOXD
 70
     0
  9
$DIMSAH
 70
     1
  9
$DIMBLK1
  1
OPEN
  9
$DIMBLK2
  1
OPEN
  9
$DIMSTYLE
  2
IGA
  9
$DIMCLRD
 70
     0
  9
$DIMCLRE
 70
     0
  9
$DIMCLRT
 70
     0
  9
$DIMTFAC
 40
10.0
  9
$DIMGAP
 40
1.0
  9
$LUNITS
 70
     2
  9
$LUPREC
 70
     3
  9
$SKETCHINC
 40
0.1
  9
$FILLETRAD
 40
8.0
  9
$AUNITS
 70
     0
  9
$AUPREC
 70
     0
  9
$MENU
  1
acad
  9
$ELEVATION
 40
0.0
  9
$PELEVATION
 40
0.0
  9
$THICKNESS
 40
0.0
  9
$LIMCHECK
 70
     0
  9
$BLIPMODE
 70
     0
  9
$CHAMFERA
 40
0.5
  9
$CHAMFERB
 40
0.5
  9
$SKPOLY
 70
     0
  9
$TDCREATE
 40
2453249.427640046
  9
$TDUPDATE
 40
2454953.6303938772
  9
$TDINDWG
 40
0.1231706944
  9
$TDUSRTIMER
 40
0.1231706944
  9
$USRTIMER
 70
     1
  9
$ANGBASE
 50
0.0
  9
$ANGDIR
 70
     0
  9
$PDMODE
 70
     0
  9
$PDSIZE
 40
0.0
  9
$PLINEWID
 40
0.0
  9
$COORDS
 70
     1
  9
$SPLFRAME
 70
     0
  9
$SPLINETYPE
 70
     6
  9
$SPLINESEGS
 70
     8
  9
$ATTDIA
 70
     0
  9
$ATTREQ
 70
     1
  9
$HANDLING
 70
 10241
  9
$HANDSEED
  5
906E
  9
$SURFTAB1
 70
     6
  9
$SURFTAB2
 70
     6
  9
$SURFTYPE
 70
     6
  9
$SURFU
 70
     6
  9
$SURFV
 70
     6
  9
$UCSNAME
  2

  9
$UCSORG
 10
0.0
 20
0.0
 30
0.0
  9
$UCSXDIR
 10
1.0
 20
0.0
 30
0.0
  9
$UCSYDIR
 10
0.0
 20
1.0
 30
0.0
  9
$PUCSNAME
  2

  9
$PUCSORG
 10
0.0
 20
0.0
 30
0.0
  9
$PUCSXDIR
 10
1.0
 20
0.0
 30
0.0
  9
$PUCSYDIR
 10
0.0
 20
1.0
 30
0.0
  9
$USERI1
 70
     0
  9
$USERI2
 70
     0
  9
$USERI3
 70
     0
  9
$USERI4
 70
     0
  9
$USERI5
 70
     0
  9
$USERR1
 40
0.0
  9
$USERR2
 40
0.0
  9
$USERR3
 40
0.0
  9
$USERR4
 40
0.0
  9
$USERR5
 40
0.0
  9
$WORLDVIEW
 70
     1
  9
$SHADEDGE
 70
     3
  9
$SHADEDIF
 70
    70
  9
$TILEMODE
 70
     1
  9
$MAXACTVP
 70
    16
  9
$PLIMCHECK
 70
     0
  9
$PEXTMIN
 10
1.0000000000000000E+020
 20
1.0000000000000000E+020
 30
1.0000000000000000E+020
  9
$PEXTMAX
 10
-1.0000000000000000E+020
 20
-1.0000000000000000E+020
 30
-1.0000000000000000E+020
  9
$PLIMMIN
 10
0.0
 20
0.0
  9
$PLIMMAX
 10
12.0
 20
9.0
  9
$UNITMODE
 70
     0
  9
$VISRETAIN
 70
     0
  9
$PLINEGEN
 70
     0
  9
$PSLTSCALE
 70
     1
  0
ENDSEC
  0
SECTION
  2
TABLES
  0
TABLE
  2
VPORT
 70
     2
  0
VPORT
  2
*ACTIVE
 70
     0
 10
0.0
 20
0.0
 11
1.0
 21
1.0
 12
-2867.005060645386
 22
-1314.187111343562
 13
0.0
 23
0.0
 14
10.0
 24
10.0
 15
10.0
 25
10.0
 16
0.0
 26
0.0
 36
1.0
 17
0.0
 27
0.0
 37
0.0
 40
1657.0442408949591
 41
3.1666666666666661
 42
50.0
 43
0.0
 44
0.0
 50
0.0
 51
0.0
 71
     0
 72
   100
 73
     1
 74
     0
 75
     0
 76
     0
 77
     0
 78
     0
  0
ENDTAB
  0
TABLE
  2
LTYPE
 70
     2
  0
LTYPE
  2
CONTINUOUS
 70
     0
  3
Solid line
 72
    65
 73
     0
 40
0.0
  0
LTYPE
  2
CENTER
 70
     0
  3
____ _ ____ _ ____ _ ____ _ ____ _ ____ _ ____ 
 72
    65
 73
     4
 40
2.0
 49
1.25
 49
-0.25
 49
0.25
 49
-0.25
  0
ENDTAB
  0
TABLE
  2
LAYER
 70
     6
  0
LAYER
  2
0
 70
     0
 62
     7
  6
CONTINUOUS
  0
LAYER
  2
3
 70
     0
 62
     2
  6
CONTINUOUS
  0
LAYER
  2
2
 70
     0
 62
     3
  6
CENTER
  0
LAYER
  2
1
 70
     0
 62
     4
  6
CONTINUOUS
  0
LAYER
  2
4
 70
     0
 62
     7
  6
CONTINUOUS
  0
LAYER
  2
DEFPOINTS
 70
     0
 62
     7
  6
CONTINUOUS
  0
ENDTAB
  0
TABLE
  2
STYLE
 70
     1
  0
STYLE
  2
STANDARD
 70
     0
 40
0.0
 41
1.0
 50
0.0
 71
     0
 42
180.0
  3
simplex.shx
  4
extfont.shx
  0
ENDTAB
  0
TABLE
  2
VIEW
 70
     0
  0
ENDTAB
  0
TABLE
  2
UCS
 70
     0
  0
ENDTAB
  0
TABLE
  2
APPID
 70
     1
  0
APPID
  2
ACAD
 70
     0
  0
ENDTAB
  0
TABLE
  2
DIMSTYLE
 70
     1
  0
DIMSTYLE
  2
IGA
 70
     0
  3

  4

  5

  6
OPEN
  7
OPEN
 40
2.0
 41
2.0
 42
0.5
 43
10.0
 44
1.0
 45
0.0
 46
0.0
 47
1.0
 48
1.0
140
3.0
141
0.0
142
0.0
143
0.03937
144
1.0
145
0.0
146
10.0
147
1.0
 71
     0
 72
     0
 73
     0
 74
     0
 75
     0
 76
     0
 77
     1
 78
     8
170
     0
171
     2
172
     0
173
     1
174
     0
175
     0
176
     0
177
     0
178
     0
  0
ENDTAB
  0
ENDSEC
  0
SECTION
  2
BLOCKS
  0
BLOCK
  8
0
  2
$MODEL_SPACE
 70
     0
 10
0.0
 20
0.0
 30
0.0
  3
$MODEL_SPACE
  1

  0
ENDBLK
  5
1B
  8
0
  0
BLOCK
 67
     1
  8
0
  2
$PAPER_SPACE
 70
     0
 10
0.0
 20
0.0
 30
0.0
  3
$PAPER_SPACE
  1

  0
ENDBLK
  5
18
 67
     1
  8
0
  0
BLOCK
  8
0
  2
_OPEN
 70
     0
 10
0.0
 20
0.0
 30
0.0
  3
_OPEN
  1

  0
LINE
  5
79FD
  8
0
  6
BYBLOCK
 62
     0
 10
-1.0
 20
0.1666666666666666
 30
0.0
 11
0.0
 21
0.0
 31
0.0
  0
LINE
  5
79FE
  8
0
  6
BYBLOCK
 62
     0
 10
0.0
 20
0.0
 30
0.0
 11
-1.0
 21
-0.1666666666666666
 31
0.0
  0
LINE
  5
79FF
  8
0
  6
BYBLOCK
 62
     0
 10
0.0
 20
0.0
 30
0.0
 11
-1.0
 21
0.0
 31
0.0
  0
ENDBLK
  5
7A01
  8
0
  0
BLOCK
  8
0
  2
*D1
 70
     1
 10
0.0
 20
0.0
 30
0.0
  3
*D1
  1

  0
LINE
  5
9007
  8
3
 62
     0
 10
-6276.4769136862833
 20
1626.0361215683799
 30
0.0
 11
-6276.4769136862833
 21
2354.2117807996829
 31
0.0
  0
LINE
  5
9008
  8
3
 62
     0
 10
-5056.4769136862833
 20
1626.0361215683799
 30
0.0
 11
-5056.4769136862833
 21
2354.2117807996829
 31
0.0
  0
LINE
  5
9009
  8
3
 62
     0
 10
-6236.4769136862833
 20
2334.2117807996829
 30
0.0
 11
-5096.4769136862833
 21
2334.2117807996829
 31
0.0
  0
INSERT
  5
900A
  8
3
 62
     0
  2
_OPEN
 10
-6276.4769136862833
 20
2334.2117807996829
 30
0.0
 41
40.0
 42
40.0
 43
40.0
 50
180.0
  0
INSERT
  5
900B
  8
3
 62
     0
  2
_OPEN
 10
-5056.4769136862833
 20
2334.2117807996829
 30
0.0
 41
40.0
 42
40.0
 43
40.0
  0
TEXT
  8
3
  40
60
  5
9064
  62
0
  72
0
  71
0
 10
-5788.91
 20
2278.01
 30
0.000000
  1
1220
  0
POINT
  5
900D
  8
DEFPOINTS
 62
     0
 10
-6276.4769136862833
 20
1616.0361215683811
 30
0.0
  0
POINT
  5
900E
  8
DEFPOINTS
 62
     0
 10
-5056.4769136862833
 20
1616.0361215683811
 30
0.0
  0
POINT
  5
900F
  8
DEFPOINTS
 62
     0
 10
-5056.4769136862833
 20
2334.2117807996829
 30
0.0
  0
ENDBLK
  5
8C20
  8
0
  0
BLOCK
  8
0
  2
*D2
 70
     1
 10
0.0
 20
0.0
 30
0.0
  3
*D2
  1

  0
LINE
  5
9010
  8
3
 62
     0
 10
-6351.4769136862842
 20
1551.0361215683799
 30
0.0
 11
-6548.1473395956846
 21
1551.0361215683799
 31
0.0
  0
LINE
  5
9011
  8
3
 62
     0
 10
-6351.4769136862833
 20
-48.963878431619378
 30
0.0
 11
-6548.1473395956846
 21
-48.963878431619321
 31
0.0
  0
LINE
  5
9012
  8
3
 62
     0
 10
-6528.1473395956846
 20
1511.0361215683799
 30
0.0
 11
-6528.1473395956846
 21
-8.9638784316193192
 31
0.0
  0
INSERT
  5
9013
  8
3
 62
     0
  2
_OPEN
 10
-6528.1473395956846
 20
1551.0361215683799
 30
0.0
 41
40.0
 42
40.0
 43
40.0
 50
90.0
  0
INSERT
  5
9014
  8
3
 62
     0
  2
_OPEN
 10
-6528.1473395956846
 20
-48.963878431619321
 30
0.0
 41
40.0
 42
40.0
 43
40.0
 50
270.0
  0
TEXT
  8
3
  40
60
  5
9065
  62
0
  72
0
  71
0
 10
-6698.15
 20
652.029
 30
0.000000
  1
φ1600
  0
POINT
  5
9016
  8
DEFPOINTS
 62
     0
 10
-6341.4769136862842
 20
1551.0361215683799
 30
0.0
  0
POINT
  5
9017
  8
DEFPOINTS
 62
     0
 10
-6341.4769136862842
 20
-48.963878431619378
 30
0.0
  0
POINT
  5
9018
  8
DEFPOINTS
 62
     0
 10
-6528.1473395956846
 20
-48.963878431619321
 30
0.0
  0
ENDBLK
  5
8C2D
  8
0
  0
BLOCK
  8
0
  2
*D3
 70
     1
 10
0.0
 20
0.0
 30
0.0
  3
*D3
  1

  0
LINE
  5
9019
  8
3
 62
     0
 10
-6276.4769136862824
 20
-488.96387843161932
 30
0.0
 11
-6276.4769136862824
 21
-746.87637938424814
 31
0.0
  0
LINE
  5
901A
  8
3
 62
     0
 10
-5056.4769136862824
 20
-488.96387843161608
 30
0.0
 11
-5056.4769136862824
 21
-746.87637938424814
 31
0.0
  0
LINE
  5
901B
  8
3
 62
     0
 10
-6236.4769136862824
 20
-726.87637938424814
 30
0.0
 11
-5096.4769136862833
 21
-726.87637938424814
 31
0.0
  0
INSERT
  5
901C
  8
3
 62
     0
  2
_OPEN
 10
-6276.4769136862824
 20
-726.87637938424814
 30
0.0
 41
40.0
 42
40.0
 43
40.0
 50
180.0
  0
INSERT
  5
901D
  8
3
 62
     0
  2
_OPEN
 10
-5056.4769136862824
 20
-726.87637938424814
 30
0.0
 41
40.0
 42
40.0
 43
40.0
  0
TEXT
  8
3
  40
60
  5
9066
  62
0
  72
0
  71
0
 10
-5747.71
 20
-783.076
 30
0.000000
  1
1220
  0
POINT
  5
901F
  8
DEFPOINTS
 62
     0
 10
-6276.4769136862824
 20
-478.96387843161938
 30
0.0
  0
POINT
  5
9020
  8
DEFPOINTS
 62
     0
 10
-5056.4769136862824
 20
-478.96387843161619
 30
0.0
  0
POINT
  5
9021
  8
DEFPOINTS
 62
     0
 10
-5056.4769136862824
 20
-726.87637938424814
 30
0.0
  0
ENDBLK
  5
8C43
  8
0
  0
BLOCK
  8
0
  2
*D4
 70
     1
 10
0.0
 20
0.0
 30
0.0
  3
*D4
  1

  0
LINE
  5
9022
  8
3
 62
     0
 10
-4428.9014777753318
 20
761.03612156838085
 30
0.0
 11
-4428.9014777753318
 21
2331.4531234070669
 31
0.0
  0
LINE
  5
9023
  8
3
 62
     0
 10
-2686.9014777753318
 20
761.03612156838085
 30
0.0
 11
-2686.9014777753318
 21
2331.4531234070669
 31
0.0
  0
LINE
  5
9024
  8
3
 62
     0
 10
-4388.9014777753328
 20
2311.4531234070669
 30
0.0
 11
-2726.9014777753318
 21
2311.4531234070669
 31
0.0
  0
INSERT
  5
9025
  8
3
 62
     0
  2
_OPEN
 10
-4428.9014777753318
 20
2311.4531234070669
 30
0.0
 41
40.0
 42
40.0
 43
40.0
 50
180.0
  0
INSERT
  5
9026
  8
3
 62
     0
  2
_OPEN
 10
-2686.9014777753318
 20
2311.4531234070669
 30
0.0
 41
40.0
 42
40.0
 43
40.0
  0
TEXT
  8
3
  40
60
  5
9067
  62
0
  72
0
  71
0
 10
-3790.38
 20
2255.25
 30
0.000000
  1
1742
  0
POINT
  5
9028
  8
DEFPOINTS
 62
     0
 10
-4428.9014777753318
 20
751.03612156838085
 30
0.0
  0
POINT
  5
9029
  8
DEFPOINTS
 62
     0
 10
-2686.9014777753318
 20
751.03612156838085
 30
0.0
  0
POINT
  5
902A
  8
DEFPOINTS
 62
     0
 10
-2686.9014777753318
 20
2311.4531234070669
 30
0.0
  0
ENDBLK
  5
8C50
  8
0
  0
BLOCK
  8
0
  2
*D5
 70
     1
 10
0.0
 20
0.0
 30
0.0
  3
*D5
  1

  0
LINE
  5
902B
  8
3
 62
     0
 10
-4357.8919455255154
 20
-488.96387843161909
 30
0.0
 11
-4357.8919455255154
 21
-764.56846451668025
 31
0.0
  0
LINE
  5
902C
  8
3
 62
     0
 10
-2757.911010025151
 20
-488.96387843161909
 30
0.0
 11
-2757.911010025151
 21
-764.56846451668025
 31
0.0
  0
LINE
  5
902D
  8
3
 62
     0
 10
-4317.8919455255154
 20
-744.56846451668025
 30
0.0
 11
-2797.911010025151
 21
-744.56846451668025
 31
0.0
  0
INSERT
  5
902E
  8
3
 62
     0
  2
_OPEN
 10
-4357.8919455255154
 20
-744.56846451668025
 30
0.0
 41
40.0
 42
40.0
 43
40.0
 50
180.0
  0
INSERT
  5
902F
  8
3
 62
     0
  2
_OPEN
 10
-2757.911010025151
 20
-744.56846451668025
 30
0.0
 41
40.0
 42
40.0
 43
40.0
  0
TEXT
  8
3
  40
60
  5
9068
  62
0
  72
0
  71
0
 10
-3685.55
 20
-800.768
 30
0.000000
  1
1600
  0
POINT
  5
9031
  8
DEFPOINTS
 62
     0
 10
-4357.8919455255154
 20
-478.96387843161909
 30
0.0
  0
POINT
  5
9032
  8
DEFPOINTS
 62
     0
 10
-2757.911010025151
 20
-478.96387843161909
 30
0.0
  0
POINT
  5
9033
  8
DEFPOINTS
 62
     0
 10
-2757.911010025151
 20
-744.56846451668025
 30
0.0
  0
ENDBLK
  5
8C5D
  8
0
  0
BLOCK
  8
0
  2
*D6
 70
     1
 10
0.0
 20
0.0
 30
0.0
  3
*D6
  1

  0
LINE
  5
9034
  8
3
 62
     0
 10
-4517.9014777753328
 20
751.03612156838085
 30
0.0
 11
-4573.670774485232
 21
751.03612156838085
 31
0.0
  0
LINE
  5
9035
  8
3
 62
     0
 10
-4367.9014777753318
 20
-308.96387843161909
 30
0.0
 11
-4573.670774485232
 21
-308.96387843161898
 31
0.0
  0
LINE
  5
9036
  8
3
 62
     0
 10
-4553.670774485232
 20
711.03612156838085
 30
0.0
 11
-4553.670774485232
 21
-268.96387843161909
 31
0.0
  0
INSERT
  5
9037
  8
3
 62
     0
  2
_OPEN
 10
-4553.670774485232
 20
751.03612156838085
 30
0.0
 41
40.0
 42
40.0
 43
40.0
 50
90.0
  0
INSERT
  5
9038
  8
3
 62
     0
  2
_OPEN
 10
-4553.670774485232
 20
-308.96387843161898
 30
0.0
 41
40.0
 42
40.0
 43
40.0
 50
270.0
  0
TEXT
  8
3
  40
60
  5
9069
  62
0
  72
0
  71
0
 10
-4723.67
 20
102.604
 30
0.000000
  1
1060
  0
POINT
  5
903A
  8
DEFPOINTS
 62
     0
 10
-4507.9014777753328
 20
751.03612156838085
 30
0.0
  0
POINT
  5
903B
  8
DEFPOINTS
 62
     0
 10
-4357.9014777753328
 20
-308.96387843161909
 30
0.0
  0
POINT
  5
903C
  8
DEFPOINTS
 62
     0
 10
-4553.670774485232
 20
-308.96387843161898
 30
0.0
  0
ENDBLK
  5
8C6A
  8
0
  0
BLOCK
  8
0
  2
*D7
 70
     1
 10
0.0
 20
0.0
 30
0.0
  3
*D7
  1

  0
LINE
  5
903D
  8
3
 62
     0
 10
-4367.9014777753318
 20
-308.96387843161909
 30
0.0
 11
-4573.670774485232
 21
-308.96387843161898
 31
0.0
  0
LINE
  5
903E
  8
3
 62
     0
 10
-4367.8919455255136
 20
-353.96387843161909
 30
0.0
 11
-4573.670774485232
 21
-353.96387843161909
 31
0.0
  0
LINE
  5
903F
  8
3
 62
     0
 10
-4553.670774485232
 20
-268.96387843161909
 30
0.0
 11
-4553.670774485232
 21
-228.96387843161909
 31
0.0
  0
LINE
  5
9040
  8
3
 62
     0
 10
-4553.670774485232
 20
-393.96387843161909
 30
0.0
 11
-4553.670774485232
 21
-433.96387843161909
 31
0.0
  0
TEXT
  8
3
  40
60
  5
906A
  62
0
  72
0
  71
0
 10
-4743.67
 20
-415.164
 30
0.000000
  1
45
  0
LINE
  5
9042
  8
3
 62
     0
 10
-4553.670774485232
 20
-308.96387843161898
 30
0.0
 11
-4553.670774485232
 21
-353.96387843161909
 31
0.0
  0
INSERT
  5
9043
  8
3
 62
     0
  2
_OPEN
 10
-4553.670774485232
 20
-308.96387843161898
 30
0.0
 41
40.0
 42
40.0
 43
40.0
 50
270.0
  0
INSERT
  5
9044
  8
3
 62
     0
  2
_OPEN
 10
-4553.670774485232
 20
-353.96387843161909
 30
0.0
 41
40.0
 42
40.0
 43
40.0
 50
90.0
  0
POINT
  5
9045
  8
DEFPOINTS
 62
     0
 10
-4357.9014777753328
 20
-308.96387843161909
 30
0.0
  0
POINT
  5
9046
  8
DEFPOINTS
 62
     0
 10
-4357.8919455255154
 20
-353.96387843161909
 30
0.0
  0
POINT
  5
9047
  8
DEFPOINTS
 62
     0
 10
-4553.670774485232
 20
-353.96387843161909
 30
0.0
  0
ENDBLK
  5
8C79
  8
0
  0
BLOCK
  8
0
  2
*D8
 70
     1
 10
0.0
 20
0.0
 30
0.0
  3
*D8
  1

  0
LINE
  5
9048
  8
3
 62
     0
 10
-4367.8919455255136
 20
-353.96387843161909
 30
0.0
 11
-4573.670774485232
 21
-353.96387843161909
 31
0.0
  0
LINE
  5
9049
  8
3
 62
     0
 10
-4367.8919455255136
 20
-478.96387843161898
 30
0.0
 11
-4573.670774485232
 21
-478.96387843161898
 31
0.0
  0
LINE
  5
904A
  8
3
 62
     0
 10
-4553.670774485232
 20
-393.96387843161909
 30
0.0
 11
-4553.670774485232
 21
-438.96387843161898
 31
0.0
  0
LINE
  5
904B
  8
3
 62
     0
 10
-4553.670774485232
 20
-478.96387843161898
 30
0.0
 11
-4553.670774485232
 21
-701.82102128876193
 31
0.0
  0
INSERT
  5
904C
  8
3
 62
     0
  2
_OPEN
 10
-4553.670774485232
 20
-353.96387843161909
 30
0.0
 41
40.0
 42
40.0
 43
40.0
 50
90.0
  0
INSERT
  5
904D
  8
3
 62
     0
  2
_OPEN
 10
-4553.670774485232
 20
-478.96387843161898
 30
0.0
 41
40.0
 42
40.0
 43
40.0
 50
270.0
  0
TEXT
  8
3
  40
60
  5
906B
  62
0
  72
0
  71
0
 10
-4723.67
 20
-716.592
 30
0.000000
  1
125
  0
POINT
  5
904F
  8
DEFPOINTS
 62
     0
 10
-4357.8919455255154
 20
-353.96387843161909
 30
0.0
  0
POINT
  5
9050
  8
DEFPOINTS
 62
     0
 10
-4357.8919455255154
 20
-478.96387843161898
 30
0.0
  0
POINT
  5
9051
  8
DEFPOINTS
 62
     0
 10
-4553.670774485232
 20
-478.96387843161898
 30
0.0
  0
ENDBLK
  5
8CA0
  8
0
  0
BLOCK
  8
0
  2
*D9
 70
     1
 10
0.0
 20
0.0
 30
0.0
  3
*D9
  1

  0
LINE
  5
9052
  8
3
 62
     0
 10
-4517.9014777753328
 20
751.03612156838085
 30
0.0
 11
-4802.2139983292727
 21
751.03612156838085
 31
0.0
  0
LINE
  5
9053
  8
3
 62
     0
 10
-4367.8919455255136
 20
-478.96387843161898
 30
0.0
 11
-4802.2139983292727
 21
-478.96387843161892
 31
0.0
  0
LINE
  5
9054
  8
3
 62
     0
 10
-4782.2139983292727
 20
711.03612156838085
 30
0.0
 11
-4782.2139983292727
 21
-438.96387843161892
 31
0.0
  0
INSERT
  5
9055
  8
3
 62
     0
  2
_OPEN
 10
-4782.2139983292727
 20
751.03612156838085
 30
0.0
 41
40.0
 42
40.0
 43
40.0
 50
90.0
  0
INSERT
  5
9056
  8
3
 62
     0
  2
_OPEN
 10
-4782.2139983292727
 20
-478.96387843161892
 30
0.0
 41
40.0
 42
40.0
 43
40.0
 50
270.0
  0
TEXT
  8
3
  40
60
  5
906C
  62
0
  72
0
  71
0
 10
-4952.21
 20
74.8349
 30
0.000000
  1
1230
  0
POINT
  5
9058
  8
DEFPOINTS
 62
     0
 10
-4507.9014777753328
 20
751.03612156838085
 30
0.0
  0
POINT
  5
9059
  8
DEFPOINTS
 62
     0
 10
-4357.8919455255154
 20
-478.96387843161898
 30
0.0
  0
POINT
  5
905A
  8
DEFPOINTS
 62
     0
 10
-4782.2139983292727
 20
-478.96387843161892
 30
0.0
  0
ENDBLK
  5
8CAD
  8
0
  0
BLOCK
  8
0
  2
*D10
 70
     1
 10
0.0
 20
0.0
 30
0.0
  3
*D10
  1

  0
LINE
  5
905B
  8
3
 62
     0
 10
-3567.9014777753332
 20
2092.0361215683802
 30
0.0
 11
-4799.4063341103529
 21
2092.0361215683802
 31
0.0
  0
LINE
  5
905C
  8
3
 62
     0
 10
-4517.9014777753328
 20
751.03612156838085
 30
0.0
 11
-4799.4063341103529
 21
751.03612156838085
 31
0.0
  0
LINE
  5
905D
  8
3
 62
     0
 10
-4779.4063341103529
 20
2052.0361215683802
 30
0.0
 11
-4779.4063341103538
 21
791.03612156838085
 31
0.0
  0
INSERT
  5
905E
  8
3
 62
     0
  2
_OPEN
 10
-4779.4063341103529
 20
2092.0361215683802
 30
0.0
 41
40.0
 42
40.0
 43
40.0
 50
90.0
  0
INSERT
  5
905F
  8
3
 62
     0
  2
_OPEN
 10
-4779.4063341103538
 20
751.03612156838085
 30
0.0
 41
40.0
 42
40.0
 43
40.0
 50
270.0
  0
TEXT
  8
3
  40
60
  5
906D
  62
0
  72
0
  71
0
 10
-4949.41
 20
1292.19
 30
0.000000
  1
MAX.1800
  0
POINT
  5
9061
  8
DEFPOINTS
 62
     0
 10
-3557.9014777753332
 20
2092.0361215683802
 30
0.0
  0
POINT
  5
9062
  8
DEFPOINTS
 62
     0
 10
-4507.9014777753328
 20
751.03612156838085
 30
0.0
  0
POINT
  5
9063
  8
DEFPOINTS
 62
     0
 10
-4779.4063341103538
 20
751.03612156838085
 30
0.0
  0
ENDBLK
  5
8CBA
  8
0
  0
ENDSEC
  0
SECTION
  2
ENTITIES
  0
LINE
  5
7D76
  8
1
 10
-3660.4014777753318
 20
1661.0361215683811
 30
0.0
 11
-3719.9014777753318
 21
1661.0361215683811
 31
0.0
  0
LINE
  5
7D77
  8
1
 10
-3663.4014777753318
 20
1681.0361215683799
 30
0.0
 11
-3716.9014777753318
 21
1681.0361215683799
 31
0.0
  0
LINE
  5
7D78
  8
2
 10
-3362.4490547753339
 20
1841.0361215683799
 30
0.0
 11
-3753.3539007753329
 21
1841.0361215683799
 31
0.0
  0
LINE
  5
7D79
  8
1
 10
-3378.4899787753329
 20
2041.0361215683799
 30
0.0
 11
-3737.3129767753321
 21
2041.0361215683799
 31
0.0
  0
LINE
  5
7D7A
  8
1
 10
-3792.9014777753332
 20
1661.0361215683811
 30
0.0
 11
-3322.9014777753318
 21
1661.0361215683799
 31
0.0
  0
ARC
  5
7D7B
  8
1
 10
-3557.9014777753332
 20
1841.0361215683799
 30
0.0
 40
185.0
 50
287.94525099999993
 51
252.05474899999999
  0
LINE
  5
7D7D
  8
1
 10
-4352.7090016451048
 20
660.03612156838108
 30
0.0
 11
-2763.0939539055598
 21
660.03612156838096
 31
0.0
  0
LINE
  5
7D7E
  8
1
 10
-4353.7902891051563
 20
670.03612156838153
 30
0.0
 11
-2762.0126664455079
 21
670.03612156838108
 31
0.0
  0
ARC
  5
7D7F
  8
1
 10
-3557.9014777753332
 20
751.03612156838085
 30
0.0
 40
222.0
 50
338.6007335046495
 51
201.3992664953505
  0
ARC
  5
7D80
  8
1
 10
-3557.9014777753332
 20
751.03612156838085
 30
0.0
 40
228.0
 50
339.1904264223237
 51
200.80957357767619
  0
LINE
  5
7D81
  8
1
 10
-3792.9014777753332
 20
1611.0361215683811
 30
0.0
 11
-3322.9014777753318
 21
1611.0361215683799
 31
0.0
  0
LINE
  5
7D82
  8
1
 10
-4357.9014777753328
 20
-308.96387843161909
 30
0.0
 11
-2757.9014777753332
 21
-308.96387843161898
 31
0.0
  0
LINE
  5
7D86
  8
2
 10
-4507.9014777753328
 20
751.03612156838085
 30
0.0
 11
-2607.9014777753332
 21
751.03612156838085
 31
0.0
  0
LINE
  5
7D89
  8
1
 10
-5225.4769136862824
 20
631.03612156838062
 30
0.0
 11
-5225.4769136862833
 21
1941.0361215683811
 31
0.0
  0
LINE
  5
7D8A
  8
1
 10
-5305.4769136862824
 20
631.03612156838062
 30
0.0
 11
-5305.4769136862833
 21
1941.0361215683811
 31
0.0
  0
LINE
  5
7D8B
  8
1
 10
-5060.9769136862824
 20
1616.036121568382
 30
0.0
 11
-5060.9769136862824
 21
181.03612156838059
 31
0.0
  0
LINE
  5
7D8C
  8
1
 10
-6271.9769136862842
 20
1616.0361215683811
 30
0.0
 11
-6271.9769136862824
 21
181.03612156838059
 31
0.0
  0
LINE
  5
7D8D
  8
1
 10
-6276.4769136862842
 20
1585.0361215683811
 30
0.0
 11
-6276.4769136862824
 21
-48.963878431619378
 31
0.0
  0
LINE
  5
7D8E
  8
1
 10
-5056.4769136862842
 20
1585.0361215683799
 30
0.0
 11
-5056.4769136862824
 21
-48.963878431619378
 31
0.0
  0
LINE
  5
7D8F
  8
1
 10
-4991.4769136862842
 20
1551.0361215683799
 30
0.0
 11
-4991.4769136862851
 21
-48.963878431619378
 31
0.0
  0
LINE
  5
7D90
  8
1
 10
-6341.4769136862842
 20
1551.0361215683799
 30
0.0
 11
-6341.4769136862842
 21
-48.963878431619378
 31
0.0
  0
LINE
  5
7D91
  8
1
 10
-5052.4769136862851
 20
-125.96387843161931
 30
0.0
 11
-5052.4769136862842
 21
1613.0361215683811
 31
0.0
  0
LINE
  5
7D92
  8
1
 10
-6280.4769136862824
 20
-110.96387843161931
 30
0.0
 11
-6280.4769136862824
 21
1613.0361215683811
 31
0.0
  0
LINE
  5
7D93
  8
1
 10
-6048.2049813849289
 20
-53.463878431619378
 30
0.0
 11
-5284.7488459876386
 21
-53.463878431618923
 31
0.0
  0
LINE
  5
7D94
  8
2
 10
-6391.4769136862833
 20
751.03612156838085
 30
0.0
 11
-4969.6393771934727
 21
751.03612156838085
 31
0.0
  0
LINE
  5
7D95
  8
1
 10
-6276.4769136862833
 20
-48.963878431619378
 30
0.0
 11
-6326.4769136862833
 21
-48.963878431619378
 31
0.0
  0
LINE
  5
7D96
  8
1
 10
-6286.9769136862842
 20
-52.963878431619371
 30
0.0
 11
-6338.4769136862833
 21
-52.963878431619371
 31
0.0
  0
LINE
  5
7D97
  8
1
 10
-6293.6678990081409
 20
-91.463878431619364
 30
0.0
 11
-6255.3402131849543
 21
-91.463878431619364
 31
0.0
  0
LINE
  5
7D98
  8
1
 10
-6341.4769136862842
 20
-48.963878431619378
 30
0.0
 11
-6341.4769136862842
 21
-49.963878431619371
 31
0.0
  0
ARC
  5
7D99
  8
1
 10
-6338.4769136862833
 20
-49.963878431619371
 30
0.0
 40
3.0
 50
180.0
 51
270.0
  0
LINE
  5
7D9A
  8
1
 10
-6136.4769136862842
 20
986.03612156838074
 30
0.0
 11
-6136.4769136862842
 21
516.03612156838051
 31
0.0
  0
LINE
  5
7D9B
  8
1
 10
-6151.4769136862833
 20
986.03612156838074
 30
0.0
 11
-6151.4769136862833
 21
516.03612156838051
 31
0.0
  0
LINE
  5
7D9C
  8
1
 10
-5986.4769136862833
 20
1001.0361215683801
 30
0.0
 11
-5986.4769136862833
 21
501.03612156838062
 31
0.0
  0
LINE
  5
7D9D
  8
1
 10
-6256.4769136862842
 20
1001.0361215683801
 30
0.0
 11
-6256.4769136862842
 21
501.03612156838062
 31
0.0
  0
LINE
  5
7D9E
  8
1
 10
-6256.4769136862842
 20
516.03612156838051
 30
0.0
 11
-5986.4769136862833
 21
516.03612156838051
 31
0.0
  0
LINE
  5
7D9F
  8
1
 10
-6256.4769136862842
 20
501.03612156838062
 30
0.0
 11
-5986.4769136862833
 21
501.03612156838062
 31
0.0
  0
LINE
  5
7DA0
  8
1
 10
-6097.45252344238
 20
-44.963878431618468
 30
0.0
 11
-5986.4769136862833
 21
501.03612156838062
 31
0.0
  0
LINE
  5
7DA1
  8
1
 10
-6145.5013039301848
 20
-44.963878431618923
 30
0.0
 11
-6256.4769136862842
 21
501.03612156838062
 31
0.0
  0
LINE
  5
7DA2
  8
1
 10
-6145.5013039301839
 20
-44.963878431618923
 30
0.0
 11
-6097.4525234423791
 21
-44.963878431618468
 31
0.0
  0
ARC
  5
7DA3
  8
1
 10
-6286.9769136862842
 20
-59.463878431619378
 30
0.0
 40
6.5
 50
0.0
 51
90.0
  0
LINE
  5
7DA4
  8
1
 10
-6271.9769136862842
 20
-113.96387843161931
 30
0.0
 11
-6276.4769136862833
 21
-113.96387843161931
 31
0.0
  0
LINE
  5
7DA5
  8
1
 10
-6276.4769136862833
 20
-113.96387843161931
 30
0.0
 11
-6277.4769136862824
 21
-113.96387843161931
 31
0.0
  0
ARC
  5
7DA6
  8
1
 10
-6277.4769136862824
 20
-110.96387843161931
 30
0.0
 40
3.0
 50
180.00000000000031
 51
270.0
  0
LINE
  5
7DA7
  8
1
 10
-6276.4769136862833
 20
-48.963878431619378
 30
0.0
 11
-6276.4769136862833
 21
-113.96387843161931
 31
0.0
  0
LINE
  5
7DA8
  8
1
 10
-6256.4769136862842
 20
986.03612156838074
 30
0.0
 11
-5986.4769136862833
 21
986.03612156838062
 31
0.0
  0
LINE
  5
7DA9
  8
1
 10
-6256.4769136862842
 20
1001.0361215683801
 30
0.0
 11
-5986.4769136862833
 21
1001.0361215683801
 31
0.0
  0
LINE
  5
7DAA
  8
1
 10
-6171.4769136862842
 20
811.03612156838074
 30
0.0
 11
-6071.4769136862833
 21
811.03612156838074
 31
0.0
  0
LINE
  5
7DAB
  8
1
 10
-6171.4769136862842
 20
691.03612156838085
 30
0.0
 11
-6071.4769136862833
 21
691.03612156838085
 31
0.0
  0
LINE
  5
7DAC
  8
1
 10
-6171.4769136862842
 20
811.03612156838074
 30
0.0
 11
-6171.4769136862842
 21
691.03612156838085
 31
0.0
  0
LINE
  5
7DAD
  8
1
 10
-6071.4769136862833
 20
811.03612156838074
 30
0.0
 11
-6071.4769136862833
 21
691.03612156838085
 31
0.0
  0
LINE
  5
7DAE
  8
1
 10
-5078.786556635092
 20
-106.46387843161931
 30
0.0
 11
-5032.7933396386543
 21
-106.46387843161931
 31
0.0
  0
LINE
  5
7DAF
  8
1
 10
-5225.4769136862833
 20
631.03612156838062
 30
0.0
 11
-5305.4769136862833
 21
631.03612156838062
 31
0.0
  0
LINE
  5
7DB0
  8
1
 10
-5225.4769136862833
 20
871.03612156838085
 30
0.0
 11
-5305.4769136862833
 21
871.03612156838085
 31
0.0
  0
LINE
  5
7DB1
  8
1
 10
-5045.9769136862833
 20
-52.963878431619371
 30
0.0
 11
-4994.4769136862833
 21
-52.963878431619371
 31
0.0
  0
LINE
  5
7DB2
  8
1
 10
-4991.4769136862842
 20
-48.963878431619378
 30
0.0
 11
-4991.4769136862842
 21
-49.963878431619371
 31
0.0
  0
ARC
  5
7DB3
  8
1
 10
-4994.4769136862833
 20
-49.963878431619371
 30
0.0
 40
3.0
 50
270.0
 51
0.0
  0
LINE
  5
7DB4
  8
1
 10
-4991.4769136862842
 20
-48.963878431619378
 30
0.0
 11
-4991.4769136862842
 21
-49.963878431619371
 31
0.0
  0
LINE
  5
7DB5
  8
1
 10
-5060.9769136862842
 20
-128.96387843161929
 30
0.0
 11
-5056.4769136862833
 21
-128.96387843161929
 31
0.0
  0
LINE
  5
7DB6
  8
1
 10
-5056.4769136862833
 20
-128.96387843161929
 30
0.0
 11
-5055.4769136862833
 21
-128.96387843161929
 31
0.0
  0
ARC
  5
7DB7
  8
1
 10
-5055.4769136862833
 20
-125.96387843161931
 30
0.0
 40
3.0
 50
270.0
 51
359.9999999999996
  0
LINE
  5
7DB8
  8
1
 10
-5056.4769136862833
 20
-128.96387843161929
 30
0.0
 11
-5055.4769136862833
 21
-128.96387843161929
 31
0.0
  0
LINE
  5
7DB9
  8
1
 10
-5056.4769136862833
 20
-48.963878431619378
 30
0.0
 11
-5056.4769136862833
 21
-128.96387843161929
 31
0.0
  0
LINE
  5
7DBA
  8
1
 10
-5056.4769136862833
 20
-48.963878431619378
 30
0.0
 11
-5056.4769136862833
 21
-98.963878431619392
 31
0.0
  0
LINE
  5
7DBB
  8
1
 10
-5056.4769136862833
 20
-48.963878431619378
 30
0.0
 11
-4991.4769136862842
 21
-48.963878431619378
 31
0.0
  0
ARC
  5
7DBC
  8
1
 10
-5045.9769136862833
 20
-59.463878431619378
 30
0.0
 40
6.5
 50
90.0
 51
180.0
  0
CIRCLE
  5
7DBD
  8
1
 10
-5576.9769136862842
 20
2062.0361215683802
 30
0.0
 40
17.5
  0
LINE
  5
7DBE
  8
1
 10
-5576.9769136862842
 20
2044.5361215683799
 30
0.0
 11
-5565.4223486862838
 21
2043.2981455683801
 31
0.0
  0
LINE
  5
7DBF
  8
1
 10
-5565.4223486862838
 20
2043.2981455683801
 30
0.0
 11
-5588.5314796862849
 21
2043.2981455683801
 31
0.0
  0
LINE
  5
7DC0
  8
1
 10
-5618.4452366862843
 20
2062.0361215683802
 30
0.0
 11
-5537.0948336862839
 21
2062.0361215683802
 31
0.0
  0
ARC
  5
7DC1
  8
1
 10
-5576.9769136862842
 20
2062.0361215683802
 30
0.0
 40
29.999988999999999
 50
305.60385099999991
 51
234.39613299999999
  0
LINE
  5
7DC2
  8
1
 10
-5517.9769136862833
 20
1965.0361215683799
 30
0.0
 11
-5635.9769136862842
 21
1965.0361215683799
 31
0.0
  0
LINE
  5
7DC3
  8
1
 10
-5638.9769136862833
 20
1958.0361215683799
 30
0.0
 11
-5514.9769136862833
 21
1958.0361215683799
 31
0.0
  0
LINE
  5
7DC4
  8
2
 10
-5637.2972266862844
 20
1891.0361215683799
 30
0.0
 11
-5513.2897796862826
 21
1891.0361215683799
 31
0.0
  0
LINE
  5
7DC5
  8
1
 10
-5521.4769136862833
 20
1667.0361215683799
 30
0.0
 11
-5576.9769136862842
 21
1667.0361215683799
 31
0.0
  0
LINE
  5
7DC6
  8
1
 10
-5635.9769136862842
 20
1743.3382455683809
 30
0.0
 11
-5517.9769136862833
 21
1743.3382455683809
 31
0.0
  0
LINE
  5
7DC7
  8
1
 10
-5514.9769136862833
 20
1763.33824556838
 30
0.0
 11
-5638.9769136862833
 21
1763.33824556838
 31
0.0
  0
LINE
  5
7DC8
  8
2
 10
-5910.3859716862844
 20
1841.0361215683799
 30
0.0
 11
-5215.6871186862836
 21
1841.0361215683799
 31
0.0
  0
LINE
  5
7DC9
  8
1
 10
-5456.9769136862833
 20
2032.0361215683799
 30
0.0
 11
-5576.9769136862842
 21
2032.0361215683799
 31
0.0
  0
LINE
  5
7DCA
  8
1
 10
-5388.4769136862833
 20
1655.0361215683799
 30
0.0
 11
-5764.4769136862842
 21
1655.0361215683799
 31
0.0
  0
LINE
  5
7DCB
  8
1
 10
-5388.4769136862833
 20
1661.0361215683811
 30
0.0
 11
-5764.4769136862842
 21
1661.0361215683811
 31
0.0
  0
LINE
  5
7DCC
  8
1
 10
-6271.9769136862824
 20
1555.536121568382
 30
0.0
 11
-5636.4769136862842
 21
1555.5361215683811
 31
0.0
  0
LINE
  5
7DCD
  8
1
 10
-5196.4769136862833
 20
1495.0361215683811
 30
0.0
 11
-6211.4769136862833
 21
1495.0361215683811
 31
0.0
  0
LINE
  5
7DCE
  8
1
 10
-5196.4769136862824
 20
1531.0361215683799
 30
0.0
 11
-6211.4769136862842
 21
1531.0361215683829
 31
0.0
  0
LINE
  5
7DCF
  8
1
 10
-5436.4769136862833
 20
1617.0361215683799
 30
0.0
 11
-5716.4769136862842
 21
1617.0361215683799
 31
0.0
  0
LINE
  5
7DD0
  8
1
 10
-6286.9769136862842
 20
1555.0361215683811
 30
0.0
 11
-6338.4769136862833
 21
1555.0361215683811
 31
0.0
  0
LINE
  5
7DD1
  8
1
 10
-6293.6678990081409
 20
1593.5361215683811
 30
0.0
 11
-6255.3402131849543
 21
1593.5361215683799
 31
0.0
  0
LINE
  5
7DD2
  8
1
 10
-6341.4769136862842
 20
1551.0361215683799
 30
0.0
 11
-6341.4769136862842
 21
1552.0361215683799
 31
0.0
  0
ARC
  5
7DD3
  8
1
 10
-6338.4769136862833
 20
1552.0361215683799
 30
0.0
 40
3.0
 50
90.0
 51
180.0
  0
LINE
  5
7DD4
  8
1
 10
-5665.9769136862833
 20
1935.0361215683799
 30
0.0
 11
-5665.9769136862833
 21
1773.33824556838
 31
0.0
  0
LINE
  5
7DD5
  8
1
 10
-5658.9769136862833
 20
1938.0361215683799
 30
0.0
 11
-5658.9769136862833
 21
1783.33824556838
 31
0.0
  0
LINE
  5
7DD6
  8
1
 10
-5756.9769136862833
 20
2025.7227665683799
 30
0.0
 11
-5756.9769136862833
 21
1665.0361215683799
 31
0.0
  0
LINE
  5
7DD7
  8
1
 10
-5706.9769136862833
 20
1681.0361215683799
 30
0.0
 11
-5706.9769136862833
 21
2026.0361215683811
 31
0.0
  0
LINE
  5
7DD8
  8
1
 10
-5896.9769136862842
 20
1978.1494025683801
 30
0.0
 11
-5896.9769136862842
 21
1703.9228395683799
 31
0.0
  0
LINE
  5
7DD9
  8
1
 10
-5836.8769386862841
 20
2014.4088625683801
 30
0.0
 11
-5836.8769386862841
 21
1667.6624635683811
 31
0.0
  0
LINE
  5
7DDA
  8
1
 10
-5788.5768896862828
 20
1667.5361215683799
 30
0.0
 11
-5788.5768896862828
 21
2014.8494755683801
 31
0.0
  0
LINE
  5
7DDB
  8
2
 10
-5576.9769136862842
 20
2099.5342905683801
 30
0.0
 11
-5576.9769136862842
 21
1648.79088156838
 31
0.0
  0
LINE
  5
7DDC
  8
1
 10
-5781.7073826862843
 20
1665.0361215683799
 30
0.0
 11
-5743.7974217619721
 21
1665.0361215683799
 31
0.0
  0
LINE
  5
7DDE
  8
1
 10
-6211.4769136862833
 20
1531.0361215683799
 30
0.0
 11
-6211.4769136862833
 21
1495.0361215683799
 31
0.0
  0
LINE
  5
7DDF
  8
1
 10
-6271.9769136862842
 20
1616.0361215683811
 30
0.0
 11
-6276.4769136862833
 21
1616.0361215683811
 31
0.0
  0
LINE
  5
7DE0
  8
1
 10
-6276.4769136862833
 20
1616.0361215683811
 30
0.0
 11
-6277.4769136862824
 21
1616.0361215683811
 31
0.0
  0
ARC
  5
7DE1
  8
1
 10
-6277.4769136862824
 20
1613.0361215683811
 30
0.0
 40
3.0
 50
90.0
 51
179.9999999999996
  0
ARC
  5
7DE2
  8
1
 10
-6286.9769136862842
 20
1561.5361215683799
 30
0.0
 40
6.5
 50
270.0
 51
0.0
  0
LINE
  5
7DE3
  8
1
 10
-6276.4769136862833
 20
1551.0361215683799
 30
0.0
 11
-6276.4769136862842
 21
1616.0361215683811
 31
0.0
  0
LINE
  5
7DE4
  8
1
 10
-5842.4339446862841
 20
1669.5457645683809
 30
0.0
 11
-5894.4769136862833
 21
1699.59276156838
 31
0.0
  0
ARC
  5
7DE5
  8
1
 10
-5891.9769136862833
 20
1703.9228395683799
 30
0.0
 40
5.0
 50
180.0
 51
239.99972500000001
  0
LINE
  5
7DE6
  8
1
 10
-5834.9339446862841
 20
1667.5361215683799
 30
0.0
 11
-5788.5768896862828
 21
1667.5361215683799
 31
0.0
  0
ARC
  5
7DE7
  8
1
 10
-5834.9339446862841
 20
1682.5361215683799
 30
0.0
 40
15.0
 50
239.999954
 51
270.0
  0
LINE
  5
7DE8
  8
1
 10
-5781.7073826862843
 20
1665.0361215683799
 30
0.0
 11
-5788.5768896862828
 21
1667.5361215683799
 31
0.0
  0
LINE
  5
7DE9
  8
1
 10
-5770.4769136862842
 20
1649.0361215683799
 30
0.0
 11
-5770.4769136862842
 21
1611.0361215683811
 31
0.0
  0
LINE
  5
7DEA
  8
1
 10
-5776.4769136862833
 20
1649.0361215683799
 30
0.0
 11
-5776.4769136862833
 21
1611.0361215683811
 31
0.0
  0
LINE
  5
7DEB
  8
1
 10
-5716.4769136862842
 20
1531.0361215683811
 30
0.0
 11
-5716.4769136862842
 21
1639.0361215683799
 31
0.0
  0
LINE
  5
7DEC
  8
1
 10
-5736.4769136862833
 20
1639.0361215683799
 30
0.0
 11
-5736.4769136862833
 21
1531.0361215683811
 31
0.0
  0
LINE
  5
7DED
  8
1
 10
-5726.4769136862833
 20
1742.5023157417661
 30
0.0
 11
-5726.4769136862833
 21
1516.637617274343
 31
0.0
  0
LINE
  5
7DEE
  8
1
 10
-5770.4769136862842
 20
1611.0361215683811
 30
0.0
 11
-5776.4769136862833
 21
1611.0361215683811
 31
0.0
  0
LINE
  5
7DEF
  8
1
 10
-5736.4769136862833
 20
1617.0361215683799
 30
0.0
 11
-5770.4769136862842
 21
1617.0361215683799
 31
0.0
  0
LINE
  5
7DF0
  8
1
 10
-5716.9769136862833
 20
1681.0361215683799
 30
0.0
 11
-5659.9769136862833
 21
1681.0361215683799
 31
0.0
  0
LINE
  5
7DF1
  8
1
 10
-5637.4769136862833
 20
1661.0361215683811
 30
0.0
 11
-5719.9769136862833
 21
1661.0361215683811
 31
0.0
  0
LINE
  5
7DF2
  8
1
 10
-5697.4769136862833
 20
1685.13804956838
 30
0.0
 11
-5697.4769136862833
 21
1657.2072635683801
 31
0.0
  0
ARC
  5
7DF3
  8
1
 10
-5702.3654636862839
 20
1684.0361215683811
 30
0.0
 40
3.0
 50
270.0
 51
0.0
  0
LINE
  5
7DF4
  8
1
 10
-5716.4769136862842
 20
1708.5361215683811
 30
0.0
 11
-5736.4769136862833
 21
1708.5361215683811
 31
0.0
  0
LINE
  5
7DF5
  8
1
 10
-5711.4769136862833
 20
1677.0361215683811
 30
0.0
 11
-5709.1564056105954
 21
1675.696375606225
 31
0.0
  0
ARC
  5
7DF6
  8
1
 10
-5713.4865326295167
 20
1669.3686533231121
 30
0.0
 40
7.6674682452691139
 50
55.615752531956161
 51
124.3842474680438
  0
LINE
  5
7DF7
  8
1
 10
-5741.4769136862842
 20
1677.0361215683811
 30
0.0
 11
-5743.7974217619721
 21
1675.696375606225
 31
0.0
  0
ARC
  5
7DF8
  8
1
 10
-5739.4672947430499
 20
1669.3686533231121
 30
0.0
 40
7.6674682452691139
 50
55.615752531956161
 51
124.3842474680438
  0
ARC
  5
7DF9
  8
1
 10
-5726.4769136862833
 20
1648.375867530536
 30
0.0
 40
28.66025403784414
 50
72.412046226006169
 51
107.5879537739938
  0
LINE
  5
7DFA
  8
1
 10
-5709.1564056105954
 20
1655.0361215683799
 30
0.0
 11
-5743.7974217619731
 21
1655.0361215683799
 31
0.0
  0
LINE
  5
7DFB
  8
1
 10
-5743.7974217619721
 20
1661.0361215683811
 30
0.0
 11
-5709.1564056105954
 21
1661.0361215683811
 31
0.0
  0
LINE
  5
7DFC
  8
1
 10
-5743.7974217619721
 20
1675.696375606225
 30
0.0
 11
-5743.7974217619721
 21
1661.0361215683811
 31
0.0
  0
LINE
  5
7DFD
  8
1
 10
-5735.1371677241268
 20
1675.696375606225
 30
0.0
 11
-5735.1371677241268
 21
1661.0361215683811
 31
0.0
  0
LINE
  5
7DFE
  8
1
 10
-5717.816659648438
 20
1675.696375606225
 30
0.0
 11
-5717.816659648438
 21
1661.0361215683811
 31
0.0
  0
LINE
  5
7DFF
  8
1
 10
-5709.1564056105954
 20
1675.696375606225
 30
0.0
 11
-5709.1564056105954
 21
1661.0361215683811
 31
0.0
  0
LINE
  5
7E00
  8
1
 10
-5741.4769136862842
 20
1677.0361215683811
 30
0.0
 11
-5711.4769136862833
 21
1677.0361215683811
 31
0.0
  0
LINE
  5
7E01
  8
1
 10
-5716.4769136862842
 20
1677.0361215683811
 30
0.0
 11
-5716.4769136862842
 21
1708.5361215683811
 31
0.0
  0
LINE
  5
7E02
  8
1
 10
-5736.4769136862833
 20
1708.5361215683811
 30
0.0
 11
-5736.4769136862833
 21
1677.0361215683811
 31
0.0
  0
ARC
  5
7E03
  8
1
 10
-5726.4769136862833
 20
1667.696375606225
 30
0.0
 40
28.66025403784414
 50
252.41204622600611
 51
287.58795377399377
  0
LINE
  5
7E04
  8
1
 10
-5711.4769136862833
 20
1639.0361215683799
 30
0.0
 11
-5741.4769136862842
 21
1639.0361215683799
 31
0.0
  0
LINE
  5
7E05
  8
1
 10
-5741.4769136862842
 20
1639.0361215683799
 30
0.0
 11
-5743.7974217619721
 21
1640.375867530536
 31
0.0
  0
ARC
  5
7E06
  8
1
 10
-5739.4672947430499
 20
1646.7035898136489
 30
0.0
 40
7.6674682452691139
 50
235.6157525319561
 51
304.38424746804378
  0
LINE
  5
7E07
  8
1
 10
-5711.4769136862833
 20
1639.0361215683799
 30
0.0
 11
-5709.1564056105954
 21
1640.375867530536
 31
0.0
  0
ARC
  5
7E08
  8
1
 10
-5713.4865326295167
 20
1646.7035898136489
 30
0.0
 40
7.6674682452691139
 50
235.6157525319561
 51
304.38424746804378
  0
ARC
  5
7E09
  8
1
 10
-5764.4769136862842
 20
1649.0361215683799
 30
0.0
 40
12.0
 50
90.0
 51
180.0
  0
ARC
  5
7E0A
  8
1
 10
-5764.4769136862842
 20
1649.0361215683799
 30
0.0
 40
6.0
 50
90.0
 51
180.0
  0
LINE
  5
7E0B
  8
1
 10
-5735.1371677241268
 20
1640.375867530536
 30
0.0
 11
-5735.1371677241268
 21
1655.0361215683799
 31
0.0
  0
LINE
  5
7E0C
  8
1
 10
-5743.7974217619721
 20
1640.375867530536
 30
0.0
 11
-5743.7974217619721
 21
1655.0361215683799
 31
0.0
  0
LINE
  5
7E0D
  8
1
 10
-5709.1564056105954
 20
1640.375867530536
 30
0.0
 11
-5709.1564056105954
 21
1655.0361215683799
 31
0.0
  0
LINE
  5
7E0E
  8
1
 10
-5717.816659648438
 20
1640.375867530536
 30
0.0
 11
-5717.816659648438
 21
1655.0361215683799
 31
0.0
  0
LINE
  5
7E0F
  8
1
 10
-5591.9769136862833
 20
1702.09984156838
 30
0.0
 11
-5591.9769136862833
 21
1734.1149785683799
 31
0.0
  0
ARC
  5
7E10
  8
1
 10
-5611.9769136862842
 20
1702.09984156838
 30
0.0
 40
19.999980999999998
 50
271.26357999999999
 51
0.0
  0
ARC
  5
7E11
  8
1
 10
-5632.4769136862833
 20
1662.0361215683799
 30
0.0
 40
5.0
 50
90.0
 51
180.0
  0
LINE
  5
7E12
  8
1
 10
-5637.4769136862833
 20
1662.0361215683799
 30
0.0
 11
-5637.4769136862833
 21
1661.0361215683811
 31
0.0
  0
ARC
  5
7E13
  8
1
 10
-5638.9769136862833
 20
1783.33824556838
 30
0.0
 40
20.0
 50
180.0
 51
270.0
  0
ARC
  5
7E14
  8
1
 10
-5635.9769136862842
 20
1773.33824556838
 30
0.0
 40
30.0
 50
180.0
 51
270.0
  0
LINE
  5
7E15
  8
1
 10
-5632.4769136862833
 20
1667.0361215683799
 30
0.0
 11
-5576.9769136862842
 21
1667.0361215683799
 31
0.0
  0
LINE
  5
7E16
  8
1
 10
-5611.5358736862836
 20
1682.1047245683801
 30
0.0
 11
-5659.9769136862833
 21
1681.0361215683799
 31
0.0
  0
LINE
  5
7E17
  8
1
 10
-5760.2902686862826
 20
2024.8303105683799
 30
0.0
 11
-5785.2635346862853
 21
2015.741931568381
 31
0.0
  0
LINE
  5
7E18
  8
1
 10
-5842.4339446862841
 20
2012.5264775683811
 30
0.0
 11
-5894.4769136862833
 21
1982.47948056838
 31
0.0
  0
ARC
  5
7E19
  8
1
 10
-5891.9769136862833
 20
1978.1494025683801
 30
0.0
 40
5.0
 50
120.000282
 51
180.0
  0
LINE
  5
7E1A
  8
1
 10
-5834.9339446862841
 20
2014.5361215683799
 30
0.0
 11
-5792.1031346862837
 21
2014.5361215683799
 31
0.0
  0
ARC
  5
7E1B
  8
1
 10
-5834.9339446862841
 20
1999.5361215683799
 30
0.0
 40
15.0
 50
90.0
 51
120.000046
  0
ARC
  5
7E1C
  8
1
 10
-5792.1031346862837
 20
2034.5361215683799
 30
0.0
 40
20.0
 50
270.0
 51
289.99749800000001
  0
LINE
  5
7E1D
  8
1
 10
-5696.9769136862842
 20
2032.0361215683799
 30
0.0
 11
-5576.9769136862842
 21
2032.0361215683799
 31
0.0
  0
LINE
  5
7E1E
  8
1
 10
-5696.9769136862842
 20
2032.0361215683799
 30
0.0
 11
-5706.9769136862833
 21
2023.7820925683809
 31
0.0
  0
ARC
  5
7E1F
  8
1
 10
-5753.4506686862842
 20
2006.0361215683799
 30
0.0
 40
20.0
 50
90.0
 51
109.997505
  0
LINE
  5
7E20
  8
1
 10
-5753.4506686862842
 20
2026.0361215683811
 30
0.0
 11
-5706.9769136862833
 21
2026.0361215683811
 31
0.0
  0
ARC
  5
7E21
  8
1
 10
-5576.9769136862842
 20
2062.0361215683802
 30
0.0
 40
30.0
 50
234.39613299999999
 51
234.80995200000001
  0
ARC
  5
7E22
  8
1
 10
-5588.2118996862846
 20
2040.31523456838
 30
0.0
 40
3.0
 50
96.115172999999999
 51
174.80557300000001
  0
LINE
  5
7E23
  8
1
 10
-5576.9769136862842
 20
2044.5361215683799
 30
0.0
 11
-5588.5314796862849
 21
2043.2981455683801
 31
0.0
  0
ARC
  5
7E24
  8
1
 10
-5597.935287686284
 20
2032.7659185683799
 30
0.0
 40
6.0
 50
354.80557299999992
 51
54.396262999999998
  0
LINE
  5
7E25
  8
1
 10
-5591.199569686285
 20
2040.5868415683799
 30
0.0
 11
-5591.9769136862833
 21
2032.0361215683799
 31
0.0
  0
ARC
  5
7E26
  8
1
 10
-5635.9769136862842
 20
1935.0361215683799
 30
0.0
 40
30.0
 50
90.0
 51
180.0
  0
ARC
  5
7E27
  8
1
 10
-5638.9769136862833
 20
1938.0361215683799
 30
0.0
 40
20.0
 50
90.0
 51
180.0
  0
LINE
  5
7E28
  8
1
 10
-5190.4769136862833
 20
1555.536121568362
 30
0.0
 11
-5060.9769136862842
 21
1555.5361215683929
 31
0.0
  0
LINE
  5
7E29
  8
1
 10
-5078.786556635092
 20
1593.5361215683811
 30
0.0
 11
-5032.7933396386543
 21
1593.5361215683811
 31
0.0
  0
LINE
  5
7E2A
  8
1
 10
-5235.4769136862842
 20
1817.0361215683811
 30
0.0
 11
-5235.4769136862842
 21
1865.0361215683779
 31
0.0
  0
LINE
  5
7E2B
  8
1
 10
-5335.4769136862833
 20
1816.0361215683799
 30
0.0
 11
-5335.4769136862833
 21
1866.0361215683799
 31
0.0
  0
LINE
  5
7E2C
  8
1
 10
-5345.4769136862833
 20
1904.0361215683799
 30
0.0
 11
-5345.4769136862833
 21
1841.0361215683799
 31
0.0
  0
LINE
  5
7E2D
  8
1
 10
-5421.9769136862833
 20
2006.0361215683799
 30
0.0
 11
-5421.9769136862833
 21
1841.0361215683799
 31
0.0
  0
LINE
  5
7E2E
  8
1
 10
-5487.9769136862833
 20
1935.0361215683799
 30
0.0
 11
-5487.9769136862833
 21
1773.33824556838
 31
0.0
  0
LINE
  5
7E2F
  8
1
 10
-5494.9769136862833
 20
1938.0361215683799
 30
0.0
 11
-5494.9769136862833
 21
1783.33824556838
 31
0.0
  0
LINE
  5
7E30
  8
1
 10
-5330.4769136862833
 20
1520.7389328161521
 30
0.0
 11
-5330.4769136862833
 21
2041.0361215683799
 31
0.0
  0
LINE
  5
7E31
  8
1
 10
-5190.4769136862833
 20
1520.7389328161521
 30
0.0
 11
-5190.4769136862833
 21
2041.0361215683799
 31
0.0
  0
LINE
  5
7E32
  8
1
 10
-5316.4769136862833
 20
1711.0361215683811
 30
0.0
 11
-5376.4769136862833
 21
1711.0361215683811
 31
0.0
  0
LINE
  5
7E33
  8
1
 10
-5366.9217376862834
 20
1702.1389045683809
 30
0.0
 11
-5390.0955656862843
 21
1678.9650765683809
 31
0.0
  0
LINE
  5
7E34
  8
1
 10
-5364.7082815676349
 20
1631.0361215683811
 30
0.0
 11
-5389.1653407143131
 21
1631.0361215683811
 31
0.0
  0
LINE
  5
7E35
  8
1
 10
-5382.4769136862833
 20
1649.0361215683799
 30
0.0
 11
-5382.4769136862833
 21
1611.0361215683811
 31
0.0
  0
LINE
  5
7E36
  8
1
 10
-5416.4769136862842
 20
1531.0361215683811
 30
0.0
 11
-5416.4769136862842
 21
1639.0361215683799
 31
0.0
  0
LINE
  5
7E37
  8
1
 10
-5436.4769136862833
 20
1639.0361215683799
 30
0.0
 11
-5436.4769136862833
 21
1531.0361215683811
 31
0.0
  0
LINE
  5
7E38
  8
1
 10
-5426.4769136862833
 20
1742.5023157417661
 30
0.0
 11
-5426.4769136862833
 21
1516.637617274343
 31
0.0
  0
LINE
  5
7E39
  8
1
 10
-5376.4769136862833
 20
1711.0361215683811
 30
0.0
 11
-5376.4769136862833
 21
1531.0361215683799
 31
0.0
  0
LINE
  5
7E3A
  8
1
 10
-5376.4769136862833
 20
1611.0361215683811
 30
0.0
 11
-5382.4769136862833
 21
1611.0361215683811
 31
0.0
  0
LINE
  5
7E3B
  8
1
 10
-5382.4769136862833
 20
1617.0361215683799
 30
0.0
 11
-5416.4769136862842
 21
1617.0361215683799
 31
0.0
  0
LINE
  5
7E3C
  8
1
 10
-5516.4769136862833
 20
1661.0361215683811
 30
0.0
 11
-5433.9769136862833
 21
1661.0361215683811
 31
0.0
  0
LINE
  5
7E3D
  8
1
 10
-5436.9769136862833
 20
1681.0361215683799
 30
0.0
 11
-5493.9769136862833
 21
1681.0361215683799
 31
0.0
  0
ARC
  5
7E3E
  8
1
 10
-5521.4769136862833
 20
1662.0361215683799
 30
0.0
 40
5.0
 50
0.0
 51
90.0
  0
LINE
  5
7E3F
  8
1
 10
-5516.4769136862833
 20
1662.0361215683799
 30
0.0
 11
-5516.4769136862833
 21
1661.0361215683811
 31
0.0
  0
LINE
  5
7E40
  8
1
 10
-5542.4179536862839
 20
1682.1047245683801
 30
0.0
 11
-5493.9769136862833
 21
1681.0361215683799
 31
0.0
  0
LINE
  5
7E41
  8
1
 10
-5561.9769136862833
 20
1702.09984156838
 30
0.0
 11
-5561.9769136862833
 21
1734.1149785683799
 31
0.0
  0
ARC
  5
7E42
  8
1
 10
-5541.9769136862833
 20
1702.09984156838
 30
0.0
 40
20.0
 50
180.0
 51
268.73642000000001
  0
ARC
  5
7E43
  8
1
 10
-5514.9769136862833
 20
1783.33824556838
 30
0.0
 40
20.0
 50
270.0
 51
0.0
  0
ARC
  5
7E44
  8
1
 10
-5517.9769136862833
 20
1773.33824556838
 30
0.0
 40
30.0
 50
270.0
 51
0.0
  0
LINE
  5
7E45
  8
1
 10
-5416.4769136862842
 20
1708.5361215683811
 30
0.0
 11
-5436.4769136862833
 21
1708.5361215683811
 31
0.0
  0
LINE
  5
7E46
  8
1
 10
-5456.4769136862842
 20
1685.13804956838
 30
0.0
 11
-5456.4769136862842
 21
1657.2072635683801
 31
0.0
  0
LINE
  5
7E47
  8
1
 10
-5397.166610686284
 20
1676.0361215683799
 30
0.0
 11
-5409.7003820130531
 21
1676.0361215683799
 31
0.0
  0
LINE
  5
7E48
  8
1
 10
-5436.4769136862833
 20
1682.7758920683809
 30
0.0
 11
-5436.9769136862833
 21
1681.0361215683799
 31
0.0
  0
ARC
  5
7E49
  8
1
 10
-5436.9769136862833
 20
1678.0361215683799
 30
0.0
 40
3.0
 50
80.405931773139471
 51
90.0
  0
ARC
  5
7E4A
  8
1
 10
-5397.166610686284
 20
1686.0361215683799
 30
0.0
 40
10.0
 50
270.0
 51
315.0
  0
LINE
  5
7E4B
  8
1
 10
-5443.7974217619721
 20
1661.0361215683811
 30
0.0
 11
-5409.1564056105954
 21
1661.0361215683811
 31
0.0
  0
LINE
  5
7E4C
  8
1
 10
-5441.4769136862833
 20
1677.0361215683811
 30
0.0
 11
-5411.4769136862833
 21
1677.0361215683811
 31
0.0
  0
ARC
  5
7E4D
  8
1
 10
-5426.4769136862833
 20
1648.3758675305371
 30
0.0
 40
28.66025403784414
 50
72.412046226006169
 51
107.5879537739938
  0
LINE
  5
7E4E
  8
1
 10
-5435.1371677241277
 20
1675.696375606226
 30
0.0
 11
-5435.1371677241277
 21
1661.0361215683811
 31
0.0
  0
LINE
  5
7E4F
  8
1
 10
-5443.7974217619721
 20
1675.696375606226
 30
0.0
 11
-5443.7974217619721
 21
1661.0361215683811
 31
0.0
  0
ARC
  5
7E50
  8
1
 10
-5439.4672947430499
 20
1669.368653323113
 30
0.0
 40
7.6674682452691139
 50
55.615752531956161
 51
124.3842474680438
  0
LINE
  5
7E51
  8
1
 10
-5441.4769136862833
 20
1677.0361215683811
 30
0.0
 11
-5443.7974217619721
 21
1675.696375606226
 31
0.0
  0
LINE
  5
7E52
  8
1
 10
-5409.1564056105954
 20
1675.696375606226
 30
0.0
 11
-5409.1564056105954
 21
1661.0361215683811
 31
0.0
  0
LINE
  5
7E53
  8
1
 10
-5417.8166596484389
 20
1675.696375606226
 30
0.0
 11
-5417.8166596484389
 21
1661.0361215683811
 31
0.0
  0
LINE
  5
7E54
  8
1
 10
-5426.4769136862833
 20
1684.036073458255
 30
0.0
 11
-5426.4769136862833
 21
1654.228412896224
 31
0.0
  0
ARC
  5
7E55
  8
1
 10
-5413.4865326295167
 20
1669.368653323113
 30
0.0
 40
7.6674682452691139
 50
55.615752531956161
 51
124.3842474680438
  0
LINE
  5
7E56
  8
1
 10
-5411.4769136862833
 20
1677.0361215683811
 30
0.0
 11
-5409.1564056105954
 21
1675.696375606226
 31
0.0
  0
LINE
  5
7E57
  8
1
 10
-5409.1564056105954
 20
1655.0361215683799
 30
0.0
 11
-5443.7974217619721
 21
1655.0361215683799
 31
0.0
  0
LINE
  5
7E58
  8
1
 10
-5436.4769136862833
 20
1708.5361215683811
 30
0.0
 11
-5436.4769136862833
 21
1677.0361215683811
 31
0.0
  0
LINE
  5
7E59
  8
1
 10
-5416.4769136862842
 20
1677.0361215683811
 30
0.0
 11
-5416.4769136862842
 21
1708.5361215683811
 31
0.0
  0
LINE
  5
7E5A
  8
1
 10
-5421.9769136862833
 20
1708.5361215683811
 30
0.0
 11
-5421.9769136862833
 21
1841.0361215683799
 31
0.0
  0
LINE
  5
7E5B
  8
1
 10
-5411.4769136862833
 20
1639.0361215683799
 30
0.0
 11
-5441.4769136862833
 21
1639.0361215683799
 31
0.0
  0
ARC
  5
7E5C
  8
1
 10
-5426.4769136862833
 20
1667.696375606225
 30
0.0
 40
28.66025403784414
 50
252.41204622600611
 51
287.58795377399377
  0
ARC
  5
7E5D
  8
1
 10
-5413.4865326295167
 20
1646.7035898136489
 30
0.0
 40
7.6674682452691139
 50
235.6157525319561
 51
304.38424746804378
  0
LINE
  5
7E5E
  8
1
 10
-5411.4769136862833
 20
1639.0361215683799
 30
0.0
 11
-5409.1564056105954
 21
1640.375867530536
 31
0.0
  0
ARC
  5
7E5F
  8
1
 10
-5439.4672947430499
 20
1646.7035898136489
 30
0.0
 40
7.6674682452691139
 50
235.6157525319561
 51
304.38424746804378
  0
LINE
  5
7E60
  8
1
 10
-5441.4769136862833
 20
1639.0361215683799
 30
0.0
 11
-5443.7974217619721
 21
1640.375867530536
 31
0.0
  0
LINE
  5
7E61
  8
1
 10
-5417.8166596484389
 20
1640.375867530536
 30
0.0
 11
-5417.8166596484389
 21
1655.0361215683799
 31
0.0
  0
LINE
  5
7E62
  8
1
 10
-5409.1564056105954
 20
1640.375867530536
 30
0.0
 11
-5409.1564056105954
 21
1655.0361215683799
 31
0.0
  0
LINE
  5
7E63
  8
1
 10
-5443.7974217619721
 20
1640.375867530536
 30
0.0
 11
-5443.7974217619721
 21
1655.0361215683799
 31
0.0
  0
LINE
  5
7E64
  8
1
 10
-5435.1371677241277
 20
1640.375867530536
 30
0.0
 11
-5435.1371677241277
 21
1655.0361215683799
 31
0.0
  0
LINE
  5
7E65
  8
1
 10
-5426.4769136862833
 20
1632.0361696785069
 30
0.0
 11
-5426.4769136862833
 21
1661.843830240537
 31
0.0
  0
ARC
  5
7E66
  8
1
 10
-5388.4769136862833
 20
1649.0361215683799
 30
0.0
 40
6.0
 50
0.0
 51
90.0
  0
ARC
  5
7E67
  8
1
 10
-5388.4769136862833
 20
1649.0361215683799
 30
0.0
 40
12.0
 50
0.0
 51
90.0
  0
LINE
  5
7E68
  8
1
 10
-5196.4769136862833
 20
1531.0361215683799
 30
0.0
 11
-5316.4769136862833
 21
1711.0361215683811
 31
0.0
  0
LINE
  5
7E69
  8
1
 10
-5370.4769136862833
 20
1711.0361215683811
 30
0.0
 11
-5370.4769136862833
 21
1531.0361215683799
 31
0.0
  0
LINE
  5
7E6A
  8
1
 10
-5196.4769136862833
 20
1531.0361215683799
 30
0.0
 11
-5196.4769136862833
 21
1495.0361215683799
 31
0.0
  0
LINE
  5
7E6B
  8
1
 10
-5225.4769136862833
 20
1741.0361215683799
 30
0.0
 11
-5305.4769136862833
 21
1741.0361215683799
 31
0.0
  0
LINE
  5
7E6C
  8
1
 10
-5335.4769136862833
 20
1817.0361215683811
 30
0.0
 11
-5235.4769136862842
 21
1817.0361215683811
 31
0.0
  0
LINE
  5
7E6D
  8
1
 10
-5335.4769136862833
 20
1816.0361215683799
 30
0.0
 11
-5345.4769136862833
 21
1816.0361215683799
 31
0.0
  0
LINE
  5
7E6E
  8
1
 10
-5360.4769136862842
 20
1776.0361215683799
 30
0.0
 11
-5347.4769136862833
 21
1776.0361215683799
 31
0.0
  0
ARC
  5
7E6F
  8
1
 10
-5347.4769136862833
 20
1778.0361215683799
 30
0.0
 40
2.0
 50
270.0
 51
0.0
  0
LINE
  5
7E70
  8
1
 10
-5345.4769136862833
 20
1778.0361215683799
 30
0.0
 11
-5345.4769136862833
 21
1841.0361215683799
 31
0.0
  0
ARC
  5
7E71
  8
1
 10
-5373.9929046862826
 20
1709.2099495683799
 30
0.0
 40
10.00005399999999
 50
315.0004879999999
 51
357.00027499999999
  0
LINE
  5
7E72
  8
1
 10
-5360.4769136862842
 20
1776.0361215683799
 30
0.0
 11
-5364.0065766862854
 21
1708.686633568381
 31
0.0
  0
LINE
  5
7E73
  8
1
 10
-5366.9217376862834
 20
1979.9333375683809
 30
0.0
 11
-5390.0955656862843
 21
2003.1071665683801
 31
0.0
  0
ARC
  5
7E74
  8
1
 10
-5565.7419286862842
 20
2040.31523456838
 30
0.0
 40
3.0
 50
5.1944290000000004
 51
83.884827000000001
  0
ARC
  5
7E75
  8
1
 10
-5556.0185396862844
 20
2032.7659185683799
 30
0.0
 40
6.0
 50
125.603737
 51
185.19442699999999
  0
LINE
  5
7E76
  8
1
 10
-5562.7542576862834
 20
2040.5868415683799
 30
0.0
 11
-5561.9769136862833
 21
2032.0361215683799
 31
0.0
  0
ARC
  5
7E77
  8
1
 10
-5517.9769136862833
 20
1935.0361215683799
 30
0.0
 40
30.0
 50
0.0
 51
90.0
  0
ARC
  5
7E78
  8
1
 10
-5514.9769136862833
 20
1938.0361215683799
 30
0.0
 40
20.0
 50
0.0
 51
90.0
  0
LINE
  5
7E79
  8
1
 10
-5440.015365686284
 20
2018.0361215683799
 30
0.0
 11
-5456.9769136862833
 21
2032.0361215683799
 31
0.0
  0
LINE
  5
7E7A
  8
1
 10
-5397.166610686284
 20
2006.0361215683799
 30
0.0
 11
-5421.9769136862833
 21
2006.0361215683799
 31
0.0
  0
LINE
  5
7E7B
  8
1
 10
-5440.015365686284
 20
2018.0361215683799
 30
0.0
 11
-5431.9769136862833
 21
1988.0361215683799
 31
0.0
  0
LINE
  5
7E7C
  8
1
 10
-5426.9769136862833
 20
1988.0361215683799
 30
0.0
 11
-5421.9769136862833
 21
1988.0361215683799
 31
0.0
  0
LINE
  5
7E7D
  8
1
 10
-5431.9769136862833
 20
1988.0361215683799
 30
0.0
 11
-5426.9769136862833
 21
1988.0361215683799
 31
0.0
  0
LINE
  5
7E7E
  8
1
 10
-5426.9769136862833
 20
1988.0361215683799
 30
0.0
 11
-5431.9769136862833
 21
1988.0361215683799
 31
0.0
  0
ARC
  5
7E7F
  8
1
 10
-5397.166610686284
 20
1996.0361215683799
 30
0.0
 40
9.9999679999999991
 50
45.0
 51
90.0
  0
LINE
  5
7E80
  8
1
 10
-5225.4769136862833
 20
1941.0361215683811
 30
0.0
 11
-5305.4769136862833
 21
1941.0361215683811
 31
0.0
  0
LINE
  5
7E81
  8
1
 10
-5190.4769136862833
 20
2041.0361215683799
 30
0.0
 11
-5330.4769136862833
 21
2041.0361215683799
 31
0.0
  0
LINE
  5
7E82
  8
1
 10
-5335.4769136862833
 20
1865.0361215683799
 30
0.0
 11
-5235.4769136862842
 21
1865.0361215683779
 31
0.0
  0
ARC
  5
7E83
  8
1
 10
-5373.9929046862826
 20
1972.8622925683801
 30
0.0
 40
10.000031
 50
2.9997379999999998
 51
44.999503999999988
  0
LINE
  5
7E84
  8
1
 10
-5360.4769136862842
 20
1906.0361215683799
 30
0.0
 11
-5347.4769136862833
 21
1906.0361215683799
 31
0.0
  0
ARC
  5
7E85
  8
1
 10
-5347.4769136862833
 20
1904.0361215683799
 30
0.0
 40
2.0
 50
0.0
 51
90.0
  0
LINE
  5
7E86
  8
1
 10
-5360.4769136862842
 20
1906.0361215683799
 30
0.0
 11
-5364.0065766862854
 21
1973.385608568381
 31
0.0
  0
LINE
  5
7E87
  8
1
 10
-5335.4769136862833
 20
1866.0361215683799
 30
0.0
 11
-5345.4769136862833
 21
1866.0361215683799
 31
0.0
  0
LINE
  5
7E88
  8
1
 10
-5045.9769136862833
 20
1555.0361215683811
 30
0.0
 11
-4994.4769136862833
 21
1555.0361215683811
 31
0.0
  0
LINE
  5
7E89
  8
1
 10
-4991.4769136862842
 20
1551.0361215683799
 30
0.0
 11
-4991.4769136862842
 21
1552.0361215683799
 31
0.0
  0
ARC
  5
7E8A
  8
1
 10
-4994.4769136862833
 20
1552.0361215683799
 30
0.0
 40
3.0
 50
0.0
 51
90.0
  0
LINE
  5
7E8B
  8
1
 10
-5060.9769136862842
 20
1616.0361215683811
 30
0.0
 11
-5056.4769136862833
 21
1616.0361215683811
 31
0.0
  0
LINE
  5
7E8C
  8
1
 10
-5056.4769136862833
 20
1616.0361215683811
 30
0.0
 11
-5055.4769136862833
 21
1616.0361215683811
 31
0.0
  0
ARC
  5
7E8D
  8
1
 10
-5055.4769136862833
 20
1613.0361215683811
 30
0.0
 40
3.0
 50
0.0000000000003053
 51
90.0
  0
LINE
  5
7E8E
  8
1
 10
-5056.4769136862833
 20
1551.0361215683799
 30
0.0
 11
-5056.4769136862833
 21
1616.0361215683811
 31
0.0
  0
ARC
  5
7E8F
  8
1
 10
-5045.9769136862833
 20
1561.5361215683799
 30
0.0
 40
6.5
 50
180.0
 51
270.0
  0
LINE
  5
7E90
  8
1
 10
-4357.9014777753328
 20
406.59309289745431
 30
0.0
 11
-4357.9014777753328
 21
-308.96387843161909
 31
0.0
  0
LINE
  5
7E91
  8
1
 10
-3909.7775066704621
 20
32.57717334030383
 30
0.0
 11
-3720.245609589399
 21
657.71498341661049
 31
0.0
  0
LINE
  5
7E92
  8
1
 10
-3917.0441998940082
 20
36.181937031990508
 30
0.0
 11
-3727.9014777753318
 21
660.0361215683813
 31
0.0
  0
LINE
  5
7E9A
  8
1
 10
-3727.9014777753318
 20
660.0361215683813
 30
0.0
 11
-3720.245609589399
 21
657.71498341661049
 31
0.0
  0
LINE
  5
7E9B
  8
1
 10
-3757.9014777753332
 20
1831.0361215683799
 30
0.0
 11
-3757.9014777753332
 21
1948.0550415683799
 31
0.0
  0
LINE
  5
7E9C
  8
1
 10
-3747.9014777753318
 20
1951.0361215683799
 30
0.0
 11
-3747.9014777753318
 21
1831.0361215683799
 31
0.0
  0
ARC
  5
7E9D
  8
1
 10
-2889.5305067753329
 20
1827.5673715683799
 30
0.0
 40
1000.0
 50
174.84371899999991
 51
184.269531
  0
LINE
  5
7E9E
  8
1
 10
-3770.3163947753328
 20
1961.8608285683799
 30
0.0
 11
-3889.1874277753318
 21
1741.929797568381
 31
0.0
  0
LINE
  5
7E9F
  8
1
 10
-3767.149402775332
 20
1960.149036568381
 30
0.0
 11
-3886.0204357753341
 21
1740.2180055683809
 31
0.0
  0
LINE
  5
7EA0
  8
1
 10
-3737.3129767753321
 20
2041.0361215683799
 30
0.0
 11
-3737.312976775333
 21
1530.6587957041279
 31
0.0
  0
LINE
  5
7EA1
  8
1
 10
-3815.4014777753318
 20
1671.0361215683799
 30
0.0
 11
-3815.4014777753318
 21
1591.0361215683811
 31
0.0
  0
LINE
  5
7EA2
  8
1
 10
-3830.4014777753332
 20
1671.0361215683799
 30
0.0
 11
-3830.4014777753332
 21
1591.0361215683811
 31
0.0
  0
LINE
  5
7EA3
  8
1
 10
-3822.9014777753318
 20
1574.2672906203479
 30
0.0
 11
-3822.9014777753318
 21
1687.8049525164131
 31
0.0
  0
LINE
  5
7EA4
  8
1
 10
-3792.9014777753332
 20
1589.73511405615
 30
0.0
 11
-3792.9014777753332
 21
1711.0361215683811
 31
0.0
  0
LINE
  5
7EA5
  8
1
 10
-3842.9014777753318
 20
1574.088975278275
 30
0.0
 11
-3842.9014777753332
 21
1711.0361215683811
 31
0.0
  0
LINE
  5
7EA6
  8
1
 10
-3798.9014777753332
 20
1588.0307452070269
 30
0.0
 11
-3798.9014777753318
 21
1711.0361215683811
 31
0.0
  0
ARC
  5
7EA7
  8
1
 10
-3822.9014777753318
 20
1591.0361215683811
 30
0.0
 40
7.5
 50
180.0
 51
0.0
  0
LINE
  5
7EA8
  8
1
 10
-3880.1733287753318
 20
1751.0361215683799
 30
0.0
 11
-3776.7292977753332
 21
1751.0361215683799
 31
0.0
  0
ARC
  5
7EA9
  8
1
 10
-3888.3076667753339
 20
1741.454211568381
 30
0.0
 40
0.999915
 50
151.60498000000001
 51
241.60781899999989
  0
ARC
  5
7EAA
  8
1
 10
-3886.9001967753338
 20
1740.6934695683799
 30
0.0
 40
0.999915
 50
241.6049799999999
 51
331.60781900000001
  0
LINE
  5
7EAB
  8
1
 10
-3887.375781775334
 20
1739.81370856838
 30
0.0
 11
-3888.7832527753321
 21
1740.5745735683799
 31
0.0
  0
LINE
  5
7EAC
  8
1
 10
-3883.957080775333
 20
1751.6066775683801
 30
0.0
 11
-3886.7554207753328
 21
1753.119128568381
 31
0.0
  0
LINE
  5
7EAD
  8
1
 10
-3827.9014777753318
 20
1768.4305305683799
 30
0.0
 11
-3827.9014777753318
 21
1729.43651156838
 31
0.0
  0
LINE
  5
7EAE
  8
1
 10
-3757.9014777753332
 20
1831.0361215683799
 30
0.0
 11
-3742.6310927753329
 21
1831.0361215683799
 31
0.0
  0
LINE
  5
7EAF
  8
1
 10
-3719.9014777753318
 20
1736.2951545683809
 30
0.0
 11
-3713.5175057753331
 21
1740.9929085683809
 31
0.0
  0
ARC
  5
7EB0
  8
1
 10
-3776.729236775333
 20
1761.0361215683799
 30
0.0
 40
9.9999520000000004
 50
270.0
 51
352.87489299999999
  0
ARC
  5
7EB1
  8
1
 10
-3822.9014777753318
 20
1671.0361215683799
 30
0.0
 40
7.5
 50
0.0
 51
180.0
  0
ARC
  5
7EB2
  8
1
 10
-3716.9014777753318
 20
1678.0361215683799
 30
0.0
 40
3.0
 50
90.0
 51
180.0
  0
LINE
  5
7EB3
  8
1
 10
-3719.9014777753318
 20
1736.2951545683809
 30
0.0
 11
-3719.9014777753318
 21
1661.0361215683811
 31
0.0
  0
LINE
  5
7EB4
  8
1
 10
-3757.9014777753332
 20
1831.0361215683799
 30
0.0
 11
-3766.8065077753322
 21
1759.7957645683809
 31
0.0
  0
LINE
  5
7EB5
  8
1
 10
-3792.9014777753332
 20
1711.0361215683811
 30
0.0
 11
-3842.9014777753332
 21
1711.0361215683799
 31
0.0
  0
LINE
  5
7EB6
  8
1
 10
-3772.0375867753341
 20
1958.67650156838
 30
0.0
 11
-3848.2206917753329
 21
1953.7619515683809
 31
0.0
  0
ARC
  5
7EB7
  8
1
 10
-3845.6457407753328
 20
1913.84495856838
 30
0.0
 40
40.0
 50
93.690903000000006
 51
174.84380100000001
  0
ARC
  5
7EB8
  8
1
 10
-3762.9013557753328
 20
1948.0550415683799
 30
0.0
 40
4.9998969999999989
 50
0.0
 51
61.609809999999989
  0
LINE
  5
7EB9
  8
1
 10
-3768.870471775334
 20
1956.96483256838
 30
0.0
 11
-3760.5240367753322
 21
1952.45360156838
 31
0.0
  0
ARC
  5
7EBA
  8
1
 10
-3768.029163775333
 20
1960.6244995683801
 30
0.0
 40
1.0000219999999991
 50
331.61114500000002
 51
61.611136999999999
  0
ARC
  5
7EBB
  8
1
 10
-3769.436756775332
 20
1961.3853645683801
 30
0.0
 40
0.999915
 50
61.604987999999992
 51
151.60781299999999
  0
LINE
  5
7EBC
  8
1
 10
-3768.9611707753329
 20
1962.2650025683799
 30
0.0
 11
-3767.5536997753329
 21
1961.50426056838
 31
0.0
  0
LINE
  5
7EBD
  8
1
 10
-3733.8815807753322
 20
1891.0361215683799
 30
0.0
 11
-3775.1955457753338
 21
1891.0361215683799
 31
0.0
  0
LINE
  5
7EBE
  8
1
 10
-3758.887348775334
 20
1951.0361215683799
 30
0.0
 11
-3706.6462287753329
 21
1951.0361215683799
 31
0.0
  0
LINE
  5
7EC7
  8
2
 10
-3557.9014777753332
 20
-528.96387843161915
 30
0.0
 11
-3557.9014777753332
 21
2140.4087302645939
 31
0.0
  0
LINE
  5
7EC8
  8
1
 10
-2757.9014777753332
 20
406.59309289745528
 30
0.0
 11
-2757.9014777753332
 21
-308.96387843161909
 31
0.0
  0
LINE
  5
7ECA
  8
1
 10
-4349.7586312800777
 20
864.88799218700922
 30
0.0
 11
-3783.5807665241841
 21
783.48390469468973
 31
0.0
  0
LINE
  5
7ECC
  8
1
 10
-4350.2077038799862
 20
861.71965275438163
 30
0.0
 11
-3784.0139453427118
 21
780.31328008129071
 31
0.0
  0
LINE
  5
7ECF
  8
1
 10
-3198.7587556566559
 20
36.181937031990628
 30
0.0
 11
-3387.9014777753318
 21
660.0361215683813
 31
0.0
  0
LINE
  5
7ED0
  8
1
 10
-3206.0254488802038
 20
32.577173340303602
 30
0.0
 11
-3395.557345961266
 21
657.71498341661049
 31
0.0
  0
CIRCLE
  5
7ED1
  8
1
 10
-3557.9014777753332
 20
751.03612156838085
 30
0.0
 40
120.0
  0
LINE
  5
7ED2
  8
1
 10
-3495.4014777753332
 20
679.03612156838085
 30
0.0
 11
-3620.4014777753332
 21
679.03612156838085
 31
0.0
  0
ARC
  5
7ED3
  8
1
 10
-3557.9014777753332
 20
751.03612156838085
 30
0.0
 40
68.0
 50
5.6692599840288924
 51
174.33074001597109
  0
LINE
  5
7ED4
  8
1
 10
-3702.9014777753318
 20
670.03612156838085
 30
0.0
 11
-3412.9014777753318
 21
670.03612156838085
 31
0.0
  0
LINE
  5
7ED5
  8
1
 10
-3412.9014777753318
 20
676.03612156838085
 30
0.0
 11
-3702.9014777753318
 21
676.03612156838085
 31
0.0
  0
ARC
  5
7ED6
  8
1
 10
-3630.4014777753332
 20
693.34725731613219
 30
0.0
 40
10.0
 50
0.0
 51
93.814074834290381
  0
LINE
  5
7ED7
  8
1
 10
-3629.2983691215431
 20
720.1848615573092
 30
0.0
 11
-3625.5688702750649
 21
757.75356098285852
 31
0.0
  0
LINE
  5
7ED8
  8
1
 10
-3620.4014777753332
 20
676.03612156838085
 30
0.0
 11
-3620.4014777753332
 21
693.34725731613219
 31
0.0
  0
LINE
  5
7ED9
  8
1
 10
-3690.4014777753318
 20
699.36945490171411
 30
0.0
 11
-3690.4014777753318
 21
704.03612156838085
 31
0.0
  0
ARC
  5
7EDA
  8
1
 10
-3690.4014777753318
 20
694.35835610892332
 30
0.0
 40
5.0
 50
93.814074834290381
 51
180.0
  0
LINE
  5
7EDB
  8
1
 10
-3695.4014777753332
 20
676.03612156838085
 30
0.0
 11
-3695.4014777753332
 21
694.35835610892332
 31
0.0
  0
LINE
  5
7EDC
  8
1
 10
-3640.7445371394929
 20
704.03612156838085
 30
0.0
 11
-3690.4014777753318
 21
704.03612156838085
 31
0.0
  0
ARC
  5
7EDD
  8
1
 10
-3649.2005433861682
 20
722.16057903215574
 30
0.0
 40
20.0
 50
273.8140748342903
 51
354.330740015971
  0
LINE
  5
7EDE
  8
1
 10
-3631.0666678805701
 20
703.32510889469825
 30
0.0
 11
-3690.7340728279519
 21
699.34728189820635
 31
0.0
  0
LINE
  5
7EDF
  8
1
 10
-3663.9014777753332
 20
664.38240258176711
 30
0.0
 11
-3663.9014777753332
 21
724.38240258176711
 31
0.0
  0
LINE
  5
7EE0
  8
1
 10
-3702.9014777753318
 20
676.03612156838085
 30
0.0
 11
-3702.9014777753318
 21
670.03612156838085
 31
0.0
  0
LINE
  5
7EE1
  8
1
 10
-3553.9534829025988
 20
819.03612156838074
 30
0.0
 11
-3553.9534829025988
 21
832.96555879249479
 31
0.0
  0
LINE
  5
7EE2
  8
1
 10
-3561.8494726480671
 20
832.96555879249479
 30
0.0
 11
-3561.8494726480671
 21
819.03612156838074
 31
0.0
  0
LINE
  5
7EE3
  8
1
 10
-3561.8494726480671
 20
819.03612156838074
 30
0.0
 11
-3553.9534829025988
 21
819.03612156838074
 31
0.0
  0
LINE
  5
7EE4
  8
1
 10
-3553.9534829025988
 20
832.96555879249479
 30
0.0
 11
-3561.8494726480671
 21
832.96555879249479
 31
0.0
  0
POINT
  5
7EE5
  8
1
 10
-3557.9014777753332
 20
751.03612156838085
 30
0.0
  0
POINT
  5
7EE6
  8
1
 10
-3557.9014777753332
 20
751.03612156838085
 30
0.0
  0
POINT
  5
7EE7
  8
1
 10
-3557.9014777753332
 20
751.03612156838085
 30
0.0
  0
CIRCLE
  5
7EE8
  8
1
 10
-3557.9014777753332
 20
751.03612156838085
 30
0.0
 40
25.0
  0
CIRCLE
  5
7EE9
  8
1
 10
-3557.9014777753332
 20
751.03612156838085
 30
0.0
 40
40.0
  0
LINE
  5
7EEA
  8
1
 10
-3425.4014777753318
 20
699.36945490171411
 30
0.0
 11
-3425.4014777753318
 21
704.03612156838085
 31
0.0
  0
ARC
  5
7EEB
  8
1
 10
-3425.4014777753318
 20
694.35835610892332
 30
0.0
 40
5.0
 50
0.0
 51
86.185925165709605
  0
LINE
  5
7EEC
  8
1
 10
-3420.4014777753332
 20
676.03612156838085
 30
0.0
 11
-3420.4014777753332
 21
694.35835610892332
 31
0.0
  0
LINE
  5
7EED
  8
1
 10
-3412.9014777753318
 20
670.03612156838085
 30
0.0
 11
-3412.9014777753318
 21
676.03612156838085
 31
0.0
  0
LINE
  5
7EEE
  8
1
 10
-3451.9014777753318
 20
664.38240258176711
 30
0.0
 11
-3451.9014777753318
 21
724.38240258176711
 31
0.0
  0
ARC
  5
7EEF
  8
1
 10
-3485.4014777753332
 20
693.34725731613219
 30
0.0
 40
10.0
 50
86.185925165709605
 51
180.0
  0
LINE
  5
7EF0
  8
1
 10
-3486.5045864291228
 20
720.1848615573092
 30
0.0
 11
-3490.2340852756001
 21
757.75356098285852
 31
0.0
  0
LINE
  5
7EF1
  8
1
 10
-3495.4014777753332
 20
676.03612156838085
 30
0.0
 11
-3495.4014777753332
 21
693.34725731613219
 31
0.0
  0
ARC
  5
7EF2
  8
1
 10
-3466.6024121644959
 20
722.16057903215574
 30
0.0
 40
20.0
 50
185.66925998402891
 51
266.18592516570959
  0
LINE
  5
7EF3
  8
1
 10
-3475.0584184111722
 20
704.03612156838085
 30
0.0
 11
-3425.4014777753318
 21
704.03612156838085
 31
0.0
  0
LINE
  5
7EF4
  8
1
 10
-3484.736287670095
 20
703.32510889469825
 30
0.0
 11
-3425.068882722715
 21
699.34728189820635
 31
0.0
  0
LINE
  5
7EF5
  8
1
 10
-3387.9014777753318
 20
660.0361215683813
 30
0.0
 11
-3395.557345961266
 21
657.71498341661049
 31
0.0
  0
POINT
  5
7EF8
  8
1
 10
-2982.9014777753332
 20
751.03612156838085
 30
0.0
  0
CIRCLE
  5
7EF9
  8
1
 10
-3557.9014777753332
 20
1841.0361215683799
 30
0.0
 40
100.0
  0
LINE
  5
7EFA
  8
1
 10
-3378.4899787753329
 20
2041.0361215683799
 30
0.0
 11
-3378.4899787753329
 21
1530.6587957041279
 31
0.0
  0
LINE
  5
7EFB
  8
1
 10
-3614.9014777753332
 20
1665.0361215683799
 30
0.0
 11
-3500.9014777753318
 21
1665.0361215683799
 31
0.0
  0
LINE
  5
7EFC
  8
1
 10
-3697.4014777753318
 20
1685.176868568381
 30
0.0
 11
-3697.4014777753318
 21
1656.814075568381
 31
0.0
  0
LINE
  5
7EFD
  8
1
 10
-3660.4014777753318
 20
1666.1846805683811
 30
0.0
 11
-3650.8947637753331
 21
1681.1072885683809
 31
0.0
  0
LINE
  5
7EFE
  8
1
 10
-3660.4014777753318
 20
1678.0361215683799
 30
0.0
 11
-3660.4014777753318
 21
1661.0361215683811
 31
0.0
  0
LINE
  5
7EFF
  8
1
 10
-3668.7253907753329
 20
1681.0361215683799
 30
0.0
 11
-3663.545642775332
 21
1689.16673656838
 31
0.0
  0
ARC
  5
7F00
  8
1
 10
-3663.4014777753318
 20
1678.0361215683799
 30
0.0
 40
3.0
 50
0.0
 51
90.0
  0
LINE
  5
7F01
  8
1
 10
-3285.4014777753318
 20
1671.0361215683799
 30
0.0
 11
-3285.4014777753318
 21
1591.0361215683811
 31
0.0
  0
LINE
  5
7F02
  8
1
 10
-3300.4014777753318
 20
1671.0361215683799
 30
0.0
 11
-3300.4014777753318
 21
1591.0361215683811
 31
0.0
  0
LINE
  5
7F03
  8
1
 10
-3292.9014777753332
 20
1574.2672906203479
 30
0.0
 11
-3292.9014777753332
 21
1687.8049525164131
 31
0.0
  0
LINE
  5
7F04
  8
1
 10
-3322.9014777753318
 20
1589.73511405615
 30
0.0
 11
-3322.9014777753318
 21
1711.0361215683811
 31
0.0
  0
LINE
  5
7F05
  8
1
 10
-3316.9014777753332
 20
1588.0307452070269
 30
0.0
 11
-3316.9014777753318
 21
1711.0361215683811
 31
0.0
  0
LINE
  5
7F06
  8
1
 10
-3272.9014777753332
 20
1574.0889752782739
 30
0.0
 11
-3272.9014777753332
 21
1711.0361215683811
 31
0.0
  0
ARC
  5
7F07
  8
1
 10
-3292.9014777753332
 20
1591.0361215683811
 30
0.0
 40
7.5
 50
180.0
 51
0.0
  0
LINE
  5
7F08
  8
1
 10
-3395.9014777753318
 20
1736.2951545683809
 30
0.0
 11
-3402.2853887753331
 21
1740.9929085683809
 31
0.0
  0
LINE
  5
7F09
  8
1
 10
-3455.4014777753332
 20
1661.0361215683811
 30
0.0
 11
-3395.9014777753318
 21
1661.0361215683811
 31
0.0
  0
ARC
  5
7F0A
  8
1
 10
-3398.9014777753318
 20
1678.0361215683799
 30
0.0
 40
3.0
 50
0.0
 51
90.0
  0
LINE
  5
7F0B
  8
1
 10
-3455.4014777753332
 20
1666.1846805683811
 30
0.0
 11
-3464.9081917753329
 21
1681.1072885683809
 31
0.0
  0
LINE
  5
7F0C
  8
1
 10
-3418.4014777753318
 20
1685.176868568381
 30
0.0
 11
-3418.4014777753318
 21
1656.814075568381
 31
0.0
  0
LINE
  5
7F0D
  8
1
 10
-3455.4014777753332
 20
1678.0361215683799
 30
0.0
 11
-3455.4014777753332
 21
1661.0361215683811
 31
0.0
  0
LINE
  5
7F0E
  8
1
 10
-3452.4014777753332
 20
1681.0361215683799
 30
0.0
 11
-3398.9014777753318
 21
1681.0361215683799
 31
0.0
  0
LINE
  5
7F0F
  8
1
 10
-3447.0775637753318
 20
1681.0361215683799
 30
0.0
 11
-3452.257312775333
 21
1689.16673656838
 31
0.0
  0
ARC
  5
7F10
  8
1
 10
-3452.4014777753332
 20
1678.0361215683799
 30
0.0
 40
3.0
 50
90.0
 51
180.0
  0
LINE
  5
7F11
  8
1
 10
-3322.9014777753318
 20
1711.0361215683811
 30
0.0
 11
-3272.9014777753332
 21
1711.0361215683799
 31
0.0
  0
ARC
  5
7F12
  8
1
 10
-3292.9014777753332
 20
1671.0361215683799
 30
0.0
 40
7.5
 50
0.0
 51
180.0
  0
LINE
  5
7F13
  8
1
 10
-3395.9014777753318
 20
1736.2951545683809
 30
0.0
 11
-3395.9014777753318
 21
1661.0361215683811
 31
0.0
  0
LINE
  5
7F14
  8
1
 10
-3551.6514777753332
 20
2085.7861215683802
 30
0.0
 11
-3551.6514777753332
 21
2037.75694656838
 31
0.0
  0
LINE
  5
7F15
  8
1
 10
-3564.1514777753318
 20
2085.7861215683802
 30
0.0
 11
-3564.1514777753318
 21
2037.4687385683801
 31
0.0
  0
ARC
  5
7F16
  8
1
 10
-3546.6665077753328
 20
2040.31523456838
 30
0.0
 40
3.0
 50
5.1944030000000003
 51
83.884536999999995
  0
LINE
  5
7F17
  8
1
 10
-3551.6514777753332
 20
2043.8665045683799
 30
0.0
 11
-3546.3469117753339
 21
2043.298145568381
 31
0.0
  0
LINE
  5
7F18
  8
1
 10
-3539.4014777753318
 20
2032.0361215683799
 30
0.0
 11
-3539.4014777753318
 21
2025.1087525683799
 31
0.0
  0
LINE
  5
7F19
  8
1
 10
-3549.0693847753332
 20
2025.8251835683809
 30
0.0
 11
-3548.719043775332
 21
2028.9739875683799
 31
0.0
  0
LINE
  5
7F1A
  8
1
 10
-3542.5382567753331
 20
2025.3970835683799
 30
0.0
 11
-3542.4745977753341
 21
2028.5646855683799
 31
0.0
  0
ARC
  5
7F1B
  8
1
 10
-3545.737414775333
 20
2028.6422005683801
 30
0.0
 40
2.9999380000000002
 50
86.290451000000004
 51
173.650406
  0
ARC
  5
7F1C
  8
1
 10
-3557.9014777753332
 20
1841.0361215683799
 30
0.0
 40
191.00003100000001
 50
86.209778
 51
86.290237000000005
  0
ARC
  5
7F1D
  8
1
 10
-3545.4739867753319
 20
2028.62486656838
 30
0.0
 40
2.999992999999999
 50
358.85055499999987
 51
86.210021999999995
  0
LINE
  5
7F1E
  8
1
 10
-3543.678820775332
 20
2040.5868415683799
 30
0.0
 11
-3542.9014777753332
 21
2032.0361215683799
 31
0.0
  0
ARC
  5
7F1F
  8
1
 10
-3569.1364477753318
 20
2040.31523456838
 30
0.0
 40
3.0
 50
96.115463000000005
 51
174.80560299999991
  0
LINE
  5
7F20
  8
1
 10
-3564.1514777753318
 20
2043.8665045683799
 30
0.0
 11
-3569.4560427753331
 21
2043.298145568381
 31
0.0
  0
LINE
  5
7F21
  8
1
 10
-3576.4014777753332
 20
2032.0361215683799
 30
0.0
 11
-3576.4014777753332
 21
2025.1087525683799
 31
0.0
  0
LINE
  5
7F22
  8
1
 10
-3566.7335697753329
 20
2025.8251835683809
 30
0.0
 11
-3567.083911775333
 21
2028.9739875683799
 31
0.0
  0
LINE
  5
7F23
  8
1
 10
-3573.2646977753338
 20
2025.3970835683799
 30
0.0
 11
-3573.3283577753341
 21
2028.5646855683799
 31
0.0
  0
ARC
  5
7F24
  8
1
 10
-3570.065539775333
 20
2028.6422005683801
 30
0.0
 40
3.000032
 50
6.349588999999999
 51
93.709548999999996
  0
ARC
  5
7F25
  8
1
 10
-3557.9014777753332
 20
1841.0361215683799
 30
0.0
 40
190.999954
 50
93.709762999999995
 51
93.790221999999986
  0
ARC
  5
7F26
  8
1
 10
-3570.3289677753319
 20
2028.62486656838
 30
0.0
 40
3.000090999999999
 50
93.789963
 51
181.1494449999999
  0
LINE
  5
7F27
  8
1
 10
-3572.1241337753322
 20
2040.5868415683799
 30
0.0
 11
-3572.9014777753318
 21
2032.0361215683799
 31
0.0
  0
ARC
  5
7F28
  8
1
 10
-3567.1514777753332
 20
2037.4687385683801
 30
0.0
 40
3.0
 50
270.0
 51
0.0
  0
LINE
  5
7F29
  8
1
 10
-3576.4014777753332
 20
2032.0361215683799
 30
0.0
 11
-3539.4014777753318
 21
2032.0361215683799
 31
0.0
  0
ARC
  5
7F2A
  8
1
 10
-3548.6514777753332
 20
2037.75694656838
 30
0.0
 40
3.0
 50
180.0
 51
270.0
  0
ARC
  5
7F2B
  8
1
 10
-3557.9014777753332
 20
2085.7861215683802
 30
0.0
 40
6.25
 50
0.0
 51
180.0
  0
LINE
  5
7F2C
  8
1
 10
-4327.9014777753337
 20
-375.91034007439151
 30
0.0
 11
-4327.9014777753318
 21
-286.18930701132012
 31
0.0
  0
LINE
  5
7F2D
  8
1
 10
-2787.901477775335
 20
-375.91034007439151
 30
0.0
 11
-2787.9014777753318
 21
-286.18930701132012
 31
0.0
  0
LINE
  5
7F2E
  8
1
 10
-6271.9769136862842
 20
181.03612156838059
 30
0.0
 11
-6271.9769136862869
 21
-308.96387843161932
 31
0.0
  0
LINE
  5
7F30
  8
1
 10
-6265.9769136862806
 20
181.03612156838059
 30
0.0
 11
-6265.9769136862833
 21
-308.96387843161932
 31
0.0
  0
LINE
  5
7F32
  8
1
 10
-6271.9769136862842
 20
181.03612156838059
 30
0.0
 11
-6265.9769136862842
 21
181.03612156838059
 31
0.0
  0
LINE
  5
7F34
  8
1
 10
-5066.9769136862833
 20
181.03612156838059
 30
0.0
 11
-5066.9769136862833
 21
-308.96387843161932
 31
0.0
  0
LINE
  5
7F35
  8
1
 10
-5060.9769136862851
 20
181.03612156838059
 30
0.0
 11
-5060.9769136862851
 21
-308.96387843161932
 31
0.0
  0
LINE
  5
7F37
  8
1
 10
-5060.9769136862842
 20
-308.96387843161932
 30
0.0
 11
-5130.9769136862833
 21
-308.96387843161932
 31
0.0
  0
LINE
  5
7F39
  8
1
 10
-5060.9769136862842
 20
181.03612156838059
 30
0.0
 11
-5066.9769136862833
 21
181.03612156838059
 31
0.0
  0
LINE
  5
7F3A
  8
1
 10
-6126.4769136862833
 20
-272.32650664445458
 30
0.0
 11
-6126.4769136862833
 21
-374.11009306594133
 31
0.0
  0
LINE
  5
7F3B
  8
1
 10
-5206.4769136862842
 20
-272.32650664445458
 30
0.0
 11
-5206.4769136862842
 21
-378.0245857374793
 31
0.0
  0
LINE
  5
7F3C
  8
1
 10
-5919.4675529251717
 20
112.2791497921616
 30
0.0
 11
-6265.9769136862842
 21
112.2791497921616
 31
0.0
  0
LINE
  5
7F3D
  8
1
 10
-5919.4675529251717
 20
112.2791497921616
 30
0.0
 11
-6165.1027066819097
 21
-243.96387843161929
 31
0.0
  0
LINE
  5
7F3E
  8
1
 10
-5413.4862744473967
 20
112.27914979216069
 30
0.0
 11
-5167.8511206906542
 21
-243.96387843161929
 31
0.0
  0
LINE
  5
7F3F
  8
1
 10
-5413.4862744473958
 20
112.27914979216069
 30
0.0
 11
-5066.9769136862833
 21
112.27914979216069
 31
0.0
  0
LINE
  5
7F40
  8
1
 10
-5716.4769136862842
 20
1555.5361215683811
 30
0.0
 11
-5436.4769136862842
 21
1555.5361215683811
 31
0.0
  0
LINE
  5
7F41
  8
1
 10
-5416.4769136862842
 20
1555.5361215683811
 30
0.0
 11
-5376.4769136862833
 21
1555.536121568382
 31
0.0
  0
LINE
  5
7F44
  8
1
 10
-6341.4769136862842
 20
1551.0361215683799
 30
0.0
 11
-6276.4769136862833
 21
1551.0361215683799
 31
0.0
  0
LINE
  5
7F45
  8
1
 10
-6341.4769136862842
 20
-48.963878431619378
 30
0.0
 11
-6276.4769136862833
 21
-48.963878431619378
 31
0.0
  0
LINE
  5
7F46
  8
1
 10
-5056.4769136862833
 20
-48.96387843161893
 30
0.0
 11
-5006.4769136862842
 21
-48.96387843161893
 31
0.0
  0
LINE
  5
7F47
  8
1
 10
-5056.4769136862833
 20
1551.0361215683799
 30
0.0
 11
-4991.4769136862842
 21
1551.0361215683799
 31
0.0
  0
LINE
  5
8006
  8
4
 10
-3046.4204398848628
 20
-1011.440966440994
 30
0.0
 11
-3046.4204398848628
 21
-1411.4409664409941
 31
0.0
  0
LINE
  5
8007
  8
4
 10
-4446.4204398848633
 20
-1011.440966440994
 30
0.0
 11
-4446.4204398848642
 21
-1411.4409664409941
 31
0.0
  0
LINE
  5
8008
  8
4
 10
-5446.4204398848642
 20
-1011.440966440994
 30
0.0
 11
-5446.4204398848642
 21
-1411.4409664409941
 31
0.0
  0
LINE
  5
800B
  8
4
 10
-5446.4204398848642
 20
-1411.4409664409941
 30
0.0
 11
-3046.4204398848628
 21
-1411.4409664409941
 31
0.0
  0
LINE
  5
800C
  8
4
 10
-5446.4204398848642
 20
-1211.4409664409941
 30
0.0
 11
-3046.4204398848628
 21
-1211.4409664409941
 31
0.0
  0
TEXT
  5
800D
  8
4
 10
-5369.41627819106
 20
-1148.3549147077681
 30
0.0
 40
100.0
  1
機器名称
  0
TEXT
  5
800E
  8
4
 10
-5373.9042278352681
 20
-1368.150652976972
 30
0.0
 40
100.0
  1
機器型番
  0
TEXT
  5
800F
  8
4
 10
-4391.0629489095327
 20
-1166.297428525856
 30
0.0
 40
100.0
  1
ミツヤ軸流ファン
  0
TEXT
  5
8010
  8
4
 10
-4373.1114487139021
 20
-1377.1217978811071
 30
0.0
 40
100.0
  1
AP#1600-2
  0
TEXT
  5
8012
  8
4
 10
-5064.0605725408959
 20
2949.6543092242209
 30
0.0
 40
107.9999999999999
  1
床置防振ベット
  0
TEXT
  5
8013
  8
4
 10
-6114.0852532259714
 20
3250.5585789577849
 30
0.0
 40
144.0
  1
ベルト駆動式横型軸流ファン
  0
LINE
  5
8014
  8
4
 10
-6246.4204398848642
 20
3121.6141350887988
 30
0.0
 11
-3046.4204398848628
 21
3121.6141350887988
 31
0.0
  0
LINE
  5
8015
  8
4
 10
-6246.4204398848642
 20
3521.6141350887988
 30
0.0
 11
-3046.4204398848628
 21
3521.6141350887988
 31
0.0
  0
LINE
  5
8016
  8
4
 10
-5446.4204398848642
 20
-1011.440966440994
 30
0.0
 11
-3046.4204398848628
 21
-1011.440966440994
 31
0.0
  0
LINE
  5
8017
  8
4
 10
-6246.4204398848642
 20
3521.6141350887988
 30
0.0
 11
-6246.4204398848642
 21
3121.6141350887988
 31
0.0
  0
TEXT
  5
8018
  8
4
 10
-6105.4642621031298
 20
2947.4355816518769
 30
0.0
 40
107.9999999999999
  1
右回転後方吐出
  0
TEXT
  5
8019
  8
4
 10
-3808.4813213862831
 20
3594.9187895498071
 30
0.0
 40
112.0
  1
No.
  0
TEXT
  5
801A
  8
4
 10
-4123.8283146848371
 20
2949.6543092242209
 30
0.0
 40
107.9999999999999
  1
縮尺：1/20
  0
LINE
  5
801B
  8
4
 10
-3046.4204398848628
 20
3521.6141350887988
 30
0.0
 11
-3046.4204398848628
 21
3121.6141350887988
 31
0.0
  0
LINE
  5
801C
  8
4
 10
-2546.4204398848628
 20
4082.796626559189
 30
0.0
 11
-2546.4204398848628
 21
4082.796626559189
 31
0.0
  0
LINE
  5
801D
  8
4
 10
-3865.1855951651341
 20
3545.3237928099911
 30
0.0
 11
-3865.1855951651341
 21
3756.1011496586939
 31
0.0
  0
LINE
  5
801E
  8
4
 10
-3865.1855951651341
 20
3756.1011496586939
 30
0.0
 11
-3046.4204398848628
 21
3756.1011496586939
 31
0.0
  0
LINE
  5
801F
  8
4
 10
-3046.4204398848628
 20
3756.1011496586939
 30
0.0
 11
-3046.4204398848628
 21
3545.3237928099911
 31
0.0
  0
LINE
  5
8020
  8
4
 10
-3046.4204398848628
 20
3545.3237928099911
 30
0.0
 11
-3865.1855951651341
 21
3545.3237928099911
 31
0.0
  0
LINE
  5
8021
  8
4
 10
-6746.4204398848642
 20
-1817.2033734408101
 30
0.0
 11
-6746.4204398848642
 21
4082.796626559189
 31
0.0
  0
LINE
  5
8022
  8
4
 10
-6746.4204398848642
 20
4082.796626559189
 30
0.0
 11
-2546.4204398848628
 21
4082.796626559189
 31
0.0
  0
LINE
  5
8023
  8
4
 10
-2546.4204398848628
 20
4082.796626559189
 30
0.0
 11
-2546.4204398848628
 21
-1817.2033734408101
 31
0.0
  0
LINE
  5
8024
  8
4
 10
-2546.4204398848628
 20
-1817.2033734408101
 30
0.0
 11
-6746.4204398848642
 21
-1817.2033734408101
 31
0.0
  0
LINE
  5
802C
  8
1
 10
-6271.9769136862869
 20
-308.96387843161932
 30
0.0
 11
-5130.9769136862833
 21
-308.96387843161932
 31
0.0
  0
LINE
  5
802E
  8
1
 10
-6276.4769136862824
 20
-353.96387843161932
 30
0.0
 11
-5056.4769136862833
 21
-353.96387843161932
 31
0.0
  0
LINE
  5
8032
  8
1
 10
-6276.4769136862824
 20
-478.96387843161938
 30
0.0
 11
-5056.4769136862824
 21
-478.96387843161881
 31
0.0
  0
LINE
  5
8038
  8
1
 10
-4357.8919455255154
 20
-478.96387843161898
 30
0.0
 11
-2757.911010025151
 21
-478.96387843161898
 31
0.0
  0
LINE
  5
8039
  8
1
 10
-4357.8919455255154
 20
-353.96387843161909
 30
0.0
 11
-2757.911010025151
 21
-353.96387843161909
 31
0.0
  0
LINE
  5
8581
  8
1
 10
-3780.0881334064179
 20
699.87861909344281
 30
0.0
 11
-4351.9545855606466
 21
848.39967746320178
 31
0.0
  0
LINE
  5
8582
  8
1
 10
-3772.105259225079
 20
829.14335562918563
 30
0.0
 11
-4170.8224555322849
 21
1265.164388662753
 31
0.0
  0
LINE
  5
8583
  8
1
 10
-4160.0005934884202
 20
1277.7966505163249
 30
0.0
 11
-3729.499725753562
 21
901.16287231854471
 31
0.0
  0
LINE
  5
8584
  8
1
 10
-4162.1028187920183
 20
1275.3840399523849
 30
0.0
 11
-3731.5898660091548
 21
898.73968886699515
 31
0.0
  0
LINE
  5
8585
  8
1
 10
-3695.0076362332779
 20
933.20610074416163
 30
0.0
 11
-3791.9259390321931
 21
1516.0410571952279
 31
0.0
  0
LINE
  5
8586
  8
1
 10
-3775.9699389396501
 20
1520.7413549177629
 30
0.0
 11
-3620.0509892071632
 21
970.40211307295385
 31
0.0
  0
LINE
  5
8587
  8
1
 10
-3779.0470153183801
 20
1519.862923406607
 30
0.0
 11
-3623.1236886191241
 21
969.50823240325997
 31
0.0
  0
LINE
  5
8588
  8
1
 10
-3573.6714958910688
 20
978.49008730349215
 30
0.0
 11
-3337.5193556892068
 21
1520.082102160449
 31
0.0
  0
LINE
  5
8589
  8
1
 10
-3321.5775624135722
 20
1515.3338430278179
 30
0.0
 11
-3490.5491618972319
 21
968.86097218431939
 31
0.0
  0
LINE
  5
858A
  8
1
 10
-3324.6366438982959
 20
1516.273024283036
 30
0.0
 11
-3493.6129867635468
 21
969.78481281801305
 31
0.0
  0
LINE
  5
858B
  8
1
 10
-3447.247019416654
 20
950.38403564161024
 30
0.0
 11
-2954.221017528494
 21
1275.9836445801241
 31
0.0
  0
LINE
  5
858C
  8
1
 10
-2943.4371919799469
 20
1263.318896490558
 30
0.0
 11
-3382.7791563236478
 21
897.03671242120095
 31
0.0
  0
LINE
  5
858D
  8
1
 10
-2945.4912388135849
 20
1265.7726553551479
 30
0.0
 11
-3384.8455363931239
 21
899.48018898879695
 31
0.0
  0
LINE
  5
858E
  8
1
 10
-3356.5261847848651
 20
857.95661246233078
 30
0.0
 11
-2765.7055309559169
 21
862.50621550791857
 31
0.0
  0
LINE
  5
858F
  8
1
 10
-2763.5591700367022
 20
846.0113716942252
 30
0.0
 11
-3331.5139200698231
 21
778.1040678542463
 31
0.0
  0
LINE
  5
8590
  8
1
 10
-2763.945425801086
 20
849.18798112013963
 30
0.0
 11
-3331.9161194964249
 21
781.27877098196655
 31
0.0
  0
LINE
  5
8842
  8
1
 10
-6265.9769136862806
 20
-302.96387843161938
 30
0.0
 11
-5066.9769136862833
 21
-302.96387843161938
 31
0.0
  0
LINE
  5
8843
  8
1
 10
-6265.9769136862797
 20
-243.96387843161889
 30
0.0
 11
-5066.9769136862833
 21
-243.96387843161929
 31
0.0
  0
LINE
  5
8882
  8
1
 10
-6276.4769136862824
 20
-363.96387843161892
 30
0.0
 11
-5056.4769136862833
 21
-363.96387843161932
 31
0.0
  0
LINE
  5
8883
  8
1
 10
-6276.4769136862824
 20
-468.96387843161932
 30
0.0
 11
-5056.4769136862824
 21
-468.96387843161892
 31
0.0
  0
LINE
  5
8889
  8
1
 10
-6276.4769136862824
 20
-353.96387843161932
 30
0.0
 11
-6276.4769136862824
 21
-478.96387843161938
 31
0.0
  0
LINE
  5
8891
  8
1
 10
-5056.4769136862833
 20
-353.96387843161659
 30
0.0
 11
-5056.4769136862824
 21
-478.96387843161619
 31
0.0
  0
LINE
  5
88D4
  8
1
 10
-4292.8919455255127
 20
-468.96387843161909
 30
0.0
 11
-2822.9110100251528
 21
-468.96387843161909
 31
0.0
  0
LINE
  5
88D5
  8
1
 10
-4292.8919455255127
 20
-363.96387843161909
 30
0.0
 11
-2822.911010025151
 21
-363.96387843161921
 31
0.0
  0
LINE
  5
89DA
  8
1
 10
-4292.8919455255136
 20
-353.96387843161909
 30
0.0
 11
-4292.8919455255127
 21
-478.96387843161909
 31
0.0
  0
LINE
  5
89DB
  8
1
 10
-4298.8919455255136
 20
-373.87544339777241
 30
0.0
 11
-4298.8919455255136
 21
-459.0523134654656
 31
0.0
  0
LINE
  5
89DC
  8
1
 10
-4306.1946995835333
 20
-467.02187105019902
 30
0.0
 11
-4357.8919455255154
 21
-471.54479400563372
 31
0.0
  0
LINE
  5
89DD
  8
1
 10
-4357.8919455255154
 20
-471.54479400563372
 30
0.0
 11
-4357.8919455255154
 21
-478.96387843161909
 31
0.0
  0
ARC
  5
89DE
  8
1
 10
-4306.8919455255127
 20
-459.05231346546719
 30
0.0
 40
8.0
 50
274.99999999998772
 51
0.000000000010992
  0
LINE
  5
89DF
  8
1
 10
-4306.1946995835333
 20
-365.90588581303922
 30
0.0
 11
-4357.8919455255154
 21
-361.38296285760453
 31
0.0
  0
LINE
  5
89E0
  8
1
 10
-4357.8919455255154
 20
-353.96387843161909
 30
0.0
 11
-4357.8919455255154
 21
-361.38296285760453
 31
0.0
  0
ARC
  5
89E1
  8
1
 10
-4306.8919455255127
 20
-373.87544339777151
 30
0.0
 40
8.0
 50
359.99999999999102
 51
85.000000000012406
  0
LINE
  5
89E2
  8
1
 10
-2816.911010025151
 20
-373.87544339777241
 30
0.0
 11
-2816.911010025151
 21
-459.0523134654656
 31
0.0
  0
LINE
  5
89E3
  8
1
 10
-2822.911010025151
 20
-353.96387843161909
 30
0.0
 11
-2822.9110100251528
 21
-478.96387843161909
 31
0.0
  0
ARC
  5
89E4
  8
1
 10
-2808.9110100251519
 20
-459.05231346546719
 30
0.0
 40
8.0
 50
179.999999999989
 51
265.00000000001222
  0
LINE
  5
89E5
  8
1
 10
-2757.911010025151
 20
-471.54479400563372
 30
0.0
 11
-2757.911010025151
 21
-478.96387843161909
 31
0.0
  0
LINE
  5
89E6
  8
1
 10
-2809.6082559671322
 20
-467.02187105019902
 30
0.0
 11
-2757.911010025151
 21
-471.54479400563372
 31
0.0
  0
ARC
  5
89E7
  8
1
 10
-2808.9110100251519
 20
-373.87544339777151
 30
0.0
 40
8.0
 50
94.99999999998758
 51
180.0000000000089
  0
LINE
  5
89E8
  8
1
 10
-2757.911010025151
 20
-353.96387843161909
 30
0.0
 11
-2757.911010025151
 21
-361.38296285760453
 31
0.0
  0
LINE
  5
89E9
  8
1
 10
-2809.6082559671322
 20
-365.90588581303922
 30
0.0
 11
-2757.911010025151
 21
-361.38296285760453
 31
0.0
  0
LINE
  5
8C06
  8
1
 10
-3657.9014777753318
 20
1841.0361215683799
 30
0.0
 11
-3677.9014777753318
 21
751.03612156838085
 31
0.0
  0
LINE
  5
8C07
  8
1
 10
-3457.9014777753332
 20
1841.0361215683799
 30
0.0
 11
-3437.9014777753318
 21
751.03612156838085
 31
0.0
  0
CIRCLE
  5
8C08
  8
1
 10
-3557.9014777753332
 20
751.03612156838085
 30
0.0
 40
800.0
  0
CIRCLE
  5
8C0A
  8
1
 10
-3557.9014777753332
 20
751.03612156838085
 30
0.0
 40
806.0
  0
CIRCLE
  5
8C0B
  8
1
 10
-3557.9014777753332
 20
751.03612156838085
 30
0.0
 40
871.0
  0
LINE
  5
8C0F
  8
1
 10
-6145.5013039301848
 20
1547.0361215683799
 30
0.0
 11
-6256.4769136862842
 21
1001.0361215683801
 31
0.0
  0
LINE
  5
8C10
  8
1
 10
-6097.45252344238
 20
1547.0361215683799
 30
0.0
 11
-5986.4769136862833
 21
1001.0361215683801
 31
0.0
  0
LINE
  5
8C11
  8
1
 10
-6145.5013039301839
 20
1547.0361215683799
 30
0.0
 11
-6097.4525234423791
 21
1547.0361215683799
 31
0.0
  0
DIMENSION
  5
8C14
  8
3
  2
*D1
 10
-5056.4769136862833
 20
2334.2117807996829
 30
0.0
 11
-5668.9097887258249
 21
2334.2117807996829
 31
0.0
 70
   128
 13
-6276.4769136862833
 23
1616.0361215683811
 33
0.0
 14
-5056.4769136862833
 24
1616.0361215683811
 34
0.0
1001
ACAD
1000
DSTYLE
1002
{
1070
   287
1070
     3
1070
   287
1070
     3
1070
   287
1070
     3
1070
   287
1070
     3
1070
    40
1040
20.0
1070
   143
1040
0.039
1070
   172
1070
     1
1070
   271
1070
     0
1070
   279
1070
     0
1070
   288
1070
     1
1002
}
  0
DIMENSION
  5
8C21
  8
3
  2
*D2
 10
-6528.1473395956846
 20
-48.963878431619321
 30
0.0
 11
-6528.1473395956846
 21
758.22857394863047
 31
0.0
 70
   128
 13
-6341.4769136862842
 23
1551.0361215683799
 33
0.0
 14
-6341.4769136862842
 24
-48.963878431619378
 34
0.0
 50
90.0
1001
ACAD
1000
DSTYLE
1002
{
1070
   287
1070
     3
1070
   287
1070
     3
1070
   287
1070
     3
1070
   287
1070
     3
1070
     3
1000
φ<>
1070
    40
1040
20.0
1070
   143
1040
0.039
1070
   172
1070
     1
1070
   271
1070
     0
1070
   279
1070
     0
1070
   288
1070
     1
1002
}
  0
DIMENSION
  5
8C37
  8
3
  2
*D3
 10
-5056.4769136862824
 20
-726.87637938424814
 30
0.0
 11
-5627.7065004150973
 21
-726.87637938424814
 31
0.0
 70
   128
 13
-6276.4769136862824
 23
-478.96387843161938
 33
0.0
 14
-5056.4769136862824
 24
-478.96387843161619
 34
0.0
1001
ACAD
1000
DSTYLE
1002
{
1070
   287
1070
     3
1070
   287
1070
     3
1070
   287
1070
     3
1070
   287
1070
     3
1070
    40
1040
20.0
1070
   143
1040
0.039
1070
   172
1070
     1
1070
   271
1070
     0
1070
   279
1070
     0
1070
   288
1070
     1
1002
}
  0
DIMENSION
  5
8C44
  8
3
  2
*D4
 10
-2686.9014777753318
 20
2311.4531234070669
 30
0.0
 11
-3670.3821597741439
 21
2311.4531234070669
 31
0.0
 70
   128
 13
-4428.9014777753318
 23
751.03612156838085
 33
0.0
 14
-2686.9014777753318
 24
751.03612156838085
 34
0.0
1001
ACAD
1000
DSTYLE
1002
{
1070
   287
1070
     3
1070
   287
1070
     3
1070
   287
1070
     3
1070
   287
1070
     3
1070
    40
1040
20.0
1070
   143
1040
0.039
1070
   172
1070
     1
1070
   271
1070
     0
1070
   279
1070
     0
1070
   288
1070
     1
1002
}
  0
DIMENSION
  5
8C51
  8
3
  2
*D5
 10
-2757.911010025151
 20
-744.56846451668025
 30
0.0
 11
-3565.5483567301631
 21
-744.56846451668025
 31
0.0
 70
   128
 13
-4357.8919455255154
 23
-478.96387843161909
 33
0.0
 14
-2757.911010025151
 24
-478.96387843161909
 34
0.0
1001
ACAD
1000
DSTYLE
1002
{
1070
   287
1070
     3
1070
   287
1070
     3
1070
   287
1070
     3
1070
   287
1070
     3
1070
    40
1040
20.0
1070
   143
1040
0.039
1070
   172
1070
     1
1070
   271
1070
     0
1070
   279
1070
     0
1070
   288
1070
     1
1002
}
  0
DIMENSION
  5
8C5E
  8
3
  2
*D6
 10
-4553.670774485232
 20
-308.96387843161898
 30
0.0
 11
-4553.670774485232
 21
208.8042797015587
 31
0.0
 70
   128
 13
-4507.9014777753328
 23
751.03612156838085
 33
0.0
 14
-4357.9014777753328
 24
-308.96387843161909
 34
0.0
 50
90.0
1001
ACAD
1000
DSTYLE
1002
{
1070
   287
1070
     3
1070
   287
1070
     3
1070
   287
1070
     3
1070
   287
1070
     3
1070
    40
1040
20.0
1070
   143
1040
0.039
1070
   172
1070
     1
1070
   271
1070
     0
1070
   279
1070
     0
1070
   288
1070
     1
1002
}
  0
DIMENSION
  5
8C6B
  8
3
  2
*D7
 10
-4553.670774485232
 20
-353.96387843161909
 30
0.0
 11
-4573.670774485232
 21
-308.96387843161898
 31
0.0
 70
   128
 13
-4357.9014777753328
 23
-308.96387843161909
 33
0.0
 14
-4357.8919455255154
 24
-353.96387843161909
 34
0.0
 50
90.0
1001
ACAD
1000
DSTYLE
1002
{
1070
   287
1070
     4
1070
   287
1070
     4
1070
   287
1070
     4
1070
   287
1070
     4
1070
    40
1040
20.0
1070
   143
1040
0.039
1070
   172
1070
     1
1070
   271
1070
     0
1070
   279
1070
     1
1070
   288
1070
     1
1070
   289
1070
     3
1002
}
  0
DIMENSION
  5
8C93
  8
3
  2
*D8
 10
-4553.670774485232
 20
-478.96387843161898
 30
0.0
 11
-4553.670774485232
 21
-610.39244986019116
 31
0.0
 70
   128
 13
-4357.8919455255154
 23
-353.96387843161909
 33
0.0
 14
-4357.8919455255154
 24
-478.96387843161898
 34
0.0
 50
90.0
1001
ACAD
1000
DSTYLE
1002
{
1070
   287
1070
     3
1070
   287
1070
     3
1070
   287
1070
     3
1070
   287
1070
     3
1070
    40
1040
20.0
1070
   143
1040
0.039
1070
   172
1070
     1
1070
   271
1070
     0
1070
   279
1070
     0
1070
   288
1070
     1
1002
}
  0
DIMENSION
  5
8CA1
  8
3
  2
*D9
 10
-4782.2139983292727
 20
-478.96387843161892
 30
0.0
 11
-4782.2139983292727
 21
181.03489127225291
 31
0.0
 70
   128
 13
-4507.9014777753328
 23
751.03612156838085
 33
0.0
 14
-4357.8919455255154
 24
-478.96387843161898
 34
0.0
 50
90.0
1001
ACAD
1000
DSTYLE
1002
{
1070
   287
1070
     3
1070
   287
1070
     3
1070
   287
1070
     3
1070
   287
1070
     3
1070
    40
1040
20.0
1070
   143
1040
0.039
1070
   172
1070
     1
1070
   271
1070
     0
1070
   279
1070
     0
1070
   288
1070
     1
1002
}
  0
DIMENSION
  5
8CAE
  8
3
  2
*D10
 10
-4779.4063341103538
 20
751.03612156838085
 30
0.0
 11
-4779.4063341103538
 21
1398.3908719261501
 31
0.0
 70
   128
  1
MAX.1800
 13
-3557.9014777753332
 23
2092.0361215683802
 33
0.0
 14
-4507.9014777753328
 24
751.03612156838085
 34
0.0
 50
90.0
1001
ACAD
1000
DSTYLE
1002
{
1070
   287
1070
     3
1070
   287
1070
     3
1070
   287
1070
     3
1070
   287
1070
     3
1070
    40
1040
20.0
1070
   143
1040
0.039
1070
   172
1070
     1
1070
   271
1070
     0
1070
   279
1070
     0
1070
   288
1070
     1
1002
}
  0
ENDSEC
  0
EOF
