  0
SECTION
  2
HEADER
  9
$ACADVER
  1
AC1015
  9
$ACADMAINTVER
 70
    20
  9
$DWGCODEPAGE
  3
ANSI_932
  9
$INSBASE
 10
0.0
 20
0.0
 30
0.0
  9
$EXTMIN
 10
-6746.420439884864
 20
-1817.203373440811
 30
0.0
  9
$EXTMAX
 10
-2546.420439884863
 20
4082.796626559189
 30
0.0
  9
$LIMMIN
 10
0.0
 20
0.0
  9
$LIMMAX
 10
297.0
 20
210.0
  9
$ORTHOMODE
 70
     1
  9
$REGENMODE
 70
     1
  9
$FILLMODE
 70
     0
  9
$QTEXTMODE
 70
     0
  9
$MIRRTEXT
 70
     1
  9
$LTSCALE
 40
100.0
  9
$ATTMODE
 70
     1
  9
$TEXTSIZE
 40
180.0
  9
$TRACEWID
 40
0.05
  9
$TEXTSTYLE
  7
STANDARD
  9
$CLAYER
  8
3
  9
$CELTYPE
  6
BYLAYER
  9
$CECOLOR
 62
   256
  9
$CELTSCALE
 40
1.0
  9
$DISPSILH
 70
     0
  9
$DIMSCALE
 40
20.0
  9
$DIMASZ
 40
2.0
  9
$DIMEXO
 40
0.5
  9
$DIMDLI
 40
10.0
  9
$DIMRND
 40
0.0
  9
$DIMDLE
 40
0.0
  9
$DIMEXE
 40
1.0
  9
$DIMTP
 40
1.0
  9
$DIMTM
 40
1.0
  9
$DIMTXT
 40
3.0
  9
$DIMCEN
 40
0.0
  9
$DIMTSZ
 40
0.0
  9
$DIMTOL
 70
     0
  9
$DIMLIM
 70
     0
  9
$DIMTIH
 70
     0
  9
$DIMTOH
 70
     0
  9
$DIMSE1
 70
     0
  9
$DIMSE2
 70
     0
  9
$DIMTAD
 70
     1
  9
$DIMZIN
 70
     8
  9
$DIMBLK
  1

  9
$DIMASO
 70
     1
  9
$DIMSHO
 70
     1
  9
$DIMPOST
  1

  9
$DIMAPOST
  1

  9
$DIMALT
 70
     0
  9
$DIMALTD
 70
     2
  9
$DIMALTF
 40
0.039
  9
$DIMLFAC
 40
1.0
  9
$DIMTOFL
 70
     1
  9
$DIMTVP
 40
0.0
  9
$DIMTIX
 70
     0
  9
$DIMSOXD
 70
     0
  9
$DIMSAH
 70
     1
  9
$DIMBLK1
  1
OPEN
  9
$DIMBLK2
  1
OPEN
  9
$DIMSTYLE
  2
IGA
  9
$DIMCLRD
 70
     0
  9
$DIMCLRE
 70
     0
  9
$DIMCLRT
 70
     0
  9
$DIMTFAC
 40
10.0
  9
$DIMGAP
 40
1.0
  9
$DIMJUST
 70
     0
  9
$DIMSD1
 70
     0
  9
$DIMSD2
 70
     0
  9
$DIMTOLJ
 70
     1
  9
$DIMTZIN
 70
     8
  9
$DIMALTZ
 70
     0
  9
$DIMALTTZ
 70
     0
  9
$DIMUPT
 70
     1
  9
$DIMDEC
 70
     0
  9
$DIMTDEC
 70
     0
  9
$DIMALTU
 70
     2
  9
$DIMALTTD
 70
     2
  9
$DIMTXSTY
  7
STANDARD
  9
$DIMAUNIT
 70
     0
  9
$DIMADEC
 70
     0
  9
$DIMALTRND
 40
0.0
  9
$DIMAZIN
 70
     0
  9
$DIMDSEP
 70
    46
  9
$DIMATFIT
 70
     3
  9
$DIMFRAC
 70
     0
  9
$DIMLDRBLK
  1
OPEN
  9
$DIMLUNIT
 70
     2
  9
$DIMLWD
 70
    -2
  9
$DIMLWE
 70
    -2
  9
$DIMTMOVE
 70
     0
  9
$LUNITS
 70
     2
  9
$LUPREC
 70
     3
  9
$SKETCHINC
 40
0.1
  9
$FILLETRAD
 40
8.0
  9
$AUNITS
 70
     0
  9
$AUPREC
 70
     0
  9
$MENU
  1
acad
  9
$ELEVATION
 40
0.0
  9
$PELEVATION
 40
0.0
  9
$THICKNESS
 40
0.0
  9
$LIMCHECK
 70
     0
  9
$CHAMFERA
 40
0.5
  9
$CHAMFERB
 40
0.5
  9
$CHAMFERC
 40
20.0
  9
$CHAMFERD
 40
0.0
  9
$SKPOLY
 70
     0
  9
$TDCREATE
 40
2453249.427640046
  9
$TDUCREATE
 40
2453249.052640047
  9
$TDUPDATE
 40
2457773.702826817
  9
$TDUUPDATE
 40
2457773.327826817
  9
$TDINDWG
 40
0.1455371181
  9
$TDUSRTIMER
 40
0.1455371181
  9
$USRTIMER
 70
     1
  9
$ANGBASE
 50
0.0
  9
$ANGDIR
 70
     0
  9
$PDMODE
 70
     0
  9
$PDSIZE
 40
0.0
  9
$PLINEWID
 40
0.0
  9
$SPLFRAME
 70
     0
  9
$SPLINETYPE
 70
     6
  9
$SPLINESEGS
 70
     8
  9
$HANDSEED
  5
9335
  9
$SURFTAB1
 70
     6
  9
$SURFTAB2
 70
     6
  9
$SURFTYPE
 70
     6
  9
$SURFU
 70
     6
  9
$SURFV
 70
     6
  9
$UCSBASE
  2

  9
$UCSNAME
  2

  9
$UCSORG
 10
0.0
 20
0.0
 30
0.0
  9
$UCSXDIR
 10
1.0
 20
0.0
 30
0.0
  9
$UCSYDIR
 10
0.0
 20
1.0
 30
0.0
  9
$UCSORTHOREF
  2

  9
$UCSORTHOVIEW
 70
     0
  9
$UCSORGTOP
 10
0.0
 20
0.0
 30
0.0
  9
$UCSORGBOTTOM
 10
0.0
 20
0.0
 30
0.0
  9
$UCSORGLEFT
 10
0.0
 20
0.0
 30
0.0
  9
$UCSORGRIGHT
 10
0.0
 20
0.0
 30
0.0
  9
$UCSORGFRONT
 10
0.0
 20
0.0
 30
0.0
  9
$UCSORGBACK
 10
0.0
 20
0.0
 30
0.0
  9
$PUCSBASE
  2

  9
$PUCSNAME
  2

  9
$PUCSORG
 10
0.0
 20
0.0
 30
0.0
  9
$PUCSXDIR
 10
1.0
 20
0.0
 30
0.0
  9
$PUCSYDIR
 10
0.0
 20
1.0
 30
0.0
  9
$PUCSORTHOREF
  2

  9
$PUCSORTHOVIEW
 70
     0
  9
$PUCSORGTOP
 10
0.0
 20
0.0
 30
0.0
  9
$PUCSORGBOTTOM
 10
0.0
 20
0.0
 30
0.0
  9
$PUCSORGLEFT
 10
0.0
 20
0.0
 30
0.0
  9
$PUCSORGRIGHT
 10
0.0
 20
0.0
 30
0.0
  9
$PUCSORGFRONT
 10
0.0
 20
0.0
 30
0.0
  9
$PUCSORGBACK
 10
0.0
 20
0.0
 30
0.0
  9
$USERI1
 70
     0
  9
$USERI2
 70
     0
  9
$USERI3
 70
     0
  9
$USERI4
 70
     0
  9
$USERI5
 70
     0
  9
$USERR1
 40
0.0
  9
$USERR2
 40
0.0
  9
$USERR3
 40
0.0
  9
$USERR4
 40
0.0
  9
$USERR5
 40
0.0
  9
$WORLDVIEW
 70
     1
  9
$SHADEDGE
 70
     3
  9
$SHADEDIF
 70
    70
  9
$TILEMODE
 70
     1
  9
$MAXACTVP
 70
    16
  9
$PINSBASE
 10
0.0
 20
0.0
 30
0.0
  9
$PLIMCHECK
 70
     0
  9
$PEXTMIN
 10
1.000000000000000E+20
 20
1.000000000000000E+20
 30
1.000000000000000E+20
  9
$PEXTMAX
 10
-1.000000000000000E+20
 20
-1.000000000000000E+20
 30
-1.000000000000000E+20
  9
$PLIMMIN
 10
0.0
 20
0.0
  9
$PLIMMAX
 10
12.0
 20
9.0
  9
$UNITMODE
 70
     0
  9
$VISRETAIN
 70
     0
  9
$PLINEGEN
 70
     0
  9
$PSLTSCALE
 70
     1
  9
$TREEDEPTH
 70
  3020
  9
$CMLSTYLE
  2
STANDARD
  9
$CMLJUST
 70
     0
  9
$CMLSCALE
 40
20.0
  9
$PROXYGRAPHICS
 70
     1
  9
$MEASUREMENT
 70
     1
  9
$CELWEIGHT
370
    -1
  9
$ENDCAPS
280
     0
  9
$JOINSTYLE
280
     0
  9
$LWDISPLAY
290
     0
  9
$INSUNITS
 70
     0
  9
$HYPERLINKBASE
  1

  9
$STYLESHEET
  1
monochrome.ctb
  9
$XEDIT
290
     1
  9
$CEPSNTYPE
380
     0
  9
$PSTYLEMODE
290
     1
  9
$FINGERPRINTGUID
  2
{2DE1C727-03DC-11D9-BB96-0080AD788799}
  9
$VERSIONGUID
  2
{7AB400C2-0115-46EE-82F2-A51A716FD1ED}
  9
$EXTNAMES
290
     1
  9
$PSVPSCALE
 40
0.0
  9
$OLESTARTUP
290
     0
  0
ENDSEC
  0
SECTION
  2
CLASSES
  0
CLASS
  1
ACDBDICTIONARYWDFLT
  2
AcDbDictionaryWithDefault
  3
ObjectDBX Classes
 90
        0
280
     0
281
     0
  0
CLASS
  1
ACDBPLACEHOLDER
  2
AcDbPlaceHolder
  3
ObjectDBX Classes
 90
        0
280
     0
281
     0
  0
CLASS
  1
LAYOUT
  2
AcDbLayout
  3
ObjectDBX Classes
 90
        0
280
     0
281
     0
  0
CLASS
  1
DICTIONARYVAR
  2
AcDbDictionaryVar
  3
ObjectDBX Classes
 90
        0
280
     0
281
     0
  0
CLASS
  1
MATERIAL
  2
AcDbMaterial
  3
ObjectDBX Classes
 90
     1153
280
     0
281
     0
  0
CLASS
  1
VISUALSTYLE
  2
AcDbVisualStyle
  3
ObjectDBX Classes
 90
     4095
280
     0
281
     0
  0
CLASS
  1
TABLESTYLE
  2
AcDbTableStyle
  3
ObjectDBX Classes
 90
     4095
280
     0
281
     0
  0
CLASS
  1
SCALE
  2
AcDbScale
  3
ObjectDBX Classes
 90
     1153
280
     0
281
     0
  0
CLASS
  1
MLEADERSTYLE
  2
AcDbMLeaderStyle
  3
ACDB_MLEADERSTYLE_CLASS
 90
     4095
280
     0
281
     0
  0
CLASS
  1
ACDBSECTIONVIEWSTYLE
  2
AcDbSectionViewStyle
  3
ObjectDBX Classes
 90
     1025
280
     0
281
     0
  0
CLASS
  1
ACDBDETAILVIEWSTYLE
  2
AcDbDetailViewStyle
  3
ObjectDBX Classes
 90
     1025
280
     0
281
     0
  0
CLASS
  1
CELLSTYLEMAP
  2
AcDbCellStyleMap
  3
ObjectDBX Classes
 90
     1152
280
     0
281
     0
  0
ENDSEC
  0
SECTION
  2
TABLES
  0
TABLE
  2
VPORT
  5
8
330
0
100
AcDbSymbolTable
 70
     1
  0
VPORT
  5
916A
330
8
100
AcDbSymbolTableRecord
100
AcDbViewportTableRecord
  2
*Active
 70
     0
 10
0.0
 20
0.0
 11
1.0
 21
1.0
 12
-4646.474270157026
 22
1132.796654034042
 13
0.0
 23
0.0
 14
10.0
 24
10.0
 15
10.0
 25
10.0
 16
0.0
 26
0.0
 36
1.0
 17
0.0
 27
0.0
 37
0.0
 40
5947.000395543986
 41
2.181937172774869
 42
50.0
 43
0.0
 44
0.0
 50
0.0
 51
0.0
 71
     0
 72
   100
 73
     1
 74
     0
 75
     0
 76
     0
 77
     0
 78
     0
281
     0
 65
     1
110
0.0
120
0.0
130
0.0
111
1.0
121
0.0
131
0.0
112
0.0
122
1.0
132
0.0
 79
     0
146
0.0
1001
ACAD_NAV_VCDISPLAY
1070
     3
  0
ENDTAB
  0
TABLE
  2
LTYPE
  5
5
330
0
100
AcDbSymbolTable
 70
     2
  0
LTYPE
  5
13
330
5
100
AcDbSymbolTableRecord
100
AcDbLinetypeTableRecord
  2
BYBLOCK
 70
     0
  3

 72
    65
 73
     0
 40
0.0
  0
LTYPE
  5
14
330
5
100
AcDbSymbolTableRecord
100
AcDbLinetypeTableRecord
  2
BYLAYER
 70
     0
  3

 72
    65
 73
     0
 40
0.0
  0
LTYPE
  5
15
330
5
100
AcDbSymbolTableRecord
100
AcDbLinetypeTableRecord
  2
CONTINUOUS
 70
     0
  3
Solid line
 72
    65
 73
     0
 40
0.0
  0
LTYPE
  5
1F
330
5
100
AcDbSymbolTableRecord
100
AcDbLinetypeTableRecord
  2
CENTER
 70
     0
  3
____ _ ____ _ ____ _ ____ _ ____ _ ____ _ ____ 
 72
    65
 73
     4
 40
2.0
 49
1.25
 74
     0
 49
-0.25
 74
     0
 49
0.25
 74
     0
 49
-0.25
 74
     0
  0
ENDTAB
  0
TABLE
  2
LAYER
  5
2
102
{ACAD_XDICTIONARY
360
92A9
102
}
330
0
100
AcDbSymbolTable
 70
     6
  0
LAYER
  5
F
102
{ACAD_XDICTIONARY
360
9289
102
}
330
2
100
AcDbSymbolTableRecord
100
AcDbLayerTableRecord
  2
0
 70
     0
 62
     7
  6
CONTINUOUS
370
    -3
390
80D6
  0
LAYER
  5
31
102
{ACAD_XDICTIONARY
360
928B
102
}
330
2
100
AcDbSymbolTableRecord
100
AcDbLayerTableRecord
  2
3
 70
     0
 62
     2
  6
CONTINUOUS
370
    -3
390
80D6
  0
LAYER
  5
76D0
102
{ACAD_XDICTIONARY
360
928D
102
}
330
2
100
AcDbSymbolTableRecord
100
AcDbLayerTableRecord
  2
2
 70
     0
 62
     3
  6
CENTER
370
    -3
390
80D6
  0
LAYER
  5
76D1
102
{ACAD_XDICTIONARY
360
928F
102
}
330
2
100
AcDbSymbolTableRecord
100
AcDbLayerTableRecord
  2
1
 70
     0
 62
     4
  6
CONTINUOUS
370
    -3
390
80D6
  0
LAYER
  5
76D2
102
{ACAD_XDICTIONARY
360
9291
102
}
330
2
100
AcDbSymbolTableRecord
100
AcDbLayerTableRecord
  2
4
 70
     0
 62
     7
  6
CONTINUOUS
370
    -3
390
80D6
  0
LAYER
  5
7B90
330
2
100
AcDbSymbolTableRecord
100
AcDbLayerTableRecord
  2
DEFPOINTS
 70
     0
 62
     7
  6
CONTINUOUS
290
     0
370
    -3
390
80D6
  0
ENDTAB
  0
TABLE
  2
STYLE
  5
3
330
0
100
AcDbSymbolTable
 70
     1
  0
STYLE
  5
10
330
3
100
AcDbSymbolTableRecord
100
AcDbTextStyleTableRecord
  2
STANDARD
 70
     0
 40
0.0
 41
1.0
 50
0.0
 71
     0
 42
180.0
  3
simplex.shx
  4
extfont.shx
  0
ENDTAB
  0
TABLE
  2
VIEW
  5
6
330
0
100
AcDbSymbolTable
 70
     0
  0
ENDTAB
  0
TABLE
  2
UCS
  5
7
330
0
100
AcDbSymbolTable
 70
     0
  0
ENDTAB
  0
TABLE
  2
APPID
  5
9
330
0
100
AcDbSymbolTable
 70
     6
  0
APPID
  5
11
330
9
100
AcDbSymbolTableRecord
100
AcDbRegAppTableRecord
  2
ACAD
 70
     0
  0
APPID
  5
91F5
330
9
100
AcDbSymbolTableRecord
100
AcDbRegAppTableRecord
  2
ACAD_EXEMPT_FROM_CAD_STANDARDS
 70
     0
  0
APPID
  5
9293
330
9
100
AcDbSymbolTableRecord
100
AcDbRegAppTableRecord
  2
ACAD_NAV_VCDISPLAY
 70
     0
  0
APPID
  5
92B2
330
9
100
AcDbSymbolTableRecord
100
AcDbRegAppTableRecord
  2
ACAD_PSEXT
 70
     0
  0
APPID
  5
92C7
330
9
100
AcDbSymbolTableRecord
100
AcDbRegAppTableRecord
  2
AcadAnnoMonitorAlertIconDisabled
 70
     0
  0
APPID
  5
9330
330
9
100
AcDbSymbolTableRecord
100
AcDbRegAppTableRecord
  2
ACAD_MLEADERVER
 70
     0
  0
ENDTAB
  0
TABLE
  2
DIMSTYLE
  5
A
330
0
100
AcDbSymbolTable
 70
     3
100
AcDbDimStyleTable
 71
     1
340
1D
  0
DIMSTYLE
105
1D
102
{ACAD_REACTORS
330
8CEF
330
8D09
330
8D1F
330
8D70
330
8D8B
330
8D99
330
8EA0
330
8EAD
330
8EBA
330
8D46
102
}
330
A
100
AcDbSymbolTableRecord
100
AcDbDimStyleTableRecord
  2
IGA
 70
     0
 40
2.0
 41
2.0
 42
0.5
 43
10.0
 44
1.0
 47
1.0
 48
1.0
 73
     0
 74
     0
 77
     1
 78
     8
140
3.0
141
0.0
143
0.03937
146
10.0
147
1.0
173
     1
271
     1
272
     0
279
     2
284
     8
340
10
341
79FC
343
79FC
344
79FC
  0
DIMSTYLE
105
7B94
330
A
100
AcDbSymbolTableRecord
100
AcDbDimStyleTableRecord
  2
MATSU
 70
     0
 40
12.0
 41
2.0
 42
1.0
 43
10.0
 44
1.0
 73
     0
 74
     0
 77
     1
 78
     8
140
3.0
141
0.0
143
0.03937
147
0.5
172
     1
173
     1
176
   256
177
   256
178
   256
284
     8
289
     0
340
10
341
79FC
343
79FC
344
79FC
  0
DIMSTYLE
105
817B
330
A
100
AcDbSymbolTableRecord
100
AcDbDimStyleTableRecord
  2
Standard
 70
     0
340
10
  0
ENDTAB
  0
TABLE
  2
BLOCK_RECORD
  5
1
330
0
100
AcDbSymbolTable
 70
    12
  0
BLOCK_RECORD
  5
19
102
{ACAD_XDICTIONARY
360
8393
102
}
330
1
100
AcDbSymbolTableRecord
100
AcDbBlockTableRecord
  2
*MODEL_SPACE
340
80D9
  0
BLOCK_RECORD
  5
16
102
{ACAD_XDICTIONARY
360
8391
102
}
330
1
100
AcDbSymbolTableRecord
100
AcDbBlockTableRecord
  2
*PAPER_SPACE
340
80DA
  0
BLOCK_RECORD
  5
79FC
330
1
100
AcDbSymbolTableRecord
100
AcDbBlockTableRecord
  2
_OPEN
340
0
102
{BLKREFS
331
922F
331
9230
331
9238
331
9239
331
9241
331
9242
331
924D
331
924E
331
9256
331
9257
331
925F
331
9260
331
9271
331
9272
331
927A
331
927B
331
9283
331
9284
331
92D5
331
92D6
102
}
  0
BLOCK_RECORD
  5
8076
330
1
100
AcDbSymbolTableRecord
100
AcDbBlockTableRecord
  2
_DOT
340
0
  0
BLOCK_RECORD
  5
8CF0
330
1
100
AcDbSymbolTableRecord
100
AcDbBlockTableRecord
  2
*D2
340
0
  0
BLOCK_RECORD
  5
8D0A
330
1
100
AcDbSymbolTableRecord
100
AcDbBlockTableRecord
  2
*D3
340
0
  0
BLOCK_RECORD
  5
8D20
330
1
100
AcDbSymbolTableRecord
100
AcDbBlockTableRecord
  2
*D4
340
0
  0
BLOCK_RECORD
  5
8D47
330
1
100
AcDbSymbolTableRecord
100
AcDbBlockTableRecord
  2
*D5
340
0
  0
BLOCK_RECORD
  5
8D71
330
1
100
AcDbSymbolTableRecord
100
AcDbBlockTableRecord
  2
*D6
340
0
  0
BLOCK_RECORD
  5
8D8C
330
1
100
AcDbSymbolTableRecord
100
AcDbBlockTableRecord
  2
*D7
340
0
  0
BLOCK_RECORD
  5
8D9A
330
1
100
AcDbSymbolTableRecord
100
AcDbBlockTableRecord
  2
*D8
340
0
  0
BLOCK_RECORD
  5
8EA1
330
1
100
AcDbSymbolTableRecord
100
AcDbBlockTableRecord
  2
*D9
340
0
  0
BLOCK_RECORD
  5
8EAE
330
1
100
AcDbSymbolTableRecord
100
AcDbBlockTableRecord
  2
*D10
340
0
  0
BLOCK_RECORD
  5
8EBB
330
1
100
AcDbSymbolTableRecord
100
AcDbBlockTableRecord
  2
*D11
340
0
  0
ENDTAB
  0
ENDSEC
  0
SECTION
  2
BLOCKS
  0
BLOCK
  5
1A
330
19
100
AcDbEntity
  8
0
100
AcDbBlockBegin
  2
*MODEL_SPACE
 70
     0
 10
0.0
 20
0.0
 30
0.0
  3
*MODEL_SPACE
  1

  0
ENDBLK
  5
1B
330
19
100
AcDbEntity
  8
0
100
AcDbBlockEnd
  0
BLOCK
  5
17
330
16
100
AcDbEntity
 67
     1
  8
0
100
AcDbBlockBegin
  2
*PAPER_SPACE
 70
     0
 10
0.0
 20
0.0
 30
0.0
  3
*PAPER_SPACE
  1

  0
ENDBLK
  5
18
330
16
100
AcDbEntity
 67
     1
  8
0
100
AcDbBlockEnd
  0
BLOCK
  5
7A00
330
79FC
100
AcDbEntity
  8
0
100
AcDbBlockBegin
  2
_OPEN
 70
     0
 10
0.0
 20
0.0
 30
0.0
  3
_OPEN
  1

  0
LINE
  5
79FD
330
79FC
100
AcDbEntity
  8
0
  6
ByBlock
 62
     0
100
AcDbLine
 10
-1.0
 20
0.1666666666666666
 30
0.0
 11
0.0
 21
0.0
 31
0.0
  0
LINE
  5
79FE
330
79FC
100
AcDbEntity
  8
0
  6
ByBlock
 62
     0
100
AcDbLine
 10
0.0
 20
0.0
 30
0.0
 11
-1.0
 21
-0.1666666666666666
 31
0.0
  0
LINE
  5
79FF
330
79FC
100
AcDbEntity
  8
0
  6
ByBlock
 62
     0
100
AcDbLine
 10
0.0
 20
0.0
 30
0.0
 11
-1.0
 21
0.0
 31
0.0
  0
ENDBLK
  5
7A01
330
79FC
100
AcDbEntity
  8
0
100
AcDbBlockEnd
  0
BLOCK
  5
8077
330
8076
100
AcDbEntity
  8
0
100
AcDbBlockBegin
  2
_DOT
 70
     0
 10
0.0
 20
0.0
 30
0.0
  3
_DOT
  1

  0
LWPOLYLINE
  5
8078
330
8076
100
AcDbEntity
  8
0
  6
ByBlock
 62
     0
100
AcDbPolyline
 90
        2
 70
     1
 43
0.5
 10
-0.25
 20
0.0
 42
1.0
 10
0.25
 20
0.0
 42
1.0
  0
LINE
  5
807C
330
8076
100
AcDbEntity
  8
0
  6
ByBlock
 62
     0
100
AcDbLine
 10
-0.5
 20
0.0
 30
0.0
 11
-1.0
 21
0.0
 31
0.0
  0
ENDBLK
  5
807D
330
8076
100
AcDbEntity
  8
0
100
AcDbBlockEnd
  0
BLOCK
  5
8CFA
330
8CF0
100
AcDbEntity
  8
0
100
AcDbBlockBegin
  2
*D2
 70
     1
 10
0.0
 20
0.0
 30
0.0
  3
*D2
  1

  0
LINE
  5
922C
330
8CF0
100
AcDbEntity
  8
3
 62
     0
370
    -2
100
AcDbLine
 10
-6207.891945525514
 20
1595.036121568381
 30
0.0
 11
-6207.891945525514
 21
2374.032126917507
 31
0.0
  0
LINE
  5
922D
330
8CF0
100
AcDbEntity
  8
3
 62
     0
370
    -2
100
AcDbLine
 10
-5007.891945525515
 20
1595.036121568381
 30
0.0
 11
-5007.891945525515
 21
2374.032126917507
 31
0.0
  0
LINE
  5
922E
330
8CF0
100
AcDbEntity
  8
3
 62
     0
370
    -2
100
AcDbLine
 10
-6167.891945525514
 20
2354.032126917507
 30
0.0
 11
-5047.891945525515
 21
2354.032126917507
 31
0.0
  0
INSERT
  5
922F
330
8CF0
100
AcDbEntity
  8
3
 62
     0
370
    -2
100
AcDbBlockReference
  2
_OPEN
 10
-6207.891945525514
 20
2354.032126917507
 30
0.0
 41
40.0
 42
40.0
 43
40.0
 50
180.0
  0
INSERT
  5
9230
330
8CF0
100
AcDbEntity
  8
3
 62
     0
370
    -2
100
AcDbBlockReference
  2
_OPEN
 10
-5007.891945525515
 20
2354.032126917507
 30
0.0
 41
40.0
 42
40.0
 43
40.0
  0
MTEXT
  5
9231
330
8CF0
100
AcDbEntity
  8
3
 62
     0
100
AcDbMText
 10
-5618.05328543733
 20
2404.032126917508
 30
0.0
 40
60.0
 41
0.0
 71
     5
 72
     1
  1
\A1;1200
 73
     1
 44
1.0
1001
ACAD
1000
MTEXTBEGIN
1070
    73
1070
     1
1070
    44
1040
1.0
1070
    74
1070
     0
1000
MTEXTEND
  0
POINT
  5
9232
330
8CF0
100
AcDbEntity
  8
DEFPOINTS
 62
     0
100
AcDbPoint
 10
-6207.891945525514
 20
1585.036121568381
 30
0.0
  0
POINT
  5
9233
330
8CF0
100
AcDbEntity
  8
DEFPOINTS
 62
     0
100
AcDbPoint
 10
-5007.891945525515
 20
1585.03612156838
 30
0.0
  0
POINT
  5
9234
330
8CF0
100
AcDbEntity
  8
DEFPOINTS
 62
     0
100
AcDbPoint
 10
-5007.891945525515
 20
2354.032126917507
 30
0.0
  0
ENDBLK
  5
8CFB
330
8CF0
100
AcDbEntity
  8
0
100
AcDbBlockEnd
  0
BLOCK
  5
8D14
330
8D0A
100
AcDbEntity
  8
0
100
AcDbBlockBegin
  2
*D3
 70
     1
 10
0.0
 20
0.0
 30
0.0
  3
*D3
  1

  0
LINE
  5
9235
330
8D0A
100
AcDbEntity
  8
3
 62
     0
370
    -2
100
AcDbLine
 10
-6267.891945525515
 20
1535.03612156838
 30
0.0
 11
-6463.9534944613
 21
1535.03612156838
 31
0.0
  0
LINE
  5
9236
330
8D0A
100
AcDbEntity
  8
3
 62
     0
370
    -2
100
AcDbLine
 10
-6267.891945525515
 20
135.0361215683808
 30
0.0
 11
-6463.9534944613
 21
135.0361215683808
 31
0.0
  0
LINE
  5
9237
330
8D0A
100
AcDbEntity
  8
3
 62
     0
370
    -2
100
AcDbLine
 10
-6443.9534944613
 20
1495.03612156838
 30
0.0
 11
-6443.9534944613
 21
175.0361215683809
 31
0.0
  0
INSERT
  5
9238
330
8D0A
100
AcDbEntity
  8
3
 62
     0
370
    -2
100
AcDbBlockReference
  2
_OPEN
 10
-6443.9534944613
 20
1535.03612156838
 30
0.0
 41
40.0
 42
40.0
 43
40.0
 50
90.0
  0
INSERT
  5
9239
330
8D0A
100
AcDbEntity
  8
3
 62
     0
370
    -2
100
AcDbBlockReference
  2
_OPEN
 10
-6443.9534944613
 20
135.0361215683808
 30
0.0
 41
40.0
 42
40.0
 43
40.0
 50
270.0
  0
MTEXT
  5
923A
330
8D0A
100
AcDbEntity
  8
3
 62
     0
100
AcDbMText
 10
-6493.9534944613
 20
864.9595615195812
 30
0.0
 40
60.0
 41
0.0
 71
     5
 72
     1
  1
\A1;\U+03C61400
 11
0.0000000000000001
 21
1.0
 31
0.0
 73
     1
 44
1.0
1001
ACAD
1000
MTEXTBEGIN
1070
    73
1070
     1
1070
    44
1040
1.0
1070
    74
1070
     0
1000
MTEXTEND
  0
POINT
  5
923B
330
8D0A
100
AcDbEntity
  8
DEFPOINTS
 62
     0
100
AcDbPoint
 10
-6257.891945525514
 20
1535.03612156838
 30
0.0
  0
POINT
  5
923C
330
8D0A
100
AcDbEntity
  8
DEFPOINTS
 62
     0
100
AcDbPoint
 10
-6257.891945525514
 20
135.0361215683808
 30
0.0
  0
POINT
  5
923D
330
8D0A
100
AcDbEntity
  8
DEFPOINTS
 62
     0
100
AcDbPoint
 10
-6443.9534944613
 20
135.0361215683808
 30
0.0
  0
ENDBLK
  5
8D15
330
8D0A
100
AcDbEntity
  8
0
100
AcDbBlockEnd
  0
BLOCK
  5
8D2A
330
8D20
100
AcDbEntity
  8
0
100
AcDbBlockBegin
  2
*D4
 70
     1
 10
0.0
 20
0.0
 30
0.0
  3
*D4
  1

  0
LINE
  5
923E
330
8D20
100
AcDbEntity
  8
3
 62
     0
370
    -2
100
AcDbLine
 10
-4307.901477775333
 20
845.0361215683809
 30
0.0
 11
-4307.901477775333
 21
2348.344352248179
 31
0.0
  0
LINE
  5
923F
330
8D20
100
AcDbEntity
  8
3
 62
     0
370
    -2
100
AcDbLine
 10
-2807.901477775333
 20
845.0361215683809
 30
0.0
 11
-2807.901477775333
 21
2348.344352248179
 31
0.0
  0
LINE
  5
9240
330
8D20
100
AcDbEntity
  8
3
 62
     0
370
    -2
100
AcDbLine
 10
-4267.901477775333
 20
2328.344352248179
 30
0.0
 11
-2847.901477775333
 21
2328.344352248179
 31
0.0
  0
INSERT
  5
9241
330
8D20
100
AcDbEntity
  8
3
 62
     0
370
    -2
100
AcDbBlockReference
  2
_OPEN
 10
-4307.901477775333
 20
2328.344352248179
 30
0.0
 41
40.0
 42
40.0
 43
40.0
 50
180.0
  0
INSERT
  5
9242
330
8D20
100
AcDbEntity
  8
3
 62
     0
370
    -2
100
AcDbBlockReference
  2
_OPEN
 10
-2807.901477775333
 20
2328.344352248179
 30
0.0
 41
40.0
 42
40.0
 43
40.0
  0
MTEXT
  5
9243
330
8D20
100
AcDbEntity
  8
3
 62
     0
100
AcDbMText
 10
-3599.395937401863
 20
2378.344352248179
 30
0.0
 40
60.0
 41
0.0
 71
     5
 72
     1
  1
\A1;1500
 73
     1
 44
1.0
1001
ACAD
1000
MTEXTBEGIN
1070
    73
1070
     1
1070
    44
1040
1.0
1070
    74
1070
     0
1000
MTEXTEND
  0
POINT
  5
9244
330
8D20
100
AcDbEntity
  8
DEFPOINTS
 62
     0
100
AcDbPoint
 10
-4307.901477775333
 20
835.0361215683808
 30
0.0
  0
POINT
  5
9245
330
8D20
100
AcDbEntity
  8
DEFPOINTS
 62
     0
100
AcDbPoint
 10
-2807.901477775333
 20
835.0361215683808
 30
0.0
  0
POINT
  5
9246
330
8D20
100
AcDbEntity
  8
DEFPOINTS
 62
     0
100
AcDbPoint
 10
-2807.901477775333
 20
2328.344352248179
 30
0.0
  0
ENDBLK
  5
8D2B
330
8D20
100
AcDbEntity
  8
0
100
AcDbBlockEnd
  0
BLOCK
  5
8D53
330
8D47
100
AcDbEntity
  8
0
100
AcDbBlockBegin
  2
*D5
 70
     1
 10
0.0
 20
0.0
 30
0.0
  3
*D5
  1

  0
LINE
  5
9247
330
8D47
100
AcDbEntity
  8
3
 62
     0
370
    -2
100
AcDbLine
 10
-4267.901477775333
 20
-114.9638784316191
 30
0.0
 11
-4483.937100536619
 21
-114.9638784316191
 31
0.0
  0
LINE
  5
9248
330
8D47
100
AcDbEntity
  8
3
 62
     0
370
    -2
100
AcDbLine
 10
-4267.901477775333
 20
-229.9638784316191
 30
0.0
 11
-4483.937100536619
 21
-229.9638784316191
 31
0.0
  0
LINE
  5
9249
330
8D47
100
AcDbEntity
  8
3
 62
     0
370
    -2
100
AcDbLine
 10
-4463.937100536619
 20
-74.96387843161909
 30
0.0
 11
-4463.937100536619
 21
-34.9638784316191
 31
0.0
  0
LINE
  5
924A
330
8D47
100
AcDbEntity
  8
3
 62
     0
370
    -2
100
AcDbLine
 10
-4463.937100536619
 20
-269.9638784316191
 30
0.0
 11
-4463.937100536619
 21
-309.9638784316191
 31
0.0
  0
MTEXT
  5
924B
330
8D47
100
AcDbEntity
  8
3
 62
     0
100
AcDbMText
 10
-4570.81226229445
 20
-133.5191552909109
 30
0.0
 40
60.0
 41
0.0
 71
     5
 72
     1
  1
\A1;115
 11
0.0000000000000001
 21
1.0
 31
0.0
 73
     1
 44
1.0
1001
ACAD
1000
MTEXTBEGIN
1070
    73
1070
     1
1070
    44
1040
1.0
1070
    74
1070
     0
1000
MTEXTEND
  0
LINE
  5
924C
330
8D47
100
AcDbEntity
  8
3
 62
     0
370
    -2
100
AcDbLine
 10
-4463.937100536619
 20
-114.9638784316191
 30
0.0
 11
-4463.937100536619
 21
-229.9638784316191
 31
0.0
  0
INSERT
  5
924D
330
8D47
100
AcDbEntity
  8
3
 62
     0
370
    -2
100
AcDbBlockReference
  2
_OPEN
 10
-4463.937100536619
 20
-114.9638784316191
 30
0.0
 41
40.0
 42
40.0
 43
40.0
 50
270.0
  0
INSERT
  5
924E
330
8D47
100
AcDbEntity
  8
3
 62
     0
370
    -2
100
AcDbBlockReference
  2
_OPEN
 10
-4463.937100536619
 20
-229.9638784316191
 30
0.0
 41
40.0
 42
40.0
 43
40.0
 50
90.0
  0
POINT
  5
924F
330
8D47
100
AcDbEntity
  8
DEFPOINTS
 62
     0
100
AcDbPoint
 10
-4257.901477775333
 20
-114.9638784316191
 30
0.0
  0
POINT
  5
9250
330
8D47
100
AcDbEntity
  8
DEFPOINTS
 62
     0
100
AcDbPoint
 10
-4257.901477775333
 20
-229.9638784316191
 30
0.0
  0
POINT
  5
9251
330
8D47
100
AcDbEntity
  8
DEFPOINTS
 62
     0
100
AcDbPoint
 10
-4463.937100536619
 20
-229.9638784316191
 30
0.0
  0
ENDBLK
  5
8D54
330
8D47
100
AcDbEntity
  8
0
100
AcDbBlockEnd
  0
BLOCK
  5
8D7C
330
8D71
100
AcDbEntity
  8
0
100
AcDbBlockBegin
  2
*D6
 70
     1
 10
0.0
 20
0.0
 30
0.0
  3
*D6
  1

  0
LINE
  5
9252
330
8D71
100
AcDbEntity
  8
3
 62
     0
370
    -2
100
AcDbLine
 10
-4267.901477775333
 20
-229.9638784316191
 30
0.0
 11
-4483.937100536619
 21
-229.9638784316191
 31
0.0
  0
LINE
  5
9253
330
8D71
100
AcDbEntity
  8
3
 62
     0
370
    -2
100
AcDbLine
 10
-4267.901477775333
 20
-354.9638784316191
 30
0.0
 11
-4483.937100536619
 21
-354.9638784316191
 31
0.0
  0
LINE
  5
9254
330
8D71
100
AcDbEntity
  8
3
 62
     0
370
    -2
100
AcDbLine
 10
-4463.937100536619
 20
-269.9638784316191
 30
0.0
 11
-4463.937100536619
 21
-314.9638784316191
 31
0.0
  0
LINE
  5
9255
330
8D71
100
AcDbEntity
  8
3
 62
     0
370
    -2
100
AcDbLine
 10
-4463.937100536619
 20
-354.9638784316191
 30
0.0
 11
-4463.937100536619
 21
-577.8210212887619
 31
0.0
  0
INSERT
  5
9256
330
8D71
100
AcDbEntity
  8
3
 62
     0
370
    -2
100
AcDbBlockReference
  2
_OPEN
 10
-4463.937100536619
 20
-229.9638784316191
 30
0.0
 41
40.0
 42
40.0
 43
40.0
 50
90.0
  0
INSERT
  5
9257
330
8D71
100
AcDbEntity
  8
3
 62
     0
370
    -2
100
AcDbBlockReference
  2
_OPEN
 10
-4463.937100536619
 20
-354.9638784316191
 30
0.0
 41
40.0
 42
40.0
 43
40.0
 50
270.0
  0
MTEXT
  5
9258
330
8D71
100
AcDbEntity
  8
3
 62
     0
100
AcDbMText
 10
-4513.937100536619
 20
-486.3924498601912
 30
0.0
 40
60.0
 41
0.0
 71
     5
 72
     1
  1
\A1;125
 11
0.0000000000000001
 21
1.0
 31
0.0
 73
     1
 44
1.0
1001
ACAD
1000
MTEXTBEGIN
1070
    73
1070
     1
1070
    44
1040
1.0
1070
    74
1070
     0
1000
MTEXTEND
  0
POINT
  5
9259
330
8D71
100
AcDbEntity
  8
DEFPOINTS
 62
     0
100
AcDbPoint
 10
-4257.901477775333
 20
-229.9638784316191
 30
0.0
  0
POINT
  5
925A
330
8D71
100
AcDbEntity
  8
DEFPOINTS
 62
     0
100
AcDbPoint
 10
-4257.901477775333
 20
-354.9638784316191
 30
0.0
  0
POINT
  5
925B
330
8D71
100
AcDbEntity
  8
DEFPOINTS
 62
     0
100
AcDbPoint
 10
-4463.937100536619
 20
-354.9638784316191
 30
0.0
  0
ENDBLK
  5
8D7D
330
8D71
100
AcDbEntity
  8
0
100
AcDbBlockEnd
  0
BLOCK
  5
8D96
330
8D8C
100
AcDbEntity
  8
0
100
AcDbBlockBegin
  2
*D7
 70
     1
 10
0.0
 20
0.0
 30
0.0
  3
*D7
  1

  0
LINE
  5
925C
330
8D8C
100
AcDbEntity
  8
3
 62
     0
370
    -2
100
AcDbLine
 10
-4257.901477775333
 20
-364.9638784316191
 30
0.0
 11
-4257.901477775333
 21
-553.5806704553943
 31
0.0
  0
LINE
  5
925D
330
8D8C
100
AcDbEntity
  8
3
 62
     0
370
    -2
100
AcDbLine
 10
-2857.901477775334
 20
-364.9638784316191
 30
0.0
 11
-2857.901477775334
 21
-553.5806704553943
 31
0.0
  0
LINE
  5
925E
330
8D8C
100
AcDbEntity
  8
3
 62
     0
370
    -2
100
AcDbLine
 10
-4217.901477775333
 20
-533.5806704553943
 30
0.0
 11
-2897.901477775334
 21
-533.5806704553943
 31
0.0
  0
INSERT
  5
925F
330
8D8C
100
AcDbEntity
  8
3
 62
     0
370
    -2
100
AcDbBlockReference
  2
_OPEN
 10
-4257.901477775333
 20
-533.5806704553943
 30
0.0
 41
40.0
 42
40.0
 43
40.0
 50
180.0
  0
INSERT
  5
9260
330
8D8C
100
AcDbEntity
  8
3
 62
     0
370
    -2
100
AcDbBlockReference
  2
_OPEN
 10
-2857.901477775334
 20
-533.5806704553943
 30
0.0
 41
40.0
 42
40.0
 43
40.0
  0
MTEXT
  5
9261
330
8D8C
100
AcDbEntity
  8
3
 62
     0
100
AcDbMText
 10
-3546.166663747932
 20
-483.5806704553943
 30
0.0
 40
60.0
 41
0.0
 71
     5
 72
     1
  1
\A1;1400
 73
     1
 44
1.0
1001
ACAD
1000
MTEXTBEGIN
1070
    73
1070
     1
1070
    44
1040
1.0
1070
    74
1070
     0
1000
MTEXTEND
  0
POINT
  5
9262
330
8D8C
100
AcDbEntity
  8
DEFPOINTS
 62
     0
100
AcDbPoint
 10
-4257.901477775333
 20
-354.9638784316191
 30
0.0
  0
POINT
  5
9263
330
8D8C
100
AcDbEntity
  8
DEFPOINTS
 62
     0
100
AcDbPoint
 10
-2857.901477775334
 20
-354.9638784316191
 30
0.0
  0
POINT
  5
9264
330
8D8C
100
AcDbEntity
  8
DEFPOINTS
 62
     0
100
AcDbPoint
 10
-2857.901477775334
 20
-533.5806704553943
 30
0.0
  0
ENDBLK
  5
8D97
330
8D8C
100
AcDbEntity
  8
0
100
AcDbBlockEnd
  0
BLOCK
  5
8DA4
330
8D9A
100
AcDbEntity
  8
0
100
AcDbBlockBegin
  2
*D8
 70
     1
 10
0.0
 20
0.0
 30
0.0
  3
*D8
  1

  0
LINE
  5
92D2
330
8D9A
100
AcDbEntity
  8
3
 62
     0
370
    -2
100
AcDbLine
 10
-3567.901477775333
 20
2092.036121568381
 30
0.0
 11
-4774.334491323715
 21
2092.036121568381
 31
0.0
  0
LINE
  5
92D3
330
8D9A
100
AcDbEntity
  8
3
 62
     0
370
    -2
100
AcDbLine
 10
-4377.901477775332
 20
835.0361215683808
 30
0.0
 11
-4774.334491323716
 21
835.0361215683808
 31
0.0
  0
LINE
  5
92D4
330
8D9A
100
AcDbEntity
  8
3
 62
     0
370
    -2
100
AcDbLine
 10
-4754.334491323715
 20
2052.036121568381
 30
0.0
 11
-4754.334491323716
 21
875.0361215683808
 31
0.0
  0
INSERT
  5
92D5
330
8D9A
100
AcDbEntity
  8
3
 62
     0
370
    -2
100
AcDbBlockReference
  2
_OPEN
 10
-4754.334491323715
 20
2092.036121568381
 30
0.0
 41
40.0
 42
40.0
 43
40.0
 50
90.0
  0
INSERT
  5
92D6
330
8D9A
100
AcDbEntity
  8
3
 62
     0
370
    -2
100
AcDbBlockReference
  2
_OPEN
 10
-4754.334491323716
 20
835.0361215683808
 30
0.0
 41
40.0
 42
40.0
 43
40.0
 50
270.0
  0
MTEXT
  5
92D7
330
8D9A
100
AcDbEntity
  8
3
 62
     0
100
AcDbMText
 10
-4820.048777038001
 20
1528.319979770807
 30
0.0
 40
60.0
 41
0.0
 71
     5
 72
     1
  1
\A1;(1600)
 11
0.0000000000000001
 21
1.0
 31
0.0
 73
     1
 44
1.0
1001
ACAD
1000
MTEXTBEGIN
1070
    73
1070
     1
1070
    44
1040
1.0
1070
    74
1070
     0
1000
MTEXTEND
  0
POINT
  5
92D8
330
8D9A
100
AcDbEntity
  8
DEFPOINTS
 62
     0
100
AcDbPoint
 10
-3557.901477775333
 20
2092.036121568381
 30
0.0
  0
POINT
  5
92D9
330
8D9A
100
AcDbEntity
  8
DEFPOINTS
 62
     0
100
AcDbPoint
 10
-4367.901477775332
 20
835.0361215683808
 30
0.0
  0
POINT
  5
92DA
330
8D9A
100
AcDbEntity
  8
DEFPOINTS
 62
     0
100
AcDbPoint
 10
-4754.334491323716
 20
835.0361215683808
 30
0.0
  0
ENDBLK
  5
8DA5
330
8D9A
100
AcDbEntity
  8
0
100
AcDbBlockEnd
  0
BLOCK
  5
8EAB
330
8EA1
100
AcDbEntity
  8
0
100
AcDbBlockBegin
  2
*D9
 70
     1
 10
0.0
 20
0.0
 30
0.0
  3
*D9
  1

  0
LINE
  5
926E
330
8EA1
100
AcDbEntity
  8
3
 62
     0
370
    -2
100
AcDbLine
 10
-4367.901477775332
 20
835.0361215683808
 30
0.0
 11
-4483.781112270051
 21
835.0361215683808
 31
0.0
  0
LINE
  5
926F
330
8EA1
100
AcDbEntity
  8
3
 62
     0
370
    -2
100
AcDbLine
 10
-4267.891945525518
 20
-114.9638784316191
 30
0.0
 11
-4483.781112270051
 21
-114.9638784316191
 31
0.0
  0
LINE
  5
9270
330
8EA1
100
AcDbEntity
  8
3
 62
     0
370
    -2
100
AcDbLine
 10
-4463.781112270051
 20
795.0361215683808
 30
0.0
 11
-4463.781112270051
 21
-74.96387843161909
 31
0.0
  0
INSERT
  5
9271
330
8EA1
100
AcDbEntity
  8
3
 62
     0
370
    -2
100
AcDbBlockReference
  2
_OPEN
 10
-4463.781112270051
 20
835.0361215683808
 30
0.0
 41
40.0
 42
40.0
 43
40.0
 50
90.0
  0
INSERT
  5
9272
330
8EA1
100
AcDbEntity
  8
3
 62
     0
370
    -2
100
AcDbBlockReference
  2
_OPEN
 10
-4463.781112270051
 20
-114.9638784316191
 30
0.0
 41
40.0
 42
40.0
 43
40.0
 50
270.0
  0
MTEXT
  5
9273
330
8EA1
100
AcDbEntity
  8
3
 62
     0
100
AcDbMText
 10
-4513.781112270051
 20
344.229727089576
 30
0.0
 40
60.0
 41
0.0
 71
     5
 72
     1
  1
\A1;950
 11
0.0000000000000001
 21
1.0
 31
0.0
 73
     1
 44
1.0
1001
ACAD
1000
MTEXTBEGIN
1070
    73
1070
     1
1070
    44
1040
1.0
1070
    74
1070
     0
1000
MTEXTEND
  0
POINT
  5
9274
330
8EA1
100
AcDbEntity
  8
DEFPOINTS
 62
     0
100
AcDbPoint
 10
-4357.901477775333
 20
835.0361215683808
 30
0.0
  0
POINT
  5
9275
330
8EA1
100
AcDbEntity
  8
DEFPOINTS
 62
     0
100
AcDbPoint
 10
-4257.891945525518
 20
-114.9638784316191
 30
0.0
  0
POINT
  5
9276
330
8EA1
100
AcDbEntity
  8
DEFPOINTS
 62
     0
100
AcDbPoint
 10
-4463.781112270051
 20
-114.9638784316191
 30
0.0
  0
ENDBLK
  5
8EAC
330
8EA1
100
AcDbEntity
  8
0
100
AcDbBlockEnd
  0
BLOCK
  5
8EB8
330
8EAE
100
AcDbEntity
  8
0
100
AcDbBlockBegin
  2
*D10
 70
     1
 10
0.0
 20
0.0
 30
0.0
  3
*D10
  1

  0
LINE
  5
9277
330
8EAE
100
AcDbEntity
  8
3
 62
     0
370
    -2
100
AcDbLine
 10
-4367.901477775332
 20
835.0361215683808
 30
0.0
 11
-4773.501508379231
 21
835.0361215683808
 31
0.0
  0
LINE
  5
9278
330
8EAE
100
AcDbEntity
  8
3
 62
     0
370
    -2
100
AcDbLine
 10
-4267.891945525518
 20
-354.9638784316191
 30
0.0
 11
-4773.501508379231
 21
-354.963878431619
 31
0.0
  0
LINE
  5
9279
330
8EAE
100
AcDbEntity
  8
3
 62
     0
370
    -2
100
AcDbLine
 10
-4753.501508379232
 20
795.0361215683808
 30
0.0
 11
-4753.501508379232
 21
-314.963878431619
 31
0.0
  0
INSERT
  5
927A
330
8EAE
100
AcDbEntity
  8
3
 62
     0
370
    -2
100
AcDbBlockReference
  2
_OPEN
 10
-4753.501508379232
 20
835.0361215683808
 30
0.0
 41
40.0
 42
40.0
 43
40.0
 50
90.0
  0
INSERT
  5
927B
330
8EAE
100
AcDbEntity
  8
3
 62
     0
370
    -2
100
AcDbBlockReference
  2
_OPEN
 10
-4753.501508379232
 20
-354.963878431619
 30
0.0
 41
40.0
 42
40.0
 43
40.0
 50
270.0
  0
MTEXT
  5
927C
330
8EAE
100
AcDbEntity
  8
3
 62
     0
100
AcDbMText
 10
-4803.501508379231
 20
222.2199635587131
 30
0.0
 40
60.0
 41
0.0
 71
     5
 72
     1
  1
\A1;1190
 11
0.0000000000000001
 21
1.0
 31
0.0
 73
     1
 44
1.0
1001
ACAD
1000
MTEXTBEGIN
1070
    73
1070
     1
1070
    44
1040
1.0
1070
    74
1070
     0
1000
MTEXTEND
  0
POINT
  5
927D
330
8EAE
100
AcDbEntity
  8
DEFPOINTS
 62
     0
100
AcDbPoint
 10
-4357.901477775333
 20
835.0361215683808
 30
0.0
  0
POINT
  5
927E
330
8EAE
100
AcDbEntity
  8
DEFPOINTS
 62
     0
100
AcDbPoint
 10
-4257.891945525518
 20
-354.9638784316191
 30
0.0
  0
POINT
  5
927F
330
8EAE
100
AcDbEntity
  8
DEFPOINTS
 62
     0
100
AcDbPoint
 10
-4753.501508379232
 20
-354.963878431619
 30
0.0
  0
ENDBLK
  5
8EB9
330
8EAE
100
AcDbEntity
  8
0
100
AcDbBlockEnd
  0
BLOCK
  5
8EC5
330
8EBB
100
AcDbEntity
  8
0
100
AcDbBlockBegin
  2
*D11
 70
     1
 10
0.0
 20
0.0
 30
0.0
  3
*D11
  1

  0
LINE
  5
9280
330
8EBB
100
AcDbEntity
  8
3
 62
     0
370
    -2
100
AcDbLine
 10
-6207.891945525514
 20
-364.9638784316191
 30
0.0
 11
-6207.891945525514
 21
-550.9462582460037
 31
0.0
  0
LINE
  5
9281
330
8EBB
100
AcDbEntity
  8
3
 62
     0
370
    -2
100
AcDbLine
 10
-5007.891945525514
 20
-364.9638784315911
 30
0.0
 11
-5007.891945525514
 21
-550.9462582460037
 31
0.0
  0
LINE
  5
9282
330
8EBB
100
AcDbEntity
  8
3
 62
     0
370
    -2
100
AcDbLine
 10
-6167.891945525514
 20
-530.9462582460037
 30
0.0
 11
-5047.891945525513
 21
-530.9462582460037
 31
0.0
  0
INSERT
  5
9283
330
8EBB
100
AcDbEntity
  8
3
 62
     0
370
    -2
100
AcDbBlockReference
  2
_OPEN
 10
-6207.891945525514
 20
-530.9462582460037
 30
0.0
 41
40.0
 42
40.0
 43
40.0
 50
180.0
  0
INSERT
  5
9284
330
8EBB
100
AcDbEntity
  8
3
 62
     0
370
    -2
100
AcDbBlockReference
  2
_OPEN
 10
-5007.891945525514
 20
-530.9462582460037
 30
0.0
 41
40.0
 42
40.0
 43
40.0
  0
MTEXT
  5
9285
330
8EBB
100
AcDbEntity
  8
3
 62
     0
100
AcDbMText
 10
-5629.826478852679
 20
-480.9462582460037
 30
0.0
 40
60.0
 41
0.0
 71
     5
 72
     1
  1
\A1;1200
 73
     1
 44
1.0
1001
ACAD
1000
MTEXTBEGIN
1070
    73
1070
     1
1070
    44
1040
1.0
1070
    74
1070
     0
1000
MTEXTEND
  0
POINT
  5
9286
330
8EBB
100
AcDbEntity
  8
DEFPOINTS
 62
     0
100
AcDbPoint
 10
-6207.891945525514
 20
-354.9638784316191
 30
0.0
  0
POINT
  5
9287
330
8EBB
100
AcDbEntity
  8
DEFPOINTS
 62
     0
100
AcDbPoint
 10
-5007.891945525514
 20
-354.9638784315911
 30
0.0
  0
POINT
  5
9288
330
8EBB
100
AcDbEntity
  8
DEFPOINTS
 62
     0
100
AcDbPoint
 10
-5007.891945525514
 20
-530.9462582460037
 30
0.0
  0
ENDBLK
  5
8EC6
330
8EBB
100
AcDbEntity
  8
0
100
AcDbBlockEnd
  0
ENDSEC
  0
SECTION
  2
ENTITIES
  0
LINE
  5
7D76
330
19
100
AcDbEntity
  8
1
100
AcDbLine
 10
-3660.401477775333
 20
1661.036121568381
 30
0.0
 11
-3719.901477775333
 21
1661.036121568381
 31
0.0
  0
LINE
  5
7D77
330
19
100
AcDbEntity
  8
1
100
AcDbLine
 10
-3663.401477775333
 20
1681.036121568381
 30
0.0
 11
-3716.901477775333
 21
1681.036121568381
 31
0.0
  0
LINE
  5
7D78
330
19
100
AcDbEntity
  8
2
100
AcDbLine
 10
-3362.449054775334
 20
1841.036121568381
 30
0.0
 11
-3753.353900775334
 21
1841.036121568381
 31
0.0
  0
LINE
  5
7D79
330
19
100
AcDbEntity
  8
1
100
AcDbLine
 10
-3378.489978775333
 20
2041.036121568381
 30
0.0
 11
-3737.312976775333
 21
2041.036121568381
 31
0.0
  0
LINE
  5
7D7A
330
19
100
AcDbEntity
  8
1
100
AcDbLine
 10
-3792.901477775333
 20
1661.036121568381
 30
0.0
 11
-3322.901477775332
 21
1661.03612156838
 31
0.0
  0
ARC
  5
7D7B
330
19
100
AcDbEntity
  8
1
100
AcDbCircle
 10
-3557.901477775333
 20
1841.036121568381
 30
0.0
 40
185.0
100
AcDbArc
 50
287.9452509999998
 51
252.0547490000001
  0
LINE
  5
7D81
330
19
100
AcDbEntity
  8
1
100
AcDbLine
 10
-3792.901477775333
 20
1611.036121568381
 30
0.0
 11
-3322.901477775332
 21
1611.03612156838
 31
0.0
  0
LINE
  5
7D86
330
19
100
AcDbEntity
  8
2
100
AcDbLine
 10
-4357.901477775333
 20
835.0361215683808
 30
0.0
 11
-2757.901477775333
 21
835.0361215683808
 31
0.0
  0
LINE
  5
7D89
330
19
100
AcDbEntity
  8
1
100
AcDbLine
 10
-5126.891945525514
 20
715.0361215683807
 30
0.0
 11
-5126.891945525514
 21
1941.036121568382
 31
0.0
  0
LINE
  5
7D8A
330
19
100
AcDbEntity
  8
1
100
AcDbLine
 10
-5206.891945525513
 20
715.0361215683807
 30
0.0
 11
-5206.891945525515
 21
1941.036121568382
 31
0.0
  0
LINE
  5
7D8B
330
19
100
AcDbEntity
  8
1
100
AcDbLine
 10
-5012.391945525514
 20
1585.036121568382
 30
0.0
 11
-5012.391945525513
 21
85.03612156838086
 31
0.0
  0
LINE
  5
7D8C
330
19
100
AcDbEntity
  8
1
100
AcDbLine
 10
-6203.391945525516
 20
1585.036121568382
 30
0.0
 11
-6203.391945525514
 21
85.03612156838086
 31
0.0
  0
LINE
  5
7D8D
330
19
100
AcDbEntity
  8
1
100
AcDbLine
 10
-6207.891945525514
 20
1585.036121568381
 30
0.0
 11
-6207.891945525513
 21
135.0361215683808
 31
0.0
  0
LINE
  5
7D8E
330
19
100
AcDbEntity
  8
1
100
AcDbLine
 10
-5007.891945525515
 20
1585.03612156838
 30
0.0
 11
-5007.891945525512
 21
135.036121568381
 31
0.0
  0
LINE
  5
7D8F
330
19
100
AcDbEntity
  8
1
100
AcDbLine
 10
-4957.891945525514
 20
1536.036121568381
 30
0.0
 11
-4957.891945525515
 21
135.036121568381
 31
0.0
  0
LINE
  5
7D90
330
19
100
AcDbEntity
  8
1
100
AcDbLine
 10
-6257.891945525514
 20
1536.036121568381
 30
0.0
 11
-6257.891945525514
 21
135.0361215683808
 31
0.0
  0
LINE
  5
7D91
330
19
100
AcDbEntity
  8
1
100
AcDbLine
 10
-5003.891945525514
 20
88.03612156838083
 30
0.0
 11
-5003.891945525514
 21
1582.036121568381
 31
0.0
  0
LINE
  5
7D92
330
19
100
AcDbEntity
  8
1
100
AcDbLine
 10
-6211.891945525514
 20
88.03612156838084
 30
0.0
 11
-6211.891945525514
 21
1582.036121568381
 31
0.0
  0
LINE
  5
7D94
330
19
100
AcDbEntity
  8
2
100
AcDbLine
 10
-6307.891945525515
 20
835.0361215683808
 30
0.0
 11
-4921.054409032704
 21
835.0361215683808
 31
0.0
  0
LINE
  5
7D95
330
19
100
AcDbEntity
  8
1
100
AcDbLine
 10
-6207.891945525514
 20
135.0361215683808
 30
0.0
 11
-6257.891945525514
 21
135.0361215683808
 31
0.0
  0
LINE
  5
7D96
330
19
100
AcDbEntity
  8
1
100
AcDbLine
 10
-6218.391945525514
 20
131.0361215683808
 30
0.0
 11
-6254.891945525514
 21
131.0361215683808
 31
0.0
  0
LINE
  5
7D97
330
19
100
AcDbEntity
  8
1
100
AcDbLine
 10
-6225.082930847373
 20
107.5361215683808
 30
0.0
 11
-6186.755245024186
 21
107.5361215683808
 31
0.0
  0
LINE
  5
7D98
330
19
100
AcDbEntity
  8
1
100
AcDbLine
 10
-6257.891945525514
 20
135.0361215683808
 30
0.0
 11
-6257.891945525514
 21
134.0361215683808
 31
0.0
  0
ARC
  5
7D99
330
19
100
AcDbEntity
  8
1
100
AcDbCircle
 10
-6254.891945525514
 20
134.0361215683808
 30
0.0
 40
3.0
100
AcDbArc
 50
180.0
 51
270.0
  0
LINE
  5
7D9A
330
19
100
AcDbEntity
  8
1
100
AcDbLine
 10
-6117.891945525514
 20
1070.036121568381
 30
0.0
 11
-6117.891945525514
 21
600.0361215683808
 31
0.0
  0
LINE
  5
7D9B
330
19
100
AcDbEntity
  8
1
100
AcDbLine
 10
-6132.891945525514
 20
1070.036121568381
 30
0.0
 11
-6132.891945525514
 21
600.0361215683808
 31
0.0
  0
LINE
  5
7D9C
330
19
100
AcDbEntity
  8
1
100
AcDbLine
 10
-5967.891945525515
 20
1085.036121568381
 30
0.0
 11
-5967.891945525515
 21
585.0361215683808
 31
0.0
  0
LINE
  5
7D9D
330
19
100
AcDbEntity
  8
1
100
AcDbLine
 10
-6187.891945525514
 20
1085.036121568381
 30
0.0
 11
-6187.891945525514
 21
585.0361215683808
 31
0.0
  0
LINE
  5
7D9E
330
19
100
AcDbEntity
  8
1
100
AcDbLine
 10
-6187.891945525514
 20
600.0361215683808
 30
0.0
 11
-5967.891945525515
 21
600.0361215683808
 31
0.0
  0
LINE
  5
7D9F
330
19
100
AcDbEntity
  8
1
100
AcDbLine
 10
-6187.891945525514
 20
585.0361215683808
 30
0.0
 11
-5967.891945525515
 21
585.0361215683808
 31
0.0
  0
LINE
  5
7DA0
330
19
100
AcDbEntity
  8
1
100
AcDbLine
 10
-6058.542352029581
 20
139.0361215683811
 30
0.0
 11
-5967.891945525515
 21
585.0361215683808
 31
0.0
  0
LINE
  5
7DA1
330
19
100
AcDbEntity
  8
1
100
AcDbLine
 10
-6097.241539021449
 20
139.0361215683809
 30
0.0
 11
-6187.891945525514
 21
585.0361215683808
 31
0.0
  0
LINE
  5
7DA2
330
19
100
AcDbEntity
  8
1
100
AcDbLine
 10
-6097.241539021449
 20
139.0361215683809
 30
0.0
 11
-6058.542352029579
 21
139.0361215683812
 31
0.0
  0
ARC
  5
7DA3
330
19
100
AcDbEntity
  8
1
100
AcDbCircle
 10
-6218.391945525514
 20
124.5361215683808
 30
0.0
 40
6.5
100
AcDbArc
 50
0.0
 51
90.0
  0
LINE
  5
7DA4
330
19
100
AcDbEntity
  8
1
100
AcDbLine
 10
-6203.391945525514
 20
85.03612156838086
 30
0.0
 11
-6207.891945525514
 21
85.03612156838086
 31
0.0
  0
LINE
  5
7DA5
330
19
100
AcDbEntity
  8
1
100
AcDbLine
 10
-6207.891945525514
 20
85.03612156838086
 30
0.0
 11
-6208.891945525514
 21
85.03612156838086
 31
0.0
  0
ARC
  5
7DA6
330
19
100
AcDbEntity
  8
1
100
AcDbCircle
 10
-6208.891945525514
 20
88.03612156838084
 30
0.0
 40
3.0
100
AcDbArc
 50
180.0
 51
270.0
  0
LINE
  5
7DA7
330
19
100
AcDbEntity
  8
1
100
AcDbLine
 10
-6207.891945525514
 20
135.0361215683808
 30
0.0
 11
-6207.891945525514
 21
85.03612156838086
 31
0.0
  0
LINE
  5
7DA8
330
19
100
AcDbEntity
  8
1
100
AcDbLine
 10
-6187.891945525514
 20
1070.036121568381
 30
0.0
 11
-5967.891945525515
 21
1070.03612156838
 31
0.0
  0
LINE
  5
7DA9
330
19
100
AcDbEntity
  8
1
100
AcDbLine
 10
-6187.891945525514
 20
1085.036121568381
 30
0.0
 11
-5967.891945525515
 21
1085.03612156838
 31
0.0
  0
LINE
  5
7DAA
330
19
100
AcDbEntity
  8
1
100
AcDbLine
 10
-6152.891945525515
 20
895.0361215683809
 30
0.0
 11
-6052.891945525515
 21
895.0361215683809
 31
0.0
  0
LINE
  5
7DAB
330
19
100
AcDbEntity
  8
1
100
AcDbLine
 10
-6152.891945525515
 20
775.0361215683808
 30
0.0
 11
-6052.891945525515
 21
775.0361215683808
 31
0.0
  0
LINE
  5
7DAC
330
19
100
AcDbEntity
  8
1
100
AcDbLine
 10
-6152.891945525515
 20
895.0361215683809
 30
0.0
 11
-6152.891945525515
 21
775.0361215683808
 31
0.0
  0
LINE
  5
7DAD
330
19
100
AcDbEntity
  8
1
100
AcDbLine
 10
-6052.891945525515
 20
895.0361215683809
 30
0.0
 11
-6052.891945525515
 21
775.0361215683808
 31
0.0
  0
LINE
  5
7DAE
330
19
100
AcDbEntity
  8
1
100
AcDbLine
 10
-5030.201588474323
 20
107.5361215683808
 30
0.0
 11
-4984.208371477886
 21
107.5361215683808
 31
0.0
  0
LINE
  5
7DAF
330
19
100
AcDbEntity
  8
1
100
AcDbLine
 10
-5126.891945525514
 20
715.0361215683808
 30
0.0
 11
-5206.891945525515
 21
715.0361215683808
 31
0.0
  0
LINE
  5
7DB0
330
19
100
AcDbEntity
  8
1
100
AcDbLine
 10
-5126.891945525514
 20
955.0361215683809
 30
0.0
 11
-5206.891945525515
 21
955.0361215683809
 31
0.0
  0
LINE
  5
7DB1
330
19
100
AcDbEntity
  8
1
100
AcDbLine
 10
-4997.391945525515
 20
131.0361215683808
 30
0.0
 11
-4960.891945525514
 21
131.0361215683808
 31
0.0
  0
LINE
  5
7DB2
330
19
100
AcDbEntity
  8
1
100
AcDbLine
 10
-4957.891945525514
 20
135.0361215683808
 30
0.0
 11
-4957.891945525514
 21
134.0361215683808
 31
0.0
  0
ARC
  5
7DB3
330
19
100
AcDbEntity
  8
1
100
AcDbCircle
 10
-4960.891945525514
 20
134.0361215683808
 30
0.0
 40
3.0
100
AcDbArc
 50
270.0
 51
0.0
  0
LINE
  5
7DB4
330
19
100
AcDbEntity
  8
1
100
AcDbLine
 10
-4957.891945525514
 20
135.0361215683808
 30
0.0
 11
-4957.891945525514
 21
134.0361215683808
 31
0.0
  0
LINE
  5
7DB5
330
19
100
AcDbEntity
  8
1
100
AcDbLine
 10
-5012.391945525514
 20
85.03612156838086
 30
0.0
 11
-5007.891945525514
 21
85.03612156838086
 31
0.0
  0
LINE
  5
7DB6
330
19
100
AcDbEntity
  8
1
100
AcDbLine
 10
-5007.891945525514
 20
85.03612156838086
 30
0.0
 11
-5006.891945525515
 21
85.03612156838086
 31
0.0
  0
ARC
  5
7DB7
330
19
100
AcDbEntity
  8
1
100
AcDbCircle
 10
-5006.891945525515
 20
88.03612156838084
 30
0.0
 40
3.0
100
AcDbArc
 50
270.0
 51
0.0
  0
LINE
  5
7DB8
330
19
100
AcDbEntity
  8
1
100
AcDbLine
 10
-5007.891945525514
 20
85.03612156838086
 30
0.0
 11
-5006.891945525515
 21
85.03612156838086
 31
0.0
  0
LINE
  5
7DB9
330
19
100
AcDbEntity
  8
1
100
AcDbLine
 10
-5007.891945525514
 20
135.0361215683808
 30
0.0
 11
-5007.891945525514
 21
85.03612156838086
 31
0.0
  0
LINE
  5
7DBA
330
19
100
AcDbEntity
  8
1
100
AcDbLine
 10
-5007.891945525514
 20
135.0361215683808
 30
0.0
 11
-5007.891945525514
 21
85.03612156838086
 31
0.0
  0
LINE
  5
7DBB
330
19
100
AcDbEntity
  8
1
100
AcDbLine
 10
-5007.891945525514
 20
135.0361215683808
 30
0.0
 11
-4957.891945525514
 21
135.0361215683808
 31
0.0
  0
ARC
  5
7DBC
330
19
100
AcDbEntity
  8
1
100
AcDbCircle
 10
-4997.391945525515
 20
124.5361215683808
 30
0.0
 40
6.5
100
AcDbArc
 50
90.0
 51
180.0
  0
CIRCLE
  5
7DBD
330
19
100
AcDbEntity
  8
1
100
AcDbCircle
 10
-5478.391945525515
 20
2062.036121568381
 30
0.0
 40
17.5
  0
LINE
  5
7DBE
330
19
100
AcDbEntity
  8
1
100
AcDbLine
 10
-5478.391945525515
 20
2044.536121568381
 30
0.0
 11
-5466.837380525515
 21
2043.29814556838
 31
0.0
  0
LINE
  5
7DBF
330
19
100
AcDbEntity
  8
1
100
AcDbLine
 10
-5466.837380525515
 20
2043.29814556838
 30
0.0
 11
-5489.946511525515
 21
2043.29814556838
 31
0.0
  0
LINE
  5
7DC0
330
19
100
AcDbEntity
  8
1
100
AcDbLine
 10
-5519.860268525516
 20
2062.036121568381
 30
0.0
 11
-5438.509865525515
 21
2062.036121568381
 31
0.0
  0
ARC
  5
7DC1
330
19
100
AcDbEntity
  8
1
100
AcDbCircle
 10
-5478.391945525515
 20
2062.036121568381
 30
0.0
 40
29.99998900000001
100
AcDbArc
 50
305.6038510000001
 51
234.3961330000003
  0
LINE
  5
7DC2
330
19
100
AcDbEntity
  8
1
100
AcDbLine
 10
-5419.391945525514
 20
1965.03612156838
 30
0.0
 11
-5537.391945525515
 21
1965.03612156838
 31
0.0
  0
LINE
  5
7DC3
330
19
100
AcDbEntity
  8
1
100
AcDbLine
 10
-5540.391945525515
 20
1958.03612156838
 30
0.0
 11
-5416.391945525514
 21
1958.03612156838
 31
0.0
  0
LINE
  5
7DC4
330
19
100
AcDbEntity
  8
2
100
AcDbLine
 10
-5538.712258525515
 20
1891.036121568381
 30
0.0
 11
-5414.704811525514
 21
1891.036121568381
 31
0.0
  0
LINE
  5
7DC5
330
19
100
AcDbEntity
  8
1
100
AcDbLine
 10
-5422.891945525514
 20
1667.036121568381
 30
0.0
 11
-5478.391945525515
 21
1667.036121568381
 31
0.0
  0
LINE
  5
7DC6
330
19
100
AcDbEntity
  8
1
100
AcDbLine
 10
-5537.391945525515
 20
1743.338245568381
 30
0.0
 11
-5419.391945525514
 21
1743.338245568381
 31
0.0
  0
LINE
  5
7DC7
330
19
100
AcDbEntity
  8
1
100
AcDbLine
 10
-5416.391945525514
 20
1763.33824556838
 30
0.0
 11
-5540.391945525515
 21
1763.33824556838
 31
0.0
  0
LINE
  5
7DC8
330
19
100
AcDbEntity
  8
2
100
AcDbLine
 10
-5811.801003525516
 20
1841.036121568381
 30
0.0
 11
-5117.102150525516
 21
1841.036121568381
 31
0.0
  0
LINE
  5
7DC9
330
19
100
AcDbEntity
  8
1
100
AcDbLine
 10
-5358.391945525514
 20
2032.036121568381
 30
0.0
 11
-5478.391945525515
 21
2032.036121568381
 31
0.0
  0
LINE
  5
7DCA
330
19
100
AcDbEntity
  8
1
100
AcDbLine
 10
-5289.891945525514
 20
1655.036121568381
 30
0.0
 11
-5665.891945525515
 21
1655.036121568381
 31
0.0
  0
LINE
  5
7DCB
330
19
100
AcDbEntity
  8
1
100
AcDbLine
 10
-5289.891945525514
 20
1661.036121568381
 30
0.0
 11
-5665.891945525515
 21
1661.036121568381
 31
0.0
  0
LINE
  5
7DCC
330
19
100
AcDbEntity
  8
1
100
AcDbLine
 10
-6203.391945525517
 20
1539.536121568383
 30
0.0
 11
-5587.891945525514
 21
1539.536121568381
 31
0.0
  0
LINE
  5
7DCD
330
19
100
AcDbEntity
  8
1
100
AcDbLine
 10
-5047.891945525514
 20
1495.036121568381
 30
0.0
 11
-6142.891945525515
 21
1495.036121568381
 31
0.0
  0
LINE
  5
7DCE
330
19
100
AcDbEntity
  8
1
100
AcDbLine
 10
-5047.891945525515
 20
1531.036121568381
 30
0.0
 11
-6142.891945525515
 21
1531.036121568382
 31
0.0
  0
LINE
  5
7DCF
330
19
100
AcDbEntity
  8
1
100
AcDbLine
 10
-5337.891945525514
 20
1617.036121568381
 30
0.0
 11
-5617.891945525514
 21
1617.036121568381
 31
0.0
  0
LINE
  5
7DD0
330
19
100
AcDbEntity
  8
1
100
AcDbLine
 10
-6218.391945525514
 20
1539.036121568381
 30
0.0
 11
-6254.891945525514
 21
1539.036121568381
 31
0.0
  0
LINE
  5
7DD1
330
19
100
AcDbEntity
  8
1
100
AcDbLine
 10
-6225.082930847373
 20
1562.536121568381
 30
0.0
 11
-6186.755245024186
 21
1562.536121568381
 31
0.0
  0
LINE
  5
7DD2
330
19
100
AcDbEntity
  8
1
100
AcDbLine
 10
-6257.891945525514
 20
1535.036121568381
 30
0.0
 11
-6257.891945525514
 21
1536.036121568381
 31
0.0
  0
ARC
  5
7DD3
330
19
100
AcDbEntity
  8
1
100
AcDbCircle
 10
-6254.891945525514
 20
1536.036121568381
 30
0.0
 40
3.0
100
AcDbArc
 50
90.0
 51
180.0
  0
LINE
  5
7DD4
330
19
100
AcDbEntity
  8
1
100
AcDbLine
 10
-5567.391945525514
 20
1935.036121568381
 30
0.0
 11
-5567.391945525514
 21
1773.33824556838
 31
0.0
  0
LINE
  5
7DD5
330
19
100
AcDbEntity
  8
1
100
AcDbLine
 10
-5560.391945525514
 20
1938.03612156838
 30
0.0
 11
-5560.391945525514
 21
1783.338245568381
 31
0.0
  0
LINE
  5
7DD6
330
19
100
AcDbEntity
  8
1
100
AcDbLine
 10
-5658.391945525515
 20
2025.72276656838
 30
0.0
 11
-5658.391945525515
 21
1665.036121568381
 31
0.0
  0
LINE
  5
7DD7
330
19
100
AcDbEntity
  8
1
100
AcDbLine
 10
-5608.391945525514
 20
1681.036121568381
 30
0.0
 11
-5608.391945525514
 21
2026.036121568381
 31
0.0
  0
LINE
  5
7DD8
330
19
100
AcDbEntity
  8
1
100
AcDbLine
 10
-5798.391945525515
 20
1978.14940256838
 30
0.0
 11
-5798.391945525515
 21
1703.92283956838
 31
0.0
  0
LINE
  5
7DD9
330
19
100
AcDbEntity
  8
1
100
AcDbLine
 10
-5738.291970525516
 20
2014.408862568381
 30
0.0
 11
-5738.291970525516
 21
1667.662463568381
 31
0.0
  0
LINE
  5
7DDA
330
19
100
AcDbEntity
  8
1
100
AcDbLine
 10
-5689.991921525515
 20
1667.536121568381
 30
0.0
 11
-5689.991921525515
 21
2014.849475568381
 31
0.0
  0
LINE
  5
7DDB
330
19
100
AcDbEntity
  8
2
100
AcDbLine
 10
-5478.391945525515
 20
2099.53429056838
 30
0.0
 11
-5478.391945525515
 21
1648.79088156838
 31
0.0
  0
LINE
  5
7DDC
330
19
100
AcDbEntity
  8
1
100
AcDbLine
 10
-5683.122414525515
 20
1665.036121568381
 30
0.0
 11
-5645.212453601203
 21
1665.036121568381
 31
0.0
  0
LINE
  5
7DDE
330
19
100
AcDbEntity
  8
1
100
AcDbLine
 10
-6142.891945525515
 20
1531.036121568381
 30
0.0
 11
-6142.891945525515
 21
1495.036121568381
 31
0.0
  0
LINE
  5
7DDF
330
19
100
AcDbEntity
  8
1
100
AcDbLine
 10
-6203.391945525514
 20
1585.036121568382
 30
0.0
 11
-6207.891945525514
 21
1585.03612156838
 31
0.0
  0
LINE
  5
7DE0
330
19
100
AcDbEntity
  8
1
100
AcDbLine
 10
-6207.891945525514
 20
1585.03612156838
 30
0.0
 11
-6208.891945525514
 21
1585.03612156838
 31
0.0
  0
ARC
  5
7DE1
330
19
100
AcDbEntity
  8
1
100
AcDbCircle
 10
-6208.891945525514
 20
1582.036121568381
 30
0.0
 40
3.0
100
AcDbArc
 50
90.0
 51
180.0
  0
ARC
  5
7DE2
330
19
100
AcDbEntity
  8
1
100
AcDbCircle
 10
-6218.391945525514
 20
1545.536121568381
 30
0.0
 40
6.5
100
AcDbArc
 50
270.0
 51
0.0
  0
LINE
  5
7DE3
330
19
100
AcDbEntity
  8
1
100
AcDbLine
 10
-6207.891945525514
 20
1535.036121568381
 30
0.0
 11
-6207.891945525514
 21
1585.03612156838
 31
0.0
  0
LINE
  5
7DE4
330
19
100
AcDbEntity
  8
1
100
AcDbLine
 10
-5743.848976525516
 20
1669.545764568381
 30
0.0
 11
-5795.891945525514
 21
1699.59276156838
 31
0.0
  0
ARC
  5
7DE5
330
19
100
AcDbEntity
  8
1
100
AcDbCircle
 10
-5793.391945525514
 20
1703.92283956838
 30
0.0
 40
5.0
100
AcDbArc
 50
180.0
 51
239.9997249999998
  0
LINE
  5
7DE6
330
19
100
AcDbEntity
  8
1
100
AcDbLine
 10
-5736.348976525516
 20
1667.536121568381
 30
0.0
 11
-5689.991921525515
 21
1667.536121568381
 31
0.0
  0
ARC
  5
7DE7
330
19
100
AcDbEntity
  8
1
100
AcDbCircle
 10
-5736.348976525516
 20
1682.536121568381
 30
0.0
 40
15.0
100
AcDbArc
 50
239.9999540000003
 51
270.0
  0
LINE
  5
7DE8
330
19
100
AcDbEntity
  8
1
100
AcDbLine
 10
-5683.122414525515
 20
1665.036121568381
 30
0.0
 11
-5689.991921525515
 21
1667.536121568381
 31
0.0
  0
LINE
  5
7DE9
330
19
100
AcDbEntity
  8
1
100
AcDbLine
 10
-5671.891945525515
 20
1649.036121568381
 30
0.0
 11
-5671.891945525515
 21
1611.036121568381
 31
0.0
  0
LINE
  5
7DEA
330
19
100
AcDbEntity
  8
1
100
AcDbLine
 10
-5677.891945525515
 20
1649.036121568381
 30
0.0
 11
-5677.891945525515
 21
1611.036121568381
 31
0.0
  0
LINE
  5
7DEB
330
19
100
AcDbEntity
  8
1
100
AcDbLine
 10
-5617.891945525514
 20
1531.036121568382
 30
0.0
 11
-5617.891945525514
 21
1639.036121568381
 31
0.0
  0
LINE
  5
7DEC
330
19
100
AcDbEntity
  8
1
100
AcDbLine
 10
-5637.891945525514
 20
1639.036121568381
 30
0.0
 11
-5637.891945525514
 21
1531.036121568382
 31
0.0
  0
LINE
  5
7DED
330
19
100
AcDbEntity
  8
2
100
AcDbLine
 10
-5627.891945525515
 20
1742.502315741766
 30
0.0
 11
-5627.891945525515
 21
1516.637617274343
 31
0.0
  0
LINE
  5
7DEE
330
19
100
AcDbEntity
  8
1
100
AcDbLine
 10
-5671.891945525515
 20
1611.036121568381
 30
0.0
 11
-5677.891945525515
 21
1611.036121568381
 31
0.0
  0
LINE
  5
7DEF
330
19
100
AcDbEntity
  8
1
100
AcDbLine
 10
-5637.891945525514
 20
1617.036121568381
 30
0.0
 11
-5671.891945525515
 21
1617.036121568381
 31
0.0
  0
LINE
  5
7DF0
330
19
100
AcDbEntity
  8
1
100
AcDbLine
 10
-5618.391945525514
 20
1681.036121568381
 30
0.0
 11
-5561.391945525514
 21
1681.036121568381
 31
0.0
  0
LINE
  5
7DF1
330
19
100
AcDbEntity
  8
1
100
AcDbLine
 10
-5538.891945525515
 20
1661.036121568381
 30
0.0
 11
-5621.391945525514
 21
1661.036121568381
 31
0.0
  0
LINE
  5
7DF2
330
19
100
AcDbEntity
  8
1
100
AcDbLine
 10
-5598.891945525514
 20
1685.138049568381
 30
0.0
 11
-5598.891945525514
 21
1657.207263568381
 31
0.0
  0
ARC
  5
7DF3
330
19
100
AcDbEntity
  8
1
100
AcDbCircle
 10
-5603.780495525516
 20
1684.036121568381
 30
0.0
 40
3.0
100
AcDbArc
 50
270.0
 51
0.0
  0
LINE
  5
7DF4
330
19
100
AcDbEntity
  8
1
100
AcDbLine
 10
-5617.891945525514
 20
1708.536121568382
 30
0.0
 11
-5637.891945525514
 21
1708.536121568382
 31
0.0
  0
LINE
  5
7DF5
330
19
100
AcDbEntity
  8
1
100
AcDbLine
 10
-5612.891945525515
 20
1677.036121568381
 30
0.0
 11
-5610.571437449825
 21
1675.696375606225
 31
0.0
  0
ARC
  5
7DF6
330
19
100
AcDbEntity
  8
1
100
AcDbCircle
 10
-5614.901564468748
 20
1669.368653323112
 30
0.0
 40
7.667468245269114
100
AcDbArc
 50
55.6157525319557
 51
124.3842474680443
  0
LINE
  5
7DF7
330
19
100
AcDbEntity
  8
1
100
AcDbLine
 10
-5642.891945525515
 20
1677.036121568381
 30
0.0
 11
-5645.212453601203
 21
1675.696375606225
 31
0.0
  0
ARC
  5
7DF8
330
19
100
AcDbEntity
  8
1
100
AcDbCircle
 10
-5640.882326582281
 20
1669.368653323112
 30
0.0
 40
7.667468245269114
100
AcDbArc
 50
55.6157525319557
 51
124.3842474680443
  0
ARC
  5
7DF9
330
19
100
AcDbEntity
  8
1
100
AcDbCircle
 10
-5627.891945525515
 20
1648.375867530536
 30
0.0
 40
28.66025403784414
100
AcDbArc
 50
72.41204622600595
 51
107.587953773994
  0
LINE
  5
7DFA
330
19
100
AcDbEntity
  8
1
100
AcDbLine
 10
-5610.571437449825
 20
1655.036121568381
 30
0.0
 11
-5645.212453601204
 21
1655.036121568381
 31
0.0
  0
LINE
  5
7DFB
330
19
100
AcDbEntity
  8
1
100
AcDbLine
 10
-5645.212453601203
 20
1661.036121568381
 30
0.0
 11
-5610.571437449825
 21
1661.036121568381
 31
0.0
  0
LINE
  5
7DFC
330
19
100
AcDbEntity
  8
1
100
AcDbLine
 10
-5645.212453601203
 20
1675.696375606225
 30
0.0
 11
-5645.212453601203
 21
1661.036121568381
 31
0.0
  0
LINE
  5
7DFD
330
19
100
AcDbEntity
  8
1
100
AcDbLine
 10
-5636.552199563359
 20
1675.696375606225
 30
0.0
 11
-5636.552199563359
 21
1661.036121568381
 31
0.0
  0
LINE
  5
7DFE
330
19
100
AcDbEntity
  8
1
100
AcDbLine
 10
-5619.231691487669
 20
1675.696375606225
 30
0.0
 11
-5619.231691487669
 21
1661.036121568381
 31
0.0
  0
LINE
  5
7DFF
330
19
100
AcDbEntity
  8
1
100
AcDbLine
 10
-5610.571437449825
 20
1675.696375606225
 30
0.0
 11
-5610.571437449825
 21
1661.036121568381
 31
0.0
  0
LINE
  5
7E00
330
19
100
AcDbEntity
  8
1
100
AcDbLine
 10
-5642.891945525515
 20
1677.036121568381
 30
0.0
 11
-5612.891945525515
 21
1677.036121568381
 31
0.0
  0
LINE
  5
7E01
330
19
100
AcDbEntity
  8
1
100
AcDbLine
 10
-5617.891945525514
 20
1677.036121568381
 30
0.0
 11
-5617.891945525514
 21
1708.536121568382
 31
0.0
  0
LINE
  5
7E02
330
19
100
AcDbEntity
  8
1
100
AcDbLine
 10
-5637.891945525514
 20
1708.536121568382
 30
0.0
 11
-5637.891945525514
 21
1677.036121568381
 31
0.0
  0
ARC
  5
7E03
330
19
100
AcDbEntity
  8
1
100
AcDbCircle
 10
-5627.891945525515
 20
1667.696375606225
 30
0.0
 40
28.66025403784414
100
AcDbArc
 50
252.412046226006
 51
287.587953773994
  0
LINE
  5
7E04
330
19
100
AcDbEntity
  8
1
100
AcDbLine
 10
-5612.891945525515
 20
1639.036121568381
 30
0.0
 11
-5642.891945525515
 21
1639.036121568381
 31
0.0
  0
LINE
  5
7E05
330
19
100
AcDbEntity
  8
1
100
AcDbLine
 10
-5642.891945525515
 20
1639.036121568381
 30
0.0
 11
-5645.212453601203
 21
1640.375867530536
 31
0.0
  0
ARC
  5
7E06
330
19
100
AcDbEntity
  8
1
100
AcDbCircle
 10
-5640.882326582281
 20
1646.703589813649
 30
0.0
 40
7.667468245269114
100
AcDbArc
 50
235.6157525319557
 51
304.3842474680443
  0
LINE
  5
7E07
330
19
100
AcDbEntity
  8
1
100
AcDbLine
 10
-5612.891945525515
 20
1639.036121568381
 30
0.0
 11
-5610.571437449825
 21
1640.375867530536
 31
0.0
  0
ARC
  5
7E08
330
19
100
AcDbEntity
  8
1
100
AcDbCircle
 10
-5614.901564468748
 20
1646.703589813649
 30
0.0
 40
7.667468245269114
100
AcDbArc
 50
235.6157525319557
 51
304.3842474680443
  0
ARC
  5
7E09
330
19
100
AcDbEntity
  8
1
100
AcDbCircle
 10
-5665.891945525515
 20
1649.036121568381
 30
0.0
 40
12.0
100
AcDbArc
 50
90.0
 51
180.0
  0
ARC
  5
7E0A
330
19
100
AcDbEntity
  8
1
100
AcDbCircle
 10
-5665.891945525515
 20
1649.036121568381
 30
0.0
 40
6.0
100
AcDbArc
 50
90.0
 51
180.0
  0
LINE
  5
7E0B
330
19
100
AcDbEntity
  8
1
100
AcDbLine
 10
-5636.552199563359
 20
1640.375867530536
 30
0.0
 11
-5636.552199563359
 21
1655.036121568381
 31
0.0
  0
LINE
  5
7E0C
330
19
100
AcDbEntity
  8
1
100
AcDbLine
 10
-5645.212453601203
 20
1640.375867530536
 30
0.0
 11
-5645.212453601203
 21
1655.036121568381
 31
0.0
  0
LINE
  5
7E0D
330
19
100
AcDbEntity
  8
1
100
AcDbLine
 10
-5610.571437449825
 20
1640.375867530536
 30
0.0
 11
-5610.571437449825
 21
1655.036121568381
 31
0.0
  0
LINE
  5
7E0E
330
19
100
AcDbEntity
  8
1
100
AcDbLine
 10
-5619.231691487669
 20
1640.375867530536
 30
0.0
 11
-5619.231691487669
 21
1655.036121568381
 31
0.0
  0
LINE
  5
7E0F
330
19
100
AcDbEntity
  8
1
100
AcDbLine
 10
-5493.391945525514
 20
1702.099841568381
 30
0.0
 11
-5493.391945525514
 21
1734.11497856838
 31
0.0
  0
ARC
  5
7E10
330
19
100
AcDbEntity
  8
1
100
AcDbCircle
 10
-5513.391945525515
 20
1702.099841568381
 30
0.0
 40
19.999981
100
AcDbArc
 50
271.26358
 51
0.0
  0
ARC
  5
7E11
330
19
100
AcDbEntity
  8
1
100
AcDbCircle
 10
-5533.891945525514
 20
1662.03612156838
 30
0.0
 40
5.0
100
AcDbArc
 50
90.0
 51
180.0
  0
LINE
  5
7E12
330
19
100
AcDbEntity
  8
1
100
AcDbLine
 10
-5538.891945525515
 20
1662.03612156838
 30
0.0
 11
-5538.891945525515
 21
1661.036121568381
 31
0.0
  0
ARC
  5
7E13
330
19
100
AcDbEntity
  8
1
100
AcDbCircle
 10
-5540.391945525515
 20
1783.338245568381
 30
0.0
 40
20.0
100
AcDbArc
 50
180.0
 51
270.0
  0
ARC
  5
7E14
330
19
100
AcDbEntity
  8
1
100
AcDbCircle
 10
-5537.391945525515
 20
1773.33824556838
 30
0.0
 40
30.0
100
AcDbArc
 50
180.0
 51
270.0
  0
LINE
  5
7E15
330
19
100
AcDbEntity
  8
1
100
AcDbLine
 10
-5533.891945525514
 20
1667.036121568381
 30
0.0
 11
-5478.391945525515
 21
1667.036121568381
 31
0.0
  0
LINE
  5
7E16
330
19
100
AcDbEntity
  8
1
100
AcDbLine
 10
-5512.950905525515
 20
1682.104724568381
 30
0.0
 11
-5561.391945525514
 21
1681.036121568381
 31
0.0
  0
LINE
  5
7E17
330
19
100
AcDbEntity
  8
1
100
AcDbLine
 10
-5661.705300525515
 20
2024.830310568381
 30
0.0
 11
-5686.678566525515
 21
2015.741931568381
 31
0.0
  0
LINE
  5
7E18
330
19
100
AcDbEntity
  8
1
100
AcDbLine
 10
-5743.848976525516
 20
2012.526477568381
 30
0.0
 11
-5795.891945525514
 21
1982.47948056838
 31
0.0
  0
ARC
  5
7E19
330
19
100
AcDbEntity
  8
1
100
AcDbCircle
 10
-5793.391945525514
 20
1978.14940256838
 30
0.0
 40
5.0
100
AcDbArc
 50
120.0002820000001
 51
180.0
  0
LINE
  5
7E1A
330
19
100
AcDbEntity
  8
1
100
AcDbLine
 10
-5736.348976525516
 20
2014.536121568381
 30
0.0
 11
-5693.518166525515
 21
2014.536121568381
 31
0.0
  0
ARC
  5
7E1B
330
19
100
AcDbEntity
  8
1
100
AcDbCircle
 10
-5736.348976525516
 20
1999.536121568381
 30
0.0
 40
15.0
100
AcDbArc
 50
90.0
 51
120.0000459999997
  0
ARC
  5
7E1C
330
19
100
AcDbEntity
  8
1
100
AcDbCircle
 10
-5693.518166525515
 20
2034.536121568381
 30
0.0
 40
20.0
100
AcDbArc
 50
270.0
 51
289.9974980000002
  0
LINE
  5
7E1D
330
19
100
AcDbEntity
  8
1
100
AcDbLine
 10
-5598.391945525515
 20
2032.036121568381
 30
0.0
 11
-5478.391945525515
 21
2032.036121568381
 31
0.0
  0
LINE
  5
7E1E
330
19
100
AcDbEntity
  8
1
100
AcDbLine
 10
-5598.391945525515
 20
2032.036121568381
 30
0.0
 11
-5608.391945525514
 21
2023.782092568381
 31
0.0
  0
ARC
  5
7E1F
330
19
100
AcDbEntity
  8
1
100
AcDbCircle
 10
-5654.865700525515
 20
2006.036121568381
 30
0.0
 40
20.0
100
AcDbArc
 50
90.0
 51
109.9975049999999
  0
LINE
  5
7E20
330
19
100
AcDbEntity
  8
1
100
AcDbLine
 10
-5654.865700525515
 20
2026.036121568381
 30
0.0
 11
-5608.391945525514
 21
2026.036121568381
 31
0.0
  0
ARC
  5
7E21
330
19
100
AcDbEntity
  8
1
100
AcDbCircle
 10
-5478.391945525515
 20
2062.036121568381
 30
0.0
 40
30.0
100
AcDbArc
 50
234.3961330000003
 51
234.8099519999995
  0
ARC
  5
7E22
330
19
100
AcDbEntity
  8
1
100
AcDbCircle
 10
-5489.626931525516
 20
2040.31523456838
 30
0.0
 40
3.0
100
AcDbArc
 50
96.11517299999997
 51
174.8055730000005
  0
LINE
  5
7E23
330
19
100
AcDbEntity
  8
1
100
AcDbLine
 10
-5478.391945525515
 20
2044.536121568381
 30
0.0
 11
-5489.946511525515
 21
2043.29814556838
 31
0.0
  0
ARC
  5
7E24
330
19
100
AcDbEntity
  8
1
100
AcDbCircle
 10
-5499.350319525515
 20
2032.765918568381
 30
0.0
 40
6.0
100
AcDbArc
 50
354.8055730000005
 51
54.39626300000012
  0
LINE
  5
7E25
330
19
100
AcDbEntity
  8
1
100
AcDbLine
 10
-5492.614601525516
 20
2040.586841568381
 30
0.0
 11
-5493.391945525514
 21
2032.036121568381
 31
0.0
  0
ARC
  5
7E26
330
19
100
AcDbEntity
  8
1
100
AcDbCircle
 10
-5537.391945525515
 20
1935.036121568381
 30
0.0
 40
30.0
100
AcDbArc
 50
90.0
 51
180.0
  0
ARC
  5
7E27
330
19
100
AcDbEntity
  8
1
100
AcDbCircle
 10
-5540.391945525515
 20
1938.03612156838
 30
0.0
 40
20.0
100
AcDbArc
 50
90.0
 51
180.0
  0
LINE
  5
7E28
330
19
100
AcDbEntity
  8
1
100
AcDbLine
 10
-5091.891945525515
 20
1539.536121568375
 30
0.0
 11
-5012.391945525514
 21
1539.536121568393
 31
0.0
  0
LINE
  5
7E29
330
19
100
AcDbEntity
  8
1
100
AcDbLine
 10
-5030.201588474323
 20
1562.536121568381
 30
0.0
 11
-4984.208371477886
 21
1562.536121568381
 31
0.0
  0
LINE
  5
7E2A
330
19
100
AcDbEntity
  8
1
100
AcDbLine
 10
-5136.891945525515
 20
1817.036121568381
 30
0.0
 11
-5136.891945525515
 21
1865.036121568378
 31
0.0
  0
LINE
  5
7E2B
330
19
100
AcDbEntity
  8
1
100
AcDbLine
 10
-5236.891945525514
 20
1816.03612156838
 30
0.0
 11
-5236.891945525514
 21
1866.036121568381
 31
0.0
  0
LINE
  5
7E2C
330
19
100
AcDbEntity
  8
1
100
AcDbLine
 10
-5246.891945525515
 20
1904.03612156838
 30
0.0
 11
-5246.891945525515
 21
1841.036121568381
 31
0.0
  0
LINE
  5
7E2D
330
19
100
AcDbEntity
  8
1
100
AcDbLine
 10
-5323.391945525514
 20
2006.036121568381
 30
0.0
 11
-5323.391945525514
 21
1841.036121568381
 31
0.0
  0
LINE
  5
7E2E
330
19
100
AcDbEntity
  8
1
100
AcDbLine
 10
-5389.391945525514
 20
1935.036121568381
 30
0.0
 11
-5389.391945525514
 21
1773.33824556838
 31
0.0
  0
LINE
  5
7E2F
330
19
100
AcDbEntity
  8
1
100
AcDbLine
 10
-5396.391945525515
 20
1938.03612156838
 30
0.0
 11
-5396.391945525515
 21
1783.338245568381
 31
0.0
  0
LINE
  5
7E30
330
19
100
AcDbEntity
  8
1
100
AcDbLine
 10
-5231.891945525514
 20
1520.738932816153
 30
0.0
 11
-5231.891945525514
 21
2041.036121568381
 31
0.0
  0
LINE
  5
7E31
330
19
100
AcDbEntity
  8
1
100
AcDbLine
 10
-5091.891945525515
 20
1520.738932816153
 30
0.0
 11
-5091.891945525515
 21
2041.036121568381
 31
0.0
  0
LINE
  5
7E32
330
19
100
AcDbEntity
  8
1
100
AcDbLine
 10
-5217.891945525515
 20
1711.036121568381
 30
0.0
 11
-5277.891945525515
 21
1711.036121568381
 31
0.0
  0
LINE
  5
7E33
330
19
100
AcDbEntity
  8
1
100
AcDbLine
 10
-5268.336769525514
 20
1702.138904568381
 30
0.0
 11
-5291.510597525515
 21
1678.965076568381
 31
0.0
  0
LINE
  5
7E34
330
19
100
AcDbEntity
  8
1
100
AcDbLine
 10
-5266.123313406866
 20
1631.036121568381
 30
0.0
 11
-5290.580372553544
 21
1631.036121568381
 31
0.0
  0
LINE
  5
7E35
330
19
100
AcDbEntity
  8
1
100
AcDbLine
 10
-5283.891945525514
 20
1649.036121568381
 30
0.0
 11
-5283.891945525514
 21
1611.036121568381
 31
0.0
  0
LINE
  5
7E36
330
19
100
AcDbEntity
  8
1
100
AcDbLine
 10
-5317.891945525515
 20
1531.036121568382
 30
0.0
 11
-5317.891945525515
 21
1639.036121568381
 31
0.0
  0
LINE
  5
7E37
330
19
100
AcDbEntity
  8
1
100
AcDbLine
 10
-5337.891945525514
 20
1639.036121568381
 30
0.0
 11
-5337.891945525514
 21
1531.036121568382
 31
0.0
  0
LINE
  5
7E38
330
19
100
AcDbEntity
  8
2
100
AcDbLine
 10
-5327.891945525514
 20
1742.502315741766
 30
0.0
 11
-5327.891945525514
 21
1516.637617274343
 31
0.0
  0
LINE
  5
7E39
330
19
100
AcDbEntity
  8
1
100
AcDbLine
 10
-5277.891945525515
 20
1711.036121568382
 30
0.0
 11
-5277.891945525515
 21
1531.036121568381
 31
0.0
  0
LINE
  5
7E3A
330
19
100
AcDbEntity
  8
1
100
AcDbLine
 10
-5277.891945525515
 20
1611.036121568381
 30
0.0
 11
-5283.891945525514
 21
1611.036121568381
 31
0.0
  0
LINE
  5
7E3B
330
19
100
AcDbEntity
  8
1
100
AcDbLine
 10
-5283.891945525514
 20
1617.036121568381
 30
0.0
 11
-5317.891945525515
 21
1617.036121568381
 31
0.0
  0
LINE
  5
7E3C
330
19
100
AcDbEntity
  8
1
100
AcDbLine
 10
-5417.891945525514
 20
1661.036121568381
 30
0.0
 11
-5335.391945525515
 21
1661.036121568381
 31
0.0
  0
LINE
  5
7E3D
330
19
100
AcDbEntity
  8
1
100
AcDbLine
 10
-5338.391945525515
 20
1681.036121568381
 30
0.0
 11
-5395.391945525514
 21
1681.036121568381
 31
0.0
  0
ARC
  5
7E3E
330
19
100
AcDbEntity
  8
1
100
AcDbCircle
 10
-5422.891945525514
 20
1662.03612156838
 30
0.0
 40
5.0
100
AcDbArc
 50
0.0
 51
90.0
  0
LINE
  5
7E3F
330
19
100
AcDbEntity
  8
1
100
AcDbLine
 10
-5417.891945525514
 20
1662.03612156838
 30
0.0
 11
-5417.891945525514
 21
1661.036121568381
 31
0.0
  0
LINE
  5
7E40
330
19
100
AcDbEntity
  8
1
100
AcDbLine
 10
-5443.832985525515
 20
1682.104724568381
 30
0.0
 11
-5395.391945525514
 21
1681.036121568381
 31
0.0
  0
LINE
  5
7E41
330
19
100
AcDbEntity
  8
1
100
AcDbLine
 10
-5463.391945525515
 20
1702.099841568381
 30
0.0
 11
-5463.391945525515
 21
1734.11497856838
 31
0.0
  0
ARC
  5
7E42
330
19
100
AcDbEntity
  8
1
100
AcDbCircle
 10
-5443.391945525514
 20
1702.099841568381
 30
0.0
 40
20.0
100
AcDbArc
 50
180.0
 51
268.73642
  0
ARC
  5
7E43
330
19
100
AcDbEntity
  8
1
100
AcDbCircle
 10
-5416.391945525514
 20
1783.338245568381
 30
0.0
 40
20.0
100
AcDbArc
 50
270.0
 51
0.0
  0
ARC
  5
7E44
330
19
100
AcDbEntity
  8
1
100
AcDbCircle
 10
-5419.391945525514
 20
1773.33824556838
 30
0.0
 40
30.0
100
AcDbArc
 50
270.0
 51
0.0
  0
LINE
  5
7E45
330
19
100
AcDbEntity
  8
1
100
AcDbLine
 10
-5317.891945525515
 20
1708.536121568382
 30
0.0
 11
-5337.891945525514
 21
1708.536121568382
 31
0.0
  0
LINE
  5
7E46
330
19
100
AcDbEntity
  8
1
100
AcDbLine
 10
-5357.891945525515
 20
1685.138049568381
 30
0.0
 11
-5357.891945525515
 21
1657.207263568381
 31
0.0
  0
LINE
  5
7E47
330
19
100
AcDbEntity
  8
1
100
AcDbLine
 10
-5298.581642525515
 20
1676.036121568381
 30
0.0
 11
-5311.115413852284
 21
1676.036121568381
 31
0.0
  0
LINE
  5
7E48
330
19
100
AcDbEntity
  8
1
100
AcDbLine
 10
-5337.891945525514
 20
1682.775892068381
 30
0.0
 11
-5338.391945525515
 21
1681.036121568381
 31
0.0
  0
ARC
  5
7E49
330
19
100
AcDbEntity
  8
1
100
AcDbCircle
 10
-5338.391945525515
 20
1678.03612156838
 30
0.0
 40
3.0
100
AcDbArc
 50
80.40593177313942
 51
90.0
  0
ARC
  5
7E4A
330
19
100
AcDbEntity
  8
1
100
AcDbCircle
 10
-5298.581642525515
 20
1686.036121568381
 30
0.0
 40
10.0
100
AcDbArc
 50
270.0
 51
314.9999999999998
  0
LINE
  5
7E4B
330
19
100
AcDbEntity
  8
1
100
AcDbLine
 10
-5345.212453601203
 20
1661.036121568382
 30
0.0
 11
-5310.571437449826
 21
1661.036121568382
 31
0.0
  0
LINE
  5
7E4C
330
19
100
AcDbEntity
  8
1
100
AcDbLine
 10
-5342.891945525515
 20
1677.036121568382
 30
0.0
 11
-5312.891945525514
 21
1677.036121568382
 31
0.0
  0
ARC
  5
7E4D
330
19
100
AcDbEntity
  8
1
100
AcDbCircle
 10
-5327.891945525514
 20
1648.375867530537
 30
0.0
 40
28.66025403784414
100
AcDbArc
 50
72.41204622600595
 51
107.587953773994
  0
LINE
  5
7E4E
330
19
100
AcDbEntity
  8
1
100
AcDbLine
 10
-5336.552199563359
 20
1675.696375606226
 30
0.0
 11
-5336.552199563359
 21
1661.036121568382
 31
0.0
  0
LINE
  5
7E4F
330
19
100
AcDbEntity
  8
1
100
AcDbLine
 10
-5345.212453601203
 20
1675.696375606226
 30
0.0
 11
-5345.212453601203
 21
1661.036121568382
 31
0.0
  0
ARC
  5
7E50
330
19
100
AcDbEntity
  8
1
100
AcDbCircle
 10
-5340.882326582281
 20
1669.368653323113
 30
0.0
 40
7.667468245269114
100
AcDbArc
 50
55.6157525319557
 51
124.3842474680443
  0
LINE
  5
7E51
330
19
100
AcDbEntity
  8
1
100
AcDbLine
 10
-5342.891945525515
 20
1677.036121568382
 30
0.0
 11
-5345.212453601203
 21
1675.696375606226
 31
0.0
  0
LINE
  5
7E52
330
19
100
AcDbEntity
  8
1
100
AcDbLine
 10
-5310.571437449826
 20
1675.696375606226
 30
0.0
 11
-5310.571437449826
 21
1661.036121568382
 31
0.0
  0
LINE
  5
7E53
330
19
100
AcDbEntity
  8
1
100
AcDbLine
 10
-5319.23169148767
 20
1675.696375606226
 30
0.0
 11
-5319.23169148767
 21
1661.036121568382
 31
0.0
  0
LINE
  5
7E54
330
19
100
AcDbEntity
  8
1
100
AcDbLine
 10
-5327.891945525514
 20
1684.036073458255
 30
0.0
 11
-5327.891945525514
 21
1654.228412896225
 31
0.0
  0
ARC
  5
7E55
330
19
100
AcDbEntity
  8
1
100
AcDbCircle
 10
-5314.901564468748
 20
1669.368653323113
 30
0.0
 40
7.667468245269114
100
AcDbArc
 50
55.6157525319557
 51
124.3842474680443
  0
LINE
  5
7E56
330
19
100
AcDbEntity
  8
1
100
AcDbLine
 10
-5312.891945525514
 20
1677.036121568382
 30
0.0
 11
-5310.571437449826
 21
1675.696375606226
 31
0.0
  0
LINE
  5
7E57
330
19
100
AcDbEntity
  8
1
100
AcDbLine
 10
-5310.571437449826
 20
1655.036121568381
 30
0.0
 11
-5345.212453601203
 21
1655.036121568381
 31
0.0
  0
LINE
  5
7E58
330
19
100
AcDbEntity
  8
1
100
AcDbLine
 10
-5337.891945525514
 20
1708.536121568382
 30
0.0
 11
-5337.891945525514
 21
1677.036121568382
 31
0.0
  0
LINE
  5
7E59
330
19
100
AcDbEntity
  8
1
100
AcDbLine
 10
-5317.891945525515
 20
1677.036121568382
 30
0.0
 11
-5317.891945525515
 21
1708.536121568382
 31
0.0
  0
LINE
  5
7E5A
330
19
100
AcDbEntity
  8
1
100
AcDbLine
 10
-5323.391945525514
 20
1708.536121568382
 30
0.0
 11
-5323.391945525514
 21
1841.036121568381
 31
0.0
  0
LINE
  5
7E5B
330
19
100
AcDbEntity
  8
1
100
AcDbLine
 10
-5312.891945525514
 20
1639.036121568381
 30
0.0
 11
-5342.891945525515
 21
1639.036121568381
 31
0.0
  0
ARC
  5
7E5C
330
19
100
AcDbEntity
  8
1
100
AcDbCircle
 10
-5327.891945525514
 20
1667.696375606225
 30
0.0
 40
28.66025403784414
100
AcDbArc
 50
252.412046226006
 51
287.587953773994
  0
ARC
  5
7E5D
330
19
100
AcDbEntity
  8
1
100
AcDbCircle
 10
-5314.901564468748
 20
1646.703589813649
 30
0.0
 40
7.667468245269114
100
AcDbArc
 50
235.6157525319557
 51
304.3842474680443
  0
LINE
  5
7E5E
330
19
100
AcDbEntity
  8
1
100
AcDbLine
 10
-5312.891945525514
 20
1639.036121568381
 30
0.0
 11
-5310.571437449826
 21
1640.375867530536
 31
0.0
  0
ARC
  5
7E5F
330
19
100
AcDbEntity
  8
1
100
AcDbCircle
 10
-5340.882326582281
 20
1646.703589813649
 30
0.0
 40
7.667468245269114
100
AcDbArc
 50
235.6157525319557
 51
304.3842474680443
  0
LINE
  5
7E60
330
19
100
AcDbEntity
  8
1
100
AcDbLine
 10
-5342.891945525515
 20
1639.036121568381
 30
0.0
 11
-5345.212453601203
 21
1640.375867530536
 31
0.0
  0
LINE
  5
7E61
330
19
100
AcDbEntity
  8
1
100
AcDbLine
 10
-5319.23169148767
 20
1640.375867530536
 30
0.0
 11
-5319.23169148767
 21
1655.036121568381
 31
0.0
  0
LINE
  5
7E62
330
19
100
AcDbEntity
  8
1
100
AcDbLine
 10
-5310.571437449826
 20
1640.375867530536
 30
0.0
 11
-5310.571437449826
 21
1655.036121568381
 31
0.0
  0
LINE
  5
7E63
330
19
100
AcDbEntity
  8
1
100
AcDbLine
 10
-5345.212453601203
 20
1640.375867530536
 30
0.0
 11
-5345.212453601203
 21
1655.036121568381
 31
0.0
  0
LINE
  5
7E64
330
19
100
AcDbEntity
  8
1
100
AcDbLine
 10
-5336.552199563359
 20
1640.375867530536
 30
0.0
 11
-5336.552199563359
 21
1655.036121568381
 31
0.0
  0
LINE
  5
7E65
330
19
100
AcDbEntity
  8
1
100
AcDbLine
 10
-5327.891945525514
 20
1632.036169678508
 30
0.0
 11
-5327.891945525514
 21
1661.843830240538
 31
0.0
  0
ARC
  5
7E66
330
19
100
AcDbEntity
  8
1
100
AcDbCircle
 10
-5289.891945525514
 20
1649.036121568381
 30
0.0
 40
6.0
100
AcDbArc
 50
0.0
 51
90.0
  0
ARC
  5
7E67
330
19
100
AcDbEntity
  8
1
100
AcDbCircle
 10
-5289.891945525514
 20
1649.036121568381
 30
0.0
 40
12.0
100
AcDbArc
 50
0.0
 51
90.0
  0
LINE
  5
7E68
330
19
100
AcDbEntity
  8
1
100
AcDbLine
 10
-5097.891945525514
 20
1531.036121568381
 30
0.0
 11
-5217.891945525515
 21
1711.036121568381
 31
0.0
  0
LINE
  5
7E69
330
19
100
AcDbEntity
  8
1
100
AcDbLine
 10
-5271.891945525514
 20
1711.036121568382
 30
0.0
 11
-5271.891945525514
 21
1531.036121568381
 31
0.0
  0
LINE
  5
7E6A
330
19
100
AcDbEntity
  8
1
100
AcDbLine
 10
-5047.891945525514
 20
1531.036121568381
 30
0.0
 11
-5047.891945525514
 21
1495.036121568381
 31
0.0
  0
LINE
  5
7E6B
330
19
100
AcDbEntity
  8
1
100
AcDbLine
 10
-5126.891945525514
 20
1741.03612156838
 30
0.0
 11
-5206.891945525515
 21
1741.03612156838
 31
0.0
  0
LINE
  5
7E6C
330
19
100
AcDbEntity
  8
1
100
AcDbLine
 10
-5236.891945525514
 20
1817.036121568381
 30
0.0
 11
-5136.891945525515
 21
1817.036121568381
 31
0.0
  0
LINE
  5
7E6D
330
19
100
AcDbEntity
  8
1
100
AcDbLine
 10
-5236.891945525514
 20
1816.03612156838
 30
0.0
 11
-5246.891945525515
 21
1816.03612156838
 31
0.0
  0
LINE
  5
7E6E
330
19
100
AcDbEntity
  8
1
100
AcDbLine
 10
-5261.891945525515
 20
1776.036121568381
 30
0.0
 11
-5248.891945525514
 21
1776.036121568381
 31
0.0
  0
ARC
  5
7E6F
330
19
100
AcDbEntity
  8
1
100
AcDbCircle
 10
-5248.891945525514
 20
1778.036121568381
 30
0.0
 40
2.0
100
AcDbArc
 50
270.0
 51
0.0
  0
LINE
  5
7E70
330
19
100
AcDbEntity
  8
1
100
AcDbLine
 10
-5246.891945525515
 20
1778.036121568381
 30
0.0
 11
-5246.891945525515
 21
1841.036121568381
 31
0.0
  0
ARC
  5
7E71
330
19
100
AcDbEntity
  8
1
100
AcDbCircle
 10
-5275.407936525515
 20
1709.20994956838
 30
0.0
 40
10.000054
100
AcDbArc
 50
315.000488
 51
357.0002749999996
  0
LINE
  5
7E72
330
19
100
AcDbEntity
  8
1
100
AcDbLine
 10
-5261.891945525515
 20
1776.036121568381
 30
0.0
 11
-5265.421608525516
 21
1708.686633568381
 31
0.0
  0
LINE
  5
7E73
330
19
100
AcDbEntity
  8
1
100
AcDbLine
 10
-5268.336769525514
 20
1979.933337568381
 30
0.0
 11
-5291.510597525515
 21
2003.10716656838
 31
0.0
  0
ARC
  5
7E74
330
19
100
AcDbEntity
  8
1
100
AcDbCircle
 10
-5467.156960525516
 20
2040.31523456838
 30
0.0
 40
3.0
100
AcDbArc
 50
5.194429000000346
 51
83.88482700000002
  0
ARC
  5
7E75
330
19
100
AcDbEntity
  8
1
100
AcDbCircle
 10
-5457.433571525514
 20
2032.765918568381
 30
0.0
 40
6.0
100
AcDbArc
 50
125.6037369999999
 51
185.1944269999994
  0
LINE
  5
7E76
330
19
100
AcDbEntity
  8
1
100
AcDbLine
 10
-5464.169289525514
 20
2040.586841568381
 30
0.0
 11
-5463.391945525515
 21
2032.036121568381
 31
0.0
  0
ARC
  5
7E77
330
19
100
AcDbEntity
  8
1
100
AcDbCircle
 10
-5419.391945525514
 20
1935.036121568381
 30
0.0
 40
30.0
100
AcDbArc
 50
0.0
 51
90.0
  0
ARC
  5
7E78
330
19
100
AcDbEntity
  8
1
100
AcDbCircle
 10
-5416.391945525514
 20
1938.03612156838
 30
0.0
 40
20.0
100
AcDbArc
 50
0.0
 51
90.0
  0
LINE
  5
7E79
330
19
100
AcDbEntity
  8
1
100
AcDbLine
 10
-5341.430397525515
 20
2018.036121568381
 30
0.0
 11
-5358.391945525514
 21
2032.036121568381
 31
0.0
  0
LINE
  5
7E7A
330
19
100
AcDbEntity
  8
1
100
AcDbLine
 10
-5298.581642525515
 20
2006.036121568381
 30
0.0
 11
-5323.391945525514
 21
2006.036121568381
 31
0.0
  0
LINE
  5
7E7B
330
19
100
AcDbEntity
  8
1
100
AcDbLine
 10
-5341.430397525515
 20
2018.036121568381
 30
0.0
 11
-5333.391945525515
 21
1988.03612156838
 31
0.0
  0
LINE
  5
7E7C
330
19
100
AcDbEntity
  8
1
100
AcDbLine
 10
-5328.391945525514
 20
1988.03612156838
 30
0.0
 11
-5323.391945525514
 21
1988.03612156838
 31
0.0
  0
LINE
  5
7E7D
330
19
100
AcDbEntity
  8
1
100
AcDbLine
 10
-5333.391945525515
 20
1988.03612156838
 30
0.0
 11
-5328.391945525514
 21
1988.03612156838
 31
0.0
  0
LINE
  5
7E7E
330
19
100
AcDbEntity
  8
1
100
AcDbLine
 10
-5328.391945525514
 20
1988.03612156838
 30
0.0
 11
-5333.391945525515
 21
1988.03612156838
 31
0.0
  0
ARC
  5
7E7F
330
19
100
AcDbEntity
  8
1
100
AcDbCircle
 10
-5298.581642525515
 20
1996.036121568381
 30
0.0
 40
9.999967999999999
100
AcDbArc
 50
45.00000000000023
 51
90.0
  0
LINE
  5
7E80
330
19
100
AcDbEntity
  8
1
100
AcDbLine
 10
-5126.891945525514
 20
1941.036121568382
 30
0.0
 11
-5206.891945525515
 21
1941.036121568382
 31
0.0
  0
LINE
  5
7E81
330
19
100
AcDbEntity
  8
1
100
AcDbLine
 10
-5091.891945525515
 20
2041.036121568381
 30
0.0
 11
-5231.891945525514
 21
2041.036121568381
 31
0.0
  0
LINE
  5
7E82
330
19
100
AcDbEntity
  8
1
100
AcDbLine
 10
-5236.891945525514
 20
1865.03612156838
 30
0.0
 11
-5136.891945525515
 21
1865.036121568378
 31
0.0
  0
ARC
  5
7E83
330
19
100
AcDbEntity
  8
1
100
AcDbCircle
 10
-5275.407936525515
 20
1972.86229256838
 30
0.0
 40
10.000031
100
AcDbArc
 50
2.999738000000062
 51
44.99950399999958
  0
LINE
  5
7E84
330
19
100
AcDbEntity
  8
1
100
AcDbLine
 10
-5261.891945525515
 20
1906.03612156838
 30
0.0
 11
-5248.891945525514
 21
1906.03612156838
 31
0.0
  0
ARC
  5
7E85
330
19
100
AcDbEntity
  8
1
100
AcDbCircle
 10
-5248.891945525514
 20
1904.03612156838
 30
0.0
 40
2.0
100
AcDbArc
 50
0.0
 51
90.0
  0
LINE
  5
7E86
330
19
100
AcDbEntity
  8
1
100
AcDbLine
 10
-5261.891945525515
 20
1906.03612156838
 30
0.0
 11
-5265.421608525516
 21
1973.385608568381
 31
0.0
  0
LINE
  5
7E87
330
19
100
AcDbEntity
  8
1
100
AcDbLine
 10
-5236.891945525514
 20
1866.036121568381
 30
0.0
 11
-5246.891945525515
 21
1866.036121568381
 31
0.0
  0
LINE
  5
7E88
330
19
100
AcDbEntity
  8
1
100
AcDbLine
 10
-4997.391945525515
 20
1539.036121568381
 30
0.0
 11
-4960.891945525514
 21
1539.036121568381
 31
0.0
  0
LINE
  5
7E89
330
19
100
AcDbEntity
  8
1
100
AcDbLine
 10
-4957.891945525514
 20
1535.036121568381
 30
0.0
 11
-4957.891945525514
 21
1536.036121568381
 31
0.0
  0
ARC
  5
7E8A
330
19
100
AcDbEntity
  8
1
100
AcDbCircle
 10
-4960.891945525514
 20
1536.036121568381
 30
0.0
 40
3.0
100
AcDbArc
 50
0.0
 51
90.0
  0
LINE
  5
7E8B
330
19
100
AcDbEntity
  8
1
100
AcDbLine
 10
-5012.391945525514
 20
1585.036121568382
 30
0.0
 11
-5007.891945525514
 21
1585.03612156838
 31
0.0
  0
LINE
  5
7E8C
330
19
100
AcDbEntity
  8
1
100
AcDbLine
 10
-5007.891945525514
 20
1585.03612156838
 30
0.0
 11
-5006.891945525515
 21
1585.03612156838
 31
0.0
  0
ARC
  5
7E8D
330
19
100
AcDbEntity
  8
1
100
AcDbCircle
 10
-5006.891945525515
 20
1582.036121568381
 30
0.0
 40
3.0
100
AcDbArc
 50
0.0
 51
90.0
  0
LINE
  5
7E8E
330
19
100
AcDbEntity
  8
1
100
AcDbLine
 10
-5007.891945525514
 20
1535.036121568381
 30
0.0
 11
-5007.891945525514
 21
1585.03612156838
 31
0.0
  0
ARC
  5
7E8F
330
19
100
AcDbEntity
  8
1
100
AcDbCircle
 10
-4997.391945525515
 20
1545.536121568381
 30
0.0
 40
6.5
100
AcDbArc
 50
180.0
 51
270.0
  0
LINE
  5
7E9B
330
19
100
AcDbEntity
  8
1
100
AcDbLine
 10
-3757.901477775333
 20
1831.03612156838
 30
0.0
 11
-3757.901477775333
 21
1948.05504156838
 31
0.0
  0
LINE
  5
7E9C
330
19
100
AcDbEntity
  8
1
100
AcDbLine
 10
-3747.901477775333
 20
1951.036121568381
 30
0.0
 11
-3747.901477775333
 21
1831.03612156838
 31
0.0
  0
ARC
  5
7E9D
330
19
100
AcDbEntity
  8
1
100
AcDbCircle
 10
-2889.530506775333
 20
1827.56737156838
 30
0.0
 40
1000.0
100
AcDbArc
 50
174.8437189999995
 51
184.2695310000008
  0
LINE
  5
7E9E
330
19
100
AcDbEntity
  8
1
100
AcDbLine
 10
-3770.316394775333
 20
1961.86082856838
 30
0.0
 11
-3889.187427775333
 21
1741.929797568381
 31
0.0
  0
LINE
  5
7E9F
330
19
100
AcDbEntity
  8
1
100
AcDbLine
 10
-3767.149402775333
 20
1960.149036568381
 30
0.0
 11
-3886.020435775334
 21
1740.218005568381
 31
0.0
  0
LINE
  5
7EA0
330
19
100
AcDbEntity
  8
1
100
AcDbLine
 10
-3737.312976775333
 20
2041.036121568381
 30
0.0
 11
-3737.312976775333
 21
1520.738932816153
 31
0.0
  0
LINE
  5
7EA1
330
19
100
AcDbEntity
  8
1
100
AcDbLine
 10
-3815.401477775333
 20
1671.036121568381
 30
0.0
 11
-3815.401477775333
 21
1591.036121568381
 31
0.0
  0
LINE
  5
7EA2
330
19
100
AcDbEntity
  8
1
100
AcDbLine
 10
-3830.401477775333
 20
1671.036121568381
 30
0.0
 11
-3830.401477775333
 21
1591.036121568381
 31
0.0
  0
LINE
  5
7EA4
330
19
100
AcDbEntity
  8
1
100
AcDbLine
 10
-3792.901477775333
 20
1547.268527458481
 30
0.0
 11
-3792.901477775333
 21
1711.036121568381
 31
0.0
  0
LINE
  5
7EA5
330
19
100
AcDbEntity
  8
1
100
AcDbLine
 10
-3842.901477775331
 20
1528.775986359212
 30
0.0
 11
-3842.901477775333
 21
1711.036121568381
 31
0.0
  0
LINE
  5
7EA6
330
19
100
AcDbEntity
  8
1
100
AcDbLine
 10
-3798.901477775333
 20
1545.260733927034
 30
0.0
 11
-3798.901477775333
 21
1711.036121568381
 31
0.0
  0
ARC
  5
7EA7
330
19
100
AcDbEntity
  8
1
100
AcDbCircle
 10
-3822.901477775333
 20
1591.036121568381
 30
0.0
 40
7.5
100
AcDbArc
 50
180.0
 51
0.0
  0
LINE
  5
7EA8
330
19
100
AcDbEntity
  8
1
100
AcDbLine
 10
-3880.173328775332
 20
1751.036121568381
 30
0.0
 11
-3776.729297775334
 21
1751.036121568381
 31
0.0
  0
ARC
  5
7EA9
330
19
100
AcDbEntity
  8
1
100
AcDbCircle
 10
-3888.307666775335
 20
1741.454211568381
 30
0.0
 40
0.999915
100
AcDbArc
 50
151.6049800000002
 51
241.6078189999997
  0
ARC
  5
7EAA
330
19
100
AcDbEntity
  8
1
100
AcDbCircle
 10
-3886.900196775334
 20
1740.69346956838
 30
0.0
 40
0.999915
100
AcDbArc
 50
241.6049799999998
 51
331.6078190000001
  0
LINE
  5
7EAB
330
19
100
AcDbEntity
  8
1
100
AcDbLine
 10
-3887.375781775335
 20
1739.81370856838
 30
0.0
 11
-3888.783252775333
 21
1740.57457356838
 31
0.0
  0
LINE
  5
7EAC
330
19
100
AcDbEntity
  8
1
100
AcDbLine
 10
-3883.957080775333
 20
1751.60667756838
 30
0.0
 11
-3886.755420775333
 21
1753.119128568381
 31
0.0
  0
LINE
  5
7EAD
330
19
100
AcDbEntity
  8
1
100
AcDbLine
 10
-3827.901477775333
 20
1768.43053056838
 30
0.0
 11
-3827.901477775333
 21
1729.436511568381
 31
0.0
  0
LINE
  5
7EAE
330
19
100
AcDbEntity
  8
1
100
AcDbLine
 10
-3757.901477775333
 20
1831.03612156838
 30
0.0
 11
-3742.631092775333
 21
1831.03612156838
 31
0.0
  0
LINE
  5
7EAF
330
19
100
AcDbEntity
  8
1
100
AcDbLine
 10
-3719.901477775333
 20
1736.295154568381
 30
0.0
 11
-3713.517505775333
 21
1740.992908568381
 31
0.0
  0
ARC
  5
7EB0
330
19
100
AcDbEntity
  8
1
100
AcDbCircle
 10
-3776.729236775333
 20
1761.036121568381
 30
0.0
 40
9.999952
100
AcDbArc
 50
270.0
 51
352.8748929999996
  0
ARC
  5
7EB1
330
19
100
AcDbEntity
  8
1
100
AcDbCircle
 10
-3822.901477775333
 20
1671.036121568381
 30
0.0
 40
7.5
100
AcDbArc
 50
0.0
 51
180.0
  0
ARC
  5
7EB2
330
19
100
AcDbEntity
  8
1
100
AcDbCircle
 10
-3716.901477775333
 20
1678.03612156838
 30
0.0
 40
3.0
100
AcDbArc
 50
90.0
 51
180.0
  0
LINE
  5
7EB3
330
19
100
AcDbEntity
  8
1
100
AcDbLine
 10
-3719.901477775333
 20
1736.295154568381
 30
0.0
 11
-3719.901477775333
 21
1661.036121568381
 31
0.0
  0
LINE
  5
7EB4
330
19
100
AcDbEntity
  8
1
100
AcDbLine
 10
-3757.901477775333
 20
1831.03612156838
 30
0.0
 11
-3766.806507775333
 21
1759.795764568381
 31
0.0
  0
LINE
  5
7EB5
330
19
100
AcDbEntity
  8
1
100
AcDbLine
 10
-3792.901477775333
 20
1711.036121568381
 30
0.0
 11
-3842.901477775333
 21
1711.03612156838
 31
0.0
  0
LINE
  5
7EB6
330
19
100
AcDbEntity
  8
1
100
AcDbLine
 10
-3772.037586775334
 20
1958.67650156838
 30
0.0
 11
-3848.220691775334
 21
1953.761951568381
 31
0.0
  0
ARC
  5
7EB7
330
19
100
AcDbEntity
  8
1
100
AcDbCircle
 10
-3845.645740775334
 20
1913.84495856838
 30
0.0
 40
40.0
100
AcDbArc
 50
93.69090300000003
 51
174.8438009999996
  0
ARC
  5
7EB8
330
19
100
AcDbEntity
  8
1
100
AcDbCircle
 10
-3762.901355775333
 20
1948.05504156838
 30
0.0
 40
4.999896999999999
100
AcDbArc
 50
0.0
 51
61.60981000000003
  0
LINE
  5
7EB9
330
19
100
AcDbEntity
  8
1
100
AcDbLine
 10
-3768.870471775334
 20
1956.96483256838
 30
0.0
 11
-3760.524036775333
 21
1952.453601568381
 31
0.0
  0
ARC
  5
7EBA
330
19
100
AcDbEntity
  8
1
100
AcDbCircle
 10
-3768.029163775333
 20
1960.62449956838
 30
0.0
 40
1.000021999999999
100
AcDbArc
 50
331.6111449999996
 51
61.61113700000036
  0
ARC
  5
7EBB
330
19
100
AcDbEntity
  8
1
100
AcDbCircle
 10
-3769.436756775333
 20
1961.38536456838
 30
0.0
 40
0.999915
100
AcDbArc
 50
61.60498800000024
 51
151.6078130000004
  0
LINE
  5
7EBC
330
19
100
AcDbEntity
  8
1
100
AcDbLine
 10
-3768.961170775334
 20
1962.265002568381
 30
0.0
 11
-3767.553699775334
 21
1961.50426056838
 31
0.0
  0
LINE
  5
7EBD
330
19
100
AcDbEntity
  8
1
100
AcDbLine
 10
-3733.881580775333
 20
1891.036121568381
 30
0.0
 11
-3775.195545775334
 21
1891.036121568381
 31
0.0
  0
LINE
  5
7EBE
330
19
100
AcDbEntity
  8
1
100
AcDbLine
 10
-3758.887348775334
 20
1951.036121568381
 30
0.0
 11
-3706.646228775333
 21
1951.036121568381
 31
0.0
  0
LINE
  5
7EC7
330
19
100
AcDbEntity
  8
2
100
AcDbLine
 10
-3557.901477775333
 20
-384.9638784316192
 30
0.0
 11
-3557.901477775333
 21
2140.408730264595
 31
0.0
  0
CIRCLE
  5
7ED1
330
19
100
AcDbEntity
  8
1
100
AcDbCircle
 10
-3557.901477775333
 20
835.0361215683808
 30
0.0
 40
120.0
  0
CIRCLE
  5
7EF9
330
19
100
AcDbEntity
  8
1
100
AcDbCircle
 10
-3557.901477775333
 20
1841.036121568381
 30
0.0
 40
100.0
  0
LINE
  5
7EFA
330
19
100
AcDbEntity
  8
1
100
AcDbLine
 10
-3378.489978775333
 20
2041.036121568381
 30
0.0
 11
-3378.489978775333
 21
1520.738932816153
 31
0.0
  0
LINE
  5
7EFB
330
19
100
AcDbEntity
  8
1
100
AcDbLine
 10
-3614.901477775333
 20
1665.036121568381
 30
0.0
 11
-3500.901477775333
 21
1665.036121568381
 31
0.0
  0
LINE
  5
7EFC
330
19
100
AcDbEntity
  8
1
100
AcDbLine
 10
-3697.401477775333
 20
1685.176868568381
 30
0.0
 11
-3697.401477775333
 21
1656.814075568381
 31
0.0
  0
LINE
  5
7EFD
330
19
100
AcDbEntity
  8
1
100
AcDbLine
 10
-3660.401477775333
 20
1666.184680568381
 30
0.0
 11
-3650.894763775334
 21
1681.107288568381
 31
0.0
  0
LINE
  5
7EFE
330
19
100
AcDbEntity
  8
1
100
AcDbLine
 10
-3660.401477775333
 20
1678.03612156838
 30
0.0
 11
-3660.401477775333
 21
1661.036121568381
 31
0.0
  0
LINE
  5
7EFF
330
19
100
AcDbEntity
  8
1
100
AcDbLine
 10
-3668.725390775333
 20
1681.036121568381
 30
0.0
 11
-3663.545642775333
 21
1689.166736568381
 31
0.0
  0
ARC
  5
7F00
330
19
100
AcDbEntity
  8
1
100
AcDbCircle
 10
-3663.401477775333
 20
1678.03612156838
 30
0.0
 40
3.0
100
AcDbArc
 50
0.0
 51
90.0
  0
LINE
  5
7F01
330
19
100
AcDbEntity
  8
1
100
AcDbLine
 10
-3285.401477775333
 20
1671.036121568381
 30
0.0
 11
-3285.401477775333
 21
1591.036121568381
 31
0.0
  0
LINE
  5
7F02
330
19
100
AcDbEntity
  8
1
100
AcDbLine
 10
-3300.401477775333
 20
1671.036121568381
 30
0.0
 11
-3300.401477775333
 21
1591.036121568381
 31
0.0
  0
LINE
  5
7F04
330
19
100
AcDbEntity
  8
1
100
AcDbLine
 10
-3322.901477775333
 20
1547.268527458481
 30
0.0
 11
-3322.901477775333
 21
1711.036121568381
 31
0.0
  0
LINE
  5
7F05
330
19
100
AcDbEntity
  8
1
100
AcDbLine
 10
-3316.901477775334
 20
1545.260733927035
 30
0.0
 11
-3316.901477775333
 21
1711.036121568381
 31
0.0
  0
LINE
  5
7F06
330
19
100
AcDbEntity
  8
1
100
AcDbLine
 10
-3272.901477775333
 20
1528.775986359211
 30
0.0
 11
-3272.901477775333
 21
1711.036121568381
 31
0.0
  0
ARC
  5
7F07
330
19
100
AcDbEntity
  8
1
100
AcDbCircle
 10
-3292.901477775333
 20
1591.036121568381
 30
0.0
 40
7.5
100
AcDbArc
 50
180.0
 51
0.0
  0
LINE
  5
7F08
330
19
100
AcDbEntity
  8
1
100
AcDbLine
 10
-3395.901477775332
 20
1736.295154568381
 30
0.0
 11
-3402.285388775334
 21
1740.992908568381
 31
0.0
  0
LINE
  5
7F09
330
19
100
AcDbEntity
  8
1
100
AcDbLine
 10
-3455.401477775333
 20
1661.036121568381
 30
0.0
 11
-3395.901477775332
 21
1661.036121568381
 31
0.0
  0
ARC
  5
7F0A
330
19
100
AcDbEntity
  8
1
100
AcDbCircle
 10
-3398.901477775333
 20
1678.03612156838
 30
0.0
 40
3.0
100
AcDbArc
 50
0.0
 51
90.0
  0
LINE
  5
7F0B
330
19
100
AcDbEntity
  8
1
100
AcDbLine
 10
-3455.401477775333
 20
1666.184680568381
 30
0.0
 11
-3464.908191775334
 21
1681.107288568381
 31
0.0
  0
LINE
  5
7F0C
330
19
100
AcDbEntity
  8
1
100
AcDbLine
 10
-3418.401477775333
 20
1685.176868568381
 30
0.0
 11
-3418.401477775333
 21
1656.814075568381
 31
0.0
  0
LINE
  5
7F0D
330
19
100
AcDbEntity
  8
1
100
AcDbLine
 10
-3455.401477775333
 20
1678.03612156838
 30
0.0
 11
-3455.401477775333
 21
1661.036121568381
 31
0.0
  0
LINE
  5
7F0E
330
19
100
AcDbEntity
  8
1
100
AcDbLine
 10
-3452.401477775333
 20
1681.036121568381
 30
0.0
 11
-3398.901477775333
 21
1681.036121568381
 31
0.0
  0
LINE
  5
7F0F
330
19
100
AcDbEntity
  8
1
100
AcDbLine
 10
-3447.077563775332
 20
1681.036121568381
 30
0.0
 11
-3452.257312775333
 21
1689.166736568381
 31
0.0
  0
ARC
  5
7F10
330
19
100
AcDbEntity
  8
1
100
AcDbCircle
 10
-3452.401477775333
 20
1678.03612156838
 30
0.0
 40
3.0
100
AcDbArc
 50
90.0
 51
180.0
  0
LINE
  5
7F11
330
19
100
AcDbEntity
  8
1
100
AcDbLine
 10
-3322.901477775333
 20
1711.036121568381
 30
0.0
 11
-3272.901477775333
 21
1711.03612156838
 31
0.0
  0
ARC
  5
7F12
330
19
100
AcDbEntity
  8
1
100
AcDbCircle
 10
-3292.901477775333
 20
1671.036121568381
 30
0.0
 40
7.5
100
AcDbArc
 50
0.0
 51
180.0
  0
LINE
  5
7F13
330
19
100
AcDbEntity
  8
1
100
AcDbLine
 10
-3395.901477775332
 20
1736.295154568381
 30
0.0
 11
-3395.901477775332
 21
1661.036121568381
 31
0.0
  0
LINE
  5
7F14
330
19
100
AcDbEntity
  8
1
100
AcDbLine
 10
-3551.651477775333
 20
2085.786121568381
 30
0.0
 11
-3551.651477775333
 21
2037.75694656838
 31
0.0
  0
LINE
  5
7F15
330
19
100
AcDbEntity
  8
1
100
AcDbLine
 10
-3564.151477775333
 20
2085.786121568381
 30
0.0
 11
-3564.151477775333
 21
2037.46873856838
 31
0.0
  0
ARC
  5
7F16
330
19
100
AcDbEntity
  8
1
100
AcDbCircle
 10
-3546.666507775333
 20
2040.31523456838
 30
0.0
 40
3.0
100
AcDbArc
 50
5.194403000000654
 51
83.88453700000003
  0
LINE
  5
7F17
330
19
100
AcDbEntity
  8
1
100
AcDbLine
 10
-3551.651477775333
 20
2043.86650456838
 30
0.0
 11
-3546.346911775334
 21
2043.298145568381
 31
0.0
  0
LINE
  5
7F18
330
19
100
AcDbEntity
  8
1
100
AcDbLine
 10
-3539.401477775333
 20
2032.036121568381
 30
0.0
 11
-3539.401477775333
 21
2025.108752568381
 31
0.0
  0
LINE
  5
7F19
330
19
100
AcDbEntity
  8
1
100
AcDbLine
 10
-3549.069384775334
 20
2025.825183568382
 30
0.0
 11
-3548.719043775333
 21
2028.973987568381
 31
0.0
  0
LINE
  5
7F1A
330
19
100
AcDbEntity
  8
1
100
AcDbLine
 10
-3542.538256775333
 20
2025.39708356838
 30
0.0
 11
-3542.474597775334
 21
2028.564685568381
 31
0.0
  0
ARC
  5
7F1B
330
19
100
AcDbEntity
  8
1
100
AcDbCircle
 10
-3545.737414775333
 20
2028.642200568381
 30
0.0
 40
2.999938
100
AcDbArc
 50
86.29045100000006
 51
173.6504060000006
  0
ARC
  5
7F1C
330
19
100
AcDbEntity
  8
1
100
AcDbCircle
 10
-3557.901477775333
 20
1841.036121568381
 30
0.0
 40
191.000031
100
AcDbArc
 50
86.209778
 51
86.29023700000006
  0
ARC
  5
7F1D
330
19
100
AcDbEntity
  8
1
100
AcDbCircle
 10
-3545.473986775333
 20
2028.624866568381
 30
0.0
 40
2.999992999999999
100
AcDbArc
 50
358.8505549999996
 51
86.21002199999999
  0
LINE
  5
7F1E
330
19
100
AcDbEntity
  8
1
100
AcDbLine
 10
-3543.678820775332
 20
2040.586841568381
 30
0.0
 11
-3542.901477775333
 21
2032.036121568381
 31
0.0
  0
ARC
  5
7F1F
330
19
100
AcDbEntity
  8
1
100
AcDbCircle
 10
-3569.136447775333
 20
2040.31523456838
 30
0.0
 40
3.0
100
AcDbArc
 50
96.11546299999998
 51
174.8056030000001
  0
LINE
  5
7F20
330
19
100
AcDbEntity
  8
1
100
AcDbLine
 10
-3564.151477775333
 20
2043.86650456838
 30
0.0
 11
-3569.456042775333
 21
2043.298145568381
 31
0.0
  0
LINE
  5
7F21
330
19
100
AcDbEntity
  8
1
100
AcDbLine
 10
-3576.401477775333
 20
2032.036121568381
 30
0.0
 11
-3576.401477775333
 21
2025.108752568381
 31
0.0
  0
LINE
  5
7F22
330
19
100
AcDbEntity
  8
1
100
AcDbLine
 10
-3566.733569775334
 20
2025.825183568382
 30
0.0
 11
-3567.083911775333
 21
2028.973987568381
 31
0.0
  0
LINE
  5
7F23
330
19
100
AcDbEntity
  8
1
100
AcDbLine
 10
-3573.264697775334
 20
2025.39708356838
 30
0.0
 11
-3573.328357775334
 21
2028.564685568381
 31
0.0
  0
ARC
  5
7F24
330
19
100
AcDbEntity
  8
1
100
AcDbCircle
 10
-3570.065539775333
 20
2028.642200568381
 30
0.0
 40
3.000032
100
AcDbArc
 50
6.349589000000267
 51
93.70954899999993
  0
ARC
  5
7F25
330
19
100
AcDbEntity
  8
1
100
AcDbCircle
 10
-3557.901477775333
 20
1841.036121568381
 30
0.0
 40
190.999954
100
AcDbArc
 50
93.70976299999997
 51
93.79022199999999
  0
ARC
  5
7F26
330
19
100
AcDbEntity
  8
1
100
AcDbCircle
 10
-3570.328967775333
 20
2028.624866568381
 30
0.0
 40
3.000090999999999
100
AcDbArc
 50
93.78996300000006
 51
181.1494450000004
  0
LINE
  5
7F27
330
19
100
AcDbEntity
  8
1
100
AcDbLine
 10
-3572.124133775333
 20
2040.586841568381
 30
0.0
 11
-3572.901477775333
 21
2032.036121568381
 31
0.0
  0
ARC
  5
7F28
330
19
100
AcDbEntity
  8
1
100
AcDbCircle
 10
-3567.151477775333
 20
2037.46873856838
 30
0.0
 40
3.0
100
AcDbArc
 50
270.0
 51
0.0
  0
LINE
  5
7F29
330
19
100
AcDbEntity
  8
1
100
AcDbLine
 10
-3576.401477775333
 20
2032.036121568381
 30
0.0
 11
-3539.401477775333
 21
2032.036121568381
 31
0.0
  0
ARC
  5
7F2A
330
19
100
AcDbEntity
  8
1
100
AcDbCircle
 10
-3548.651477775333
 20
2037.75694656838
 30
0.0
 40
3.0
100
AcDbArc
 50
180.0
 51
270.0
  0
ARC
  5
7F2B
330
19
100
AcDbEntity
  8
1
100
AcDbCircle
 10
-3557.901477775333
 20
2085.786121568381
 30
0.0
 40
6.25
100
AcDbArc
 50
0.0
 51
180.0
  0
LINE
  5
7F40
330
19
100
AcDbEntity
  8
1
100
AcDbLine
 10
-5617.891945525514
 20
1539.536121568381
 30
0.0
 11
-5337.891945525516
 21
1539.536121568381
 31
0.0
  0
LINE
  5
7F41
330
19
100
AcDbEntity
  8
1
100
AcDbLine
 10
-5317.891945525515
 20
1539.536121568381
 30
0.0
 11
-5277.891945525515
 21
1539.536121568382
 31
0.0
  0
LINE
  5
7F44
330
19
100
AcDbEntity
  8
1
100
AcDbLine
 10
-6257.891945525514
 20
1535.03612156838
 30
0.0
 11
-6207.891945525514
 21
1535.03612156838
 31
0.0
  0
LINE
  5
7F45
330
19
100
AcDbEntity
  8
1
100
AcDbLine
 10
-6257.891945525514
 20
135.0361215683808
 30
0.0
 11
-6207.891945525514
 21
135.0361215683808
 31
0.0
  0
LINE
  5
7F46
330
19
100
AcDbEntity
  8
1
100
AcDbLine
 10
-5007.891945525514
 20
135.036121568381
 30
0.0
 11
-4957.891945525514
 21
135.036121568381
 31
0.0
  0
LINE
  5
7F47
330
19
100
AcDbEntity
  8
1
100
AcDbLine
 10
-5007.891945525514
 20
1535.03612156838
 30
0.0
 11
-4957.891945525514
 21
1535.036121568381
 31
0.0
  0
LINE
  5
8006
330
19
100
AcDbEntity
  8
4
100
AcDbLine
 10
-3046.420439884863
 20
-817.2033734408104
 30
0.0
 11
-3046.420439884863
 21
-1217.203373440811
 31
0.0
  0
LINE
  5
8007
330
19
100
AcDbEntity
  8
4
100
AcDbLine
 10
-4446.420439884863
 20
-817.2033734408104
 30
0.0
 11
-4446.420439884864
 21
-1217.203373440811
 31
0.0
  0
LINE
  5
8008
330
19
100
AcDbEntity
  8
4
100
AcDbLine
 10
-5446.420439884864
 20
-817.2033734408104
 30
0.0
 11
-5446.420439884864
 21
-1217.203373440811
 31
0.0
  0
LINE
  5
800B
330
19
100
AcDbEntity
  8
4
100
AcDbLine
 10
-5446.420439884864
 20
-1217.20337344081
 30
0.0
 11
-3046.420439884863
 21
-1217.20337344081
 31
0.0
  0
LINE
  5
800C
330
19
100
AcDbEntity
  8
4
100
AcDbLine
 10
-5446.420439884864
 20
-1017.20337344081
 30
0.0
 11
-3046.420439884863
 21
-1017.20337344081
 31
0.0
  0
TEXT
  5
800D
330
19
100
AcDbEntity
  8
4
100
AcDbText
 10
-5369.41627819106
 20
-954.1173217075847
 30
0.0
 40
100.0
  1
機器名称
100
AcDbText
  0
TEXT
  5
800E
330
19
100
AcDbEntity
  8
4
100
AcDbText
 10
-5373.904227835268
 20
-1173.913059976788
 30
0.0
 40
100.0
  1
機器型番
100
AcDbText
  0
TEXT
  5
800F
330
19
100
AcDbEntity
  8
4
100
AcDbText
 10
-4391.062948909533
 20
-972.0598355256734
 30
0.0
 40
100.0
  1
ミツヤ軸流ファン
100
AcDbText
  0
TEXT
  5
8010
330
19
100
AcDbEntity
  8
4
100
AcDbText
 10
-4373.111448713902
 20
-1182.884204880924
 30
0.0
 40
100.0
  1
AP＃1400-2
100
AcDbText
  0
TEXT
  5
8012
330
19
100
AcDbEntity
  8
4
100
AcDbText
 10
-5064.060572540896
 20
2949.654309224221
 30
0.0
 40
108.0
  1
床置防振ベット
100
AcDbText
  0
TEXT
  5
8013
330
19
100
AcDbEntity
  8
4
100
AcDbText
 10
-6114.085253225971
 20
3250.558578957786
 30
0.0
 40
144.0
  1
ベルト駆動式横型軸流ファン
100
AcDbText
  0
LINE
  5
8014
330
19
100
AcDbEntity
  8
4
100
AcDbLine
 10
-6246.420439884864
 20
3121.6141350888
 30
0.0
 11
-3046.420439884863
 21
3121.6141350888
 31
0.0
  0
LINE
  5
8015
330
19
100
AcDbEntity
  8
4
100
AcDbLine
 10
-6246.420439884864
 20
3521.6141350888
 30
0.0
 11
-3046.420439884863
 21
3521.6141350888
 31
0.0
  0
LINE
  5
8016
330
19
100
AcDbEntity
  8
4
100
AcDbLine
 10
-5446.420439884864
 20
-817.2033734408104
 30
0.0
 11
-3046.420439884863
 21
-817.2033734408104
 31
0.0
  0
LINE
  5
8017
330
19
100
AcDbEntity
  8
4
100
AcDbLine
 10
-6246.420439884864
 20
3521.6141350888
 30
0.0
 11
-6246.420439884864
 21
3121.6141350888
 31
0.0
  0
TEXT
  5
8018
330
19
100
AcDbEntity
  8
4
100
AcDbText
 10
-6105.46426210313
 20
2947.435581651877
 30
0.0
 40
108.0
  1
右回転後方吐出
100
AcDbText
  0
TEXT
  5
8019
330
19
100
AcDbEntity
  8
4
100
AcDbText
 10
-3808.481321386284
 20
3594.918789549807
 30
0.0
 40
112.0
  1
No.
100
AcDbText
  0
TEXT
  5
801A
330
19
100
AcDbEntity
  8
4
100
AcDbText
 10
-4123.828314684837
 20
2949.654309224221
 30
0.0
 40
108.0
  1
縮尺：1/20
100
AcDbText
  0
LINE
  5
801B
330
19
100
AcDbEntity
  8
4
100
AcDbLine
 10
-3046.420439884863
 20
3521.6141350888
 30
0.0
 11
-3046.420439884863
 21
3121.6141350888
 31
0.0
  0
LINE
  5
801C
330
19
100
AcDbEntity
  8
4
100
AcDbLine
 10
-2546.420439884863
 20
4082.796626559189
 30
0.0
 11
-2546.420439884863
 21
4082.796626559189
 31
0.0
  0
LINE
  5
801D
330
19
100
AcDbEntity
  8
4
100
AcDbLine
 10
-3865.185595165134
 20
3545.323792809992
 30
0.0
 11
-3865.185595165134
 21
3756.101149658694
 31
0.0
  0
LINE
  5
801E
330
19
100
AcDbEntity
  8
4
100
AcDbLine
 10
-3865.185595165134
 20
3756.101149658694
 30
0.0
 11
-3046.420439884863
 21
3756.101149658694
 31
0.0
  0
LINE
  5
801F
330
19
100
AcDbEntity
  8
4
100
AcDbLine
 10
-3046.420439884863
 20
3756.101149658694
 30
0.0
 11
-3046.420439884863
 21
3545.323792809992
 31
0.0
  0
LINE
  5
8020
330
19
100
AcDbEntity
  8
4
100
AcDbLine
 10
-3046.420439884863
 20
3545.323792809992
 30
0.0
 11
-3865.185595165134
 21
3545.323792809992
 31
0.0
  0
LINE
  5
8021
330
19
100
AcDbEntity
  8
4
100
AcDbLine
 10
-6746.420439884864
 20
-1817.203373440811
 30
0.0
 11
-6746.420439884864
 21
4082.796626559189
 31
0.0
  0
LINE
  5
8022
330
19
100
AcDbEntity
  8
4
100
AcDbLine
 10
-6746.420439884864
 20
4082.796626559189
 30
0.0
 11
-2546.420439884863
 21
4082.796626559189
 31
0.0
  0
LINE
  5
8023
330
19
100
AcDbEntity
  8
4
100
AcDbLine
 10
-2546.420439884863
 20
4082.796626559189
 30
0.0
 11
-2546.420439884863
 21
-1817.203373440811
 31
0.0
  0
LINE
  5
8024
330
19
100
AcDbEntity
  8
4
100
AcDbLine
 10
-2546.420439884863
 20
-1817.203373440811
 30
0.0
 11
-6746.420439884864
 21
-1817.203373440811
 31
0.0
  0
LINE
  5
8039
330
19
100
AcDbEntity
  8
1
100
AcDbLine
 10
-4257.901477775333
 20
-229.9638784316191
 30
0.0
 11
-3557.901477775333
 21
-229.9638784316191
 31
0.0
  0
LINE
  5
8170
330
19
100
AcDbEntity
  8
1
100
AcDbLine
 10
-4184.623752453909
 20
10.03612156838082
 30
0.0
 11
-4014.183014238693
 21
239.7990599848175
 31
0.0
  0
LINE
  5
8171
330
19
100
AcDbEntity
  8
1
100
AcDbLine
 10
-4192.891945525522
 20
10.03612156838085
 30
0.0
 11
-4018.954393737362
 21
243.4871306277239
 31
0.0
  0
LINE
  5
81B8
330
19
100
AcDbEntity
  8
1
100
AcDbLine
 10
-3970.953305934105
 20
-165.9888784316192
 30
0.0
 11
-3970.953305934105
 21
-229.9638784316191
 31
0.0
  0
LINE
  5
81B9
330
19
100
AcDbEntity
  8
1
100
AcDbLine
 10
-4029.828305934104
 20
-165.9888784316192
 30
0.0
 11
-4029.828305934104
 21
-229.9638784316191
 31
0.0
  0
LINE
  5
81BB
330
19
100
AcDbEntity
  8
1
100
AcDbLine
 10
-4029.435805934105
 20
-114.9638784316191
 30
0.0
 11
-3971.345805934105
 21
-114.9638784316191
 31
0.0
  0
LINE
  5
81BC
330
19
100
AcDbEntity
  8
1
100
AcDbLine
 10
-4035.715805934104
 20
-165.9888784316192
 30
0.0
 11
-3965.065805934105
 21
-165.9888784316192
 31
0.0
  0
ARC
  5
81BD
330
19
100
AcDbEntity
  8
1
100
AcDbCircle
 10
-4029.435805934105
 20
-121.2438784316191
 30
0.0
 40
6.28
100
AcDbArc
 50
90.0
 51
180.0
  0
LINE
  5
81BE
330
19
100
AcDbEntity
  8
1
100
AcDbLine
 10
-4035.715805934104
 20
-121.2438784316191
 30
0.0
 11
-4035.715805934104
 21
-165.9888784316192
 31
0.0
  0
ARC
  5
81BF
330
19
100
AcDbEntity
  8
1
100
AcDbCircle
 10
-3971.345805934105
 20
-121.2438784316191
 30
0.0
 40
6.28
100
AcDbArc
 50
0.0
 51
90.0
  0
LINE
  5
81C0
330
19
100
AcDbEntity
  8
1
100
AcDbLine
 10
-3965.065805934105
 20
-121.2438784316191
 30
0.0
 11
-3965.065805934105
 21
-165.9888784316192
 31
0.0
  0
LINE
  5
81C1
330
19
100
AcDbEntity
  8
1
100
AcDbLine
 10
-3079.948118399273
 20
-121.2438784316191
 30
0.0
 11
-3079.948118399273
 21
-165.9888784316192
 31
0.0
  0
LINE
  5
81C2
330
19
100
AcDbEntity
  8
1
100
AcDbLine
 10
-3150.598118399273
 20
-121.2438784316191
 30
0.0
 11
-3150.598118399273
 21
-165.9888784316192
 31
0.0
  0
LINE
  5
81C3
330
19
100
AcDbEntity
  8
1
100
AcDbLine
 10
-3150.598118399273
 20
-165.9888784316192
 30
0.0
 11
-3079.948118399273
 21
-165.9888784316192
 31
0.0
  0
LINE
  5
81C5
330
19
100
AcDbEntity
  8
1
100
AcDbLine
 10
-3144.710618399273
 20
-165.9888784316192
 30
0.0
 11
-3144.710618399273
 21
-229.9638784316191
 31
0.0
  0
LINE
  5
81C6
330
19
100
AcDbEntity
  8
1
100
AcDbLine
 10
-3085.835618399273
 20
-165.9888784316192
 30
0.0
 11
-3085.835618399273
 21
-229.9638784316191
 31
0.0
  0
LINE
  5
81C7
330
19
100
AcDbEntity
  8
1
100
AcDbLine
 10
-3144.318118399273
 20
-114.9638784316191
 30
0.0
 11
-3086.228118399273
 21
-114.9638784316191
 31
0.0
  0
ARC
  5
81C8
330
19
100
AcDbEntity
  8
1
100
AcDbCircle
 10
-3144.318118399273
 20
-121.2438784316191
 30
0.0
 40
6.28
100
AcDbArc
 50
90.0
 51
180.0
  0
ARC
  5
81C9
330
19
100
AcDbEntity
  8
1
100
AcDbCircle
 10
-3086.228118399273
 20
-121.2438784316191
 30
0.0
 40
6.28
100
AcDbArc
 50
0.0
 51
90.0
  0
LINE
  5
81CB
330
19
100
AcDbEntity
  8
1
100
AcDbLine
 10
-6203.391945525516
 20
130.5361215683808
 30
0.0
 11
-5012.391945525515
 21
130.5361215683808
 31
0.0
  0
LINE
  5
81CC
330
19
100
AcDbEntity
  8
1
100
AcDbLine
 10
-6207.891945525513
 20
135.0361215683808
 30
0.0
 11
-5007.891945525514
 21
135.0361215683808
 31
0.0
  0
LINE
  5
8212
330
19
100
AcDbEntity
  8
1
100
AcDbLine
 10
-5007.891945525518
 20
135.0361215683808
 30
0.0
 11
-5007.891945525514
 21
-29.96387843161915
 31
0.0
  0
LINE
  5
8228
330
19
100
AcDbEntity
  8
1
100
AcDbLine
 10
-6207.891945525518
 20
135.0361215683808
 30
0.0
 11
-6207.891945525515
 21
-29.96387843161915
 31
0.0
  0
LINE
  5
8291
330
19
100
AcDbEntity
  8
1
100
AcDbLine
 10
-6093.643183804646
 20
-121.2438784316191
 30
0.0
 11
-6093.643183804646
 21
-165.9888784316192
 31
0.0
  0
LINE
  5
8292
330
19
100
AcDbEntity
  8
1
100
AcDbLine
 10
-6164.293183804645
 20
-121.2438784316191
 30
0.0
 11
-6164.293183804645
 21
-165.9888784316192
 31
0.0
  0
LINE
  5
8293
330
19
100
AcDbEntity
  8
1
100
AcDbLine
 10
-6164.293183804645
 20
-165.9888784316192
 30
0.0
 11
-6093.643183804646
 21
-165.9888784316192
 31
0.0
  0
LINE
  5
8295
330
19
100
AcDbEntity
  8
1
100
AcDbLine
 10
-6158.405683804645
 20
-165.9888784316192
 30
0.0
 11
-6158.405683804645
 21
-229.9638784316191
 31
0.0
  0
LINE
  5
8296
330
19
100
AcDbEntity
  8
1
100
AcDbLine
 10
-6099.530683804645
 20
-165.9888784316192
 30
0.0
 11
-6099.530683804644
 21
-229.9638784316191
 31
0.0
  0
LINE
  5
8297
330
19
100
AcDbEntity
  8
1
100
AcDbLine
 10
-6158.013183804645
 20
-114.9638784316191
 30
0.0
 11
-6099.923183804645
 21
-114.9638784316191
 31
0.0
  0
ARC
  5
8298
330
19
100
AcDbEntity
  8
1
100
AcDbCircle
 10
-6158.013183804645
 20
-121.2438784316191
 30
0.0
 40
6.28
100
AcDbArc
 50
90.0
 51
180.0
  0
ARC
  5
8299
330
19
100
AcDbEntity
  8
1
100
AcDbCircle
 10
-6099.923183804645
 20
-121.2438784316191
 30
0.0
 40
6.28
100
AcDbArc
 50
0.0
 51
90.0
  0
LINE
  5
829A
330
19
100
AcDbEntity
  8
1
100
AcDbLine
 10
-5038.462512155202
 20
-121.2438784316191
 30
0.0
 11
-5038.462512155202
 21
-165.9888784316192
 31
0.0
  0
LINE
  5
829B
330
19
100
AcDbEntity
  8
1
100
AcDbLine
 10
-5109.112512155203
 20
-121.2438784316191
 30
0.0
 11
-5109.112512155203
 21
-165.9888784316192
 31
0.0
  0
LINE
  5
829C
330
19
100
AcDbEntity
  8
1
100
AcDbLine
 10
-5109.112512155203
 20
-165.9888784316192
 30
0.0
 11
-5038.462512155202
 21
-165.9888784316192
 31
0.0
  0
LINE
  5
829D
330
19
100
AcDbEntity
  8
1
100
AcDbLine
 10
-5044.350012155202
 20
-165.9888784316192
 30
0.0
 11
-5044.350012155202
 21
-229.9638784316191
 31
0.0
  0
LINE
  5
829E
330
19
100
AcDbEntity
  8
1
100
AcDbLine
 10
-5103.225012155203
 20
-165.9888784316192
 30
0.0
 11
-5103.225012155203
 21
-229.9638784316191
 31
0.0
  0
ARC
  5
82A0
330
19
100
AcDbEntity
  8
1
100
AcDbCircle
 10
-5102.832512155202
 20
-121.2438784316191
 30
0.0
 40
6.28
100
AcDbArc
 50
90.0
 51
180.0
  0
ARC
  5
82A1
330
19
100
AcDbEntity
  8
1
100
AcDbCircle
 10
-5044.742512155202
 20
-121.2438784316191
 30
0.0
 40
6.28
100
AcDbArc
 50
0.0
 51
90.0
  0
LINE
  5
82A2
330
19
100
AcDbEntity
  8
1
100
AcDbLine
 10
-5102.832512155202
 20
-114.9638784316191
 30
0.0
 11
-5044.742512155202
 21
-114.9638784316191
 31
0.0
  0
CIRCLE
  5
8CC0
330
19
100
AcDbEntity
  8
1
100
AcDbCircle
 10
-3557.901477775333
 20
835.0361215683808
 30
0.0
 40
700.0
  0
CIRCLE
  5
8CC1
330
19
100
AcDbEntity
  8
1
100
AcDbCircle
 10
-3557.901477775333
 20
835.0361215683808
 30
0.0
 40
706.0
  0
CIRCLE
  5
8CC2
330
19
100
AcDbEntity
  8
1
100
AcDbCircle
 10
-3557.901477775333
 20
835.0361215683808
 30
0.0
 40
750.0
  0
LINE
  5
8CC3
330
19
100
AcDbEntity
  8
1
100
AcDbLine
 10
-4257.901477775333
 20
-354.9638784316191
 30
0.0
 11
-3557.901477775333
 21
-354.9638784316191
 31
0.0
  0
LINE
  5
8CC6
330
19
100
AcDbEntity
  8
1
100
AcDbLine
 10
-2931.179203096757
 20
10.03612156838085
 30
0.0
 11
-3101.619941311974
 21
239.7990599848168
 31
0.0
  0
LINE
  5
8CC7
330
19
100
AcDbEntity
  8
1
100
AcDbLine
 10
-2922.911010025144
 20
10.03612156838085
 30
0.0
 11
-3096.848561813304
 21
243.4871306277234
 31
0.0
  0
LINE
  5
8CCB
330
19
100
AcDbEntity
  8
1
100
AcDbLine
 10
-6097.241539021449
 20
1531.036121568381
 30
0.0
 11
-6058.542352029579
 21
1531.03612156838
 31
0.0
  0
LINE
  5
8CCC
330
19
100
AcDbEntity
  8
1
100
AcDbLine
 10
-6058.542352029581
 20
1531.03612156838
 30
0.0
 11
-5967.891945525515
 21
1085.036121568381
 31
0.0
  0
LINE
  5
8CCD
330
19
100
AcDbEntity
  8
1
100
AcDbLine
 10
-6097.241539021449
 20
1531.036121568381
 30
0.0
 11
-6187.891945525514
 21
1085.036121568381
 31
0.0
  0
LINE
  5
8CD3
330
19
100
AcDbEntity
  8
1
100
AcDbLine
 10
-5607.891945525521
 20
-229.9638784316191
 30
0.0
 11
-6207.891945525514
 21
-229.9638784316191
 31
0.0
  0
LINE
  5
8CD4
330
19
100
AcDbEntity
  8
1
100
AcDbLine
 10
-5607.891945525518
 20
-354.9638784316191
 30
0.0
 11
-6207.891945525514
 21
-354.9638784316191
 31
0.0
  0
LINE
  5
8CD8
330
19
100
AcDbEntity
  8
1
100
AcDbLine
 10
-5607.89194552552
 20
-239.9638784316191
 30
0.0
 11
-6207.891945525521
 21
-239.9638784316191
 31
0.0
  0
LINE
  5
8CD9
330
19
100
AcDbEntity
  8
1
100
AcDbLine
 10
-5607.891945525518
 20
-344.9638784316192
 30
0.0
 11
-6207.891945525518
 21
-344.9638784316192
 31
0.0
  0
LINE
  5
8CDF
330
19
100
AcDbEntity
  8
1
100
AcDbLine
 10
-5607.891945525517
 20
-354.9638784316191
 30
0.0
 11
-5007.891945525514
 21
-354.9638784315911
 31
0.0
  0
LINE
  5
8CE0
330
19
100
AcDbEntity
  8
1
100
AcDbLine
 10
-5607.891945525521
 20
-229.9638784316191
 30
0.0
 11
-5007.891945525514
 21
-229.9638784315911
 31
0.0
  0
LINE
  5
8CE1
330
19
100
AcDbEntity
  8
1
100
AcDbLine
 10
-5607.891945525518
 20
-344.9638784316192
 30
0.0
 11
-5007.891945525518
 21
-344.963878431591
 31
0.0
  0
LINE
  5
8CE2
330
19
100
AcDbEntity
  8
1
100
AcDbLine
 10
-5607.891945525521
 20
-239.9638784316191
 30
0.0
 11
-5007.891945525521
 21
-239.9638784315909
 31
0.0
  0
LINE
  5
8CEB
330
19
100
AcDbEntity
  8
1
100
AcDbLine
 10
-4192.891945525521
 20
-239.9638784316191
 30
0.0
 11
-3557.901477775333
 21
-239.9638784316191
 31
0.0
  0
LINE
  5
8CEC
330
19
100
AcDbEntity
  8
1
100
AcDbLine
 10
-4192.891945525518
 20
-344.9638784316192
 30
0.0
 11
-3557.901477775333
 21
-344.9638784316192
 31
0.0
  0
DIMENSION
  5
8CEF
330
19
100
AcDbEntity
  8
3
100
AcDbDimension
  2
*D2
 10
-5007.891945525515
 20
2354.032126917507
 30
0.0
 11
-5618.05328543733
 21
2354.032126917507
 31
0.0
 70
   160
 71
     5
 42
1199.999999999999
  3
IGA
100
AcDbAlignedDimension
 13
-6207.891945525514
 23
1585.036121568381
 33
0.0
 14
-5007.891945525515
 24
1585.03612156838
 34
0.0
100
AcDbRotatedDimension
1001
ACAD
1000
DSTYLE
1002
{
1070
   287
1070
     3
1070
   287
1070
     3
1070
   287
1070
     3
1070
   287
1070
     3
1070
    40
1040
20.0
1070
   143
1040
0.039
1070
   172
1070
     1
1070
   271
1070
     0
1070
   279
1070
     0
1070
   288
1070
     1
1002
}
  0
DIMENSION
  5
8D09
330
19
100
AcDbEntity
  8
3
100
AcDbDimension
  2
*D3
 10
-6443.9534944613
 20
135.0361215683808
 30
0.0
 11
-6443.9534944613
 21
864.9595615195812
 31
0.0
 70
   160
 71
     5
 42
1400.0
  3
IGA
100
AcDbAlignedDimension
 13
-6257.891945525514
 23
1535.03612156838
 33
0.0
 14
-6257.891945525514
 24
135.0361215683808
 34
0.0
 50
90.0
100
AcDbRotatedDimension
1001
ACAD
1000
DSTYLE
1002
{
1070
   287
1070
     3
1070
   287
1070
     3
1070
   287
1070
     3
1070
   287
1070
     3
1070
     3
1000
\U+03C6<>
1070
    40
1040
20.0
1070
   143
1040
0.039
1070
   172
1070
     1
1070
   271
1070
     0
1070
   279
1070
     0
1070
   288
1070
     1
1002
}
  0
DIMENSION
  5
8D1F
330
19
100
AcDbEntity
  8
3
100
AcDbDimension
  2
*D4
 10
-2807.901477775333
 20
2328.344352248179
 30
0.0
 11
-3599.395937401863
 21
2328.344352248179
 31
0.0
 70
   160
 71
     5
 42
1500.0
  3
IGA
100
AcDbAlignedDimension
 13
-4307.901477775333
 23
835.0361215683808
 33
0.0
 14
-2807.901477775333
 24
835.0361215683808
 34
0.0
100
AcDbRotatedDimension
1001
ACAD
1000
DSTYLE
1002
{
1070
   287
1070
     3
1070
   287
1070
     3
1070
   287
1070
     3
1070
   287
1070
     3
1070
    40
1040
20.0
1070
   143
1040
0.039
1070
   172
1070
     1
1070
   271
1070
     0
1070
   279
1070
     0
1070
   288
1070
     1
1002
}
  0
DIMENSION
  5
8D46
330
19
100
AcDbEntity
  8
3
100
AcDbDimension
  2
*D5
 10
-4463.937100536619
 20
-229.9638784316191
 30
0.0
 11
-4520.81226229445
 21
-133.5191552909109
 31
0.0
 70
   160
 71
     5
 42
115.0
  3
IGA
100
AcDbAlignedDimension
 13
-4257.901477775333
 23
-114.9638784316191
 33
0.0
 14
-4257.901477775333
 24
-229.9638784316191
 34
0.0
 50
90.0
100
AcDbRotatedDimension
1001
ACAD
1000
DSTYLE
1002
{
1070
   287
1070
     4
1070
   287
1070
     4
1070
   287
1070
     4
1070
   287
1070
     4
1070
    40
1040
20.0
1070
   143
1040
0.039
1070
   172
1070
     1
1070
   271
1070
     0
1070
   279
1070
     1
1070
   288
1070
     1
1070
   289
1070
     3
1002
}
  0
DIMENSION
  5
8D70
330
19
100
AcDbEntity
  8
3
100
AcDbDimension
  2
*D6
 10
-4463.937100536619
 20
-354.9638784316191
 30
0.0
 11
-4463.937100536619
 21
-486.3924498601912
 31
0.0
 70
   160
 71
     5
 42
125.0
  3
IGA
100
AcDbAlignedDimension
 13
-4257.901477775333
 23
-229.9638784316191
 33
0.0
 14
-4257.901477775333
 24
-354.9638784316191
 34
0.0
 50
90.0
100
AcDbRotatedDimension
1001
ACAD
1000
DSTYLE
1002
{
1070
   287
1070
     3
1070
   287
1070
     3
1070
   287
1070
     3
1070
   287
1070
     3
1070
    40
1040
20.0
1070
   143
1040
0.039
1070
   172
1070
     1
1070
   271
1070
     0
1070
   279
1070
     0
1070
   288
1070
     1
1002
}
  0
DIMENSION
  5
8D8B
330
19
100
AcDbEntity
  8
3
100
AcDbDimension
  2
*D7
 10
-2857.901477775334
 20
-533.5806704553943
 30
0.0
 11
-3546.166663747932
 21
-533.5806704553943
 31
0.0
 70
   160
 71
     5
 42
1399.999999999999
  3
IGA
100
AcDbAlignedDimension
 13
-4257.901477775333
 23
-354.9638784316191
 33
0.0
 14
-2857.901477775334
 24
-354.9638784316191
 34
0.0
100
AcDbRotatedDimension
1001
ACAD
1000
DSTYLE
1002
{
1070
   287
1070
     3
1070
   287
1070
     3
1070
   287
1070
     3
1070
   287
1070
     3
1070
    40
1040
20.0
1070
   143
1040
0.039
1070
   172
1070
     1
1070
   271
1070
     0
1070
   279
1070
     0
1070
   288
1070
     1
1002
}
  0
DIMENSION
  5
8D99
330
19
100
AcDbEntity
  8
3
100
AcDbDimension
  2
*D8
 10
-4754.334491323716
 20
835.0361215683808
 30
0.0
 11
-4754.334491323716
 21
1528.319979770807
 31
0.0
 70
   160
  1
(1600)
 71
     5
 42
1257.0
  3
IGA
100
AcDbAlignedDimension
 13
-3557.901477775333
 23
2092.036121568381
 33
0.0
 14
-4367.901477775332
 24
835.0361215683808
 34
0.0
 50
90.0
100
AcDbRotatedDimension
1001
ACAD
1000
DSTYLE
1002
{
1070
   287
1070
     3
1070
   287
1070
     3
1070
   287
1070
     3
1070
   287
1070
     3
1070
    40
1040
20.0
1070
   143
1040
0.039
1070
   172
1070
     1
1070
   271
1070
     0
1070
   279
1070
     0
1070
   288
1070
     1
1002
}
  0
LINE
  5
8E46
330
19
100
AcDbEntity
  8
1
100
AcDbLine
 10
-4206.194699583539
 20
-241.9058858130394
 30
0.0
 11
-4257.891945525521
 21
-237.3829628576043
 31
0.0
  0
LINE
  5
8E47
330
19
100
AcDbEntity
  8
1
100
AcDbLine
 10
-4206.194699583536
 20
-343.021871050199
 30
0.0
 11
-4257.891945525518
 21
-347.5447940056339
 31
0.0
  0
LINE
  5
8E48
330
19
100
AcDbEntity
  8
1
100
AcDbLine
 10
-4257.891945525518
 20
-347.5447940056339
 30
0.0
 11
-4257.891945525518
 21
-354.9638784316191
 31
0.0
  0
LINE
  5
8E49
330
19
100
AcDbEntity
  8
1
100
AcDbLine
 10
-4257.89194552552
 20
-229.9638784316191
 30
0.0
 11
-4257.89194552552
 21
-237.3829628576044
 31
0.0
  0
LINE
  5
8E4A
330
19
100
AcDbEntity
  8
1
100
AcDbLine
 10
-4192.891945525522
 20
-229.9638784316191
 30
0.0
 11
-4192.891945525518
 21
-354.9638784316191
 31
0.0
  0
ARC
  5
8E4B
330
19
100
AcDbEntity
  8
1
100
AcDbCircle
 10
-4206.891945525519
 20
-335.0523134654641
 30
0.0
 40
8.0
100
AcDbArc
 50
275.0000000000053
 51
359.9999999999902
  0
ARC
  5
8E4C
330
19
100
AcDbEntity
  8
1
100
AcDbCircle
 10
-4206.891945525519
 20
-249.8754433977719
 30
0.0
 40
8.0
100
AcDbArc
 50
359.9999999999951
 51
84.99999999999976
  0
LINE
  5
8E4D
330
19
100
AcDbEntity
  8
1
100
AcDbLine
 10
-4198.891945525519
 20
-249.8754433977725
 30
0.0
 11
-4198.891945525518
 21
-335.0523134654654
 31
0.0
  0
LINE
  5
8E4F
330
19
100
AcDbEntity
  8
1
100
AcDbLine
 10
-6207.891945525515
 20
-229.9638784316191
 30
0.0
 11
-6207.891945525515
 21
-354.9638784316191
 31
0.0
  0
LINE
  5
8E50
330
19
100
AcDbEntity
  8
1
100
AcDbLine
 10
-5007.891945525514
 20
-229.9638784315911
 30
0.0
 11
-5007.891945525514
 21
-354.9638784315912
 31
0.0
  0
LINE
  5
8E51
330
19
100
AcDbEntity
  8
1
100
AcDbLine
 10
-5607.891945525517
 20
-114.9638784316191
 30
0.0
 11
-5007.891945525514
 21
-114.9638784315911
 31
0.0
  0
LINE
  5
8E52
330
19
100
AcDbEntity
  8
1
100
AcDbLine
 10
-5607.891945525521
 20
10.03612156838085
 30
0.0
 11
-5007.891945525514
 21
10.03612156840893
 31
0.0
  0
LINE
  5
8E53
330
19
100
AcDbEntity
  8
1
100
AcDbLine
 10
-5607.891945525521
 20
0.0361215683808496
 30
0.0
 11
-5007.891945525521
 21
0.0361215684089871
 31
0.0
  0
LINE
  5
8E54
330
19
100
AcDbEntity
  8
1
100
AcDbLine
 10
-5607.891945525518
 20
-104.9638784316191
 30
0.0
 11
-5007.891945525518
 21
-104.963878431591
 31
0.0
  0
LINE
  5
8E55
330
19
100
AcDbEntity
  8
1
100
AcDbLine
 10
-5607.891945525518
 20
-114.9638784316191
 30
0.0
 11
-6207.891945525514
 21
-114.9638784316191
 31
0.0
  0
LINE
  5
8E56
330
19
100
AcDbEntity
  8
1
100
AcDbLine
 10
-5607.891945525521
 20
10.03612156838085
 30
0.0
 11
-6207.891945525514
 21
10.0361215683809
 31
0.0
  0
LINE
  5
8E57
330
19
100
AcDbEntity
  8
1
100
AcDbLine
 10
-5607.891945525518
 20
-104.9638784316191
 30
0.0
 11
-6207.891945525518
 21
-104.9638784316191
 31
0.0
  0
LINE
  5
8E58
330
19
100
AcDbEntity
  8
1
100
AcDbLine
 10
-5607.89194552552
 20
0.0361215683808496
 30
0.0
 11
-6207.891945525521
 21
0.0361215683808496
 31
0.0
  0
LINE
  5
8E59
330
19
100
AcDbEntity
  8
1
100
AcDbLine
 10
-6207.891945525515
 20
10.03612156838085
 30
0.0
 11
-6207.891945525515
 21
-114.9638784316192
 31
0.0
  0
LINE
  5
8E5A
330
19
100
AcDbEntity
  8
1
100
AcDbLine
 10
-5007.891945525514
 20
10.03612156840893
 30
0.0
 11
-5007.891945525514
 21
-114.9638784315912
 31
0.0
  0
LINE
  5
8E5B
330
19
100
AcDbEntity
  8
1
100
AcDbLine
 10
-2922.911010025144
 20
-229.9638784316191
 30
0.0
 11
-2922.911010025148
 21
-354.9638784316191
 31
0.0
  0
LINE
  5
8E5C
330
19
100
AcDbEntity
  8
1
100
AcDbLine
 10
-2909.608255967127
 20
-241.9058858130394
 30
0.0
 11
-2857.911010025144
 21
-237.3829628576043
 31
0.0
  0
LINE
  5
8E5D
330
19
100
AcDbEntity
  8
1
100
AcDbLine
 10
-2916.911010025146
 20
-249.8754433977725
 30
0.0
 11
-2916.911010025147
 21
-335.0523134654654
 31
0.0
  0
ARC
  5
8E5E
330
19
100
AcDbEntity
  8
1
100
AcDbCircle
 10
-2908.911010025146
 20
-249.8754433977719
 30
0.0
 40
8.0
100
AcDbArc
 50
95.00000000000024
 51
180.0000000000049
  0
ARC
  5
8E5F
330
19
100
AcDbEntity
  8
1
100
AcDbCircle
 10
-2908.911010025146
 20
-335.0523134654641
 30
0.0
 40
8.0
100
AcDbArc
 50
180.0000000000098
 51
264.9999999999946
  0
LINE
  5
8E60
330
19
100
AcDbEntity
  8
1
100
AcDbLine
 10
-2857.911010025148
 20
-347.5447940056339
 30
0.0
 11
-2857.911010025148
 21
-354.9638784316191
 31
0.0
  0
LINE
  5
8E61
330
19
100
AcDbEntity
  8
1
100
AcDbLine
 10
-2909.608255967129
 20
-343.021871050199
 30
0.0
 11
-2857.911010025148
 21
-347.5447940056339
 31
0.0
  0
LINE
  5
8E62
330
19
100
AcDbEntity
  8
1
100
AcDbLine
 10
-2857.911010025146
 20
-229.9638784316191
 30
0.0
 11
-2857.911010025146
 21
-237.3829628576044
 31
0.0
  0
LINE
  5
8E63
330
19
100
AcDbEntity
  8
1
100
AcDbLine
 10
-2922.911010025148
 20
-344.9638784316192
 30
0.0
 11
-3557.901477775333
 21
-344.9638784316192
 31
0.0
  0
LINE
  5
8E64
330
19
100
AcDbEntity
  8
1
100
AcDbLine
 10
-2922.911010025145
 20
-239.9638784316191
 30
0.0
 11
-3557.901477775333
 21
-239.9638784316191
 31
0.0
  0
LINE
  5
8E65
330
19
100
AcDbEntity
  8
1
100
AcDbLine
 10
-2857.901477775333
 20
-354.9638784316191
 30
0.0
 11
-3557.901477775333
 21
-354.9638784316191
 31
0.0
  0
LINE
  5
8E66
330
19
100
AcDbEntity
  8
1
100
AcDbLine
 10
-2857.901477775333
 20
-229.9638784316191
 30
0.0
 11
-3557.901477775333
 21
-229.9638784316191
 31
0.0
  0
LINE
  5
8E67
330
19
100
AcDbEntity
  8
1
100
AcDbLine
 10
-4192.891945525522
 20
10.03612156838085
 30
0.0
 11
-4192.891945525518
 21
-114.9638784316191
 31
0.0
  0
LINE
  5
8E68
330
19
100
AcDbEntity
  8
1
100
AcDbLine
 10
-4206.194699583539
 20
-1.90588581303939
 30
0.0
 11
-4257.891945525521
 21
2.617037142395645
 31
0.0
  0
LINE
  5
8E69
330
19
100
AcDbEntity
  8
1
100
AcDbLine
 10
-4198.891945525519
 20
-9.875443397772528
 30
0.0
 11
-4198.891945525518
 21
-95.05231346546549
 31
0.0
  0
ARC
  5
8E6A
330
19
100
AcDbEntity
  8
1
100
AcDbCircle
 10
-4206.891945525519
 20
-9.875443397771903
 30
0.0
 40
8.0
100
AcDbArc
 50
359.9999999999951
 51
84.99999999999976
  0
ARC
  5
8E6B
330
19
100
AcDbEntity
  8
1
100
AcDbCircle
 10
-4206.891945525519
 20
-95.05231346546413
 30
0.0
 40
8.0
100
AcDbArc
 50
275.0000000000053
 51
359.9999999999902
  0
LINE
  5
8E6C
330
19
100
AcDbEntity
  8
1
100
AcDbLine
 10
-4257.891945525518
 20
-107.5447940056339
 30
0.0
 11
-4257.891945525518
 21
-114.9638784316191
 31
0.0
  0
LINE
  5
8E6D
330
19
100
AcDbEntity
  8
1
100
AcDbLine
 10
-4206.194699583536
 20
-103.0218710501989
 30
0.0
 11
-4257.891945525518
 21
-107.5447940056339
 31
0.0
  0
LINE
  5
8E6E
330
19
100
AcDbEntity
  8
1
100
AcDbLine
 10
-4257.89194552552
 20
10.03612156838085
 30
0.0
 11
-4257.89194552552
 21
2.617037142395588
 31
0.0
  0
LINE
  5
8E6F
330
19
100
AcDbEntity
  8
1
100
AcDbLine
 10
-4192.891945525518
 20
-104.9638784316191
 30
0.0
 11
-3557.901477775333
 21
-104.9638784316191
 31
0.0
  0
LINE
  5
8E70
330
19
100
AcDbEntity
  8
1
100
AcDbLine
 10
-4192.891945525521
 20
0.0361215683808496
 30
0.0
 11
-3557.901477775333
 21
0.0361215683808496
 31
0.0
  0
LINE
  5
8E71
330
19
100
AcDbEntity
  8
1
100
AcDbLine
 10
-4257.901477775333
 20
-114.9638784316191
 30
0.0
 11
-3557.901477775333
 21
-114.9638784316191
 31
0.0
  0
LINE
  5
8E72
330
19
100
AcDbEntity
  8
1
100
AcDbLine
 10
-4257.901477775333
 20
10.03612156838085
 30
0.0
 11
-3557.901477775333
 21
10.03612156838079
 31
0.0
  0
LINE
  5
8E73
330
19
100
AcDbEntity
  8
1
100
AcDbLine
 10
-2857.901477775333
 20
10.03612156838085
 30
0.0
 11
-3557.901477775333
 21
10.03612156838079
 31
0.0
  0
LINE
  5
8E74
330
19
100
AcDbEntity
  8
1
100
AcDbLine
 10
-2857.901477775333
 20
-114.9638784316191
 30
0.0
 11
-3557.901477775333
 21
-114.9638784316191
 31
0.0
  0
LINE
  5
8E75
330
19
100
AcDbEntity
  8
1
100
AcDbLine
 10
-2922.911010025145
 20
0.0361215683808496
 30
0.0
 11
-3557.901477775333
 21
0.0361215683808496
 31
0.0
  0
LINE
  5
8E76
330
19
100
AcDbEntity
  8
1
100
AcDbLine
 10
-2922.911010025148
 20
-104.9638784316191
 30
0.0
 11
-3557.901477775333
 21
-104.9638784316191
 31
0.0
  0
LINE
  5
8E77
330
19
100
AcDbEntity
  8
1
100
AcDbLine
 10
-2909.608255967129
 20
-103.0218710501989
 30
0.0
 11
-2857.911010025148
 21
-107.5447940056339
 31
0.0
  0
LINE
  5
8E78
330
19
100
AcDbEntity
  8
1
100
AcDbLine
 10
-2909.608255967127
 20
-1.90588581303939
 30
0.0
 11
-2857.911010025144
 21
2.617037142395645
 31
0.0
  0
LINE
  5
8E79
330
19
100
AcDbEntity
  8
1
100
AcDbLine
 10
-2922.911010025144
 20
10.03612156838085
 30
0.0
 11
-2922.911010025148
 21
-114.9638784316191
 31
0.0
  0
ARC
  5
8E7A
330
19
100
AcDbEntity
  8
1
100
AcDbCircle
 10
-2908.911010025146
 20
-95.05231346546413
 30
0.0
 40
8.0
100
AcDbArc
 50
180.0000000000098
 51
264.9999999999946
  0
ARC
  5
8E7B
330
19
100
AcDbEntity
  8
1
100
AcDbCircle
 10
-2908.911010025146
 20
-9.875443397771903
 30
0.0
 40
8.0
100
AcDbArc
 50
95.00000000000024
 51
180.0000000000049
  0
LINE
  5
8E7C
330
19
100
AcDbEntity
  8
1
100
AcDbLine
 10
-2916.911010025146
 20
-9.875443397772528
 30
0.0
 11
-2916.911010025147
 21
-95.05231346546549
 31
0.0
  0
LINE
  5
8E7D
330
19
100
AcDbEntity
  8
1
100
AcDbLine
 10
-2857.911010025148
 20
-107.5447940056339
 30
0.0
 11
-2857.911010025148
 21
-114.9638784316191
 31
0.0
  0
LINE
  5
8E7E
330
19
100
AcDbEntity
  8
1
100
AcDbLine
 10
-2857.911010025146
 20
10.03612156838085
 30
0.0
 11
-2857.911010025146
 21
2.617037142395588
 31
0.0
  0
DIMENSION
  5
8EA0
330
19
100
AcDbEntity
  8
3
100
AcDbDimension
  2
*D9
 10
-4463.781112270051
 20
-114.9638784316191
 30
0.0
 11
-4463.781112270051
 21
344.229727089576
 31
0.0
 70
   160
 71
     5
 42
949.9999999999998
  3
IGA
100
AcDbAlignedDimension
 13
-4357.901477775333
 23
835.0361215683808
 33
0.0
 14
-4257.891945525518
 24
-114.9638784316191
 34
0.0
 50
90.0
100
AcDbRotatedDimension
1001
ACAD
1000
DSTYLE
1002
{
1070
   287
1070
     3
1070
   287
1070
     3
1070
   287
1070
     3
1070
    40
1040
20.0
1070
   143
1040
0.039
1070
   172
1070
     1
1070
   271
1070
     0
1070
   279
1070
     0
1070
   288
1070
     1
1002
}
  0
DIMENSION
  5
8EAD
330
19
100
AcDbEntity
  8
3
100
AcDbDimension
  2
*D10
 10
-4753.501508379232
 20
-354.963878431619
 30
0.0
 11
-4753.501508379232
 21
222.2199635587131
 31
0.0
 70
   160
 71
     5
 42
1190.0
  3
IGA
100
AcDbAlignedDimension
 13
-4357.901477775333
 23
835.0361215683808
 33
0.0
 14
-4257.891945525518
 24
-354.9638784316191
 34
0.0
 50
90.0
100
AcDbRotatedDimension
1001
ACAD
1000
DSTYLE
1002
{
1070
   287
1070
     3
1070
   287
1070
     3
1070
   287
1070
     3
1070
    40
1040
20.0
1070
   143
1040
0.039
1070
   172
1070
     1
1070
   271
1070
     0
1070
   279
1070
     0
1070
   288
1070
     1
1002
}
  0
DIMENSION
  5
8EBA
330
19
100
AcDbEntity
  8
3
100
AcDbDimension
  2
*D11
 10
-5007.891945525514
 20
-530.9462582460037
 30
0.0
 11
-5629.826478852679
 21
-530.9462582460037
 31
0.0
 70
   160
 71
     5
 42
1200.000000000001
  3
IGA
100
AcDbAlignedDimension
 13
-6207.891945525514
 23
-354.9638784316191
 33
0.0
 14
-5007.891945525514
 24
-354.9638784315911
 34
0.0
100
AcDbRotatedDimension
1001
ACAD
1000
DSTYLE
1002
{
1070
   287
1070
     3
1070
   287
1070
     3
1070
   287
1070
     3
1070
    40
1040
20.0
1070
   143
1040
0.039
1070
   172
1070
     1
1070
   271
1070
     0
1070
   279
1070
     0
1070
   288
1070
     1
1002
}
  0
ENDSEC
  0
SECTION
  2
OBJECTS
  0
DICTIONARY
  5
C
330
0
100
AcDbDictionary
281
     1
  3
ACAD_CIP_PREVIOUS_PRODUCT_INFO
350
91BB
  3
ACAD_COLOR
350
919E
  3
ACAD_DETAILVIEWSTYLE
350
91B7
  3
ACAD_GROUP
350
D
  3
ACAD_LAYOUT
350
80D7
  3
ACAD_MATERIAL
350
916C
  3
ACAD_MLEADERSTYLE
350
91B3
  3
ACAD_MLINESTYLE
350
E
  3
ACAD_PLOTSETTINGS
350
80D8
  3
ACAD_PLOTSTYLENAME
350
80D5
  3
ACAD_SCALELIST
350
91A1
  3
ACAD_SECTIONVIEWSTYLE
350
91B5
  3
ACAD_TABLESTYLE
350
919F
  3
ACAD_VISUALSTYLE
350
9185
  3
ACDB_RECOMPOSE_DATA
350
92EE
  3
AcDbVariableDictionary
350
90C2
  3
AcDsDecomposeData
350
92F5
  3
DWGPROPS
350
92EF
  0
DICTIONARY
  5
92A9
330
2
100
AcDbDictionary
280
     1
281
     1
  3
ACAD_LAYERSTATES
360
92AA
  0
DICTIONARY
  5
9289
330
F
100
AcDbDictionary
280
     1
281
     1
  3
ADSK_XREC_LAYER_RECONCILED
360
928A
  0
DICTIONARY
  5
928B
330
31
100
AcDbDictionary
280
     1
281
     1
  3
ADSK_XREC_LAYER_RECONCILED
360
928C
  0
DICTIONARY
  5
928D
330
76D0
100
AcDbDictionary
280
     1
281
     1
  3
ADSK_XREC_LAYER_RECONCILED
360
928E
  0
DICTIONARY
  5
928F
330
76D1
100
AcDbDictionary
280
     1
281
     1
  3
ADSK_XREC_LAYER_RECONCILED
360
9290
  0
DICTIONARY
  5
9291
330
76D2
100
AcDbDictionary
280
     1
281
     1
  3
ADSK_XREC_LAYER_RECONCILED
360
9292
  0
DICTIONARY
  5
8393
330
19
100
AcDbDictionary
280
     1
281
     1
  3
ACAD_LAYOUTSELFREF
360
90FC
  0
DICTIONARY
  5
8391
330
16
100
AcDbDictionary
280
     1
281
     1
  3
ACAD_LAYOUTSELFREF
360
90FB
  0
XRECORD
  5
91BB
102
{ACAD_REACTORS
330
C
102
}
330
C
100
AcDbXrecord
280
     1
300
ACDLT
300
2015
300
INVLTS_F_S
  0
DICTIONARY
  5
919E
102
{ACAD_REACTORS
330
C
102
}
330
C
100
AcDbDictionary
281
     1
  0
DICTIONARY
  5
91B7
102
{ACAD_REACTORS
330
C
102
}
330
C
100
AcDbDictionary
281
     1
  3
Metric50
350
91B8
  0
DICTIONARY
  5
D
102
{ACAD_REACTORS
330
C
102
}
330
C
100
AcDbDictionary
281
     1
  0
DICTIONARY
  5
80D7
102
{ACAD_REACTORS
330
C
102
}
330
C
100
AcDbDictionary
281
     1
  3
Model
350
80D9
  3
ﾚｲｱｳﾄ1
350
80DA
  0
DICTIONARY
  5
916C
102
{ACAD_REACTORS
330
C
102
}
330
C
100
AcDbDictionary
281
     1
  3
ByBlock
350
9175
  3
ByLayer
350
916D
  3
Global
350
917D
  0
DICTIONARY
  5
91B3
102
{ACAD_REACTORS
330
C
102
}
330
C
100
AcDbDictionary
281
     1
  3
Standard
350
91B4
  0
DICTIONARY
  5
E
102
{ACAD_REACTORS
330
C
102
}
330
C
100
AcDbDictionary
281
     1
  3
STANDARD
350
1C
  0
DICTIONARY
  5
80D8
102
{ACAD_REACTORS
330
C
102
}
330
C
100
AcDbDictionary
281
     1
  0
ACDBDICTIONARYWDFLT
  5
80D5
102
{ACAD_REACTORS
330
C
102
}
330
C
100
AcDbDictionary
281
     1
  3
Normal
350
80D6
100
AcDbDictionaryWithDefault
340
80D6
  0
DICTIONARY
  5
91A1
102
{ACAD_REACTORS
330
C
102
}
330
C
100
AcDbDictionary
281
     1
  3
A0
350
91A2
  3
A1
350
91A3
  3
A2
350
91A4
  3
A3
350
91A5
  3
A4
350
91A6
  3
A5
350
91A7
  3
A6
350
91A8
  3
A7
350
91A9
  3
A8
350
91AA
  3
A9
350
91AB
  3
B0
350
91AC
  3
B1
350
91AD
  3
B2
350
91AE
  3
B3
350
91AF
  3
B4
350
91B0
  3
B5
350
91B1
  3
B6
350
91B2
  0
DICTIONARY
  5
91B5
102
{ACAD_REACTORS
330
C
102
}
330
C
100
AcDbDictionary
281
     1
  3
Metric50
350
91B6
  0
DICTIONARY
  5
919F
102
{ACAD_REACTORS
330
C
102
}
330
C
100
AcDbDictionary
281
     1
  3
Standard
350
91A0
  0
DICTIONARY
  5
9185
102
{ACAD_REACTORS
330
C
102
}
330
C
100
AcDbDictionary
281
     1
  3
2dWireframe
350
918B
  3
Basic
350
918A
  3
Brighten
350
9191
  3
ColorChange
350
9195
  3
Conceptual
350
918E
  3
Dim
350
9190
  3
EdgeColorOff
350
919D
  3
Facepattern
350
9194
  3
Flat
350
9186
  3
FlatWithEdges
350
9187
  3
Gouraud
350
9188
  3
GouraudWithEdges
350
9189
  3
Hidden
350
918D
  3
JitterOff
350
919B
  3
Linepattern
350
9193
  3
OverhangOff
350
919C
  3
Realistic
350
918F
  3
Shaded
350
919A
  3
Shaded with edges
350
9199
  3
Shades of Gray
350
9196
  3
Sketchy
350
9197
  3
Thicken
350
9192
  3
Wireframe
350
918C
  3
X-Ray
350
9198
  0
XRECORD
  5
92EE
102
{ACAD_REACTORS
330
C
102
}
330
C
100
AcDbXrecord
280
     1
 90
        1
330
8D46
330
91A0
  0
DICTIONARY
  5
90C2
102
{ACAD_REACTORS
330
C
102
}
330
C
100
AcDbDictionary
281
     1
  3
CANNOSCALE
350
929E
  3
CMLEADERSTYLE
350
929A
  3
CTABLESTYLE
350
9299
  3
CVIEWDETAILSTYLE
350
929B
  3
CVIEWSECTIONSTYLE
350
929C
  3
DIMASSOC
350
90C3
  3
INDEXCTL
350
92EA
  3
LAYEREVAL
350
92A0
  3
LAYERNOTIFY
350
92A1
  3
LIGHTINGUNITS
350
929F
  3
MSLTSCALE
350
929D
  3
SORTENTS
350
92E9
  3
XCLIPFRAME
350
92EB
  0
DICTIONARY
  5
92F5
102
{ACAD_REACTORS
330
C
102
}
330
C
100
AcDbDictionary
281
     1
  3
AcDsRecords
350
92F7
  3
AcDsSchemas
350
92F6
1001
ACAD
1070
     2
  0
XRECORD
  5
92EF
102
{ACAD_REACTORS
330
C
102
}
330
C
100
AcDbXrecord
280
     1
  1
DWGPROPS COOKIE
  2

  3

  4

  6

  7

  8
yasukiyo.ogawa
  9

300
=
301
=
302
=
303
=
304
=
305
=
306
=
307
=
308
=
309
=
 40
0.1455350925925926
 41
2453249.427640046
 42
2457773.702826817
  1

 90
        0
  0
DICTIONARY
  5
92AA
102
{ACAD_REACTORS
330
92A9
102
}
330
92A9
100
AcDbDictionary
281
     1
  0
XRECORD
  5
928A
102
{ACAD_REACTORS
330
9289
102
}
330
9289
100
AcDbXrecord
280
     1
290
     1
  0
XRECORD
  5
928C
102
{ACAD_REACTORS
330
928B
102
}
330
928B
100
AcDbXrecord
280
     1
290
     1
  0
XRECORD
  5
928E
102
{ACAD_REACTORS
330
928D
102
}
330
928D
100
AcDbXrecord
280
     1
290
     1
  0
XRECORD
  5
9290
102
{ACAD_REACTORS
330
928F
102
}
330
928F
100
AcDbXrecord
280
     1
290
     1
  0
XRECORD
  5
9292
102
{ACAD_REACTORS
330
9291
102
}
330
9291
100
AcDbXrecord
280
     1
290
     1
  0
XRECORD
  5
90FC
102
{ACAD_REACTORS
330
8393
102
}
330
8393
100
AcDbXrecord
280
     1
340
19
  0
XRECORD
  5
90FB
102
{ACAD_REACTORS
330
8391
102
}
330
8391
100
AcDbXrecord
280
     1
340
16
  0
ACDBDETAILVIEWSTYLE
  5
91B8
102
{ACAD_XDICTIONARY
360
9296
102
}
102
{ACAD_REACTORS
330
91B7
102
}
330
91B7
100
AcDbModelDocViewStyle
 70
     0
  3
Metric50
290
     0
100
AcDbDetailViewStyle
 70
     0
 71
     0
 90
        3
 71
     1
340
10
 40
5.0
340
0
 40
5.0
300

 40
0.0
280
     1
 71
     2
340
15
 90
       25
 71
     3
340
10
 40
5.0
 90
        0
 40
15.0
 90
        1
300
%<\AcVar ViewDetailId>% (%<\AcVar ViewScale \f "%sn">%)
 71
     4
340
15
 90
       25
340
15
 90
       25
280
     0
  0
LAYOUT
  5
80D9
102
{ACAD_XDICTIONARY
360
92F8
102
}
102
{ACAD_REACTORS
330
80D7
102
}
330
80D7
100
AcDbPlotSettings
  1

  2
none_device
  4
ISO_A4_(210.00_x_297.00_MM)
  6

 40
7.5
 41
20.0
 42
7.5
 43
20.0
 44
210.0
 45
297.0
 46
0.0
 47
0.0
 48
0.0
 49
0.0
140
0.0
141
0.0
142
1.0
143
50.49019933674815
 70
 11952
 72
     1
 73
     1
 74
     0
  7
monochrome.ctb
 75
     0
147
0.0198058239645763
148
11134.46488492916
149
1840.703543737951
100
AcDbLayout
  1
Model
 70
     1
 71
     0
 10
0.0
 20
0.0
 11
12.0
 21
9.0
 12
0.0
 22
0.0
 32
0.0
 14
0.0
 24
0.0
 34
0.0
 15
0.0
 25
0.0
 35
0.0
146
0.0
 13
0.0
 23
0.0
 33
0.0
 16
1.0
 26
0.0
 36
0.0
 17
0.0
 27
1.0
 37
0.0
 76
     0
330
19
331
916A
1001
ACAD_PSEXT
1000
なし
1000
なし
1000
適切ではありません
1000
新しいプロッタ環境設定名を選択しない限り、レイアウトは印刷されません。
1070
     0
  0
LAYOUT
  5
80DA
102
{ACAD_XDICTIONARY
360
92FA
102
}
102
{ACAD_REACTORS
330
80D7
102
}
330
80D7
100
AcDbPlotSettings
  1

  2
EPSON LP-9300
  4

  6

 40
0.0
 41
0.0
 42
0.0
 43
0.0
 44
0.0
 45
0.0
 46
0.0
 47
0.0
 48
0.0
 49
0.0
140
0.0
141
0.0
142
1.0
143
1.0
 70
   688
 72
     0
 73
     0
 74
     5
  7
monochrome.ctb
 75
    16
147
1.0
148
0.0
149
0.0
100
AcDbLayout
  1
ﾚｲｱｳﾄ1
 70
     1
 71
     1
 10
0.0
 20
0.0
 11
12.0
 21
9.0
 12
0.0
 22
0.0
 32
0.0
 14
1.000000000000000E+20
 24
1.000000000000000E+20
 34
1.000000000000000E+20
 15
-1.000000000000000E+20
 25
-1.000000000000000E+20
 35
-1.000000000000000E+20
146
0.0
 13
0.0
 23
0.0
 33
0.0
 16
1.0
 26
0.0
 36
0.0
 17
0.0
 27
1.0
 37
0.0
 76
     0
330
16
  0
MATERIAL
  5
9175
102
{ACAD_XDICTIONARY
360
9176
102
}
102
{ACAD_REACTORS
330
916C
102
}
330
916C
100
AcDbMaterial
  1
ByBlock
 72
     0
 43
0.0208333333333333
 43
0.0
 43
0.0
 43
0.0
 43
0.0
 43
0.0208333333333333
 43
0.0
 43
0.0
 43
0.0
 43
0.0
 43
1.0
 43
0.0
 43
0.0
 43
0.0
 43
0.0
 43
1.0
 77
     0
 47
0.0208333333333333
 47
0.0
 47
0.0
 47
0.0
 47
0.0
 47
0.0208333333333333
 47
0.0
 47
0.0
 47
0.0
 47
0.0
 47
1.0
 47
0.0
 47
0.0
 47
0.0
 47
0.0
 47
1.0
171
     0
 49
0.0208333333333333
 49
0.0
 49
0.0
 49
0.0
 49
0.0
 49
0.0208333333333333
 49
0.0
 49
0.0
 49
0.0
 49
0.0
 49
1.0
 49
0.0
 49
0.0
 49
0.0
 49
0.0
 49
1.0
175
     0
142
0.0208333333333333
142
0.0
142
0.0
142
0.0
142
0.0
142
0.0208333333333333
142
0.0
142
0.0
142
0.0
142
0.0
142
1.0
142
0.0
142
0.0
142
0.0
142
0.0
142
1.0
179
     0
144
0.0208333333333333
144
0.0
144
0.0
144
0.0
144
0.0
144
0.0208333333333333
144
0.0
144
0.0
144
0.0
144
0.0
144
1.0
144
0.0
144
0.0
144
0.0
144
0.0
144
1.0
147
0.0208333333333333
147
0.0
147
0.0
147
0.0
147
0.0
147
0.0208333333333333
147
0.0
147
0.0
147
0.0
147
0.0
147
1.0
147
0.0
147
0.0
147
0.0
147
0.0
147
1.0
  0
MATERIAL
  5
916D
102
{ACAD_XDICTIONARY
360
916E
102
}
102
{ACAD_REACTORS
330
916C
102
}
330
916C
100
AcDbMaterial
  1
ByLayer
 72
     0
 43
0.0208333333333333
 43
0.0
 43
0.0
 43
0.0
 43
0.0
 43
0.0208333333333333
 43
0.0
 43
0.0
 43
0.0
 43
0.0
 43
1.0
 43
0.0
 43
0.0
 43
0.0
 43
0.0
 43
1.0
 77
     0
 47
0.0208333333333333
 47
0.0
 47
0.0
 47
0.0
 47
0.0
 47
0.0208333333333333
 47
0.0
 47
0.0
 47
0.0
 47
0.0
 47
1.0
 47
0.0
 47
0.0
 47
0.0
 47
0.0
 47
1.0
171
     0
 49
0.0208333333333333
 49
0.0
 49
0.0
 49
0.0
 49
0.0
 49
0.0208333333333333
 49
0.0
 49
0.0
 49
0.0
 49
0.0
 49
1.0
 49
0.0
 49
0.0
 49
0.0
 49
0.0
 49
1.0
175
     0
142
0.0208333333333333
142
0.0
142
0.0
142
0.0
142
0.0
142
0.0208333333333333
142
0.0
142
0.0
142
0.0
142
0.0
142
1.0
142
0.0
142
0.0
142
0.0
142
0.0
142
1.0
179
     0
144
0.0208333333333333
144
0.0
144
0.0
144
0.0
144
0.0
144
0.0208333333333333
144
0.0
144
0.0
144
0.0
144
0.0
144
1.0
144
0.0
144
0.0
144
0.0
144
0.0
144
1.0
147
0.0208333333333333
147
0.0
147
0.0
147
0.0
147
0.0
147
0.0208333333333333
147
0.0
147
0.0
147
0.0
147
0.0
147
1.0
147
0.0
147
0.0
147
0.0
147
0.0
147
1.0
  0
MATERIAL
  5
917D
102
{ACAD_XDICTIONARY
360
917E
102
}
102
{ACAD_REACTORS
330
916C
102
}
330
916C
100
AcDbMaterial
  1
Global
 72
     0
 43
0.0208333333333333
 43
0.0
 43
0.0
 43
0.0
 43
0.0
 43
0.0208333333333333
 43
0.0
 43
0.0
 43
0.0
 43
0.0
 43
1.0
 43
0.0
 43
0.0
 43
0.0
 43
0.0
 43
1.0
 77
     0
 47
0.0208333333333333
 47
0.0
 47
0.0
 47
0.0
 47
0.0
 47
0.0208333333333333
 47
0.0
 47
0.0
 47
0.0
 47
0.0
 47
1.0
 47
0.0
 47
0.0
 47
0.0
 47
0.0
 47
1.0
171
     0
 49
0.0208333333333333
 49
0.0
 49
0.0
 49
0.0
 49
0.0
 49
0.0208333333333333
 49
0.0
 49
0.0
 49
0.0
 49
0.0
 49
1.0
 49
0.0
 49
0.0
 49
0.0
 49
0.0
 49
1.0
175
     0
142
0.0208333333333333
142
0.0
142
0.0
142
0.0
142
0.0
142
0.0208333333333333
142
0.0
142
0.0
142
0.0
142
0.0
142
1.0
142
0.0
142
0.0
142
0.0
142
0.0
142
1.0
179
     0
144
0.0208333333333333
144
0.0
144
0.0
144
0.0
144
0.0
144
0.0208333333333333
144
0.0
144
0.0
144
0.0
144
0.0
144
1.0
144
0.0
144
0.0
144
0.0
144
0.0
144
1.0
147
0.0208333333333333
147
0.0
147
0.0
147
0.0
147
0.0
147
0.0208333333333333
147
0.0
147
0.0
147
0.0
147
0.0
147
1.0
147
0.0
147
0.0
147
0.0
147
0.0
147
1.0
  0
MLEADERSTYLE
  5
91B4
102
{ACAD_XDICTIONARY
360
9331
102
}
102
{ACAD_REACTORS
330
91B3
102
}
330
91B3
100
AcDbMLeaderStyle
170
     2
171
     1
172
     0
 90
        2
 40
0.0
 41
0.0
173
     1
 91
-1056964608
340
13
 92
       -2
290
     1
 42
2.0
291
     1
 43
0.36
  3
Standard
 44
4.0
300

342
10
174
     1
178
     6
175
     1
176
     0
 93
-1056964608
 45
4.0
292
     0
297
     0
 46
4.0
 94
-1056964608
 47
1.0
 49
1.0
140
1.0
293
     1
141
0.0
294
     1
177
     0
142
1.0
295
     0
296
     0
143
0.125
1001
ACAD_MLEADERVER
1070
     2
  0
MLINESTYLE
  5
1C
102
{ACAD_REACTORS
330
E
102
}
330
E
100
AcDbMlineStyle
  2
STANDARD
 70
     0
  3

 62
     0
 51
90.0
 52
90.0
 71
     2
 49
0.5
 62
   256
  6
BYLAYER
 49
-0.5
 62
   256
  6
BYLAYER
  0
ACDBPLACEHOLDER
  5
80D6
102
{ACAD_REACTORS
330
80D5
102
}
330
80D5
  0
SCALE
  5
91A2
102
{ACAD_REACTORS
330
91A1
102
}
330
91A1
100
AcDbScale
 70
     0
300
1:1
140
1.0
141
1.0
290
     1
  0
SCALE
  5
91A3
102
{ACAD_REACTORS
330
91A1
102
}
330
91A1
100
AcDbScale
 70
     0
300
1:2
140
1.0
141
2.0
290
     0
  0
SCALE
  5
91A4
102
{ACAD_REACTORS
330
91A1
102
}
330
91A1
100
AcDbScale
 70
     0
300
1:4
140
1.0
141
4.0
290
     0
  0
SCALE
  5
91A5
102
{ACAD_REACTORS
330
91A1
102
}
330
91A1
100
AcDbScale
 70
     0
300
1:5
140
1.0
141
5.0
290
     0
  0
SCALE
  5
91A6
102
{ACAD_REACTORS
330
91A1
102
}
330
91A1
100
AcDbScale
 70
     0
300
1:8
140
1.0
141
8.0
290
     0
  0
SCALE
  5
91A7
102
{ACAD_REACTORS
330
91A1
102
}
330
91A1
100
AcDbScale
 70
     0
300
1:10
140
1.0
141
10.0
290
     0
  0
SCALE
  5
91A8
102
{ACAD_REACTORS
330
91A1
102
}
330
91A1
100
AcDbScale
 70
     0
300
1:16
140
1.0
141
16.0
290
     0
  0
SCALE
  5
91A9
102
{ACAD_REACTORS
330
91A1
102
}
330
91A1
100
AcDbScale
 70
     0
300
1:20
140
1.0
141
20.0
290
     0
  0
SCALE
  5
91AA
102
{ACAD_REACTORS
330
91A1
102
}
330
91A1
100
AcDbScale
 70
     0
300
1:30
140
1.0
141
30.0
290
     0
  0
SCALE
  5
91AB
102
{ACAD_REACTORS
330
91A1
102
}
330
91A1
100
AcDbScale
 70
     0
300
1:40
140
1.0
141
40.0
290
     0
  0
SCALE
  5
91AC
102
{ACAD_REACTORS
330
91A1
102
}
330
91A1
100
AcDbScale
 70
     0
300
1:50
140
1.0
141
50.0
290
     0
  0
SCALE
  5
91AD
102
{ACAD_REACTORS
330
91A1
102
}
330
91A1
100
AcDbScale
 70
     0
300
1:100
140
1.0
141
100.0
290
     0
  0
SCALE
  5
91AE
102
{ACAD_REACTORS
330
91A1
102
}
330
91A1
100
AcDbScale
 70
     0
300
2:1
140
2.0
141
1.0
290
     0
  0
SCALE
  5
91AF
102
{ACAD_REACTORS
330
91A1
102
}
330
91A1
100
AcDbScale
 70
     0
300
4:1
140
4.0
141
1.0
290
     0
  0
SCALE
  5
91B0
102
{ACAD_REACTORS
330
91A1
102
}
330
91A1
100
AcDbScale
 70
     0
300
8:1
140
8.0
141
1.0
290
     0
  0
SCALE
  5
91B1
102
{ACAD_REACTORS
330
91A1
102
}
330
91A1
100
AcDbScale
 70
     0
300
10:1
140
10.0
141
1.0
290
     0
  0
SCALE
  5
91B2
102
{ACAD_REACTORS
330
91A1
102
}
330
91A1
100
AcDbScale
 70
     0
300
100:1
140
100.0
141
1.0
290
     0
  0
ACDBSECTIONVIEWSTYLE
  5
91B6
102
{ACAD_XDICTIONARY
360
9294
102
}
102
{ACAD_REACTORS
330
91B5
102
}
330
91B5
100
AcDbModelDocViewStyle
 70
     0
  3
Metric50
290
     0
100
AcDbSectionViewStyle
 70
     0
 71
     0
 90
      102
 71
     1
340
10
 40
5.0
340
0
340
0
 40
5.0
300
I, O, Q, S, X, Z
 40
10.0
 90
        0
 40
2.5
 90
        0
 71
     2
340
15
 90
       25
340
15
 90
       50
 40
5.0
 40
2.5
 40
5.0
 71
     3
340
10
 40
5.0
 90
        0
 40
15.0
 90
        1
300
%<\AcVar ViewSectionStartId>%-%<\AcVar ViewSectionEndId>% (%<\AcVar ViewScale \f "%sn">%)
 71
     4
300
ANSI31
 40
1.0
 90
        0
290
     0
290
     0
 90
        6
 40
0.0
 40
1.570796326794896
 40
0.2617993877991494
 40
1.308996938995747
 40
-0.2617993877991494
 40
1.832595714594046
  0
TABLESTYLE
  5
91A0
102
{ACAD_XDICTIONARY
360
92EC
102
}
102
{ACAD_REACTORS
330
919F
102
}
330
919F
100
AcDbTableStyle
  3
Standard
 70
     0
 71
     0
 40
1.5
 41
1.5
280
     0
281
     0
  7
STANDARD
140
4.5
170
     2
 62
     0
 63
     7
283
     0
274
    -2
284
     1
 64
     0
275
    -2
285
     1
 65
     0
276
    -2
286
     1
 66
     0
277
    -2
287
     1
 67
     0
278
    -2
288
     1
 68
     0
279
    -2
289
     1
 69
     0
  7
STANDARD
140
6.0
170
     5
 62
     0
 63
     7
283
     0
274
    -2
284
     1
 64
     0
275
    -2
285
     1
 65
     0
276
    -2
286
     1
 66
     0
277
    -2
287
     1
 67
     0
278
    -2
288
     1
 68
     0
279
    -2
289
     1
 69
     0
  7
STANDARD
140
4.5
170
     5
 62
     0
 63
     7
283
     0
274
    -2
284
     1
 64
     0
275
    -2
285
     1
 65
     0
276
    -2
286
     1
 66
     0
277
    -2
287
     1
 67
     0
278
    -2
288
     1
 68
     0
279
    -2
289
     1
 69
     0
  0
VISUALSTYLE
  5
918B
102
{ACAD_XDICTIONARY
360
9309
102
}
102
{ACAD_REACTORS
330
9185
102
}
330
9185
100
AcDbVisualStyle
  2
2dWireframe
 70
     4
 71
     0
 72
     2
 73
     0
 90
        0
 40
-0.6
 41
-30.0
 62
     5
 63
     7
 74
     1
 91
        4
 64
     7
 65
   257
 75
     1
175
     1
 42
1.0
 92
        0
 66
   257
 43
1.0
 76
     1
 77
     6
 78
     2
 67
     7
 79
     5
170
     0
171
     0
290
     0
174
     0
 93
        1
 44
0.0
173
     0
291
     0
 45
0.0
1001
ACAD
1000
AcDbSavedByObjectVersion
1070
     0
  0
VISUALSTYLE
  5
918A
102
{ACAD_XDICTIONARY
360
9307
102
}
102
{ACAD_REACTORS
330
9185
102
}
330
9185
100
AcDbVisualStyle
  2
Basic
 70
     7
 71
     1
 72
     0
 73
     1
 90
        0
 40
-0.6
 41
-30.0
 62
     5
 63
     7
 74
     0
 91
        4
 64
     7
 65
   257
 75
     1
175
     1
 42
1.0
 92
        8
 66
     7
 43
1.0
 76
     1
 77
     6
 78
     2
 67
     7
 79
     5
170
     0
171
     0
290
     0
174
     0
 93
        1
 44
0.0
173
     0
291
     1
 45
0.0
1001
ACAD
1000
AcDbSavedByObjectVersion
1070
     0
  0
VISUALSTYLE
  5
9191
102
{ACAD_XDICTIONARY
360
9315
102
}
102
{ACAD_REACTORS
330
9185
102
}
330
9185
100
AcDbVisualStyle
  2
Brighten
 70
    12
 71
     2
 72
     2
 73
     0
 90
        0
 40
-0.6
 41
-30.0
 62
     5
 63
     7
 74
     1
 91
        4
 64
     7
 65
   257
 75
     1
175
     1
 42
1.0
 92
        8
 66
     7
 43
1.0
 76
     1
 77
     6
 78
     2
 67
     7
 79
     5
170
     0
171
     0
290
     0
174
     0
 93
        1
 44
50.0
173
     0
291
     1
 45
0.0
1001
ACAD
1000
AcDbSavedByObjectVersion
1070
     0
  0
VISUALSTYLE
  5
9195
102
{ACAD_XDICTIONARY
360
931D
102
}
102
{ACAD_REACTORS
330
9185
102
}
330
9185
100
AcDbVisualStyle
  2
ColorChange
 70
    16
 71
     2
 72
     2
 73
     3
 90
        0
 40
-0.6
 41
-30.0
 62
     5
 63
     8
 74
     1
 91
        4
 64
     7
 65
   257
 75
     1
175
     1
 42
1.0
 92
        8
 66
     8
 43
1.0
 76
     1
 77
     6
 78
     2
 67
     7
 79
     5
170
     0
171
     0
290
     0
174
     0
 93
        1
 44
0.0
173
     0
291
     1
 45
0.0
1001
ACAD
1000
AcDbSavedByObjectVersion
1070
     0
  0
VISUALSTYLE
  5
918E
102
{ACAD_XDICTIONARY
360
930F
102
}
102
{ACAD_REACTORS
330
9185
102
}
330
9185
100
AcDbVisualStyle
  2
Conceptual
 70
     9
 71
     3
 72
     2
 73
     0
 90
        0
 40
-0.6
 41
-30.0
 62
     5
 63
     7
 74
     2
 91
        2
 64
     7
 65
   257
 75
     1
175
     1
 42
179.0
 92
        8
 66
     7
 43
1.0
 76
     1
 77
     6
 78
     2
 67
     7
 79
     3
170
     0
171
     0
290
     0
174
     0
 93
        1
 44
0.0
173
     0
291
     0
 45
0.0
1001
ACAD
1000
AcDbSavedByObjectVersion
1070
     0
  0
VISUALSTYLE
  5
9190
102
{ACAD_XDICTIONARY
360
9313
102
}
102
{ACAD_REACTORS
330
9185
102
}
330
9185
100
AcDbVisualStyle
  2
Dim
 70
    11
 71
     2
 72
     2
 73
     0
 90
        0
 40
-0.6
 41
-30.0
 62
     5
 63
     7
 74
     1
 91
        4
 64
     7
 65
   257
 75
     1
175
     1
 42
1.0
 92
        8
 66
     7
 43
1.0
 76
     1
 77
     6
 78
     2
 67
     7
 79
     5
170
     0
171
     0
290
     0
174
     0
 93
        1
 44
-50.0
173
     0
291
     1
 45
0.0
1001
ACAD
1000
AcDbSavedByObjectVersion
1070
     0
  0
VISUALSTYLE
  5
919D
102
{ACAD_XDICTIONARY
360
932D
102
}
102
{ACAD_REACTORS
330
9185
102
}
330
9185
100
AcDbVisualStyle
  2
EdgeColorOff
 70
    22
 71
     2
 72
     2
 73
     0
 90
        0
 40
-0.6
 41
-30.0
 62
     5
 63
     7
 74
     1
 91
        4
 64
     7
 65
   257
 75
     1
175
     1
 42
1.0
 92
        8
 66
     7
 43
1.0
 76
     1
 77
     6
 78
     2
 67
     7
 79
     5
170
     0
171
     0
290
     0
174
     0
 93
        1
 44
0.0
173
     0
291
     1
 45
0.0
1001
ACAD
1000
AcDbSavedByObjectVersion
1070
     0
  0
VISUALSTYLE
  5
9194
102
{ACAD_XDICTIONARY
360
931B
102
}
102
{ACAD_REACTORS
330
9185
102
}
330
9185
100
AcDbVisualStyle
  2
Facepattern
 70
    15
 71
     2
 72
     2
 73
     0
 90
        0
 40
-0.6
 41
-30.0
 62
     5
 63
     7
 74
     1
 91
        4
 64
     7
 65
   257
 75
     1
175
     1
 42
1.0
 92
        8
 66
     7
 43
1.0
 76
     1
 77
     6
 78
     2
 67
     7
 79
     5
170
     0
171
     0
290
     0
174
     0
 93
        1
 44
0.0
173
     0
291
     1
 45
0.0
1001
ACAD
1000
AcDbSavedByObjectVersion
1070
     0
  0
VISUALSTYLE
  5
9186
102
{ACAD_XDICTIONARY
360
92FF
102
}
102
{ACAD_REACTORS
330
9185
102
}
330
9185
100
AcDbVisualStyle
  2
Flat
 70
     0
 71
     2
 72
     1
 73
     1
 90
        2
 40
-0.6
 41
30.0
 62
     5
 63
     7
 74
     0
 91
        0
 64
     7
 65
   257
 75
     1
175
     1
 42
1.0
 92
        8
 66
     7
 43
1.0
 76
     1
 77
     6
 78
     2
 67
     7
 79
     5
170
     0
171
     0
290
     0
174
     0
 93
       13
 44
0.0
173
     0
291
     1
 45
0.0
1001
ACAD
1000
AcDbSavedByObjectVersion
1070
     0
  0
VISUALSTYLE
  5
9187
102
{ACAD_XDICTIONARY
360
9301
102
}
102
{ACAD_REACTORS
330
9185
102
}
330
9185
100
AcDbVisualStyle
  2
FlatWithEdges
 70
     1
 71
     2
 72
     1
 73
     1
 90
        2
 40
-0.6
 41
30.0
 62
     5
 63
     7
 74
     1
 91
        0
 64
     7
 65
   257
 75
     1
175
     1
 42
1.0
 92
        0
 66
   257
 43
1.0
 76
     1
 77
     6
 78
     2
 67
     7
 79
     5
170
     0
171
     0
290
     0
174
     0
 93
       13
 44
0.0
173
     0
291
     1
 45
0.0
1001
ACAD
1000
AcDbSavedByObjectVersion
1070
     0
  0
VISUALSTYLE
  5
9188
102
{ACAD_XDICTIONARY
360
9303
102
}
102
{ACAD_REACTORS
330
9185
102
}
330
9185
100
AcDbVisualStyle
  2
Gouraud
 70
     2
 71
     2
 72
     2
 73
     1
 90
        2
 40
-0.6
 41
30.0
 62
     5
 63
     7
 74
     0
 91
        0
 64
     7
 65
   257
 75
     1
175
     1
 42
1.0
 92
        0
 66
     7
 43
1.0
 76
     1
 77
     6
 78
     2
 67
     7
 79
     5
170
     0
171
     0
290
     0
174
     0
 93
       13
 44
0.0
173
     0
291
     1
 45
0.0
1001
ACAD
1000
AcDbSavedByObjectVersion
1070
     0
  0
VISUALSTYLE
  5
9189
102
{ACAD_XDICTIONARY
360
9305
102
}
102
{ACAD_REACTORS
330
9185
102
}
330
9185
100
AcDbVisualStyle
  2
GouraudWithEdges
 70
     3
 71
     2
 72
     2
 73
     1
 90
        2
 40
-0.6
 41
30.0
 62
     5
 63
     7
 74
     1
 91
        0
 64
     7
 65
   257
 75
     1
175
     1
 42
1.0
 92
        0
 66
   257
 43
1.0
 76
     1
 77
     6
 78
     2
 67
     7
 79
     5
170
     0
171
     0
290
     0
174
     0
 93
       13
 44
0.0
173
     0
291
     1
 45
0.0
1001
ACAD
1000
AcDbSavedByObjectVersion
1070
     0
  0
VISUALSTYLE
  5
918D
102
{ACAD_XDICTIONARY
360
930D
102
}
102
{ACAD_REACTORS
330
9185
102
}
330
9185
100
AcDbVisualStyle
  2
Hidden
 70
     6
 71
     1
 72
     2
 73
     2
 90
        0
 40
-0.6
 41
-30.0
 62
     5
 63
     7
 74
     2
 91
        2
 64
     7
 65
   257
 75
     2
175
     1
 42
40.0
 92
        0
 66
   257
 43
1.0
 76
     1
 77
     6
 78
     2
 67
     7
 79
     3
170
     0
171
     0
290
     0
174
     0
 93
        1
 44
0.0
173
     0
291
     0
 45
0.0
1001
ACAD
1000
AcDbSavedByObjectVersion
1070
     0
  0
VISUALSTYLE
  5
919B
102
{ACAD_XDICTIONARY
360
9329
102
}
102
{ACAD_REACTORS
330
9185
102
}
330
9185
100
AcDbVisualStyle
  2
JitterOff
 70
    20
 71
     2
 72
     2
 73
     0
 90
        0
 40
-0.6
 41
-30.0
 62
     5
 63
     7
 74
     1
 91
        4
 64
     7
 65
   257
 75
     1
175
     1
 42
1.0
 92
       10
 66
     7
 43
1.0
 76
     1
 77
     6
 78
     2
 67
     7
 79
     5
170
     0
171
     0
290
     0
174
     0
 93
        1
 44
0.0
173
     0
291
     1
 45
0.0
1001
ACAD
1000
AcDbSavedByObjectVersion
1070
     0
  0
VISUALSTYLE
  5
9193
102
{ACAD_XDICTIONARY
360
9319
102
}
102
{ACAD_REACTORS
330
9185
102
}
330
9185
100
AcDbVisualStyle
  2
Linepattern
 70
    14
 71
     2
 72
     2
 73
     0
 90
        0
 40
-0.6
 41
-30.0
 62
     5
 63
     7
 74
     1
 91
        4
 64
     7
 65
   257
 75
     7
175
     7
 42
1.0
 92
        8
 66
     7
 43
1.0
 76
     1
 77
     6
 78
     2
 67
     7
 79
     5
170
     0
171
     0
290
     0
174
     0
 93
        1
 44
0.0
173
     0
291
     1
 45
0.0
1001
ACAD
1000
AcDbSavedByObjectVersion
1070
     0
  0
VISUALSTYLE
  5
919C
102
{ACAD_XDICTIONARY
360
932B
102
}
102
{ACAD_REACTORS
330
9185
102
}
330
9185
100
AcDbVisualStyle
  2
OverhangOff
 70
    21
 71
     2
 72
     2
 73
     0
 90
        0
 40
-0.6
 41
-30.0
 62
     5
 63
     7
 74
     1
 91
        4
 64
     7
 65
   257
 75
     1
175
     1
 42
1.0
 92
        9
 66
     7
 43
1.0
 76
     1
 77
     6
 78
     2
 67
     7
 79
     5
170
     0
171
     0
290
     0
174
     0
 93
        1
 44
0.0
173
     0
291
     1
 45
0.0
1001
ACAD
1000
AcDbSavedByObjectVersion
1070
     0
  0
VISUALSTYLE
  5
918F
102
{ACAD_XDICTIONARY
360
9311
102
}
102
{ACAD_REACTORS
330
9185
102
}
330
9185
100
AcDbVisualStyle
  2
Realistic
 70
     8
 71
     2
 72
     3
 73
     0
 90
        2
 40
-0.6
 41
30.0
 62
     5
 63
     7
 74
     0
 91
        0
 64
     7
 65
   257
 75
     1
175
     1
 42
1.0
 92
        8
 66
   257
 43
1.0
 76
     1
 77
     6
 78
     2
 67
     7
 79
     3
170
     0
171
     0
290
     0
174
     0
 93
       13
 44
0.0
173
     0
291
     0
 45
0.0
1001
ACAD
1000
AcDbSavedByObjectVersion
1070
     0
  0
VISUALSTYLE
  5
919A
102
{ACAD_XDICTIONARY
360
9327
102
}
102
{ACAD_REACTORS
330
9185
102
}
330
9185
100
AcDbVisualStyle
  2
Shaded
 70
    27
 71
     2
 72
     2
 73
     1
 90
        2
 40
-0.6
 41
30.0
 62
     5
 63
     7
 74
     0
 91
        4
 64
     7
 65
   257
 75
     1
175
     1
 42
1.0
 92
        8
 66
   257
 43
1.0
 76
     1
 77
     6
 78
     2
 67
     8
 79
     3
170
     0
171
     0
290
     0
174
     0
 93
        5
 44
0.0
173
     0
291
     0
 45
0.0
1001
ACAD
1000
AcDbSavedByObjectVersion
1070
     0
  0
VISUALSTYLE
  5
9199
102
{ACAD_XDICTIONARY
360
9325
102
}
102
{ACAD_REACTORS
330
9185
102
}
330
9185
100
AcDbVisualStyle
  2
Shaded with edges
 70
    26
 71
     2
 72
     2
 73
     1
 90
        2
 40
-0.6
 41
30.0
 62
     5
 63
     7
 74
     1
 91
       10
 64
     7
 65
   257
 75
     2
175
     1
 42
1.0
 92
        8
 66
   257
 43
1.0
 76
     1
 77
     6
 78
     2
 67
     7
 79
     3
170
     0
171
     0
290
     0
174
     0
 93
        5
 44
0.0
173
     0
291
     0
 45
0.0
1001
ACAD
1000
AcDbSavedByObjectVersion
1070
     0
  0
VISUALSTYLE
  5
9196
102
{ACAD_XDICTIONARY
360
931F
102
}
102
{ACAD_REACTORS
330
9185
102
}
330
9185
100
AcDbVisualStyle
  2
Shades of Gray
 70
    23
 71
     2
 72
     2
 73
     3
 90
        0
 40
-0.6
 41
-30.0
 62
     5
 63
     7
 74
     2
 91
        2
 64
     7
 65
     7
 75
     1
175
     1
 42
40.0
 92
        8
 66
     7
 43
1.0
 76
     1
 77
     6
 78
     2
 67
     7
 79
     3
170
     0
171
     0
290
     0
174
     0
 93
        1
 44
0.0
173
     0
291
     0
 45
0.0
1001
ACAD
1000
AcDbSavedByObjectVersion
1070
     0
  0
VISUALSTYLE
  5
9197
102
{ACAD_XDICTIONARY
360
9321
102
}
102
{ACAD_REACTORS
330
9185
102
}
330
9185
100
AcDbVisualStyle
  2
Sketchy
 70
    24
 71
     1
 72
     2
 73
     2
 90
        0
 40
-0.6
 41
-30.0
 62
     5
 63
     7
 74
     2
 91
        2
 64
     7
 65
     7
 75
     1
175
     1
 42
40.0
 92
       11
 66
     7
 43
1.0
 76
     1
 77
     6
 78
     2
 67
     7
 79
     6
170
     0
171
     0
290
     0
174
     0
 93
        1
 44
0.0
173
     0
291
     0
 45
0.0
1001
ACAD
1000
AcDbSavedByObjectVersion
1070
     0
  0
VISUALSTYLE
  5
9192
102
{ACAD_XDICTIONARY
360
9317
102
}
102
{ACAD_REACTORS
330
9185
102
}
330
9185
100
AcDbVisualStyle
  2
Thicken
 70
    13
 71
     2
 72
     2
 73
     0
 90
        0
 40
-0.6
 41
-30.0
 62
     5
 63
     7
 74
     1
 91
        4
 64
     7
 65
   257
 75
     1
175
     1
 42
1.0
 92
       12
 66
     7
 43
1.0
 76
     1
 77
     6
 78
     2
 67
     7
 79
     5
170
     0
171
     0
290
     0
174
     0
 93
        1
 44
0.0
173
     0
291
     1
 45
0.0
1001
ACAD
1000
AcDbSavedByObjectVersion
1070
     0
  0
VISUALSTYLE
  5
918C
102
{ACAD_XDICTIONARY
360
930B
102
}
102
{ACAD_REACTORS
330
9185
102
}
330
9185
100
AcDbVisualStyle
  2
Wireframe
 70
     5
 71
     0
 72
     2
 73
     0
 90
        0
 40
-0.6
 41
-30.0
 62
     5
 63
     7
 74
     1
 91
        4
 64
     7
 65
   257
 75
     1
175
     1
 42
1.0
 92
        0
 66
   257
 43
1.0
 76
     1
 77
     6
 78
     2
 67
     7
 79
     3
170
     0
171
     0
290
     0
174
     0
 93
        1
 44
0.0
173
     0
291
     0
 45
0.0
1001
ACAD
1000
AcDbSavedByObjectVersion
1070
     0
  0
VISUALSTYLE
  5
9198
102
{ACAD_XDICTIONARY
360
9323
102
}
102
{ACAD_REACTORS
330
9185
102
}
330
9185
100
AcDbVisualStyle
  2
X-Ray
 70
    25
 71
     2
 72
     2
 73
     1
 90
        1
 40
0.5
 41
-30.0
 62
     5
 63
     7
 74
     1
 91
        0
 64
     7
 65
   257
 75
     1
175
     1
 42
1.0
 92
        8
 66
     7
 43
1.0
 76
     1
 77
     6
 78
     2
 67
     7
 79
     3
170
     0
171
     0
290
     0
174
     0
 93
       13
 44
0.0
173
     0
291
     0
 45
0.0
1001
ACAD
1000
AcDbSavedByObjectVersion
1070
     0
  0
DICTIONARYVAR
  5
929E
102
{ACAD_REACTORS
330
90C2
102
}
330
90C2
100
DictionaryVariables
280
     0
  1
1:1
  0
DICTIONARYVAR
  5
929A
102
{ACAD_REACTORS
330
90C2
102
}
330
90C2
100
DictionaryVariables
280
     0
  1
STANDARD
  0
DICTIONARYVAR
  5
9299
102
{ACAD_REACTORS
330
90C2
102
}
330
90C2
100
DictionaryVariables
280
     0
  1
STANDARD
  0
DICTIONARYVAR
  5
929B
102
{ACAD_REACTORS
330
90C2
102
}
330
90C2
100
DictionaryVariables
280
     0
  1
Metric50
  0
DICTIONARYVAR
  5
929C
102
{ACAD_REACTORS
330
90C2
102
}
330
90C2
100
DictionaryVariables
280
     0
  1
Metric50
  0
DICTIONARYVAR
  5
90C3
102
{ACAD_REACTORS
330
90C2
102
}
330
90C2
100
DictionaryVariables
280
     0
  1
1
  0
DICTIONARYVAR
  5
92EA
102
{ACAD_REACTORS
330
90C2
102
}
330
90C2
100
DictionaryVariables
280
     0
  1
0
  0
DICTIONARYVAR
  5
92A0
102
{ACAD_REACTORS
330
90C2
102
}
330
90C2
100
DictionaryVariables
280
     0
  1
1
  0
DICTIONARYVAR
  5
92A1
102
{ACAD_REACTORS
330
90C2
102
}
330
90C2
100
DictionaryVariables
280
     0
  1
15
  0
DICTIONARYVAR
  5
929F
102
{ACAD_REACTORS
330
90C2
102
}
330
90C2
100
DictionaryVariables
280
     0
  1
0
  0
DICTIONARYVAR
  5
929D
102
{ACAD_REACTORS
330
90C2
102
}
330
90C2
100
DictionaryVariables
280
     0
  1
0
  0
DICTIONARYVAR
  5
92E9
102
{ACAD_REACTORS
330
90C2
102
}
330
90C2
100
DictionaryVariables
280
     0
  1
127
  0
DICTIONARYVAR
  5
92EB
102
{ACAD_REACTORS
330
90C2
102
}
330
90C2
100
DictionaryVariables
280
     0
  1
2
  0
DICTIONARY
  5
92F7
102
{ACAD_REACTORS
330
92F5
102
}
330
92F5
100
AcDbDictionary
281
     1
  0
DICTIONARY
  5
92F6
102
{ACAD_REACTORS
330
92F5
102
}
330
92F5
100
AcDbDictionary
281
     1
  3
2130441344
350
92F0
  3
2130441352
350
92F1
  3
2130441360
350
92F2
  3
2130441368
350
92F3
  3
2130441376
350
92F4
  0
DICTIONARY
  5
9296
330
91B8
100
AcDbDictionary
280
     1
281
     1
  3
ACAD_XREC_ROUNDTRIP
360
9334
  0
DICTIONARY
  5
92F8
330
80D9
100
AcDbDictionary
280
     1
281
     1
  3
ACAD_XREC_ROUNDTRIP
360
92F9
  0
DICTIONARY
  5
92FA
330
80DA
100
AcDbDictionary
280
     1
281
     1
  3
ACAD_XREC_ROUNDTRIP
360
92FB
  0
DICTIONARY
  5
9176
330
9175
100
AcDbDictionary
280
     1
281
     1
  3
ACAD_XREC_ROUNDTRIP
360
92FD
  3
BUMPTILE
360
9178
  3
DIFFUSETILE
360
9177
  3
OPACITYTILE
360
917B
  3
REFLECTIONTILE
360
917A
  3
REFRACTIONTILE
360
917C
  3
SPECULARTILE
360
9179
  0
DICTIONARY
  5
916E
330
916D
100
AcDbDictionary
280
     1
281
     1
  3
ACAD_XREC_ROUNDTRIP
360
92FC
  3
BUMPTILE
360
9170
  3
DIFFUSETILE
360
916F
  3
OPACITYTILE
360
9173
  3
REFLECTIONTILE
360
9172
  3
REFRACTIONTILE
360
9174
  3
SPECULARTILE
360
9171
  0
DICTIONARY
  5
917E
330
917D
100
AcDbDictionary
280
     1
281
     1
  3
ACAD_XREC_ROUNDTRIP
360
92FE
  3
BUMPTILE
360
9180
  3
DIFFUSETILE
360
917F
  3
FBXASSET
360
92BC
  3
OPACITYTILE
360
9183
  3
REFLECTIONTILE
360
9182
  3
REFRACTIONTILE
360
9184
  3
SPECULARTILE
360
9181
  0
DICTIONARY
  5
9331
330
91B4
100
AcDbDictionary
280
     1
281
     1
  3
ACAD_XREC_ROUNDTRIP
360
9332
  0
DICTIONARY
  5
9294
330
91B6
100
AcDbDictionary
280
     1
281
     1
  3
ACAD_XREC_ROUNDTRIP
360
9333
  0
DICTIONARY
  5
92EC
330
91A0
100
AcDbDictionary
280
     1
281
     1
  3
ACAD_ROUNDTRIP_2008_TABLESTYLE_CELLSTYLEMAP
360
92ED
  3
ACAD_XREC_ROUNDTRIP
360
932F
  0
DICTIONARY
  5
9309
330
918B
100
AcDbDictionary
280
     1
281
     1
  3
ACAD_XREC_ROUNDTRIP
360
930A
  0
DICTIONARY
  5
9307
330
918A
100
AcDbDictionary
280
     1
281
     1
  3
ACAD_XREC_ROUNDTRIP
360
9308
  0
DICTIONARY
  5
9315
330
9191
100
AcDbDictionary
280
     1
281
     1
  3
ACAD_XREC_ROUNDTRIP
360
9316
  0
DICTIONARY
  5
931D
330
9195
100
AcDbDictionary
280
     1
281
     1
  3
ACAD_XREC_ROUNDTRIP
360
931E
  0
DICTIONARY
  5
930F
330
918E
100
AcDbDictionary
280
     1
281
     1
  3
ACAD_XREC_ROUNDTRIP
360
9310
  0
DICTIONARY
  5
9313
330
9190
100
AcDbDictionary
280
     1
281
     1
  3
ACAD_XREC_ROUNDTRIP
360
9314
  0
DICTIONARY
  5
932D
330
919D
100
AcDbDictionary
280
     1
281
     1
  3
ACAD_XREC_ROUNDTRIP
360
932E
  0
DICTIONARY
  5
931B
330
9194
100
AcDbDictionary
280
     1
281
     1
  3
ACAD_XREC_ROUNDTRIP
360
931C
  0
DICTIONARY
  5
92FF
330
9186
100
AcDbDictionary
280
     1
281
     1
  3
ACAD_XREC_ROUNDTRIP
360
9300
  0
DICTIONARY
  5
9301
330
9187
100
AcDbDictionary
280
     1
281
     1
  3
ACAD_XREC_ROUNDTRIP
360
9302
  0
DICTIONARY
  5
9303
330
9188
100
AcDbDictionary
280
     1
281
     1
  3
ACAD_XREC_ROUNDTRIP
360
9304
  0
DICTIONARY
  5
9305
330
9189
100
AcDbDictionary
280
     1
281
     1
  3
ACAD_XREC_ROUNDTRIP
360
9306
  0
DICTIONARY
  5
930D
330
918D
100
AcDbDictionary
280
     1
281
     1
  3
ACAD_XREC_ROUNDTRIP
360
930E
  0
DICTIONARY
  5
9329
330
919B
100
AcDbDictionary
280
     1
281
     1
  3
ACAD_XREC_ROUNDTRIP
360
932A
  0
DICTIONARY
  5
9319
330
9193
100
AcDbDictionary
280
     1
281
     1
  3
ACAD_XREC_ROUNDTRIP
360
931A
  0
DICTIONARY
  5
932B
330
919C
100
AcDbDictionary
280
     1
281
     1
  3
ACAD_XREC_ROUNDTRIP
360
932C
  0
DICTIONARY
  5
9311
330
918F
100
AcDbDictionary
280
     1
281
     1
  3
ACAD_XREC_ROUNDTRIP
360
9312
  0
DICTIONARY
  5
9327
330
919A
100
AcDbDictionary
280
     1
281
     1
  3
ACAD_XREC_ROUNDTRIP
360
9328
  0
DICTIONARY
  5
9325
330
9199
100
AcDbDictionary
280
     1
281
     1
  3
ACAD_XREC_ROUNDTRIP
360
9326
  0
DICTIONARY
  5
931F
330
9196
100
AcDbDictionary
280
     1
281
     1
  3
ACAD_XREC_ROUNDTRIP
360
9320
  0
DICTIONARY
  5
9321
330
9197
100
AcDbDictionary
280
     1
281
     1
  3
ACAD_XREC_ROUNDTRIP
360
9322
  0
DICTIONARY
  5
9317
330
9192
100
AcDbDictionary
280
     1
281
     1
  3
ACAD_XREC_ROUNDTRIP
360
9318
  0
DICTIONARY
  5
930B
330
918C
100
AcDbDictionary
280
     1
281
     1
  3
ACAD_XREC_ROUNDTRIP
360
930C
  0
DICTIONARY
  5
9323
330
9198
100
AcDbDictionary
280
     1
281
     1
  3
ACAD_XREC_ROUNDTRIP
360
9324
  0
XRECORD
  5
92F0
102
{ACAD_REACTORS
330
92F6
102
}
330
92F6
100
AcDbXrecord
280
     1
  1
AcDb_Thumbnail_Schema
102
{ATTRRECORD
341
92F1
  2
AcDbDs::TreatedAsObjectData
280
     1
291
     1
102
ATTRRECORD}
102
{ATTRRECORD
341
92F2
  2
AcDbDs::Legacy
280
     1
291
     1
102
ATTRRECORD}
  2
AcDbDs::ID
280
    10
 91
        8
102
{ATTRRECORD
341
92F3
  2
AcDs:Indexable
280
     1
291
     1
102
ATTRRECORD}
102
{ATTRRECORD
341
92F4
  2
AcDbDs::HandleAttribute
280
     7
282
     1
102
ATTRRECORD}
  2
Thumbnail_Data
280
    15
 91
        0
  0
XRECORD
  5
92F1
102
{ACAD_REACTORS
330
92F6
102
}
330
92F6
100
AcDbXrecord
280
     1
  1
AcDbDs::TreatedAsObjectDataSchema
  2
AcDbDs::TreatedAsObjectData
280
     1
 91
        0
  0
XRECORD
  5
92F2
102
{ACAD_REACTORS
330
92F6
102
}
330
92F6
100
AcDbXrecord
280
     1
  1
AcDbDs::LegacySchema
  2
AcDbDs::Legacy
280
     1
 91
        0
  0
XRECORD
  5
92F3
102
{ACAD_REACTORS
330
92F6
102
}
330
92F6
100
AcDbXrecord
280
     1
  1
AcDbDs::IndexedPropertySchema
  2
AcDs:Indexable
280
     1
 91
        0
  0
XRECORD
  5
92F4
102
{ACAD_REACTORS
330
92F6
102
}
330
92F6
100
AcDbXrecord
280
     1
  1
AcDbDs::HandleAttributeSchema
  2
AcDbDs::HandleAttribute
280
     7
 91
        1
284
     1
  0
XRECORD
  5
9334
102
{ACAD_REACTORS
330
9296
102
}
330
9296
100
AcDbXrecord
280
     1
102
DISPLAYNAME
  1
Metric50
102
FLAGS
 90
        0
  0
XRECORD
  5
92F9
102
{ACAD_REACTORS
330
92F8
102
}
330
92F8
100
AcDbXrecord
280
     1
102
SHADEPLOT
 70
     0
102
SHADEPLOTRESLEVEL
 70
     2
102
SHADEPLOTCUSTOMDPI
 70
   300
  0
XRECORD
  5
92FB
102
{ACAD_REACTORS
330
92FA
102
}
330
92FA
100
AcDbXrecord
280
     1
102
SHADEPLOT
 70
     0
102
SHADEPLOTRESLEVEL
 70
     2
102
SHADEPLOTCUSTOMDPI
 70
   300
  0
XRECORD
  5
92FD
102
{ACAD_REACTORS
330
9176
102
}
330
9176
100
AcDbXrecord
280
     1
102
MATERIAL
148
0.0
149
0.0
149
0.0
 93
        0
 94
      127
282
     0
 72
     0
 77
     0
171
     0
175
     0
179
     0
273
     0
  0
XRECORD
  5
9178
102
{ACAD_REACTORS
330
9176
102
}
330
9176
100
AcDbXrecord
280
     1
270
     1
271
     1
  0
XRECORD
  5
9177
102
{ACAD_REACTORS
330
9176
102
}
330
9176
100
AcDbXrecord
280
     1
270
     1
271
     1
  0
XRECORD
  5
917B
102
{ACAD_REACTORS
330
9176
102
}
330
9176
100
AcDbXrecord
280
     1
270
     1
271
     1
  0
XRECORD
  5
917A
102
{ACAD_REACTORS
330
9176
102
}
330
9176
100
AcDbXrecord
280
     1
270
     1
271
     1
  0
XRECORD
  5
917C
102
{ACAD_REACTORS
330
9176
102
}
330
9176
100
AcDbXrecord
280
     1
270
     1
271
     1
  0
XRECORD
  5
9179
102
{ACAD_REACTORS
330
9176
102
}
330
9176
100
AcDbXrecord
280
     1
270
     1
271
     1
  0
XRECORD
  5
92FC
102
{ACAD_REACTORS
330
916E
102
}
330
916E
100
AcDbXrecord
280
     1
102
MATERIAL
148
0.0
149
0.0
149
0.0
 93
        0
 94
      127
282
     0
 72
     0
 77
     0
171
     0
175
     0
179
     0
273
     0
  0
XRECORD
  5
9170
102
{ACAD_REACTORS
330
916E
102
}
330
916E
100
AcDbXrecord
280
     1
270
     1
271
     1
  0
XRECORD
  5
916F
102
{ACAD_REACTORS
330
916E
102
}
330
916E
100
AcDbXrecord
280
     1
270
     1
271
     1
  0
XRECORD
  5
9173
102
{ACAD_REACTORS
330
916E
102
}
330
916E
100
AcDbXrecord
280
     1
270
     1
271
     1
  0
XRECORD
  5
9172
102
{ACAD_REACTORS
330
916E
102
}
330
916E
100
AcDbXrecord
280
     1
270
     1
271
     1
  0
XRECORD
  5
9174
102
{ACAD_REACTORS
330
916E
102
}
330
916E
100
AcDbXrecord
280
     1
270
     1
271
     1
  0
XRECORD
  5
9171
102
{ACAD_REACTORS
330
916E
102
}
330
916E
100
AcDbXrecord
280
     1
270
     1
271
     1
  0
XRECORD
  5
92FE
102
{ACAD_REACTORS
330
917E
102
}
330
917E
100
AcDbXrecord
280
     1
102
MATERIAL
148
0.0
149
0.0
149
0.0
 93
        0
 94
      127
282
     0
 72
     0
 77
     0
171
     0
175
     0
179
     0
273
     0
  0
XRECORD
  5
9180
102
{ACAD_REACTORS
330
917E
102
}
330
917E
100
AcDbXrecord
280
     1
270
     1
271
     1
  0
XRECORD
  5
917F
102
{ACAD_REACTORS
330
917E
102
}
330
917E
100
AcDbXrecord
280
     1
270
     1
271
     1
  0
XRECORD
  5
92BC
102
{ACAD_REACTORS
330
917E
102
}
330
917E
100
AcDbXrecord
280
     1
 70
     1
 90
1959938040
 71
     1
  1
58EEDBE9-DE48-408C-B196-1B886DBCCF23
311
504B0304140006080800D881304AED268957DB000000200100004F00000037323144303939442D434234392D343446332D384432312D3545363833353741373143382F4173736574446174612F446566696E6974696F6E4974657261746F7250726F706572746965732E62696E454E3D6FC23010351D8A3A74E83F40ECAE63
311
48F325A022C4ED044B3BB1A0C31C2192E320DB913A76ECBF2EB64AC549EFDE7DBEBB1F42C8EFD57C48061EDFDE3F7A7E478DA6911FF2842D90FB5051DD1ED4F0D6BBF361482B3C42AF5CD85A3756A252A0B1EBEDD36D74D482F372A09EC3D283C77FC10685FAEF58B8BFF1082F0586C3B978056BD1CDD971FFC54AB12ADF2A
311
5ED13CC957344EA7292DB32CA795588A97444C4B912D9941DBF546A2651316EDAECABBB3AE713E9606FD1F87F16212F194469CF2E49327058F8B38DFCE986B5A5CCCAC338DAE471ADA0B504B0304140006080800D881304A0B0FF2F3F0000000300200004500000037323144303939442D434234392D343446332D38443231
311
2D3545363833353741373143382F4173736574446174612F496E7374616E636550726F706572746965732E62696EEB606060F80F0540260323103700495E20ED9E9A975A94991C9C9C919A9BA8021430B57075757172B5D4757135B1D03531B070D67532B434D33574B2B03073717276763332664768046931363471713532
311
B5D435353131D635313332D475727372D13534373670367376B67474B5042A03DBCBA019D37FE8ABC6157B20CD04146B0062181F4C03F940F0C11EA29A8141C08141002C0426541C106CAC2CA046088033B02A030AC2157C6006F21A8018AAF50194E6010A610250382264E08660284CD9E98021862280A91564B406929A0F
311
F62C401E28B6F88038B83CB1243943D7A928312F25350524939696F69F161800504B0304140006080800D881304A28BB58AF800100009E0500003D00000037323144303939442D434234392D343446332D384432312D3545363833353741373143382F536368656D61732F436F6D6D6F6E536368656D612E786D6CBD544D4F
311
C23018BEFB2B96DE15493C78601010A34B880709DEDFB52FD0D8B54BD70DF6EFED3AC0B12E6442E2716BFB3CEFF3D18E26FB440405EA8C2B1992E1C323095052C5B8DC842437EBFB673219DF8DA659866649B798C078B48AE6410122242F2A4994AC7F93815DF85C049C8564CA0A901499DD886B2EB9B1E02448F358701A92
311
35880C49A0119892A20C89D1B9FD768815CAD268CB5E0355B40B1E47F3E37A2020464BED06AA57CE8FCC20C3C3446D46761A2632A8C1283D07031EFF2AE7CCB1BFEEE916E406DFAC8E36FFD99A9D60A6944090EEDC3B670C7DC13DE86B6B2C5C240D6E503BB85ACD579D513F1B9F9A69DC9CC22AFA80C426D40AF0B21EA168
311
559156B6276F0F726A6BFF04DCD513A87A62CAD41FB24FCB2858B3952E3D852084DA25B9303C15687973CC8E8AAE11DF2836C38C6A9E765E8C1BA1BFB1DC29CDFE518C8B5A7655A4ED7E77291ABEB80DBD82EC866ADE1B8D05AF9E35CF09D7A061F38A986D9EC412B8F0F65E5D81534D9B231D1E5A8FE577A241F3A5FD0150
311
4B0304140006080800D881304A2CCEBD668A040000E01200003E00000037323144303939442D434234392D343446332D384432312D3545363833353741373143382F536368656D61732F47656E65726963536368656D612E786D6CD5586D6FDB380CFE7EBF42F0F7A649B70E1B90744856B4970F450FCD7A5F05459613EDE4
311
174872DADCAF3F522F8ED3B88D2F1D06AC4050DBA2493EE4438AF2F8EB73AEC8466823CB62928C06C384888297A92C5693A4B6D9D9E7E4EBD51FE3A931C22EF85AE4EC6AFC38BF261BA626C9AD288496DC3F4FCEAFC63366845F7A10452AF41DB320C0D44EC26EAB20918735565582695670811A6A49643A49A6E9069FA460
311
4A64B29016DC4B48552F95E4932463CA888468C1D2B250DB4962750DF7CE273069CE8363F1FF4EDB00E0A21999574AE4A2B00C353B93F3BD4777B8A61ED8F604ABFEDD79CE56A2B7BDFBDBC50996E0ADDE16FED26223C5D30956C29BDF4A55EA686E5E58B112DA45CE67F76F4FA27EFA3FB672FD7372FC388FAECDCA5209E6
311
93CAD167BADCD272F943701B3812F8A3D852008B1D2E32DB927B2F833C6EA95879925356D254582695095A3CE982924720BE5774A3CB9CDCDB350427D2DF20DA1B5532EBE2D5D6288D75D4F7E4FD9890A0EF8E3D93EBB8F8BA4758158EF6FB90A6F9520281C93DE7AAC6D24607DA296BB96018123F821A7D6A5C5884050C47
311
5DA4865442732C8B95684A50165CBB3A32F25F783A4A480ED59AD7F924B968AEA50131F46303223E6A397B0E52976030DC1DCA81D7E7C1EDEEA42C19FF27635C505E2BD5198A599020DF50A2330FCB3AAF28CB0124108429553EF1B228802E2265D8F7CC2401042B155BCC7070F1E5C55F13B4A9577362CCCE46C32174E010
311
C3C378C44841A4BDA00FE3A12006CE11EE6AEC59894D3526DDE1CD59D503ECC324017F8061B7F162162FA62EDD81AE3308617770796DCBDAD2B2625C5AE8A63DE20B2C8AA5E95E76E5730823955956E33E705425A2187C185D36489A1B44D3DCEC2172F6BA2105C3546287A7194B2331768EBBE64F6E70A9930ABE0ADEA89E
311
9E2C38523B810287AD67A54A039C1606EAFE68F8304610BB9093DBDDABC0B2AE4E290DCDA15376D7E39F72B556F0B32EAB5D3D498B4C41ABADEC3A1434C422D87E8025A84BDCB2B1417ED750FAE4DA8976863974C577C7F902D3F156AD354DEA3540DE6BEAE2BEA52F7A2EB4CA43802ECE5BF2CE2EDC9347179FFB023CE412
311
E60BE16DA0BE29B374988A553F561DC04615DD35F7D2C8979F60E5955CE93DF29DED8AFA1EE6642D53418086C03C47C377910F75F7E8F5EF665F70B60FFB22AEDF897D119E8423C773E819A3C1E55E550599EE6EDCA34D0C86FD72057DF2CD46F16A470682471C164E4346D5306BF12D7D12D82CFF673D41636C347443FEB5
311
1B50D72EA171A8E4A58623A4A16E0FA2B8B10A0D23268D87C33896EE8FB73305A74BF224EDBADFA0BD674AB354D63DB7BD5D83426761C077DE767728235446A552754EB93B755891C3C4CC6CADE37CF0E912A7BB38DBA010F9DE1282EDF470CA69A9CDA482E334C4A6EA4107987980B17E72F31730EBF88BBD39E7C629F567
311
97A3C0009C2C5AE7951D9A05A02773440F02EEB4DE396A3B6A570C72CCFBCD823B0B8ED3F1D5CEDDFED772FA70236C83FB7D86C385D570B87107535572A60A96035F8F7C6A7192F13007246BBE0521855E6AC46F3E27689CEE7D186A6FD679D98CDCAD13333E04EBE7ED6F55FF01504B0304140006080800D881304A618013
311
4D5F0100006B0300004500000037323144303939442D434234392D343446332D384432312D3545363833353741373143382F536368656D61732F52656E6465724D6174657269616C536368656D612E786D6CA5934D6FC2300C86EFFB1551EEE343DBA41D1A103009551ADAD40EAE28A4A68D9426284961FCFBE5A340113B20
311
71746D3F765EBF4DC6BFB5407BD0862B49F0B037C0082453059725C18DDD3EBFE3F1E829991803366715D474942CD30FB4A782E00C64017A412D684E454CE3FE28995203B162A6EA5AC94B66997D225E109CD63B0135484BAD1B3C07E9080CA35DB3119C11BCA5C200461A68A1A438126C75E3E230D40FF81FB3F03C91D1E3
311
A3A0AF79FE28E25BC39EC3E17E4C2A2D94A0833A51AF55BCCA7D88572FCBAC529C4140B020FC3AAFA886621DCED7EAD7664CC86024E806DC297DA1BB393E4156543457A4537DB8817349A70F8ACBF09B3EEE2CB2F33E91B65D60786E4E3B39B77E3FEEEF5650424525DA657FB8B46BE6BF064646F0A0F7327C0BC1BC1B4CBB
311
C1C419FA3CCB23500007872A2580CAAE5461865565294E4EDB4617B62FF579DF9A5B2F54E834076A597573A020912FED777F9B3F504B0304140006080800D881304A3D05479F51000000570000004700000037323144303939442D434234392D343446332D384432312D3545363833353741373143382F4173736574446174
311
612F41737365745461626C654F66436F6E74656E74732E62696E5361606030B57075757172B5D4757135B1D03531B070D67532B434D33574B2B030737172767633321602AACB4D2C492DCA4CCC492C28484D2C4ACC4B4E050A82012F90744FCD03CA26072767A4E6260200504B0304140006080800D881304AF86583405800
311
0000680000004500000037323144303939442D434234392D343446332D384432312D3545363833353741373143382F4173736574446174612F53747265616D56657273696F6E5461626C652E696E66558CBD0A80300C06F73E4B117FB66E451741D041DC5BF98480A492E4FDD18EAEC7DD4555D89EF28DF51A0B1BD8340C4D
311
E7DD848B988C0ACF0649566493F2408C508DDEBB99D5129FF8F1AF8CF5B9503E20FAE5A16B5AF702504B0304140006080800D881304AF20E870C350100009A0400003600000037323144303939442D434234392D343446332D384432312D3545363833353741373143382F4173736574446174612F636E782E786D6CCD943F
311
4FC33010C5BF4AE43D768CAAF2478E2B044B2790A818D8AECEA55875ECC8BE20F8F6D86D0650115387AEE777E7E79FFC4EAD3E07577D604C36F89649DEB00ABD099DF5BB964DD4D737AC5A691543A01F32567918B065A5CCB4DAC5308D73A9C31E2657AACEFAFD5CBC4F0969035B874FFD43F0849E12AB8C83945A96CC3B0E
311
C061A2D061DAF30E08B8E4115398A2C13C89EC80F3241311083BA6AF1A795D37B296CB8D5CDEC9C5DDE2F64D89A2D46A1B829BF5365F16C35899E3AD4C374A9463ADA668674D790BD37F79E45BEB95C84AAD12C5CC64EEA0AF3177C0383A6B80323A110C21D55984302871146B250A835F241EB1B7DE969675360614E273B6
311
87912C5E1C91FFBC9E9FCCDA27026FF072799C3A3C3F8597C30F7A3D06F290984BCBC9A9436E7D7F869488C31AC9A1295B457F03504B0304140006080800D881304A950470F0080100004F0300003400000037323144303939442D434234392D343446332D384432312D3545363833353741373143382F536368656D61732F
311
636E782E786D6CCD933F4F432114C5BFCA0B7BE1619AAA0D8F0E0E4E2EEAE48670DB9202F7853F46BFBDF0646813371DBAC1E11772CEE122769FDE0D1F1093C530114E473240D0686C384CA4E4FDEA8E0C3B2922623EC3C810948789349948718858E62E19D8ABE29AEA6C3875F101BDC7F0A28FE01519B453294D242D5BAA
311
4A4603E9448DCA8A721A2161891AEA0DD97AE837E8082A8321F266E4B7AB91AFF8E6956FB67CBD5DDFBF09D64829DE115DE76DC810711E34D645A87646C1DAB11425DACEB40C449E7BA3B50DC12A2145CAB176D0C9FC355752CDB3B35AE55A155BC01F460AD6A25E047E8400D1EAEB4C7C61EEDF223F4330109FEA2B45ABDC
311
7526FFCDE3DF0A60CBECD711685F417E03504B0304140006080800D881304A410A3D5871000000A40000002C00000037323144303939442D434234392D343446332D384432312D3545363833353741373143382F636E782E786D6C55CC4D0E82301086E1AB34B31774E7A22D31F1069E60020334B633A63FC6E34B0909B07D
311
DE2F9FEE7EC1AB2FC5E4840DDC9A2B28E25E06C7938192C7CB1D54677514C9871928C640062A83D55394F2D968A0118BAFEA1DBF377CA444F98919176EAB9FEAAB9F2960DA5BBB1E2ED3FA6FFF504B0304140006080800D881304A2A975D297F000000A300000007000000636E782E786D6C4D8CD10E822018465F85FDF794
311
28066C802BA9F77089CE85D0485A8F1F342FBAFAB6B3EF1CD97D5687DE36BE96E015904305C8FA7B18173F2B48DB8439A04ECB18C2F67703E487D52A2818B49C6348CF1D8D761A922BD42DFEB1435613530961707FA102537A6B303735C1EDF5C49B969D19E979368E45C9F3EBE52D79FD05504B0304140006080800D88130
311
4A16E99B5DA600000035010000130000005B436F6E74656E745F54797065735D2E786D6C9590410E82301045AFD2740F4517C6180A0BF5065E60AC53688469D30E066F6F91AD9AB89CF9FFFD3F99BA9DC7413C3026E749CB4D59498164FCCD51A7E5C4B6D84BD136F5E5193089ECA5A465CF1C0E4A25D3E308A9F401292BD6
311
C711388FB15301CC1D3A54DBAADA29E38991B8E0254336F5092D4C038BF39CD76B6FC6A538AEBEA54A4B08617006389FA516557DE4AE8E7E70DE30729138228C5F021CD93F02D4FB0DCD0B504B0304140006080800D881304A3DEE336E64000000790000001B0000006175746F6465736B2D64657369676E2D7061636B6167
311
652E786D6C35CBC10E83200C00D05F21DCA56CA76D41FC96062B120735B69A7DBE268BB7777961F8D5AF396893C2ADB70FE7ADA196782C2DF776D7A97B5933C430F15651E5469C55D70F80A4992A3ADC954792C525AE70A1E4D6AD9816CC044FEFDF01FE3FDE907802504B0304140006080800D881304AB9BA5664F8000000
311
960100003700000037323144303939442D434234392D343446332D384432312D3545363833353741373143382F4173736574446174612F636F72652E786D6C8550CB6E833010FC15B47703069742641C8168BEA0A7DE2CE3102BC1467E54FDFCDA814AEDA9A75DCDCECCEE0E3D7FAD8FEC535AA78CEE01E72564520B332BBD
311
F410FC15B5909D19B5C6F85F34C8345F650F090646176BC27640C2682F7542B599E50172E7A4874C3C62D3831337B9F29C071F19EE9E6F5CDCF922739CEF3C464350F3215573745357252DB0667A6BAB11576828BB09113212348C438D4A32D42D79E92E9776A4451233EAD5FAB35D58C9BD9C8155257E452546B879C7CD09
311
9313E93E6891988C3A6FE3CFC7D2F41DB0215D3D71CF69B14FFFB8866DFEDF3528EDEBEA70DD150E188E473E078C1629A5589E11C69A1265DF504B0304140006080800D881304AC718B74AF7000000940100003500000037323144303939442D434234392D343446332D384432312D3545363833353741373143382F536368
311
656D61732F636F72652E786D6C8550CB6E833010FC15B47703069742641C81D2FC407BEACD320EB5126CE447D5CFAF0D546A4F3DED6A76667677E8F96B79649FD23A65740F382F21935A9849E9B987E06FA885ECCCA835C6FFA241A6F9227B4830303A5B13D60312467BA913AACD240F903B273D64E2119B1E9CF8900BCF79
311
F091E1EEF9CAC59DCF32C7F9CE633404351D523545377553D2026B2E2F6D35E20A0D657741848C040DE350A3920C754B9EBAEBB51D6991C48C7AB5FC6C1756722F276055899F5189116EDE7073C2E444BA775A2426A3CEDBF8F3B1347D07EC75BBD3D1629FFDF10CEBF4BF6750DAD7D5E1B92B1C301C4FDC068C1629A358B6
311
00634D79B26F504B0304140006080800D881304A071424CA01010000D70100002D00000037323144303939442D434234392D343446332D384432312D3545363833353741373143382F636F72652E786D6C95914D52C4201085AF42F59E24E43F5384299DD113B87287A1275233815400CBE34B4C2C75A72BA8C7F7BA79DDFC
311
F83EDDC81B2E4E5BD3034B32206806ABB4197B08FE425B2047C1176BFD0F0C889113F6B0CA20F8B8D830EFD2608D47B3AAC62ADC45E91C7A20C32D5E7A70C32B4E3291C147C25D93590E573962C2928D13DCEBE9CB3A2C283D2A1079C61A9A31CAEA27561F587928BB679EAEA4E0411B5FE47B339C5E50113BFB180944C5D3
311
ED355241AB9DD12AFE515F342E209A9C9DB3AE3BD3D37DD9D1B27C2C687BCE19AD1EEAB6A89ABB869DDA58249A05777E8993D98BAC33F8AB7D33FE4A1666F5CF649BC38160DFA1D275CC82A79F3B88E7BA12F101504B0304140006080800D881304A920173A607010000B201000008000000636F72652E786D6C8D50C16E84
311
2014FC15F2EEA828B5EE06D968B6FB053DF54685B564158CE0A6FDFBC24A93F6D6D32333F3DE0CC34E9FF384EE6A75DA9A164856005266B0529BB185CD5F7103E8C4D96AADFF250364C4AC5A88307036AE765B123458E39589A8B152255038A73CA0610A8F16DCF0A1669189CD0785BB658B186E625419C9761D675ECF3FAB
311
C3AA845712785990675C104CEA57521F093DD2C31BCBA392B36DD332596919DCF555AB15787D7E69CA9E94B82B0E674C694F71D777152E685735F4E970B9343DCBE33267CEAFE1CFE948C8E99113F7E8CBF29DE2ECDDDA2909422889AC99BE80172C8FC49FD0DB22FF115A1B5F95E9E0BEE1809310E84104E3D860188F7AC3
311
8C6DF36F504B01021400140006080800D881304AED268957DB000000200100004F000000000000000000000000000000000037323144303939442D434234392D343446332D384432312D3545363833353741373143382F4173736574446174612F446566696E6974696F6E4974657261746F7250726F706572746965732E62
311
696E504B01021400140006080800D881304A0B0FF2F3F00000003002000045000000000000000000000000004801000037323144303939442D434234392D343446332D384432312D3545363833353741373143382F4173736574446174612F496E7374616E636550726F706572746965732E62696E504B0102140014000608
311
0800D881304A28BB58AF800100009E0500003D000000000000000000000000009B02000037323144303939442D434234392D343446332D384432312D3545363833353741373143382F536368656D61732F436F6D6D6F6E536368656D612E786D6C504B01021400140006080800D881304A2CCEBD668A040000E01200003E00
311
0000000000000000000000007604000037323144303939442D434234392D343446332D384432312D3545363833353741373143382F536368656D61732F47656E65726963536368656D612E786D6C504B01021400140006080800D881304A6180134D5F0100006B03000045000000000000000000000000005C090000373231
311
44303939442D434234392D343446332D384432312D3545363833353741373143382F536368656D61732F52656E6465724D6174657269616C536368656D612E786D6C504B01021400140006080800D881304A3D05479F510000005700000047000000000000000000000000001E0B000037323144303939442D434234392D34
311
3446332D384432312D3545363833353741373143382F4173736574446174612F41737365745461626C654F66436F6E74656E74732E62696E504B01021400140006080800D881304AF865834058000000680000004500000000000000000000000000D40B000037323144303939442D434234392D343446332D384432312D35
311
45363833353741373143382F4173736574446174612F53747265616D56657273696F6E5461626C652E696E66504B01021400140006080800D881304AF20E870C350100009A04000036000000000000000000000000008F0C000037323144303939442D434234392D343446332D384432312D3545363833353741373143382F
311
4173736574446174612F636E782E786D6C504B01021400140006080800D881304A950470F0080100004F0300003400000000000000000000000000180E000037323144303939442D434234392D343446332D384432312D3545363833353741373143382F536368656D61732F636E782E786D6C504B01021400140006080800
311
D881304A410A3D5871000000A40000002C00000000000000000000000000720F000037323144303939442D434234392D343446332D384432312D3545363833353741373143382F636E782E786D6C504B01021400140006080800D881304A2A975D297F000000A300000007000000000000000000000000002D100000636E78
311
2E786D6C504B01021400140006080800D881304A16E99B5DA6000000350100001300000000000000000000000000D11000005B436F6E74656E745F54797065735D2E786D6C504B01021400140006080800D881304A3DEE336E64000000790000001B00000000000000000000000000A81100006175746F6465736B2D646573
311
69676E2D7061636B6167652E786D6C504B01021400140006080800D881304AB9BA5664F80000009601000037000000000000000000000000004512000037323144303939442D434234392D343446332D384432312D3545363833353741373143382F4173736574446174612F636F72652E786D6C504B010214001400060808
311
00D881304AC718B74AF70000009401000035000000000000000000000000009213000037323144303939442D434234392D343446332D384432312D3545363833353741373143382F536368656D61732F636F72652E786D6C504B01021400140006080800D881304A071424CA01010000D70100002D00000000000000000000
311
000000DC14000037323144303939442D434234392D343446332D384432312D3545363833353741373143382F636F72652E786D6C504B01021400140006080800D881304A920173A607010000B2010000080000000000000000000000000028160000636F72652E786D6C504B050600000000110011005A0600005517000000
311
00
310
504B0304140006080800D881304A000000000000000000000000370000006662782F32314343393845462D314433462D343634392D393941372D4444443042423635343646352F617474726962757465732E62696E504B0304140006080800D881304A000000000000000000000000350000006662782F3231434339384546
310
2D314433462D343634392D393941372D4444443042423635343646352F76657274696365732E62696E504B0304140006080800D881304AF270F1330600000004000000360000006662782F32314343393845462D314433462D343634392D393941372D4444443042423635343646352F747269616E676C65732E62696E6366
310
60600000504B0304140006080800D881304A51464CB48900000043010000360000006662782F32314343393845462D314433462D343634392D393941372D4444443042423635343646352F6469726563746F72792E786D6C9D8F310EC2300C45AF127987122606C71DD918B841D4B851A43646695A717C52A85029031293A5
310
A76FBF6FACEF7DA7264E43906840EF0FA03836E242F406C6DCEE4EA06AC22492573150D1F66C60C640E8938CB705396EEDD86DE9B5042FE27813D640EA63BB001C722AF6E55CB61E4863F58284D5D3F53DD715CE1C3985E63FD7F1B7EBDD617E9F1E504B0304140006080800D881304A2B9D858B2E0700001A1C0000340000
310
006662782F32314343393845462D314433462D343634392D393941372D4444443042423635343646352F6F626A656374732E786D6CDD59DB6EDB3810FD1542FB2CC9F22D7661BB882F298C226D51A38B7D13689952B8D10DA494CB7EFD0E29529664D956B22D506C02240E430D67CECC9C198E661F5FA2103D11C66912CF0D
310
C7EA1988C45E72A0713037F2CC372706FAB84033962459659F81621C91B921968DC52C60499EAAA503F1711E3657EF967F21EE919818C80B31E773837B0F24C216CEB3E440F8A375C019B602FFC572AC62635D6CC070FAD0382AC58CC419A80AEB3148511A38F53FC1247B31B3C586DAB67EB76D830BDB6C69785D511AF30C
310
C7DE89560D39FD6E5A0D9CE17AD31F4DCDD170383087E3BE632EEF966BD3B919F456E3D56A7ABB991A6831DB2749583A2025F101BCF86A2C9C992DFE539AAF5068D3DB4BE298780ACDB60D07A2E452C29B98D48075A469158714B65616061D8D3FB3AD132835956A686BE3F4EF6AF426FBBF0104DE254A192722CA79C6C0D7
310
0AFB221F7A33BB58ADF9857214E18C308A4314D23DC30C1C045B0B07D5C4886C11A290C04C7A51CBABEA0A817D3D97DAB4F4F33014F96B2C64A6B9908F24E35233FA0F6147EDABA7814E606D4EE36CA28CCD5E5310319DD972B1F8DFA0AFFE590089FC1007102D60A6D834E837F05A092ED8AE8DC5E7BBFDCB4EF043FBE129
310
4B52C2321179329955DE690F56420B82AF032805AE75DF1D51F90ED07F01E44B5DD00C3CC7E8CBF065A86D6738E67EC222F00EEA21B3073F7A487C3CF934B3CB871708D5B8F21CA690B63F09D39A19B5B32B902E664F10F4091B28E3761E0E21A6EF692CF21C020585092C01DFFBFB1763B105328545780A87603D7CCF6CF1
310
11C1AF420EF04DC3436DF4DBC1513A619A7976F4D527881946BDD255351BCFE13BFA29F8DEAE779F7739F3B147EE5562AF894F639A41316D57A8067A2DE57F6CBFC88C3CB1A7B6CB8373824410478B5F76CA2F483A06541175B8708D5CB9A790EE61886392E45CADB7119597840973F7AF6E91C3AD67FDA983A0380CF25B44
310
402B994175F7184D0528C642995732A175C449F0A00AC0A070AABBC7DEA380D7F580B1DEA307442D664DA17994BA384AF258D0F76978374DB3063DF9E538D37E6FDA9F4CC7DA582EC5EBECD1D4502A2FCE89707AE69055CD5B8A35B4E4228F86C0966D1678D033E5999BA4D8A3597B2C348C50190A605F54F9407D3FE740EA
310
ADB03434B606CE08F52A3FCB432E6BAF0E71698403E2FA5854B8D6F36A0095C2B505ADC80461C2398D09971DCA09733550E959400445DC6AA92D4148B91B910CBF27FE64C96B841F237EE8422F95896EF67AF4690555F53C2751746E49EC4AFB5F5D8EA3342CBAB46B1838FDC609ADB80AA5C5114F106F2ECEDCDE81C8A6FB
310
9AF4921734BE9DA44FDF2DFE0C3C0CFF7278F411145A6FA891D73DEB5823672ABE26402AE39133B8D18EB886953E2A133D489843D7E4BDBACF84060FDD08ADD3399C84BE4BC3308FDCA21E642482160C6739EB94AFE351EFC4F98A171A095139C9A72134C89D4953F61EBAFB00AB64F3718E342BC7805134863B5A27434EAC
310
680D61E90B791F15D7AEEBDE7FBBD4FFCC97D57BCA23797D4ED8A155D37A1BA13B30DD3008BA5415AE8C23297931AB265F242F2ED771186A218ADF8A5B828A10469EA8184CC81B50EBFD813FE3CC0322DDC9DFE61232E2400EC79EA2264E8D398C051CAAA5E93EB57AD301B213E5A3D6786D05A146306DC08267EFC587F03B
310
065743E7C76DD5D5D8C5FA5614360B062B473D2EC8FAFA69D790022B9D9FFE263022CF0D096A75251AB90BA27E6C8FFD6A4382B2E8C7F6C2E3D9431EED634C45651461810FE9878FF22E39B7E1A2602F37ABE5DDDA599BD3F174650E6F0637E67232999AEBCDED6634DE0C969BC9ADCD084F72E6116EF7ED9EAB7BA7340E74
310
6014D075B951C054E1FAD54FC773D3C1FFE31B4598ECF1B958FC5D2F1465BB271AB2462E76BD50B412F5FE6DDDBF7342D4ED45EC4D9D73312BD0017EB96C0119E97ADFBDB5D0A27527D1AE73A522BEB1F09EBDADFCF21A5323F4D6FA50DBD146F9752E86D9534B95D2B75BC96BA3C966B35E6E04710D27E6B03759994B673A
310
361D60B3F17AB95ADDF50725E2AA1676AD2BBF05876A652B63349806F324A4309427071490046E403075E8C0AF2C225CDE6CA00150655CBF11E8F0F4533153CDF03ED44F7B0F1806D3A1AAC8B9074351B875CC0DB58EFE8031A89844CAE194F508854745BB817246E706844046A1BE587B1867C9E1A194DE185782DB701C88
310
3B53F154F9F7F131810EC4CAD1AE724F175C9465B5E884E1402ADF1300DBE986E4FDA66B7510CEE0E33ECF4A638E0B476B1408FA8540611C4CFD1E15BC2F403C97ED722CB9A70649A7C9FCC53828A49A1966811CAF57F0BE5D7FB3C5647CFB15A5611E08775EAAF73549A6E833C2BC1842CD203094992916F7F0D507FB1B4B
310
E0155384EE280481BD4AA22889D51FB7EA1515DA3DC00BA783AD877DD0B2F49C912D3B1E35D087891527163EF0475800A7322AA6A205B835D797C45471BDF685F0023C56DBBF5D2345FF95E6B5DAB40A60E4341F410A89B7382261AA1B2AA347C802D0AA98D0961FF4C2CC6630FE5EFC0B504B0304140006080800D881304A
310
FFCBDF793E01000046050000300000006662782F32314343393845462D314433462D343634392D393941372D4444443042423635343646352F636E782E786D6CCD94C14E032110865F65C37D61314DD586A589079FC083F1C6B2D315CBC2060663DF5EA8DBAA31351E9AD81B19FE49FE6FE6CF88F5DB68AB5708D178D7124E
310
1B5281D3BE376E6849C24D7D43AAB514C17BFC2223955323B4A494891443F0699A4B3D6C54B2A56A8DDBCE4585184C971022A9B45531B624EA67181555097D0F714B7B858A721A20FA1434E47E3423CCFD3A8042E889BC6AF875DDF09A2F1FF872C517ABC5ED9360452945E7BD9DF5C621043F55DAE787CB661AC1CAB71429
310
9859530888FC74463BE304CBFF52C4ECD60DB30E7753D14D93355A611E13F31A01EB2C02350AF621968215DE6FD4F7778F0707556F0268F461F74F03E0A7067034467312FEC6BF17FE8EEDBB978CFB5FDB3E093BDB3A1BEA21AD31C7F5E7FE738A941BECE585FE68ECFC99CFA7048DBE3CE483AF3311B3FDC9CB4B2F1750BE
310
03504B0304140006080800D881304AB8C5BCA47F000000A30000000B0000006662782F636E782E786D6C4D8CD10E822018465F85FDF79414926C804B89F77089CE85D0485A8F1F342FBAFAB6B3EF1CD17E5687DE36BE96E025904305C8FA7B18173F4B48DB841B40AD123184EDEF06C80FAB9550302831C7909E3B1AED3424
310
57A85BFC638727D2F7BCB9194CF4D960CA28C79C5F2F586B5D751DAB293375368E45C9F3EBE52D79F505504B0304140006080800D881304AA6D797065F0000008200000007000000636E782E786D6C4DCB3B0E80201045D1AD90E9FD7516806B51190811670C8A61F982B1B0BAC9C97B72CA7B1037C6D3332918DA1E04D2CA
310
C69353902EDB8C20262D23F3F59B81A079470595414B17391D1F19B4730A5583A7ED43BBE4025D9592775E5ADFFA01504B0304140006080800D881304A4FEB6A7CA0000000F4000000130000005B436F6E74656E745F54797065735D2E786D6C7D8F4B0EC2300C44AF1279DFA6B0400835ED02B8011730C16D239A8F121795
310
DB93D02D6269CFBC19BBED573B8B17C564BC53B0AB1B10E4B47F18372A5878A88E20FAAEBDBD032591BD2E299898C349CAA427B2986A1FC86565F0D122E7318E32A07EE24872DF3407A9BD63725C71C980AEBDD080CBCCE2BAE6F5D69B7110E7CD57AA146008B3D1C8F92C5954F993BB1BF787F39A89ABC491D09600F9FDA2
310
FB00504B0304140006080800D881304A3DEE336E64000000790000001B0000006175746F6465736B2D64657369676E2D7061636B6167652E786D6C35CBC10E83200C00D05F21DCA56CA76D41FC96062B120735B69A7DBE268BB7777961F8D5AF396893C2ADB70FE7ADA196782C2DF776D7A97B5933C430F15651E5469C55D7
310
0F80A4992A3ADC954792C525AE70A1E4D6AD9816CC044FEFDF01FE3FDE907802504B0304140006080800D881304A9EABB112F7000000960100003B0000006662782F32314343393845462D314433462D343634392D393941372D4444443042423635343646352F7265736F75726365732F636F72652E786D6C8550CB6E8330
310
10FC15B477034B68029171D454E917F4D49B6536D44AB0911F553FBF76A0527BEA69ADD99959CFF0D3D77C2F3EC9796DCD0058D650905176D4661A20862BEBA03809EEAC0DBF68501839D3001906C12767E3B241CA9A4026A3C68EB481D27B0A50A87B7A0CE0D507CDB294312486BF958B5437395189E5CA133C463D6E523D
310
26377DD5E440605377D8D6C8FAFED2B2165F77AC7F3977EC099F0FE7EED2E1A1475E65B1E041CF3FD79523196804D1D47860498EFB37DC1FB13DB6FD3BAF3253701F5CCABC1DCDE94038F2363A459E57EBF68F6B5CC6FF5DA33661D76CAEABC2A71CE9938F85E0556E298D478569E646C537504B0304140006080800D88130
310
4A4BC70F84F3000000B1010000310000006662782F32314343393845462D314433462D343634392D393941372D4444443042423635343646352F636F72652E786D6C8D50CB6EC32010FC156BEF6093384E1C61A226AEBFA0A7DE10100725068B47D5CF2FC4AED4DE725A343BC3CC0E3D7D4F8FE24B39AFADE980E00A0A6584
310
95DA8C1DC4704507284E8C3A6BC31F1A14864FAA830C03A3A3B3715E21614D5026A3C64AB582DC7B15A0108FF4E8C08B9B9A38E6312486BFE3998B3B1F152678E1311AF4F42B154EF1A024B04D45F6A82288341FA43992FA58B79FB4CC4C4663D472B5D232B9EBAB562E49C8E5D21EDE0744FAED80EAA66E51DBBEED51DFF7
310
D5F9DCECEA66D8D1328B19F5C1A59BD74FF275AFCA17E1BFCC71962F64D6266C37ABE1A2F0C048CAF35C305AE602D378B69B662E9BFD00504B0304140006080800D881304AC91EB17252010000DD0200000C0000006662782F636F72652E786D6C8D52CB6E833010FC15E43B0F139A40641C3555FA053DF5E618875A011B19
310
1BE5F3BBE621CAA1698564ACD99DD99D91C9E9D136C1204C2FB52A118E121408C57525555D22676F618E821325466BFBA30D058AB5A2441E4694D446BB6E86B85656288F2A5D8919647D2F2C0A78039712F5FC4BB42C62CE42477F8F3AC6EFAC16118EA63E4A9C93D54C9515A8C99B1406519C2639CE121C16C5250B33FCBE
310
0B8BB7731EBEE0D7C339BFE4F85060127B322556B6CB746E04B3A242344DF021043ADE7FE0FD1167C7ACF824B1EFA4A4B7063CCF43BD3B446FD70789277CA3E7BAEA6F3D2795DDA5B3DEC4E8C101AC371628897D3EF01BC3DB660883213FCBAECD62E10ED020B8D526834AA5DD5A1A58E3044827C1F89178AA82F228F09B4E
310
FA44E7B90604C5540DAB310BD7ABB37EFA76A74E9870B08F4069D3B2665D6E5A713DD7411B4B0B9DEB469BFFB017AB4B98B17F98F41B504B0304140006080800D881304A50F25B2A05010000B201000008000000636F72652E786D6C8D50C96EC32010FD15C4DDCB386E8C234CD454E917F4D41B35C441B1C16289DABF2FC4
310
546A6F3D0D7ACBBCC7D0E3E732A3BBB44E193D60286B8CA41E8D507A1A70F09782607464D41AE37FC930D27C91034E306674B226AC191A8DF65227541B2133C89D931EA3718E8F01BBF12A175EF2E0A3C2DDCA958F373EC912CA4DC7A857CB8F75B4927B29306B6AE88A1A0AD8BFC1FE00EDA125EFB44A4A46435022472911
310
D3D545498B19343581367AFAFEDC162DBCEE8AFEE5448A2778EE4EE44CA0EB8156C9CCA8F336FE392F893D3D72FC9E7269B5518C7E183367412C2590D1F3176635AD12F1A77458C53F4A2BED774D5EB8395CEC1C0B3D88189C2E18C7E3BC71A66BB36F504B01021400140006080800D881304A000000000000000000000000
310
3700000000000000000000000000000000006662782F32314343393845462D314433462D343634392D393941372D4444443042423635343646352F617474726962757465732E62696E504B01021400140006080800D881304A0000000000000000000000003500000000000000000000000000550000006662782F32314343
310
393845462D314433462D343634392D393941372D4444443042423635343646352F76657274696365732E62696E504B01021400140006080800D881304AF270F13306000000040000003600000000000000000000000000A80000006662782F32314343393845462D314433462D343634392D393941372D4444443042423635
310
343646352F747269616E676C65732E62696E504B01021400140006080800D881304A51464CB489000000430100003600000000000000000000000000020100006662782F32314343393845462D314433462D343634392D393941372D4444443042423635343646352F6469726563746F72792E786D6C504B01021400140006
310
080800D881304A2B9D858B2E0700001A1C00003400000000000000000000000000DF0100006662782F32314343393845462D314433462D343634392D393941372D4444443042423635343646352F6F626A656374732E786D6C504B01021400140006080800D881304AFFCBDF793E0100004605000030000000000000000000
310
000000005F0900006662782F32314343393845462D314433462D343634392D393941372D4444443042423635343646352F636E782E786D6C504B01021400140006080800D881304AB8C5BCA47F000000A30000000B00000000000000000000000000EB0A00006662782F636E782E786D6C504B01021400140006080800D881
310
304AA6D797065F000000820000000700000000000000000000000000930B0000636E782E786D6C504B01021400140006080800D881304A4FEB6A7CA0000000F40000001300000000000000000000000000170C00005B436F6E74656E745F54797065735D2E786D6C504B01021400140006080800D881304A3DEE336E640000
310
00790000001B00000000000000000000000000E80C00006175746F6465736B2D64657369676E2D7061636B6167652E786D6C504B01021400140006080800D881304A9EABB112F7000000960100003B00000000000000000000000000850D00006662782F32314343393845462D314433462D343634392D393941372D444444
310
3042423635343646352F7265736F75726365732F636F72652E786D6C504B01021400140006080800D881304A4BC70F84F3000000B10100003100000000000000000000000000D50E00006662782F32314343393845462D314433462D343634392D393941372D4444443042423635343646352F636F72652E786D6C504B0102
310
1400140006080800D881304AC91EB17252010000DD0200000C00000000000000000000000000171000006662782F636F72652E786D6C504B01021400140006080800D881304A50F25B2A05010000B2010000080000000000000000000000000093110000636F72652E786D6C504B0506000000000E000E0080040000BE1200
310
000000
  0
XRECORD
  5
9183
102
{ACAD_REACTORS
330
917E
102
}
330
917E
100
AcDbXrecord
280
     1
270
     1
271
     1
  0
XRECORD
  5
9182
102
{ACAD_REACTORS
330
917E
102
}
330
917E
100
AcDbXrecord
280
     1
270
     1
271
     1
  0
XRECORD
  5
9184
102
{ACAD_REACTORS
330
917E
102
}
330
917E
100
AcDbXrecord
280
     1
270
     1
271
     1
  0
XRECORD
  5
9181
102
{ACAD_REACTORS
330
917E
102
}
330
917E
100
AcDbXrecord
280
     1
270
     1
271
     1
  0
XRECORD
  5
9332
102
{ACAD_REACTORS
330
9331
102
}
330
9331
100
AcDbXrecord
280
     1
102
ACAD_ROUNDTRIP_2012_MLEADER_STYLE
298
     1
  0
XRECORD
  5
9333
102
{ACAD_REACTORS
330
9294
102
}
330
9294
100
AcDbXrecord
280
     1
102
DISPLAYNAME
  1
Metric50
102
FLAGS
 90
        0
  0
CELLSTYLEMAP
  5
92ED
102
{ACAD_REACTORS
330
92EC
102
}
330
92EC
100
AcDbCellStyleMap
 90
        3
300
CELLSTYLE
  1
TABLEFORMAT_BEGIN
 90
        5
170
     1
 91
        0
 92
    32768
 62
   257
 93
        1
300
CONTENTFORMAT
  1
CONTENTFORMAT_BEGIN
 90
        0
 91
        0
 92
      512
 93
        0
300

 40
0.0
140
1.0
 94
        5
 62
     0
340
10
144
6.0
309
CONTENTFORMAT_END
171
     1
301
MARGIN
  1
CELLMARGIN_BEGIN
 40
1.5
 40
1.5
 40
1.5
 40
1.5
 40
4.5
 40
4.5
309
CELLMARGIN_END
 94
        6
 95
        1
302
GRIDFORMAT
  1
GRIDFORMAT_BEGIN
 90
        0
 91
        1
 62
     0
 92
       -2
340
0
 93
        0
 40
1.125
309
GRIDFORMAT_END
 95
        2
302
GRIDFORMAT
  1
GRIDFORMAT_BEGIN
 90
        0
 91
        1
 62
     0
 92
       -2
340
0
 93
        0
 40
1.125
309
GRIDFORMAT_END
 95
        4
302
GRIDFORMAT
  1
GRIDFORMAT_BEGIN
 90
        0
 91
        1
 62
     0
 92
       -2
340
0
 93
        0
 40
1.125
309
GRIDFORMAT_END
 95
        8
302
GRIDFORMAT
  1
GRIDFORMAT_BEGIN
 90
        0
 91
        1
 62
     0
 92
       -2
340
0
 93
        0
 40
1.125
309
GRIDFORMAT_END
 95
       16
302
GRIDFORMAT
  1
GRIDFORMAT_BEGIN
 90
        0
 91
        1
 62
     0
 92
       -2
340
0
 93
        0
 40
1.125
309
GRIDFORMAT_END
 95
       32
302
GRIDFORMAT
  1
GRIDFORMAT_BEGIN
 90
        0
 91
        1
 62
     0
 92
       -2
340
0
 93
        0
 40
1.125
309
GRIDFORMAT_END
309
TABLEFORMAT_END
  1
CELLSTYLE_BEGIN
 90
        1
 91
        1
300
_TITLE
309
CELLSTYLE_END
300
CELLSTYLE
  1
TABLEFORMAT_BEGIN
 90
        5
170
     1
 91
        0
 92
        0
 62
   257
 93
        1
300
CONTENTFORMAT
  1
CONTENTFORMAT_BEGIN
 90
        0
 91
        0
 92
      512
 93
        0
300

 40
0.0
140
1.0
 94
        5
 62
     0
340
10
144
4.5
309
CONTENTFORMAT_END
171
     1
301
MARGIN
  1
CELLMARGIN_BEGIN
 40
1.5
 40
1.5
 40
1.5
 40
1.5
 40
4.5
 40
4.5
309
CELLMARGIN_END
 94
        6
 95
        1
302
GRIDFORMAT
  1
GRIDFORMAT_BEGIN
 90
        0
 91
        1
 62
     0
 92
       -2
340
0
 93
        0
 40
1.125
309
GRIDFORMAT_END
 95
        2
302
GRIDFORMAT
  1
GRIDFORMAT_BEGIN
 90
        0
 91
        1
 62
     0
 92
       -2
340
0
 93
        0
 40
1.125
309
GRIDFORMAT_END
 95
        4
302
GRIDFORMAT
  1
GRIDFORMAT_BEGIN
 90
        0
 91
        1
 62
     0
 92
       -2
340
0
 93
        0
 40
1.125
309
GRIDFORMAT_END
 95
        8
302
GRIDFORMAT
  1
GRIDFORMAT_BEGIN
 90
        0
 91
        1
 62
     0
 92
       -2
340
0
 93
        0
 40
1.125
309
GRIDFORMAT_END
 95
       16
302
GRIDFORMAT
  1
GRIDFORMAT_BEGIN
 90
        0
 91
        1
 62
     0
 92
       -2
340
0
 93
        0
 40
1.125
309
GRIDFORMAT_END
 95
       32
302
GRIDFORMAT
  1
GRIDFORMAT_BEGIN
 90
        0
 91
        1
 62
     0
 92
       -2
340
0
 93
        0
 40
1.125
309
GRIDFORMAT_END
309
TABLEFORMAT_END
  1
CELLSTYLE_BEGIN
 90
        2
 91
        1
300
_HEADER
309
CELLSTYLE_END
300
CELLSTYLE
  1
TABLEFORMAT_BEGIN
 90
        5
170
     1
 91
        0
 92
        0
 62
   257
 93
        1
300
CONTENTFORMAT
  1
CONTENTFORMAT_BEGIN
 90
        0
 91
        0
 92
      512
 93
        0
300

 40
0.0
140
1.0
 94
        2
 62
     0
340
10
144
4.5
309
CONTENTFORMAT_END
171
     1
301
MARGIN
  1
CELLMARGIN_BEGIN
 40
1.5
 40
1.5
 40
1.5
 40
1.5
 40
4.5
 40
4.5
309
CELLMARGIN_END
 94
        6
 95
        1
302
GRIDFORMAT
  1
GRIDFORMAT_BEGIN
 90
        0
 91
        1
 62
     0
 92
       -2
340
0
 93
        0
 40
1.125
309
GRIDFORMAT_END
 95
        2
302
GRIDFORMAT
  1
GRIDFORMAT_BEGIN
 90
        0
 91
        1
 62
     0
 92
       -2
340
0
 93
        0
 40
1.125
309
GRIDFORMAT_END
 95
        4
302
GRIDFORMAT
  1
GRIDFORMAT_BEGIN
 90
        0
 91
        1
 62
     0
 92
       -2
340
0
 93
        0
 40
1.125
309
GRIDFORMAT_END
 95
        8
302
GRIDFORMAT
  1
GRIDFORMAT_BEGIN
 90
        0
 91
        1
 62
     0
 92
       -2
340
0
 93
        0
 40
1.125
309
GRIDFORMAT_END
 95
       16
302
GRIDFORMAT
  1
GRIDFORMAT_BEGIN
 90
        0
 91
        1
 62
     0
 92
       -2
340
0
 93
        0
 40
1.125
309
GRIDFORMAT_END
 95
       32
302
GRIDFORMAT
  1
GRIDFORMAT_BEGIN
 90
        0
 91
        1
 62
     0
 92
       -2
340
0
 93
        0
 40
1.125
309
GRIDFORMAT_END
309
TABLEFORMAT_END
  1
CELLSTYLE_BEGIN
 90
        3
 91
        2
300
_DATA
309
CELLSTYLE_END
  0
XRECORD
  5
932F
102
{ACAD_REACTORS
330
92EC
102
}
330
92EC
100
AcDbXrecord
280
     1
102
ACAD_ROUNDTRIP_PRE2007_TABLESTYLE
 90
      512
 91
        0
  1

 92
      512
 93
        0
  2

 94
      512
 95
        0
  3

  0
XRECORD
  5
930A
102
{ACAD_REACTORS
330
9309
102
}
330
9309
100
AcDbXrecord
280
     1
102
RTVSPost2010Prop28
280
     1
102
RTVSPost2010PropOp28
 70
     1
102
RTVSPost2010Prop29
280
     1
102
RTVSPost2010PropOp29
 70
     1
102
RTVSPost2010Prop30
280
     0
102
RTVSPost2010PropOp30
 70
     1
102
RTVSPost2010Prop31
280
     0
102
RTVSPost2010PropOp31
 70
     1
102
RTVSPost2010Prop32
280
     0
102
RTVSPost2010PropOp32
 70
     1
102
RTVSPost2010Prop33
280
     0
102
RTVSPost2010PropOp33
 70
     1
102
RTVSPost2010Prop34
280
     0
102
RTVSPost2010PropOp34
 70
     1
102
RTVSPost2010Prop35
280
     0
102
RTVSPost2010PropOp35
 70
     1
102
RTVSPost2010Prop36
280
     0
102
RTVSPost2010PropOp36
 70
     1
102
RTVSPost2010Prop37
 90
       50
102
RTVSPost2010PropOp37
 70
     1
102
RTVSPost2010Prop38
140
0.0
102
RTVSPost2010PropOp38
 70
     1
102
RTVSPost2010Prop39
140
1.0
102
RTVSPost2010PropOp39
 70
     1
102
RTVSPost2010Prop40
 90
        0
102
RTVSPost2010PropOp40
 70
     1
102
RTVSPost2010Prop41ColorIndex
 90
       18
102
RTVSPost2010Prop41ColorRGB
 90
        0
102
RTVSPost2010PropOp41
 70
     1
102
RTVSPost2010Prop42
 90
       50
102
RTVSPost2010PropOp42
 70
     1
102
RTVSPost2010Prop43
 90
        3
102
RTVSPost2010PropOp43
 70
     1
102
RTVSPost2010Prop44ColorIndex
 90
        5
102
RTVSPost2010Prop44ColorRGB
 90
      255
102
RTVSPost2010PropOp44
 70
     1
102
RTVSPost2010Prop45
280
     0
102
RTVSPost2010PropOp45
 70
     1
102
RTVSPost2010Prop46
 90
       50
102
RTVSPost2010PropOp46
 70
     1
102
RTVSPost2010Prop47
 90
       50
102
RTVSPost2010PropOp47
 70
     1
102
RTVSPost2010Prop48
 90
       50
102
RTVSPost2010PropOp48
 70
     1
102
RTVSPost2010Prop49
280
     0
102
RTVSPost2010PropOp49
 70
     1
102
RTVSPost2010Prop50
 90
       50
102
RTVSPost2010PropOp50
 70
     1
102
RTVSPost2010Prop51ColorIndex
 90
      256
102
RTVSPost2010Prop51ColorRGB
 90
-16777216
102
RTVSPost2010PropOp51
 70
     0
102
RTVSPost2010Prop52
140
1.0
102
RTVSPost2010PropOp52
 70
     0
102
RTVSPost2010Prop53
 90
        2
102
RTVSPost2010PropOp53
 70
     1
102
RTVSPost2010Prop54
  1
strokes_ogs.tif
102
RTVSPost2010PropOp54
 70
     1
102
RTVSPost2010Prop55
280
     0
102
RTVSPost2010PropOp55
 70
     1
102
RTVSPost2010Prop56
140
1.0
102
RTVSPost2010PropOp56
 70
     1
102
RTVSPost2010Prop57
140
1.0
102
RTVSPost2010PropOp57
 70
     1
102
RTVSPropertyOp0
 70
     1
102
RTVSPropertyOp1
 70
     1
102
RTVSPropertyOp2
 70
     1
102
RTVSPropertyOp3
 70
     1
102
RTVSPropertyOp4
 70
     1
102
RTVSPropertyOp5
 70
     1
102
RTVSPropertyOp6
 70
     1
102
RTVSPropertyOp7
 70
     1
102
RTVSPropertyOp8
 70
     1
102
RTVSPropertyOp9
 70
     1
102
RTVSPropertyOp10
 70
     1
102
RTVSPropertyOp11
 70
     1
102
RTVSPropertyOp12
 70
     1
102
RTVSPropertyOp13
 70
     1
102
RTVSPropertyOp14
 70
     1
102
RTVSPropertyOp15
 70
     1
102
RTVSPropertyOp16
 70
     1
102
RTVSPropertyOp17
 70
     1
102
RTVSPropertyOp18
 70
     1
102
RTVSPropertyOp19
 70
     1
102
RTVSPropertyOp20
 70
     1
102
RTVSPropertyOp21
 70
     1
102
RTVSPropertyOp22
 70
     1
102
RTVSPropertyOp23
 70
     1
102
RTVSPropertyOp24
 70
     1
102
RTVSPropertyOp25
 70
     1
102
RTVSPropertyOp26
 70
     1
102
RTVSPropertyOp27
 70
     1
102
RTVSPropertyOp28
 70
     1
102
RTVSPropertyOp29
 70
     1
102
RTVSPropertyOp30
 70
     1
102
RTVSPropertyOp31
 70
     1
102
RTVSPropertyOp32
 70
     1
102
RTVSPropertyOp33
 70
     1
102
RTVSPropertyOp34
 70
     1
102
RTVSPropertyOp35
 70
     1
102
RTVSPropertyOp36
 70
     1
102
RTVSPropertyOp37
 70
     1
102
RTVSPropertyOp38
 70
     1
102
RTVSPropertyOp39
 70
     1
102
RTVSPropertyOp40
 70
     1
102
RTVSPropertyOp41
 70
     1
102
RTVSPropertyOp42
 70
     1
102
RTVSPropertyOp43
 70
     1
102
RTVSPropertyOp44
 70
     1
102
RTVSPropertyOp45
 70
     1
102
RTVSPropertyOp46
 70
     1
102
RTVSPropertyOp47
 70
     1
102
RTVSPropertyOp48
 70
     1
102
RTVSPropertyOp49
 70
     1
102
RTVSPropertyOp50
 70
     1
102
RTVSPropertyOp51
 70
     0
102
RTVSPropertyOp52
 70
     0
102
RTVSPropertyOp53
 70
     1
102
RTVSPropertyOp54
 70
     1
102
RTVSPropertyOp55
 70
     1
102
RTVSPropertyOp56
 70
     1
102
RTVSPropertyOp57
 70
     1
102
RTVSPropertyOp58
 70
     1
102
RTVSPropertyOp59
 70
     1
102
RTVSPropertyOp60
 70
     1
102
RTVSPropertyOp61
 70
     1
102
RTVSPropertyOp62
 70
     1
  0
XRECORD
  5
9308
102
{ACAD_REACTORS
330
9307
102
}
330
9307
100
AcDbXrecord
280
     1
102
RTVSPost2010Prop28
280
     0
102
RTVSPost2010PropOp28
 70
     1
102
RTVSPost2010Prop29
280
     1
102
RTVSPost2010PropOp29
 70
     1
102
RTVSPost2010Prop30
280
     1
102
RTVSPost2010PropOp30
 70
     1
102
RTVSPost2010Prop31
280
     0
102
RTVSPost2010PropOp31
 70
     1
102
RTVSPost2010Prop32
280
     0
102
RTVSPost2010PropOp32
 70
     1
102
RTVSPost2010Prop33
280
     0
102
RTVSPost2010PropOp33
 70
     1
102
RTVSPost2010Prop34
280
     0
102
RTVSPost2010PropOp34
 70
     1
102
RTVSPost2010Prop35
280
     0
102
RTVSPost2010PropOp35
 70
     1
102
RTVSPost2010Prop36
280
     0
102
RTVSPost2010PropOp36
 70
     1
102
RTVSPost2010Prop37
 90
       50
102
RTVSPost2010PropOp37
 70
     1
102
RTVSPost2010Prop38
140
0.0
102
RTVSPost2010PropOp38
 70
     1
102
RTVSPost2010Prop39
140
1.0
102
RTVSPost2010PropOp39
 70
     1
102
RTVSPost2010Prop40
 90
        0
102
RTVSPost2010PropOp40
 70
     1
102
RTVSPost2010Prop41ColorIndex
 90
       18
102
RTVSPost2010Prop41ColorRGB
 90
        0
102
RTVSPost2010PropOp41
 70
     1
102
RTVSPost2010Prop42
 90
       50
102
RTVSPost2010PropOp42
 70
     1
102
RTVSPost2010Prop43
 90
        3
102
RTVSPost2010PropOp43
 70
     1
102
RTVSPost2010Prop44ColorIndex
 90
        5
102
RTVSPost2010Prop44ColorRGB
 90
      255
102
RTVSPost2010PropOp44
 70
     1
102
RTVSPost2010Prop45
280
     0
102
RTVSPost2010PropOp45
 70
     1
102
RTVSPost2010Prop46
 90
       50
102
RTVSPost2010PropOp46
 70
     1
102
RTVSPost2010Prop47
 90
       50
102
RTVSPost2010PropOp47
 70
     1
102
RTVSPost2010Prop48
 90
       50
102
RTVSPost2010PropOp48
 70
     1
102
RTVSPost2010Prop49
280
     0
102
RTVSPost2010PropOp49
 70
     1
102
RTVSPost2010Prop50
 90
       50
102
RTVSPost2010PropOp50
 70
     1
102
RTVSPost2010Prop51ColorIndex
 90
      256
102
RTVSPost2010Prop51ColorRGB
 90
-16777216
102
RTVSPost2010PropOp51
 70
     0
102
RTVSPost2010Prop52
140
1.0
102
RTVSPost2010PropOp52
 70
     0
102
RTVSPost2010Prop53
 90
        2
102
RTVSPost2010PropOp53
 70
     1
102
RTVSPost2010Prop54
  1
strokes_ogs.tif
102
RTVSPost2010PropOp54
 70
     1
102
RTVSPost2010Prop55
280
     0
102
RTVSPost2010PropOp55
 70
     1
102
RTVSPost2010Prop56
140
1.0
102
RTVSPost2010PropOp56
 70
     1
102
RTVSPost2010Prop57
140
1.0
102
RTVSPost2010PropOp57
 70
     1
102
RTVSPropertyOp0
 70
     1
102
RTVSPropertyOp1
 70
     1
102
RTVSPropertyOp2
 70
     1
102
RTVSPropertyOp3
 70
     1
102
RTVSPropertyOp4
 70
     1
102
RTVSPropertyOp5
 70
     1
102
RTVSPropertyOp6
 70
     1
102
RTVSPropertyOp7
 70
     1
102
RTVSPropertyOp8
 70
     1
102
RTVSPropertyOp9
 70
     1
102
RTVSPropertyOp10
 70
     1
102
RTVSPropertyOp11
 70
     1
102
RTVSPropertyOp12
 70
     1
102
RTVSPropertyOp13
 70
     1
102
RTVSPropertyOp14
 70
     1
102
RTVSPropertyOp15
 70
     1
102
RTVSPropertyOp16
 70
     1
102
RTVSPropertyOp17
 70
     1
102
RTVSPropertyOp18
 70
     1
102
RTVSPropertyOp19
 70
     1
102
RTVSPropertyOp20
 70
     1
102
RTVSPropertyOp21
 70
     1
102
RTVSPropertyOp22
 70
     1
102
RTVSPropertyOp23
 70
     1
102
RTVSPropertyOp24
 70
     1
102
RTVSPropertyOp25
 70
     1
102
RTVSPropertyOp26
 70
     1
102
RTVSPropertyOp27
 70
     1
102
RTVSPropertyOp28
 70
     1
102
RTVSPropertyOp29
 70
     1
102
RTVSPropertyOp30
 70
     1
102
RTVSPropertyOp31
 70
     1
102
RTVSPropertyOp32
 70
     1
102
RTVSPropertyOp33
 70
     1
102
RTVSPropertyOp34
 70
     1
102
RTVSPropertyOp35
 70
     1
102
RTVSPropertyOp36
 70
     1
102
RTVSPropertyOp37
 70
     1
102
RTVSPropertyOp38
 70
     1
102
RTVSPropertyOp39
 70
     1
102
RTVSPropertyOp40
 70
     1
102
RTVSPropertyOp41
 70
     1
102
RTVSPropertyOp42
 70
     1
102
RTVSPropertyOp43
 70
     1
102
RTVSPropertyOp44
 70
     1
102
RTVSPropertyOp45
 70
     1
102
RTVSPropertyOp46
 70
     1
102
RTVSPropertyOp47
 70
     1
102
RTVSPropertyOp48
 70
     1
102
RTVSPropertyOp49
 70
     1
102
RTVSPropertyOp50
 70
     1
102
RTVSPropertyOp51
 70
     0
102
RTVSPropertyOp52
 70
     0
102
RTVSPropertyOp53
 70
     1
102
RTVSPropertyOp54
 70
     1
102
RTVSPropertyOp55
 70
     1
102
RTVSPropertyOp56
 70
     1
102
RTVSPropertyOp57
 70
     1
102
RTVSPropertyOp58
 70
     1
102
RTVSPropertyOp59
 70
     1
102
RTVSPropertyOp60
 70
     1
102
RTVSPropertyOp61
 70
     1
102
RTVSPropertyOp62
 70
     1
  0
XRECORD
  5
9316
102
{ACAD_REACTORS
330
9315
102
}
330
9315
100
AcDbXrecord
280
     1
102
RTVSPost2010Prop28
280
     0
102
RTVSPost2010PropOp28
 70
     1
102
RTVSPost2010Prop29
280
     1
102
RTVSPost2010PropOp29
 70
     1
102
RTVSPost2010Prop30
280
     1
102
RTVSPost2010PropOp30
 70
     1
102
RTVSPost2010Prop31
280
     0
102
RTVSPost2010PropOp31
 70
     1
102
RTVSPost2010Prop32
280
     0
102
RTVSPost2010PropOp32
 70
     1
102
RTVSPost2010Prop33
280
     0
102
RTVSPost2010PropOp33
 70
     1
102
RTVSPost2010Prop34
280
     0
102
RTVSPost2010PropOp34
 70
     1
102
RTVSPost2010Prop35
280
     0
102
RTVSPost2010PropOp35
 70
     1
102
RTVSPost2010Prop36
280
     0
102
RTVSPost2010PropOp36
 70
     1
102
RTVSPost2010Prop37
 90
       50
102
RTVSPost2010PropOp37
 70
     1
102
RTVSPost2010Prop38
140
0.0
102
RTVSPost2010PropOp38
 70
     1
102
RTVSPost2010Prop39
140
1.0
102
RTVSPost2010PropOp39
 70
     1
102
RTVSPost2010Prop40
 90
        0
102
RTVSPost2010PropOp40
 70
     1
102
RTVSPost2010Prop41ColorIndex
 90
       18
102
RTVSPost2010Prop41ColorRGB
 90
        0
102
RTVSPost2010PropOp41
 70
     1
102
RTVSPost2010Prop42
 90
       50
102
RTVSPost2010PropOp42
 70
     1
102
RTVSPost2010Prop43
 90
        3
102
RTVSPost2010PropOp43
 70
     1
102
RTVSPost2010Prop44ColorIndex
 90
        5
102
RTVSPost2010Prop44ColorRGB
 90
      255
102
RTVSPost2010PropOp44
 70
     1
102
RTVSPost2010Prop45
280
     0
102
RTVSPost2010PropOp45
 70
     1
102
RTVSPost2010Prop46
 90
       50
102
RTVSPost2010PropOp46
 70
     1
102
RTVSPost2010Prop47
 90
       50
102
RTVSPost2010PropOp47
 70
     1
102
RTVSPost2010Prop48
 90
       50
102
RTVSPost2010PropOp48
 70
     1
102
RTVSPost2010Prop49
280
     0
102
RTVSPost2010PropOp49
 70
     1
102
RTVSPost2010Prop50
 90
       50
102
RTVSPost2010PropOp50
 70
     1
102
RTVSPost2010Prop51ColorIndex
 90
      256
102
RTVSPost2010Prop51ColorRGB
 90
-16777216
102
RTVSPost2010PropOp51
 70
     0
102
RTVSPost2010Prop52
140
1.0
102
RTVSPost2010PropOp52
 70
     0
102
RTVSPost2010Prop53
 90
        2
102
RTVSPost2010PropOp53
 70
     1
102
RTVSPost2010Prop54
  1
strokes_ogs.tif
102
RTVSPost2010PropOp54
 70
     1
102
RTVSPost2010Prop55
280
     0
102
RTVSPost2010PropOp55
 70
     1
102
RTVSPost2010Prop56
140
1.0
102
RTVSPost2010PropOp56
 70
     1
102
RTVSPost2010Prop57
140
1.0
102
RTVSPost2010PropOp57
 70
     1
102
RTVSPropertyOp0
 70
     1
102
RTVSPropertyOp1
 70
     1
102
RTVSPropertyOp2
 70
     1
102
RTVSPropertyOp3
 70
     1
102
RTVSPropertyOp4
 70
     1
102
RTVSPropertyOp5
 70
     1
102
RTVSPropertyOp6
 70
     1
102
RTVSPropertyOp7
 70
     1
102
RTVSPropertyOp8
 70
     1
102
RTVSPropertyOp9
 70
     1
102
RTVSPropertyOp10
 70
     1
102
RTVSPropertyOp11
 70
     1
102
RTVSPropertyOp12
 70
     1
102
RTVSPropertyOp13
 70
     1
102
RTVSPropertyOp14
 70
     1
102
RTVSPropertyOp15
 70
     1
102
RTVSPropertyOp16
 70
     1
102
RTVSPropertyOp17
 70
     1
102
RTVSPropertyOp18
 70
     1
102
RTVSPropertyOp19
 70
     1
102
RTVSPropertyOp20
 70
     1
102
RTVSPropertyOp21
 70
     1
102
RTVSPropertyOp22
 70
     1
102
RTVSPropertyOp23
 70
     1
102
RTVSPropertyOp24
 70
     1
102
RTVSPropertyOp25
 70
     1
102
RTVSPropertyOp26
 70
     1
102
RTVSPropertyOp27
 70
     1
102
RTVSPropertyOp28
 70
     1
102
RTVSPropertyOp29
 70
     1
102
RTVSPropertyOp30
 70
     1
102
RTVSPropertyOp31
 70
     1
102
RTVSPropertyOp32
 70
     1
102
RTVSPropertyOp33
 70
     1
102
RTVSPropertyOp34
 70
     1
102
RTVSPropertyOp35
 70
     1
102
RTVSPropertyOp36
 70
     1
102
RTVSPropertyOp37
 70
     1
102
RTVSPropertyOp38
 70
     1
102
RTVSPropertyOp39
 70
     1
102
RTVSPropertyOp40
 70
     1
102
RTVSPropertyOp41
 70
     1
102
RTVSPropertyOp42
 70
     1
102
RTVSPropertyOp43
 70
     1
102
RTVSPropertyOp44
 70
     1
102
RTVSPropertyOp45
 70
     1
102
RTVSPropertyOp46
 70
     1
102
RTVSPropertyOp47
 70
     1
102
RTVSPropertyOp48
 70
     1
102
RTVSPropertyOp49
 70
     1
102
RTVSPropertyOp50
 70
     1
102
RTVSPropertyOp51
 70
     0
102
RTVSPropertyOp52
 70
     0
102
RTVSPropertyOp53
 70
     1
102
RTVSPropertyOp54
 70
     1
102
RTVSPropertyOp55
 70
     1
102
RTVSPropertyOp56
 70
     1
102
RTVSPropertyOp57
 70
     1
102
RTVSPropertyOp58
 70
     1
102
RTVSPropertyOp59
 70
     1
102
RTVSPropertyOp60
 70
     1
102
RTVSPropertyOp61
 70
     1
102
RTVSPropertyOp62
 70
     1
  0
XRECORD
  5
931E
102
{ACAD_REACTORS
330
931D
102
}
330
931D
100
AcDbXrecord
280
     1
102
RTVSPost2010Prop28
280
     0
102
RTVSPost2010PropOp28
 70
     1
102
RTVSPost2010Prop29
280
     1
102
RTVSPost2010PropOp29
 70
     1
102
RTVSPost2010Prop30
280
     1
102
RTVSPost2010PropOp30
 70
     1
102
RTVSPost2010Prop31
280
     0
102
RTVSPost2010PropOp31
 70
     1
102
RTVSPost2010Prop32
280
     0
102
RTVSPost2010PropOp32
 70
     1
102
RTVSPost2010Prop33
280
     0
102
RTVSPost2010PropOp33
 70
     1
102
RTVSPost2010Prop34
280
     0
102
RTVSPost2010PropOp34
 70
     1
102
RTVSPost2010Prop35
280
     0
102
RTVSPost2010PropOp35
 70
     1
102
RTVSPost2010Prop36
280
     0
102
RTVSPost2010PropOp36
 70
     1
102
RTVSPost2010Prop37
 90
       50
102
RTVSPost2010PropOp37
 70
     1
102
RTVSPost2010Prop38
140
0.0
102
RTVSPost2010PropOp38
 70
     1
102
RTVSPost2010Prop39
140
1.0
102
RTVSPost2010PropOp39
 70
     1
102
RTVSPost2010Prop40
 90
        0
102
RTVSPost2010PropOp40
 70
     1
102
RTVSPost2010Prop41ColorIndex
 90
       18
102
RTVSPost2010Prop41ColorRGB
 90
        0
102
RTVSPost2010PropOp41
 70
     1
102
RTVSPost2010Prop42
 90
       50
102
RTVSPost2010PropOp42
 70
     1
102
RTVSPost2010Prop43
 90
        3
102
RTVSPost2010PropOp43
 70
     1
102
RTVSPost2010Prop44ColorIndex
 90
        5
102
RTVSPost2010Prop44ColorRGB
 90
      255
102
RTVSPost2010PropOp44
 70
     1
102
RTVSPost2010Prop45
280
     0
102
RTVSPost2010PropOp45
 70
     1
102
RTVSPost2010Prop46
 90
       50
102
RTVSPost2010PropOp46
 70
     1
102
RTVSPost2010Prop47
 90
       50
102
RTVSPost2010PropOp47
 70
     1
102
RTVSPost2010Prop48
 90
       50
102
RTVSPost2010PropOp48
 70
     1
102
RTVSPost2010Prop49
280
     0
102
RTVSPost2010PropOp49
 70
     1
102
RTVSPost2010Prop50
 90
       50
102
RTVSPost2010PropOp50
 70
     1
102
RTVSPost2010Prop51ColorIndex
 90
      256
102
RTVSPost2010Prop51ColorRGB
 90
-16777216
102
RTVSPost2010PropOp51
 70
     0
102
RTVSPost2010Prop52
140
1.0
102
RTVSPost2010PropOp52
 70
     0
102
RTVSPost2010Prop53
 90
        2
102
RTVSPost2010PropOp53
 70
     1
102
RTVSPost2010Prop54
  1
strokes_ogs.tif
102
RTVSPost2010PropOp54
 70
     1
102
RTVSPost2010Prop55
280
     0
102
RTVSPost2010PropOp55
 70
     1
102
RTVSPost2010Prop56
140
1.0
102
RTVSPost2010PropOp56
 70
     1
102
RTVSPost2010Prop57
140
1.0
102
RTVSPost2010PropOp57
 70
     1
102
RTVSPropertyOp0
 70
     1
102
RTVSPropertyOp1
 70
     1
102
RTVSPropertyOp2
 70
     1
102
RTVSPropertyOp3
 70
     1
102
RTVSPropertyOp4
 70
     1
102
RTVSPropertyOp5
 70
     1
102
RTVSPropertyOp6
 70
     1
102
RTVSPropertyOp7
 70
     1
102
RTVSPropertyOp8
 70
     1
102
RTVSPropertyOp9
 70
     1
102
RTVSPropertyOp10
 70
     1
102
RTVSPropertyOp11
 70
     1
102
RTVSPropertyOp12
 70
     1
102
RTVSPropertyOp13
 70
     1
102
RTVSPropertyOp14
 70
     1
102
RTVSPropertyOp15
 70
     1
102
RTVSPropertyOp16
 70
     1
102
RTVSPropertyOp17
 70
     1
102
RTVSPropertyOp18
 70
     1
102
RTVSPropertyOp19
 70
     1
102
RTVSPropertyOp20
 70
     1
102
RTVSPropertyOp21
 70
     1
102
RTVSPropertyOp22
 70
     1
102
RTVSPropertyOp23
 70
     1
102
RTVSPropertyOp24
 70
     1
102
RTVSPropertyOp25
 70
     1
102
RTVSPropertyOp26
 70
     1
102
RTVSPropertyOp27
 70
     1
102
RTVSPropertyOp28
 70
     1
102
RTVSPropertyOp29
 70
     1
102
RTVSPropertyOp30
 70
     1
102
RTVSPropertyOp31
 70
     1
102
RTVSPropertyOp32
 70
     1
102
RTVSPropertyOp33
 70
     1
102
RTVSPropertyOp34
 70
     1
102
RTVSPropertyOp35
 70
     1
102
RTVSPropertyOp36
 70
     1
102
RTVSPropertyOp37
 70
     1
102
RTVSPropertyOp38
 70
     1
102
RTVSPropertyOp39
 70
     1
102
RTVSPropertyOp40
 70
     1
102
RTVSPropertyOp41
 70
     1
102
RTVSPropertyOp42
 70
     1
102
RTVSPropertyOp43
 70
     1
102
RTVSPropertyOp44
 70
     1
102
RTVSPropertyOp45
 70
     1
102
RTVSPropertyOp46
 70
     1
102
RTVSPropertyOp47
 70
     1
102
RTVSPropertyOp48
 70
     1
102
RTVSPropertyOp49
 70
     1
102
RTVSPropertyOp50
 70
     1
102
RTVSPropertyOp51
 70
     0
102
RTVSPropertyOp52
 70
     0
102
RTVSPropertyOp53
 70
     1
102
RTVSPropertyOp54
 70
     1
102
RTVSPropertyOp55
 70
     1
102
RTVSPropertyOp56
 70
     1
102
RTVSPropertyOp57
 70
     1
102
RTVSPropertyOp58
 70
     1
102
RTVSPropertyOp59
 70
     1
102
RTVSPropertyOp60
 70
     1
102
RTVSPropertyOp61
 70
     1
102
RTVSPropertyOp62
 70
     1
  0
XRECORD
  5
9310
102
{ACAD_REACTORS
330
930F
102
}
330
930F
100
AcDbXrecord
280
     1
102
RTVSPost2010Prop28
280
     0
102
RTVSPost2010PropOp28
 70
     1
102
RTVSPost2010Prop29
280
     1
102
RTVSPost2010PropOp29
 70
     1
102
RTVSPost2010Prop30
280
     1
102
RTVSPost2010PropOp30
 70
     1
102
RTVSPost2010Prop31
280
     0
102
RTVSPost2010PropOp31
 70
     1
102
RTVSPost2010Prop32
280
     0
102
RTVSPost2010PropOp32
 70
     1
102
RTVSPost2010Prop33
280
     0
102
RTVSPost2010PropOp33
 70
     1
102
RTVSPost2010Prop34
280
     0
102
RTVSPost2010PropOp34
 70
     1
102
RTVSPost2010Prop35
280
     0
102
RTVSPost2010PropOp35
 70
     1
102
RTVSPost2010Prop36
280
     0
102
RTVSPost2010PropOp36
 70
     1
102
RTVSPost2010Prop37
 90
       50
102
RTVSPost2010PropOp37
 70
     1
102
RTVSPost2010Prop38
140
0.0
102
RTVSPost2010PropOp38
 70
     1
102
RTVSPost2010Prop39
140
1.0
102
RTVSPost2010PropOp39
 70
     1
102
RTVSPost2010Prop40
 90
        0
102
RTVSPost2010PropOp40
 70
     1
102
RTVSPost2010Prop41ColorIndex
 90
       18
102
RTVSPost2010Prop41ColorRGB
 90
        0
102
RTVSPost2010PropOp41
 70
     1
102
RTVSPost2010Prop42
 90
       50
102
RTVSPost2010PropOp42
 70
     1
102
RTVSPost2010Prop43
 90
        3
102
RTVSPost2010PropOp43
 70
     1
102
RTVSPost2010Prop44ColorIndex
 90
        5
102
RTVSPost2010Prop44ColorRGB
 90
      255
102
RTVSPost2010PropOp44
 70
     1
102
RTVSPost2010Prop45
280
     0
102
RTVSPost2010PropOp45
 70
     1
102
RTVSPost2010Prop46
 90
       50
102
RTVSPost2010PropOp46
 70
     1
102
RTVSPost2010Prop47
 90
       50
102
RTVSPost2010PropOp47
 70
     1
102
RTVSPost2010Prop48
 90
       50
102
RTVSPost2010PropOp48
 70
     1
102
RTVSPost2010Prop49
280
     0
102
RTVSPost2010PropOp49
 70
     1
102
RTVSPost2010Prop50
 90
       50
102
RTVSPost2010PropOp50
 70
     1
102
RTVSPost2010Prop51ColorIndex
 90
      256
102
RTVSPost2010Prop51ColorRGB
 90
-16777216
102
RTVSPost2010PropOp51
 70
     0
102
RTVSPost2010Prop52
140
1.0
102
RTVSPost2010PropOp52
 70
     0
102
RTVSPost2010Prop53
 90
        2
102
RTVSPost2010PropOp53
 70
     1
102
RTVSPost2010Prop54
  1
strokes_ogs.tif
102
RTVSPost2010PropOp54
 70
     1
102
RTVSPost2010Prop55
280
     0
102
RTVSPost2010PropOp55
 70
     1
102
RTVSPost2010Prop56
140
1.0
102
RTVSPost2010PropOp56
 70
     1
102
RTVSPost2010Prop57
140
1.0
102
RTVSPost2010PropOp57
 70
     1
102
RTVSPropertyOp0
 70
     1
102
RTVSPropertyOp1
 70
     1
102
RTVSPropertyOp2
 70
     1
102
RTVSPropertyOp3
 70
     1
102
RTVSPropertyOp4
 70
     1
102
RTVSPropertyOp5
 70
     1
102
RTVSPropertyOp6
 70
     1
102
RTVSPropertyOp7
 70
     1
102
RTVSPropertyOp8
 70
     1
102
RTVSPropertyOp9
 70
     1
102
RTVSPropertyOp10
 70
     1
102
RTVSPropertyOp11
 70
     1
102
RTVSPropertyOp12
 70
     1
102
RTVSPropertyOp13
 70
     1
102
RTVSPropertyOp14
 70
     1
102
RTVSPropertyOp15
 70
     1
102
RTVSPropertyOp16
 70
     1
102
RTVSPropertyOp17
 70
     1
102
RTVSPropertyOp18
 70
     1
102
RTVSPropertyOp19
 70
     1
102
RTVSPropertyOp20
 70
     1
102
RTVSPropertyOp21
 70
     1
102
RTVSPropertyOp22
 70
     1
102
RTVSPropertyOp23
 70
     1
102
RTVSPropertyOp24
 70
     1
102
RTVSPropertyOp25
 70
     1
102
RTVSPropertyOp26
 70
     1
102
RTVSPropertyOp27
 70
     1
102
RTVSPropertyOp28
 70
     1
102
RTVSPropertyOp29
 70
     1
102
RTVSPropertyOp30
 70
     1
102
RTVSPropertyOp31
 70
     1
102
RTVSPropertyOp32
 70
     1
102
RTVSPropertyOp33
 70
     1
102
RTVSPropertyOp34
 70
     1
102
RTVSPropertyOp35
 70
     1
102
RTVSPropertyOp36
 70
     1
102
RTVSPropertyOp37
 70
     1
102
RTVSPropertyOp38
 70
     1
102
RTVSPropertyOp39
 70
     1
102
RTVSPropertyOp40
 70
     1
102
RTVSPropertyOp41
 70
     1
102
RTVSPropertyOp42
 70
     1
102
RTVSPropertyOp43
 70
     1
102
RTVSPropertyOp44
 70
     1
102
RTVSPropertyOp45
 70
     1
102
RTVSPropertyOp46
 70
     1
102
RTVSPropertyOp47
 70
     1
102
RTVSPropertyOp48
 70
     1
102
RTVSPropertyOp49
 70
     1
102
RTVSPropertyOp50
 70
     1
102
RTVSPropertyOp51
 70
     0
102
RTVSPropertyOp52
 70
     0
102
RTVSPropertyOp53
 70
     1
102
RTVSPropertyOp54
 70
     1
102
RTVSPropertyOp55
 70
     1
102
RTVSPropertyOp56
 70
     1
102
RTVSPropertyOp57
 70
     1
102
RTVSPropertyOp58
 70
     1
102
RTVSPropertyOp59
 70
     1
102
RTVSPropertyOp60
 70
     1
102
RTVSPropertyOp61
 70
     1
102
RTVSPropertyOp62
 70
     1
  0
XRECORD
  5
9314
102
{ACAD_REACTORS
330
9313
102
}
330
9313
100
AcDbXrecord
280
     1
102
RTVSPost2010Prop28
280
     0
102
RTVSPost2010PropOp28
 70
     1
102
RTVSPost2010Prop29
280
     1
102
RTVSPost2010PropOp29
 70
     1
102
RTVSPost2010Prop30
280
     1
102
RTVSPost2010PropOp30
 70
     1
102
RTVSPost2010Prop31
280
     0
102
RTVSPost2010PropOp31
 70
     1
102
RTVSPost2010Prop32
280
     0
102
RTVSPost2010PropOp32
 70
     1
102
RTVSPost2010Prop33
280
     0
102
RTVSPost2010PropOp33
 70
     1
102
RTVSPost2010Prop34
280
     0
102
RTVSPost2010PropOp34
 70
     1
102
RTVSPost2010Prop35
280
     0
102
RTVSPost2010PropOp35
 70
     1
102
RTVSPost2010Prop36
280
     0
102
RTVSPost2010PropOp36
 70
     1
102
RTVSPost2010Prop37
 90
       50
102
RTVSPost2010PropOp37
 70
     1
102
RTVSPost2010Prop38
140
0.0
102
RTVSPost2010PropOp38
 70
     1
102
RTVSPost2010Prop39
140
1.0
102
RTVSPost2010PropOp39
 70
     1
102
RTVSPost2010Prop40
 90
        0
102
RTVSPost2010PropOp40
 70
     1
102
RTVSPost2010Prop41ColorIndex
 90
       18
102
RTVSPost2010Prop41ColorRGB
 90
        0
102
RTVSPost2010PropOp41
 70
     1
102
RTVSPost2010Prop42
 90
       50
102
RTVSPost2010PropOp42
 70
     1
102
RTVSPost2010Prop43
 90
        3
102
RTVSPost2010PropOp43
 70
     1
102
RTVSPost2010Prop44ColorIndex
 90
        5
102
RTVSPost2010Prop44ColorRGB
 90
      255
102
RTVSPost2010PropOp44
 70
     1
102
RTVSPost2010Prop45
280
     0
102
RTVSPost2010PropOp45
 70
     1
102
RTVSPost2010Prop46
 90
       50
102
RTVSPost2010PropOp46
 70
     1
102
RTVSPost2010Prop47
 90
       50
102
RTVSPost2010PropOp47
 70
     1
102
RTVSPost2010Prop48
 90
       50
102
RTVSPost2010PropOp48
 70
     1
102
RTVSPost2010Prop49
280
     0
102
RTVSPost2010PropOp49
 70
     1
102
RTVSPost2010Prop50
 90
       50
102
RTVSPost2010PropOp50
 70
     1
102
RTVSPost2010Prop51ColorIndex
 90
      256
102
RTVSPost2010Prop51ColorRGB
 90
-16777216
102
RTVSPost2010PropOp51
 70
     0
102
RTVSPost2010Prop52
140
1.0
102
RTVSPost2010PropOp52
 70
     0
102
RTVSPost2010Prop53
 90
        2
102
RTVSPost2010PropOp53
 70
     1
102
RTVSPost2010Prop54
  1
strokes_ogs.tif
102
RTVSPost2010PropOp54
 70
     1
102
RTVSPost2010Prop55
280
     0
102
RTVSPost2010PropOp55
 70
     1
102
RTVSPost2010Prop56
140
1.0
102
RTVSPost2010PropOp56
 70
     1
102
RTVSPost2010Prop57
140
1.0
102
RTVSPost2010PropOp57
 70
     1
102
RTVSPropertyOp0
 70
     1
102
RTVSPropertyOp1
 70
     1
102
RTVSPropertyOp2
 70
     1
102
RTVSPropertyOp3
 70
     1
102
RTVSPropertyOp4
 70
     1
102
RTVSPropertyOp5
 70
     1
102
RTVSPropertyOp6
 70
     1
102
RTVSPropertyOp7
 70
     1
102
RTVSPropertyOp8
 70
     1
102
RTVSPropertyOp9
 70
     1
102
RTVSPropertyOp10
 70
     1
102
RTVSPropertyOp11
 70
     1
102
RTVSPropertyOp12
 70
     1
102
RTVSPropertyOp13
 70
     1
102
RTVSPropertyOp14
 70
     1
102
RTVSPropertyOp15
 70
     1
102
RTVSPropertyOp16
 70
     1
102
RTVSPropertyOp17
 70
     1
102
RTVSPropertyOp18
 70
     1
102
RTVSPropertyOp19
 70
     1
102
RTVSPropertyOp20
 70
     1
102
RTVSPropertyOp21
 70
     1
102
RTVSPropertyOp22
 70
     1
102
RTVSPropertyOp23
 70
     1
102
RTVSPropertyOp24
 70
     1
102
RTVSPropertyOp25
 70
     1
102
RTVSPropertyOp26
 70
     1
102
RTVSPropertyOp27
 70
     1
102
RTVSPropertyOp28
 70
     1
102
RTVSPropertyOp29
 70
     1
102
RTVSPropertyOp30
 70
     1
102
RTVSPropertyOp31
 70
     1
102
RTVSPropertyOp32
 70
     1
102
RTVSPropertyOp33
 70
     1
102
RTVSPropertyOp34
 70
     1
102
RTVSPropertyOp35
 70
     1
102
RTVSPropertyOp36
 70
     1
102
RTVSPropertyOp37
 70
     1
102
RTVSPropertyOp38
 70
     1
102
RTVSPropertyOp39
 70
     1
102
RTVSPropertyOp40
 70
     1
102
RTVSPropertyOp41
 70
     1
102
RTVSPropertyOp42
 70
     1
102
RTVSPropertyOp43
 70
     1
102
RTVSPropertyOp44
 70
     1
102
RTVSPropertyOp45
 70
     1
102
RTVSPropertyOp46
 70
     1
102
RTVSPropertyOp47
 70
     1
102
RTVSPropertyOp48
 70
     1
102
RTVSPropertyOp49
 70
     1
102
RTVSPropertyOp50
 70
     1
102
RTVSPropertyOp51
 70
     0
102
RTVSPropertyOp52
 70
     0
102
RTVSPropertyOp53
 70
     1
102
RTVSPropertyOp54
 70
     1
102
RTVSPropertyOp55
 70
     1
102
RTVSPropertyOp56
 70
     1
102
RTVSPropertyOp57
 70
     1
102
RTVSPropertyOp58
 70
     1
102
RTVSPropertyOp59
 70
     1
102
RTVSPropertyOp60
 70
     1
102
RTVSPropertyOp61
 70
     1
102
RTVSPropertyOp62
 70
     1
  0
XRECORD
  5
932E
102
{ACAD_REACTORS
330
932D
102
}
330
932D
100
AcDbXrecord
280
     1
102
RTVSPost2010Prop28
280
     0
102
RTVSPost2010PropOp28
 70
     0
102
RTVSPost2010Prop29
280
     1
102
RTVSPost2010PropOp29
 70
     0
102
RTVSPost2010Prop30
280
     1
102
RTVSPost2010PropOp30
 70
     0
102
RTVSPost2010Prop31
280
     0
102
RTVSPost2010PropOp31
 70
     0
102
RTVSPost2010Prop32
280
     0
102
RTVSPost2010PropOp32
 70
     0
102
RTVSPost2010Prop33
280
     0
102
RTVSPost2010PropOp33
 70
     0
102
RTVSPost2010Prop34
280
     0
102
RTVSPost2010PropOp34
 70
     0
102
RTVSPost2010Prop35
280
     0
102
RTVSPost2010PropOp35
 70
     0
102
RTVSPost2010Prop36
280
     0
102
RTVSPost2010PropOp36
 70
     0
102
RTVSPost2010Prop37
 90
       50
102
RTVSPost2010PropOp37
 70
     0
102
RTVSPost2010Prop38
140
0.0
102
RTVSPost2010PropOp38
 70
     0
102
RTVSPost2010Prop39
140
1.0
102
RTVSPost2010PropOp39
 70
     0
102
RTVSPost2010Prop40
 90
        0
102
RTVSPost2010PropOp40
 70
     0
102
RTVSPost2010Prop41ColorIndex
 90
       18
102
RTVSPost2010Prop41ColorRGB
 90
        0
102
RTVSPost2010PropOp41
 70
     0
102
RTVSPost2010Prop42
 90
       50
102
RTVSPost2010PropOp42
 70
     0
102
RTVSPost2010Prop43
 90
        3
102
RTVSPost2010PropOp43
 70
     0
102
RTVSPost2010Prop44ColorIndex
 90
        5
102
RTVSPost2010Prop44ColorRGB
 90
      255
102
RTVSPost2010PropOp44
 70
     0
102
RTVSPost2010Prop45
280
     0
102
RTVSPost2010PropOp45
 70
     0
102
RTVSPost2010Prop46
 90
       50
102
RTVSPost2010PropOp46
 70
     0
102
RTVSPost2010Prop47
 90
       50
102
RTVSPost2010PropOp47
 70
     0
102
RTVSPost2010Prop48
 90
       50
102
RTVSPost2010PropOp48
 70
     0
102
RTVSPost2010Prop49
280
     0
102
RTVSPost2010PropOp49
 70
     0
102
RTVSPost2010Prop50
 90
       50
102
RTVSPost2010PropOp50
 70
     0
102
RTVSPost2010Prop51ColorIndex
 90
      256
102
RTVSPost2010Prop51ColorRGB
 90
-16777216
102
RTVSPost2010PropOp51
 70
     0
102
RTVSPost2010Prop52
140
1.0
102
RTVSPost2010PropOp52
 70
     0
102
RTVSPost2010Prop53
 90
        2
102
RTVSPost2010PropOp53
 70
     0
102
RTVSPost2010Prop54
  1
strokes_ogs.tif
102
RTVSPost2010PropOp54
 70
     0
102
RTVSPost2010Prop55
280
     0
102
RTVSPost2010PropOp55
 70
     0
102
RTVSPost2010Prop56
140
1.0
102
RTVSPost2010PropOp56
 70
     0
102
RTVSPost2010Prop57
140
1.0
102
RTVSPost2010PropOp57
 70
     0
102
RTVSPropertyOp0
 70
     0
102
RTVSPropertyOp1
 70
     0
102
RTVSPropertyOp2
 70
     0
102
RTVSPropertyOp3
 70
     0
102
RTVSPropertyOp4
 70
     0
102
RTVSPropertyOp5
 70
     0
102
RTVSPropertyOp6
 70
     0
102
RTVSPropertyOp7
 70
     0
102
RTVSPropertyOp8
 70
     0
102
RTVSPropertyOp9
 70
     0
102
RTVSPropertyOp10
 70
     0
102
RTVSPropertyOp11
 70
     0
102
RTVSPropertyOp12
 70
     0
102
RTVSPropertyOp13
 70
     0
102
RTVSPropertyOp14
 70
     2
102
RTVSPropertyOp15
 70
     0
102
RTVSPropertyOp16
 70
     0
102
RTVSPropertyOp17
 70
     0
102
RTVSPropertyOp18
 70
     0
102
RTVSPropertyOp19
 70
     0
102
RTVSPropertyOp20
 70
     0
102
RTVSPropertyOp21
 70
     0
102
RTVSPropertyOp22
 70
     0
102
RTVSPropertyOp23
 70
     0
102
RTVSPropertyOp24
 70
     0
102
RTVSPropertyOp25
 70
     0
102
RTVSPropertyOp26
 70
     0
102
RTVSPropertyOp27
 70
     0
102
RTVSPropertyOp28
 70
     0
102
RTVSPropertyOp29
 70
     0
102
RTVSPropertyOp30
 70
     0
102
RTVSPropertyOp31
 70
     0
102
RTVSPropertyOp32
 70
     0
102
RTVSPropertyOp33
 70
     0
102
RTVSPropertyOp34
 70
     0
102
RTVSPropertyOp35
 70
     0
102
RTVSPropertyOp36
 70
     0
102
RTVSPropertyOp37
 70
     0
102
RTVSPropertyOp38
 70
     0
102
RTVSPropertyOp39
 70
     0
102
RTVSPropertyOp40
 70
     0
102
RTVSPropertyOp41
 70
     0
102
RTVSPropertyOp42
 70
     0
102
RTVSPropertyOp43
 70
     0
102
RTVSPropertyOp44
 70
     0
102
RTVSPropertyOp45
 70
     0
102
RTVSPropertyOp46
 70
     0
102
RTVSPropertyOp47
 70
     0
102
RTVSPropertyOp48
 70
     0
102
RTVSPropertyOp49
 70
     0
102
RTVSPropertyOp50
 70
     0
102
RTVSPropertyOp51
 70
     0
102
RTVSPropertyOp52
 70
     0
102
RTVSPropertyOp53
 70
     0
102
RTVSPropertyOp54
 70
     0
102
RTVSPropertyOp55
 70
     0
102
RTVSPropertyOp56
 70
     0
102
RTVSPropertyOp57
 70
     0
102
RTVSPropertyOp58
 70
     1
102
RTVSPropertyOp59
 70
     1
102
RTVSPropertyOp60
 70
     1
102
RTVSPropertyOp61
 70
     1
102
RTVSPropertyOp62
 70
     1
  0
XRECORD
  5
931C
102
{ACAD_REACTORS
330
931B
102
}
330
931B
100
AcDbXrecord
280
     1
102
RTVSPost2010Prop28
280
     0
102
RTVSPost2010PropOp28
 70
     1
102
RTVSPost2010Prop29
280
     1
102
RTVSPost2010PropOp29
 70
     1
102
RTVSPost2010Prop30
280
     1
102
RTVSPost2010PropOp30
 70
     1
102
RTVSPost2010Prop31
280
     0
102
RTVSPost2010PropOp31
 70
     1
102
RTVSPost2010Prop32
280
     0
102
RTVSPost2010PropOp32
 70
     1
102
RTVSPost2010Prop33
280
     0
102
RTVSPost2010PropOp33
 70
     1
102
RTVSPost2010Prop34
280
     0
102
RTVSPost2010PropOp34
 70
     1
102
RTVSPost2010Prop35
280
     0
102
RTVSPost2010PropOp35
 70
     1
102
RTVSPost2010Prop36
280
     0
102
RTVSPost2010PropOp36
 70
     1
102
RTVSPost2010Prop37
 90
       50
102
RTVSPost2010PropOp37
 70
     1
102
RTVSPost2010Prop38
140
0.0
102
RTVSPost2010PropOp38
 70
     1
102
RTVSPost2010Prop39
140
1.0
102
RTVSPost2010PropOp39
 70
     1
102
RTVSPost2010Prop40
 90
        0
102
RTVSPost2010PropOp40
 70
     1
102
RTVSPost2010Prop41ColorIndex
 90
       18
102
RTVSPost2010Prop41ColorRGB
 90
        0
102
RTVSPost2010PropOp41
 70
     1
102
RTVSPost2010Prop42
 90
       50
102
RTVSPost2010PropOp42
 70
     1
102
RTVSPost2010Prop43
 90
        3
102
RTVSPost2010PropOp43
 70
     1
102
RTVSPost2010Prop44ColorIndex
 90
        5
102
RTVSPost2010Prop44ColorRGB
 90
      255
102
RTVSPost2010PropOp44
 70
     1
102
RTVSPost2010Prop45
280
     0
102
RTVSPost2010PropOp45
 70
     1
102
RTVSPost2010Prop46
 90
       50
102
RTVSPost2010PropOp46
 70
     1
102
RTVSPost2010Prop47
 90
       50
102
RTVSPost2010PropOp47
 70
     1
102
RTVSPost2010Prop48
 90
       50
102
RTVSPost2010PropOp48
 70
     1
102
RTVSPost2010Prop49
280
     0
102
RTVSPost2010PropOp49
 70
     1
102
RTVSPost2010Prop50
 90
       50
102
RTVSPost2010PropOp50
 70
     1
102
RTVSPost2010Prop51ColorIndex
 90
      256
102
RTVSPost2010Prop51ColorRGB
 90
-16777216
102
RTVSPost2010PropOp51
 70
     0
102
RTVSPost2010Prop52
140
1.0
102
RTVSPost2010PropOp52
 70
     0
102
RTVSPost2010Prop53
 90
        2
102
RTVSPost2010PropOp53
 70
     1
102
RTVSPost2010Prop54
  1
strokes_ogs.tif
102
RTVSPost2010PropOp54
 70
     1
102
RTVSPost2010Prop55
280
     0
102
RTVSPost2010PropOp55
 70
     1
102
RTVSPost2010Prop56
140
1.0
102
RTVSPost2010PropOp56
 70
     1
102
RTVSPost2010Prop57
140
1.0
102
RTVSPost2010PropOp57
 70
     1
102
RTVSPropertyOp0
 70
     1
102
RTVSPropertyOp1
 70
     1
102
RTVSPropertyOp2
 70
     1
102
RTVSPropertyOp3
 70
     1
102
RTVSPropertyOp4
 70
     1
102
RTVSPropertyOp5
 70
     1
102
RTVSPropertyOp6
 70
     1
102
RTVSPropertyOp7
 70
     1
102
RTVSPropertyOp8
 70
     1
102
RTVSPropertyOp9
 70
     1
102
RTVSPropertyOp10
 70
     1
102
RTVSPropertyOp11
 70
     1
102
RTVSPropertyOp12
 70
     1
102
RTVSPropertyOp13
 70
     1
102
RTVSPropertyOp14
 70
     1
102
RTVSPropertyOp15
 70
     1
102
RTVSPropertyOp16
 70
     1
102
RTVSPropertyOp17
 70
     1
102
RTVSPropertyOp18
 70
     1
102
RTVSPropertyOp19
 70
     1
102
RTVSPropertyOp20
 70
     1
102
RTVSPropertyOp21
 70
     1
102
RTVSPropertyOp22
 70
     1
102
RTVSPropertyOp23
 70
     1
102
RTVSPropertyOp24
 70
     1
102
RTVSPropertyOp25
 70
     1
102
RTVSPropertyOp26
 70
     1
102
RTVSPropertyOp27
 70
     1
102
RTVSPropertyOp28
 70
     1
102
RTVSPropertyOp29
 70
     1
102
RTVSPropertyOp30
 70
     1
102
RTVSPropertyOp31
 70
     1
102
RTVSPropertyOp32
 70
     1
102
RTVSPropertyOp33
 70
     1
102
RTVSPropertyOp34
 70
     1
102
RTVSPropertyOp35
 70
     1
102
RTVSPropertyOp36
 70
     1
102
RTVSPropertyOp37
 70
     1
102
RTVSPropertyOp38
 70
     1
102
RTVSPropertyOp39
 70
     1
102
RTVSPropertyOp40
 70
     1
102
RTVSPropertyOp41
 70
     1
102
RTVSPropertyOp42
 70
     1
102
RTVSPropertyOp43
 70
     1
102
RTVSPropertyOp44
 70
     1
102
RTVSPropertyOp45
 70
     1
102
RTVSPropertyOp46
 70
     1
102
RTVSPropertyOp47
 70
     1
102
RTVSPropertyOp48
 70
     1
102
RTVSPropertyOp49
 70
     1
102
RTVSPropertyOp50
 70
     1
102
RTVSPropertyOp51
 70
     0
102
RTVSPropertyOp52
 70
     0
102
RTVSPropertyOp53
 70
     1
102
RTVSPropertyOp54
 70
     1
102
RTVSPropertyOp55
 70
     1
102
RTVSPropertyOp56
 70
     1
102
RTVSPropertyOp57
 70
     1
102
RTVSPropertyOp58
 70
     1
102
RTVSPropertyOp59
 70
     1
102
RTVSPropertyOp60
 70
     1
102
RTVSPropertyOp61
 70
     1
102
RTVSPropertyOp62
 70
     1
  0
XRECORD
  5
9300
102
{ACAD_REACTORS
330
92FF
102
}
330
92FF
100
AcDbXrecord
280
     1
102
RTVSPost2010Prop28
280
     0
102
RTVSPost2010PropOp28
 70
     1
102
RTVSPost2010Prop29
280
     1
102
RTVSPost2010PropOp29
 70
     1
102
RTVSPost2010Prop30
280
     1
102
RTVSPost2010PropOp30
 70
     1
102
RTVSPost2010Prop31
280
     0
102
RTVSPost2010PropOp31
 70
     1
102
RTVSPost2010Prop32
280
     0
102
RTVSPost2010PropOp32
 70
     1
102
RTVSPost2010Prop33
280
     0
102
RTVSPost2010PropOp33
 70
     1
102
RTVSPost2010Prop34
280
     0
102
RTVSPost2010PropOp34
 70
     1
102
RTVSPost2010Prop35
280
     0
102
RTVSPost2010PropOp35
 70
     1
102
RTVSPost2010Prop36
280
     0
102
RTVSPost2010PropOp36
 70
     1
102
RTVSPost2010Prop37
 90
       50
102
RTVSPost2010PropOp37
 70
     1
102
RTVSPost2010Prop38
140
0.0
102
RTVSPost2010PropOp38
 70
     1
102
RTVSPost2010Prop39
140
1.0
102
RTVSPost2010PropOp39
 70
     1
102
RTVSPost2010Prop40
 90
        0
102
RTVSPost2010PropOp40
 70
     1
102
RTVSPost2010Prop41ColorIndex
 90
       18
102
RTVSPost2010Prop41ColorRGB
 90
        0
102
RTVSPost2010PropOp41
 70
     1
102
RTVSPost2010Prop42
 90
       50
102
RTVSPost2010PropOp42
 70
     1
102
RTVSPost2010Prop43
 90
        3
102
RTVSPost2010PropOp43
 70
     1
102
RTVSPost2010Prop44ColorIndex
 90
        5
102
RTVSPost2010Prop44ColorRGB
 90
      255
102
RTVSPost2010PropOp44
 70
     1
102
RTVSPost2010Prop45
280
     0
102
RTVSPost2010PropOp45
 70
     1
102
RTVSPost2010Prop46
 90
       50
102
RTVSPost2010PropOp46
 70
     1
102
RTVSPost2010Prop47
 90
       50
102
RTVSPost2010PropOp47
 70
     1
102
RTVSPost2010Prop48
 90
       50
102
RTVSPost2010PropOp48
 70
     1
102
RTVSPost2010Prop49
280
     0
102
RTVSPost2010PropOp49
 70
     1
102
RTVSPost2010Prop50
 90
       50
102
RTVSPost2010PropOp50
 70
     1
102
RTVSPost2010Prop51ColorIndex
 90
      256
102
RTVSPost2010Prop51ColorRGB
 90
-16777216
102
RTVSPost2010PropOp51
 70
     0
102
RTVSPost2010Prop52
140
1.0
102
RTVSPost2010PropOp52
 70
     0
102
RTVSPost2010Prop53
 90
        2
102
RTVSPost2010PropOp53
 70
     1
102
RTVSPost2010Prop54
  1
strokes_ogs.tif
102
RTVSPost2010PropOp54
 70
     1
102
RTVSPost2010Prop55
280
     0
102
RTVSPost2010PropOp55
 70
     1
102
RTVSPost2010Prop56
140
1.0
102
RTVSPost2010PropOp56
 70
     1
102
RTVSPost2010Prop57
140
1.0
102
RTVSPost2010PropOp57
 70
     1
102
RTVSPropertyOp0
 70
     1
102
RTVSPropertyOp1
 70
     1
102
RTVSPropertyOp2
 70
     1
102
RTVSPropertyOp3
 70
     1
102
RTVSPropertyOp4
 70
     1
102
RTVSPropertyOp5
 70
     1
102
RTVSPropertyOp6
 70
     1
102
RTVSPropertyOp7
 70
     1
102
RTVSPropertyOp8
 70
     1
102
RTVSPropertyOp9
 70
     1
102
RTVSPropertyOp10
 70
     1
102
RTVSPropertyOp11
 70
     1
102
RTVSPropertyOp12
 70
     1
102
RTVSPropertyOp13
 70
     1
102
RTVSPropertyOp14
 70
     1
102
RTVSPropertyOp15
 70
     1
102
RTVSPropertyOp16
 70
     1
102
RTVSPropertyOp17
 70
     1
102
RTVSPropertyOp18
 70
     1
102
RTVSPropertyOp19
 70
     1
102
RTVSPropertyOp20
 70
     1
102
RTVSPropertyOp21
 70
     1
102
RTVSPropertyOp22
 70
     1
102
RTVSPropertyOp23
 70
     1
102
RTVSPropertyOp24
 70
     1
102
RTVSPropertyOp25
 70
     1
102
RTVSPropertyOp26
 70
     1
102
RTVSPropertyOp27
 70
     1
102
RTVSPropertyOp28
 70
     1
102
RTVSPropertyOp29
 70
     1
102
RTVSPropertyOp30
 70
     1
102
RTVSPropertyOp31
 70
     1
102
RTVSPropertyOp32
 70
     1
102
RTVSPropertyOp33
 70
     1
102
RTVSPropertyOp34
 70
     1
102
RTVSPropertyOp35
 70
     1
102
RTVSPropertyOp36
 70
     1
102
RTVSPropertyOp37
 70
     1
102
RTVSPropertyOp38
 70
     1
102
RTVSPropertyOp39
 70
     1
102
RTVSPropertyOp40
 70
     1
102
RTVSPropertyOp41
 70
     1
102
RTVSPropertyOp42
 70
     1
102
RTVSPropertyOp43
 70
     1
102
RTVSPropertyOp44
 70
     1
102
RTVSPropertyOp45
 70
     1
102
RTVSPropertyOp46
 70
     1
102
RTVSPropertyOp47
 70
     1
102
RTVSPropertyOp48
 70
     1
102
RTVSPropertyOp49
 70
     1
102
RTVSPropertyOp50
 70
     1
102
RTVSPropertyOp51
 70
     0
102
RTVSPropertyOp52
 70
     0
102
RTVSPropertyOp53
 70
     1
102
RTVSPropertyOp54
 70
     1
102
RTVSPropertyOp55
 70
     1
102
RTVSPropertyOp56
 70
     1
102
RTVSPropertyOp57
 70
     1
102
RTVSPropertyOp58
 70
     1
102
RTVSPropertyOp59
 70
     1
102
RTVSPropertyOp60
 70
     1
102
RTVSPropertyOp61
 70
     1
102
RTVSPropertyOp62
 70
     1
  0
XRECORD
  5
9302
102
{ACAD_REACTORS
330
9301
102
}
330
9301
100
AcDbXrecord
280
     1
102
RTVSPost2010Prop28
280
     0
102
RTVSPost2010PropOp28
 70
     1
102
RTVSPost2010Prop29
280
     1
102
RTVSPost2010PropOp29
 70
     1
102
RTVSPost2010Prop30
280
     1
102
RTVSPost2010PropOp30
 70
     1
102
RTVSPost2010Prop31
280
     0
102
RTVSPost2010PropOp31
 70
     1
102
RTVSPost2010Prop32
280
     0
102
RTVSPost2010PropOp32
 70
     1
102
RTVSPost2010Prop33
280
     0
102
RTVSPost2010PropOp33
 70
     1
102
RTVSPost2010Prop34
280
     0
102
RTVSPost2010PropOp34
 70
     1
102
RTVSPost2010Prop35
280
     0
102
RTVSPost2010PropOp35
 70
     1
102
RTVSPost2010Prop36
280
     0
102
RTVSPost2010PropOp36
 70
     1
102
RTVSPost2010Prop37
 90
       50
102
RTVSPost2010PropOp37
 70
     1
102
RTVSPost2010Prop38
140
0.0
102
RTVSPost2010PropOp38
 70
     1
102
RTVSPost2010Prop39
140
1.0
102
RTVSPost2010PropOp39
 70
     1
102
RTVSPost2010Prop40
 90
        0
102
RTVSPost2010PropOp40
 70
     1
102
RTVSPost2010Prop41ColorIndex
 90
       18
102
RTVSPost2010Prop41ColorRGB
 90
        0
102
RTVSPost2010PropOp41
 70
     1
102
RTVSPost2010Prop42
 90
       50
102
RTVSPost2010PropOp42
 70
     1
102
RTVSPost2010Prop43
 90
        3
102
RTVSPost2010PropOp43
 70
     1
102
RTVSPost2010Prop44ColorIndex
 90
        5
102
RTVSPost2010Prop44ColorRGB
 90
      255
102
RTVSPost2010PropOp44
 70
     1
102
RTVSPost2010Prop45
280
     0
102
RTVSPost2010PropOp45
 70
     1
102
RTVSPost2010Prop46
 90
       50
102
RTVSPost2010PropOp46
 70
     1
102
RTVSPost2010Prop47
 90
       50
102
RTVSPost2010PropOp47
 70
     1
102
RTVSPost2010Prop48
 90
       50
102
RTVSPost2010PropOp48
 70
     1
102
RTVSPost2010Prop49
280
     0
102
RTVSPost2010PropOp49
 70
     1
102
RTVSPost2010Prop50
 90
       50
102
RTVSPost2010PropOp50
 70
     1
102
RTVSPost2010Prop51ColorIndex
 90
      256
102
RTVSPost2010Prop51ColorRGB
 90
-16777216
102
RTVSPost2010PropOp51
 70
     0
102
RTVSPost2010Prop52
140
1.0
102
RTVSPost2010PropOp52
 70
     0
102
RTVSPost2010Prop53
 90
        2
102
RTVSPost2010PropOp53
 70
     1
102
RTVSPost2010Prop54
  1
strokes_ogs.tif
102
RTVSPost2010PropOp54
 70
     1
102
RTVSPost2010Prop55
280
     0
102
RTVSPost2010PropOp55
 70
     1
102
RTVSPost2010Prop56
140
1.0
102
RTVSPost2010PropOp56
 70
     1
102
RTVSPost2010Prop57
140
1.0
102
RTVSPost2010PropOp57
 70
     1
102
RTVSPropertyOp0
 70
     1
102
RTVSPropertyOp1
 70
     1
102
RTVSPropertyOp2
 70
     1
102
RTVSPropertyOp3
 70
     1
102
RTVSPropertyOp4
 70
     1
102
RTVSPropertyOp5
 70
     1
102
RTVSPropertyOp6
 70
     1
102
RTVSPropertyOp7
 70
     1
102
RTVSPropertyOp8
 70
     1
102
RTVSPropertyOp9
 70
     1
102
RTVSPropertyOp10
 70
     1
102
RTVSPropertyOp11
 70
     1
102
RTVSPropertyOp12
 70
     1
102
RTVSPropertyOp13
 70
     1
102
RTVSPropertyOp14
 70
     1
102
RTVSPropertyOp15
 70
     1
102
RTVSPropertyOp16
 70
     1
102
RTVSPropertyOp17
 70
     1
102
RTVSPropertyOp18
 70
     1
102
RTVSPropertyOp19
 70
     1
102
RTVSPropertyOp20
 70
     1
102
RTVSPropertyOp21
 70
     1
102
RTVSPropertyOp22
 70
     1
102
RTVSPropertyOp23
 70
     1
102
RTVSPropertyOp24
 70
     1
102
RTVSPropertyOp25
 70
     1
102
RTVSPropertyOp26
 70
     1
102
RTVSPropertyOp27
 70
     1
102
RTVSPropertyOp28
 70
     1
102
RTVSPropertyOp29
 70
     1
102
RTVSPropertyOp30
 70
     1
102
RTVSPropertyOp31
 70
     1
102
RTVSPropertyOp32
 70
     1
102
RTVSPropertyOp33
 70
     1
102
RTVSPropertyOp34
 70
     1
102
RTVSPropertyOp35
 70
     1
102
RTVSPropertyOp36
 70
     1
102
RTVSPropertyOp37
 70
     1
102
RTVSPropertyOp38
 70
     1
102
RTVSPropertyOp39
 70
     1
102
RTVSPropertyOp40
 70
     1
102
RTVSPropertyOp41
 70
     1
102
RTVSPropertyOp42
 70
     1
102
RTVSPropertyOp43
 70
     1
102
RTVSPropertyOp44
 70
     1
102
RTVSPropertyOp45
 70
     1
102
RTVSPropertyOp46
 70
     1
102
RTVSPropertyOp47
 70
     1
102
RTVSPropertyOp48
 70
     1
102
RTVSPropertyOp49
 70
     1
102
RTVSPropertyOp50
 70
     1
102
RTVSPropertyOp51
 70
     0
102
RTVSPropertyOp52
 70
     0
102
RTVSPropertyOp53
 70
     1
102
RTVSPropertyOp54
 70
     1
102
RTVSPropertyOp55
 70
     1
102
RTVSPropertyOp56
 70
     1
102
RTVSPropertyOp57
 70
     1
102
RTVSPropertyOp58
 70
     1
102
RTVSPropertyOp59
 70
     1
102
RTVSPropertyOp60
 70
     1
102
RTVSPropertyOp61
 70
     1
102
RTVSPropertyOp62
 70
     1
  0
XRECORD
  5
9304
102
{ACAD_REACTORS
330
9303
102
}
330
9303
100
AcDbXrecord
280
     1
102
RTVSPost2010Prop28
280
     0
102
RTVSPost2010PropOp28
 70
     1
102
RTVSPost2010Prop29
280
     1
102
RTVSPost2010PropOp29
 70
     1
102
RTVSPost2010Prop30
280
     1
102
RTVSPost2010PropOp30
 70
     1
102
RTVSPost2010Prop31
280
     0
102
RTVSPost2010PropOp31
 70
     1
102
RTVSPost2010Prop32
280
     0
102
RTVSPost2010PropOp32
 70
     1
102
RTVSPost2010Prop33
280
     0
102
RTVSPost2010PropOp33
 70
     1
102
RTVSPost2010Prop34
280
     0
102
RTVSPost2010PropOp34
 70
     1
102
RTVSPost2010Prop35
280
     0
102
RTVSPost2010PropOp35
 70
     1
102
RTVSPost2010Prop36
280
     0
102
RTVSPost2010PropOp36
 70
     1
102
RTVSPost2010Prop37
 90
       50
102
RTVSPost2010PropOp37
 70
     1
102
RTVSPost2010Prop38
140
0.0
102
RTVSPost2010PropOp38
 70
     1
102
RTVSPost2010Prop39
140
1.0
102
RTVSPost2010PropOp39
 70
     1
102
RTVSPost2010Prop40
 90
        0
102
RTVSPost2010PropOp40
 70
     1
102
RTVSPost2010Prop41ColorIndex
 90
       18
102
RTVSPost2010Prop41ColorRGB
 90
        0
102
RTVSPost2010PropOp41
 70
     1
102
RTVSPost2010Prop42
 90
       50
102
RTVSPost2010PropOp42
 70
     1
102
RTVSPost2010Prop43
 90
        3
102
RTVSPost2010PropOp43
 70
     1
102
RTVSPost2010Prop44ColorIndex
 90
        5
102
RTVSPost2010Prop44ColorRGB
 90
      255
102
RTVSPost2010PropOp44
 70
     1
102
RTVSPost2010Prop45
280
     0
102
RTVSPost2010PropOp45
 70
     1
102
RTVSPost2010Prop46
 90
       50
102
RTVSPost2010PropOp46
 70
     1
102
RTVSPost2010Prop47
 90
       50
102
RTVSPost2010PropOp47
 70
     1
102
RTVSPost2010Prop48
 90
       50
102
RTVSPost2010PropOp48
 70
     1
102
RTVSPost2010Prop49
280
     0
102
RTVSPost2010PropOp49
 70
     1
102
RTVSPost2010Prop50
 90
       50
102
RTVSPost2010PropOp50
 70
     1
102
RTVSPost2010Prop51ColorIndex
 90
      256
102
RTVSPost2010Prop51ColorRGB
 90
-16777216
102
RTVSPost2010PropOp51
 70
     0
102
RTVSPost2010Prop52
140
1.0
102
RTVSPost2010PropOp52
 70
     0
102
RTVSPost2010Prop53
 90
        2
102
RTVSPost2010PropOp53
 70
     1
102
RTVSPost2010Prop54
  1
strokes_ogs.tif
102
RTVSPost2010PropOp54
 70
     1
102
RTVSPost2010Prop55
280
     0
102
RTVSPost2010PropOp55
 70
     1
102
RTVSPost2010Prop56
140
1.0
102
RTVSPost2010PropOp56
 70
     1
102
RTVSPost2010Prop57
140
1.0
102
RTVSPost2010PropOp57
 70
     1
102
RTVSPropertyOp0
 70
     1
102
RTVSPropertyOp1
 70
     1
102
RTVSPropertyOp2
 70
     1
102
RTVSPropertyOp3
 70
     1
102
RTVSPropertyOp4
 70
     1
102
RTVSPropertyOp5
 70
     1
102
RTVSPropertyOp6
 70
     1
102
RTVSPropertyOp7
 70
     1
102
RTVSPropertyOp8
 70
     1
102
RTVSPropertyOp9
 70
     1
102
RTVSPropertyOp10
 70
     1
102
RTVSPropertyOp11
 70
     1
102
RTVSPropertyOp12
 70
     1
102
RTVSPropertyOp13
 70
     1
102
RTVSPropertyOp14
 70
     1
102
RTVSPropertyOp15
 70
     1
102
RTVSPropertyOp16
 70
     1
102
RTVSPropertyOp17
 70
     1
102
RTVSPropertyOp18
 70
     1
102
RTVSPropertyOp19
 70
     1
102
RTVSPropertyOp20
 70
     1
102
RTVSPropertyOp21
 70
     1
102
RTVSPropertyOp22
 70
     1
102
RTVSPropertyOp23
 70
     1
102
RTVSPropertyOp24
 70
     1
102
RTVSPropertyOp25
 70
     1
102
RTVSPropertyOp26
 70
     1
102
RTVSPropertyOp27
 70
     1
102
RTVSPropertyOp28
 70
     1
102
RTVSPropertyOp29
 70
     1
102
RTVSPropertyOp30
 70
     1
102
RTVSPropertyOp31
 70
     1
102
RTVSPropertyOp32
 70
     1
102
RTVSPropertyOp33
 70
     1
102
RTVSPropertyOp34
 70
     1
102
RTVSPropertyOp35
 70
     1
102
RTVSPropertyOp36
 70
     1
102
RTVSPropertyOp37
 70
     1
102
RTVSPropertyOp38
 70
     1
102
RTVSPropertyOp39
 70
     1
102
RTVSPropertyOp40
 70
     1
102
RTVSPropertyOp41
 70
     1
102
RTVSPropertyOp42
 70
     1
102
RTVSPropertyOp43
 70
     1
102
RTVSPropertyOp44
 70
     1
102
RTVSPropertyOp45
 70
     1
102
RTVSPropertyOp46
 70
     1
102
RTVSPropertyOp47
 70
     1
102
RTVSPropertyOp48
 70
     1
102
RTVSPropertyOp49
 70
     1
102
RTVSPropertyOp50
 70
     1
102
RTVSPropertyOp51
 70
     0
102
RTVSPropertyOp52
 70
     0
102
RTVSPropertyOp53
 70
     1
102
RTVSPropertyOp54
 70
     1
102
RTVSPropertyOp55
 70
     1
102
RTVSPropertyOp56
 70
     1
102
RTVSPropertyOp57
 70
     1
102
RTVSPropertyOp58
 70
     1
102
RTVSPropertyOp59
 70
     1
102
RTVSPropertyOp60
 70
     1
102
RTVSPropertyOp61
 70
     1
102
RTVSPropertyOp62
 70
     1
  0
XRECORD
  5
9306
102
{ACAD_REACTORS
330
9305
102
}
330
9305
100
AcDbXrecord
280
     1
102
RTVSPost2010Prop28
280
     0
102
RTVSPost2010PropOp28
 70
     1
102
RTVSPost2010Prop29
280
     1
102
RTVSPost2010PropOp29
 70
     1
102
RTVSPost2010Prop30
280
     1
102
RTVSPost2010PropOp30
 70
     1
102
RTVSPost2010Prop31
280
     0
102
RTVSPost2010PropOp31
 70
     1
102
RTVSPost2010Prop32
280
     0
102
RTVSPost2010PropOp32
 70
     1
102
RTVSPost2010Prop33
280
     0
102
RTVSPost2010PropOp33
 70
     1
102
RTVSPost2010Prop34
280
     0
102
RTVSPost2010PropOp34
 70
     1
102
RTVSPost2010Prop35
280
     0
102
RTVSPost2010PropOp35
 70
     1
102
RTVSPost2010Prop36
280
     0
102
RTVSPost2010PropOp36
 70
     1
102
RTVSPost2010Prop37
 90
       50
102
RTVSPost2010PropOp37
 70
     1
102
RTVSPost2010Prop38
140
0.0
102
RTVSPost2010PropOp38
 70
     1
102
RTVSPost2010Prop39
140
1.0
102
RTVSPost2010PropOp39
 70
     1
102
RTVSPost2010Prop40
 90
        0
102
RTVSPost2010PropOp40
 70
     1
102
RTVSPost2010Prop41ColorIndex
 90
       18
102
RTVSPost2010Prop41ColorRGB
 90
        0
102
RTVSPost2010PropOp41
 70
     1
102
RTVSPost2010Prop42
 90
       50
102
RTVSPost2010PropOp42
 70
     1
102
RTVSPost2010Prop43
 90
        3
102
RTVSPost2010PropOp43
 70
     1
102
RTVSPost2010Prop44ColorIndex
 90
        5
102
RTVSPost2010Prop44ColorRGB
 90
      255
102
RTVSPost2010PropOp44
 70
     1
102
RTVSPost2010Prop45
280
     0
102
RTVSPost2010PropOp45
 70
     1
102
RTVSPost2010Prop46
 90
       50
102
RTVSPost2010PropOp46
 70
     1
102
RTVSPost2010Prop47
 90
       50
102
RTVSPost2010PropOp47
 70
     1
102
RTVSPost2010Prop48
 90
       50
102
RTVSPost2010PropOp48
 70
     1
102
RTVSPost2010Prop49
280
     0
102
RTVSPost2010PropOp49
 70
     1
102
RTVSPost2010Prop50
 90
       50
102
RTVSPost2010PropOp50
 70
     1
102
RTVSPost2010Prop51ColorIndex
 90
      256
102
RTVSPost2010Prop51ColorRGB
 90
-16777216
102
RTVSPost2010PropOp51
 70
     0
102
RTVSPost2010Prop52
140
1.0
102
RTVSPost2010PropOp52
 70
     0
102
RTVSPost2010Prop53
 90
        2
102
RTVSPost2010PropOp53
 70
     1
102
RTVSPost2010Prop54
  1
strokes_ogs.tif
102
RTVSPost2010PropOp54
 70
     1
102
RTVSPost2010Prop55
280
     0
102
RTVSPost2010PropOp55
 70
     1
102
RTVSPost2010Prop56
140
1.0
102
RTVSPost2010PropOp56
 70
     1
102
RTVSPost2010Prop57
140
1.0
102
RTVSPost2010PropOp57
 70
     1
102
RTVSPropertyOp0
 70
     1
102
RTVSPropertyOp1
 70
     1
102
RTVSPropertyOp2
 70
     1
102
RTVSPropertyOp3
 70
     1
102
RTVSPropertyOp4
 70
     1
102
RTVSPropertyOp5
 70
     1
102
RTVSPropertyOp6
 70
     1
102
RTVSPropertyOp7
 70
     1
102
RTVSPropertyOp8
 70
     1
102
RTVSPropertyOp9
 70
     1
102
RTVSPropertyOp10
 70
     1
102
RTVSPropertyOp11
 70
     1
102
RTVSPropertyOp12
 70
     1
102
RTVSPropertyOp13
 70
     1
102
RTVSPropertyOp14
 70
     1
102
RTVSPropertyOp15
 70
     1
102
RTVSPropertyOp16
 70
     1
102
RTVSPropertyOp17
 70
     1
102
RTVSPropertyOp18
 70
     1
102
RTVSPropertyOp19
 70
     1
102
RTVSPropertyOp20
 70
     1
102
RTVSPropertyOp21
 70
     1
102
RTVSPropertyOp22
 70
     1
102
RTVSPropertyOp23
 70
     1
102
RTVSPropertyOp24
 70
     1
102
RTVSPropertyOp25
 70
     1
102
RTVSPropertyOp26
 70
     1
102
RTVSPropertyOp27
 70
     1
102
RTVSPropertyOp28
 70
     1
102
RTVSPropertyOp29
 70
     1
102
RTVSPropertyOp30
 70
     1
102
RTVSPropertyOp31
 70
     1
102
RTVSPropertyOp32
 70
     1
102
RTVSPropertyOp33
 70
     1
102
RTVSPropertyOp34
 70
     1
102
RTVSPropertyOp35
 70
     1
102
RTVSPropertyOp36
 70
     1
102
RTVSPropertyOp37
 70
     1
102
RTVSPropertyOp38
 70
     1
102
RTVSPropertyOp39
 70
     1
102
RTVSPropertyOp40
 70
     1
102
RTVSPropertyOp41
 70
     1
102
RTVSPropertyOp42
 70
     1
102
RTVSPropertyOp43
 70
     1
102
RTVSPropertyOp44
 70
     1
102
RTVSPropertyOp45
 70
     1
102
RTVSPropertyOp46
 70
     1
102
RTVSPropertyOp47
 70
     1
102
RTVSPropertyOp48
 70
     1
102
RTVSPropertyOp49
 70
     1
102
RTVSPropertyOp50
 70
     1
102
RTVSPropertyOp51
 70
     0
102
RTVSPropertyOp52
 70
     0
102
RTVSPropertyOp53
 70
     1
102
RTVSPropertyOp54
 70
     1
102
RTVSPropertyOp55
 70
     1
102
RTVSPropertyOp56
 70
     1
102
RTVSPropertyOp57
 70
     1
102
RTVSPropertyOp58
 70
     1
102
RTVSPropertyOp59
 70
     1
102
RTVSPropertyOp60
 70
     1
102
RTVSPropertyOp61
 70
     1
102
RTVSPropertyOp62
 70
     1
  0
XRECORD
  5
930E
102
{ACAD_REACTORS
330
930D
102
}
330
930D
100
AcDbXrecord
280
     1
102
RTVSPost2010Prop28
280
     0
102
RTVSPost2010PropOp28
 70
     1
102
RTVSPost2010Prop29
280
     1
102
RTVSPost2010PropOp29
 70
     1
102
RTVSPost2010Prop30
280
     1
102
RTVSPost2010PropOp30
 70
     1
102
RTVSPost2010Prop31
280
     0
102
RTVSPost2010PropOp31
 70
     1
102
RTVSPost2010Prop32
280
     0
102
RTVSPost2010PropOp32
 70
     1
102
RTVSPost2010Prop33
280
     0
102
RTVSPost2010PropOp33
 70
     1
102
RTVSPost2010Prop34
280
     0
102
RTVSPost2010PropOp34
 70
     1
102
RTVSPost2010Prop35
280
     0
102
RTVSPost2010PropOp35
 70
     1
102
RTVSPost2010Prop36
280
     0
102
RTVSPost2010PropOp36
 70
     1
102
RTVSPost2010Prop37
 90
       50
102
RTVSPost2010PropOp37
 70
     1
102
RTVSPost2010Prop38
140
0.0
102
RTVSPost2010PropOp38
 70
     1
102
RTVSPost2010Prop39
140
1.0
102
RTVSPost2010PropOp39
 70
     1
102
RTVSPost2010Prop40
 90
        0
102
RTVSPost2010PropOp40
 70
     1
102
RTVSPost2010Prop41ColorIndex
 90
       18
102
RTVSPost2010Prop41ColorRGB
 90
        0
102
RTVSPost2010PropOp41
 70
     1
102
RTVSPost2010Prop42
 90
       50
102
RTVSPost2010PropOp42
 70
     1
102
RTVSPost2010Prop43
 90
        3
102
RTVSPost2010PropOp43
 70
     1
102
RTVSPost2010Prop44ColorIndex
 90
        5
102
RTVSPost2010Prop44ColorRGB
 90
      255
102
RTVSPost2010PropOp44
 70
     1
102
RTVSPost2010Prop45
280
     0
102
RTVSPost2010PropOp45
 70
     1
102
RTVSPost2010Prop46
 90
       50
102
RTVSPost2010PropOp46
 70
     1
102
RTVSPost2010Prop47
 90
       50
102
RTVSPost2010PropOp47
 70
     1
102
RTVSPost2010Prop48
 90
       50
102
RTVSPost2010PropOp48
 70
     1
102
RTVSPost2010Prop49
280
     0
102
RTVSPost2010PropOp49
 70
     1
102
RTVSPost2010Prop50
 90
       50
102
RTVSPost2010PropOp50
 70
     1
102
RTVSPost2010Prop51ColorIndex
 90
      256
102
RTVSPost2010Prop51ColorRGB
 90
-16777216
102
RTVSPost2010PropOp51
 70
     0
102
RTVSPost2010Prop52
140
1.0
102
RTVSPost2010PropOp52
 70
     0
102
RTVSPost2010Prop53
 90
        2
102
RTVSPost2010PropOp53
 70
     1
102
RTVSPost2010Prop54
  1
strokes_ogs.tif
102
RTVSPost2010PropOp54
 70
     1
102
RTVSPost2010Prop55
280
     0
102
RTVSPost2010PropOp55
 70
     1
102
RTVSPost2010Prop56
140
1.0
102
RTVSPost2010PropOp56
 70
     1
102
RTVSPost2010Prop57
140
1.0
102
RTVSPost2010PropOp57
 70
     1
102
RTVSPropertyOp0
 70
     1
102
RTVSPropertyOp1
 70
     1
102
RTVSPropertyOp2
 70
     1
102
RTVSPropertyOp3
 70
     1
102
RTVSPropertyOp4
 70
     1
102
RTVSPropertyOp5
 70
     1
102
RTVSPropertyOp6
 70
     1
102
RTVSPropertyOp7
 70
     1
102
RTVSPropertyOp8
 70
     1
102
RTVSPropertyOp9
 70
     1
102
RTVSPropertyOp10
 70
     1
102
RTVSPropertyOp11
 70
     1
102
RTVSPropertyOp12
 70
     1
102
RTVSPropertyOp13
 70
     1
102
RTVSPropertyOp14
 70
     1
102
RTVSPropertyOp15
 70
     1
102
RTVSPropertyOp16
 70
     1
102
RTVSPropertyOp17
 70
     1
102
RTVSPropertyOp18
 70
     1
102
RTVSPropertyOp19
 70
     1
102
RTVSPropertyOp20
 70
     1
102
RTVSPropertyOp21
 70
     1
102
RTVSPropertyOp22
 70
     1
102
RTVSPropertyOp23
 70
     1
102
RTVSPropertyOp24
 70
     1
102
RTVSPropertyOp25
 70
     1
102
RTVSPropertyOp26
 70
     1
102
RTVSPropertyOp27
 70
     1
102
RTVSPropertyOp28
 70
     1
102
RTVSPropertyOp29
 70
     1
102
RTVSPropertyOp30
 70
     1
102
RTVSPropertyOp31
 70
     1
102
RTVSPropertyOp32
 70
     1
102
RTVSPropertyOp33
 70
     1
102
RTVSPropertyOp34
 70
     1
102
RTVSPropertyOp35
 70
     1
102
RTVSPropertyOp36
 70
     1
102
RTVSPropertyOp37
 70
     1
102
RTVSPropertyOp38
 70
     1
102
RTVSPropertyOp39
 70
     1
102
RTVSPropertyOp40
 70
     1
102
RTVSPropertyOp41
 70
     1
102
RTVSPropertyOp42
 70
     1
102
RTVSPropertyOp43
 70
     1
102
RTVSPropertyOp44
 70
     1
102
RTVSPropertyOp45
 70
     1
102
RTVSPropertyOp46
 70
     1
102
RTVSPropertyOp47
 70
     1
102
RTVSPropertyOp48
 70
     1
102
RTVSPropertyOp49
 70
     1
102
RTVSPropertyOp50
 70
     1
102
RTVSPropertyOp51
 70
     0
102
RTVSPropertyOp52
 70
     0
102
RTVSPropertyOp53
 70
     1
102
RTVSPropertyOp54
 70
     1
102
RTVSPropertyOp55
 70
     1
102
RTVSPropertyOp56
 70
     1
102
RTVSPropertyOp57
 70
     1
102
RTVSPropertyOp58
 70
     1
102
RTVSPropertyOp59
 70
     1
102
RTVSPropertyOp60
 70
     1
102
RTVSPropertyOp61
 70
     1
102
RTVSPropertyOp62
 70
     1
  0
XRECORD
  5
932A
102
{ACAD_REACTORS
330
9329
102
}
330
9329
100
AcDbXrecord
280
     1
102
RTVSPost2010Prop28
280
     0
102
RTVSPost2010PropOp28
 70
     0
102
RTVSPost2010Prop29
280
     1
102
RTVSPost2010PropOp29
 70
     0
102
RTVSPost2010Prop30
280
     1
102
RTVSPost2010PropOp30
 70
     0
102
RTVSPost2010Prop31
280
     0
102
RTVSPost2010PropOp31
 70
     0
102
RTVSPost2010Prop32
280
     0
102
RTVSPost2010PropOp32
 70
     0
102
RTVSPost2010Prop33
280
     0
102
RTVSPost2010PropOp33
 70
     0
102
RTVSPost2010Prop34
280
     0
102
RTVSPost2010PropOp34
 70
     0
102
RTVSPost2010Prop35
280
     0
102
RTVSPost2010PropOp35
 70
     0
102
RTVSPost2010Prop36
280
     0
102
RTVSPost2010PropOp36
 70
     0
102
RTVSPost2010Prop37
 90
       50
102
RTVSPost2010PropOp37
 70
     0
102
RTVSPost2010Prop38
140
0.0
102
RTVSPost2010PropOp38
 70
     0
102
RTVSPost2010Prop39
140
1.0
102
RTVSPost2010PropOp39
 70
     0
102
RTVSPost2010Prop40
 90
        0
102
RTVSPost2010PropOp40
 70
     0
102
RTVSPost2010Prop41ColorIndex
 90
       18
102
RTVSPost2010Prop41ColorRGB
 90
        0
102
RTVSPost2010PropOp41
 70
     0
102
RTVSPost2010Prop42
 90
       50
102
RTVSPost2010PropOp42
 70
     0
102
RTVSPost2010Prop43
 90
        3
102
RTVSPost2010PropOp43
 70
     0
102
RTVSPost2010Prop44ColorIndex
 90
        5
102
RTVSPost2010Prop44ColorRGB
 90
      255
102
RTVSPost2010PropOp44
 70
     0
102
RTVSPost2010Prop45
280
     0
102
RTVSPost2010PropOp45
 70
     0
102
RTVSPost2010Prop46
 90
       50
102
RTVSPost2010PropOp46
 70
     0
102
RTVSPost2010Prop47
 90
       50
102
RTVSPost2010PropOp47
 70
     0
102
RTVSPost2010Prop48
 90
       50
102
RTVSPost2010PropOp48
 70
     0
102
RTVSPost2010Prop49
280
     0
102
RTVSPost2010PropOp49
 70
     0
102
RTVSPost2010Prop50
 90
       50
102
RTVSPost2010PropOp50
 70
     0
102
RTVSPost2010Prop51ColorIndex
 90
      256
102
RTVSPost2010Prop51ColorRGB
 90
-16777216
102
RTVSPost2010PropOp51
 70
     0
102
RTVSPost2010Prop52
140
1.0
102
RTVSPost2010PropOp52
 70
     0
102
RTVSPost2010Prop53
 90
        2
102
RTVSPost2010PropOp53
 70
     0
102
RTVSPost2010Prop54
  1
strokes_ogs.tif
102
RTVSPost2010PropOp54
 70
     0
102
RTVSPost2010Prop55
280
     0
102
RTVSPost2010PropOp55
 70
     0
102
RTVSPost2010Prop56
140
1.0
102
RTVSPost2010PropOp56
 70
     0
102
RTVSPost2010Prop57
140
1.0
102
RTVSPost2010PropOp57
 70
     0
102
RTVSPropertyOp0
 70
     0
102
RTVSPropertyOp1
 70
     0
102
RTVSPropertyOp2
 70
     0
102
RTVSPropertyOp3
 70
     0
102
RTVSPropertyOp4
 70
     0
102
RTVSPropertyOp5
 70
     0
102
RTVSPropertyOp6
 70
     0
102
RTVSPropertyOp7
 70
     0
102
RTVSPropertyOp8
 70
     0
102
RTVSPropertyOp9
 70
     0
102
RTVSPropertyOp10
 70
     0
102
RTVSPropertyOp11
 70
     0
102
RTVSPropertyOp12
 70
     0
102
RTVSPropertyOp13
 70
     0
102
RTVSPropertyOp14
 70
     2
102
RTVSPropertyOp15
 70
     0
102
RTVSPropertyOp16
 70
     0
102
RTVSPropertyOp17
 70
     0
102
RTVSPropertyOp18
 70
     0
102
RTVSPropertyOp19
 70
     0
102
RTVSPropertyOp20
 70
     0
102
RTVSPropertyOp21
 70
     0
102
RTVSPropertyOp22
 70
     0
102
RTVSPropertyOp23
 70
     0
102
RTVSPropertyOp24
 70
     0
102
RTVSPropertyOp25
 70
     0
102
RTVSPropertyOp26
 70
     0
102
RTVSPropertyOp27
 70
     0
102
RTVSPropertyOp28
 70
     0
102
RTVSPropertyOp29
 70
     0
102
RTVSPropertyOp30
 70
     0
102
RTVSPropertyOp31
 70
     0
102
RTVSPropertyOp32
 70
     0
102
RTVSPropertyOp33
 70
     0
102
RTVSPropertyOp34
 70
     0
102
RTVSPropertyOp35
 70
     0
102
RTVSPropertyOp36
 70
     0
102
RTVSPropertyOp37
 70
     0
102
RTVSPropertyOp38
 70
     0
102
RTVSPropertyOp39
 70
     0
102
RTVSPropertyOp40
 70
     0
102
RTVSPropertyOp41
 70
     0
102
RTVSPropertyOp42
 70
     0
102
RTVSPropertyOp43
 70
     0
102
RTVSPropertyOp44
 70
     0
102
RTVSPropertyOp45
 70
     0
102
RTVSPropertyOp46
 70
     0
102
RTVSPropertyOp47
 70
     0
102
RTVSPropertyOp48
 70
     0
102
RTVSPropertyOp49
 70
     0
102
RTVSPropertyOp50
 70
     0
102
RTVSPropertyOp51
 70
     0
102
RTVSPropertyOp52
 70
     0
102
RTVSPropertyOp53
 70
     0
102
RTVSPropertyOp54
 70
     0
102
RTVSPropertyOp55
 70
     0
102
RTVSPropertyOp56
 70
     0
102
RTVSPropertyOp57
 70
     0
102
RTVSPropertyOp58
 70
     1
102
RTVSPropertyOp59
 70
     1
102
RTVSPropertyOp60
 70
     1
102
RTVSPropertyOp61
 70
     1
102
RTVSPropertyOp62
 70
     1
  0
XRECORD
  5
931A
102
{ACAD_REACTORS
330
9319
102
}
330
9319
100
AcDbXrecord
280
     1
102
RTVSPost2010Prop28
280
     0
102
RTVSPost2010PropOp28
 70
     1
102
RTVSPost2010Prop29
280
     1
102
RTVSPost2010PropOp29
 70
     1
102
RTVSPost2010Prop30
280
     1
102
RTVSPost2010PropOp30
 70
     1
102
RTVSPost2010Prop31
280
     0
102
RTVSPost2010PropOp31
 70
     1
102
RTVSPost2010Prop32
280
     0
102
RTVSPost2010PropOp32
 70
     1
102
RTVSPost2010Prop33
280
     0
102
RTVSPost2010PropOp33
 70
     1
102
RTVSPost2010Prop34
280
     0
102
RTVSPost2010PropOp34
 70
     1
102
RTVSPost2010Prop35
280
     0
102
RTVSPost2010PropOp35
 70
     1
102
RTVSPost2010Prop36
280
     0
102
RTVSPost2010PropOp36
 70
     1
102
RTVSPost2010Prop37
 90
       50
102
RTVSPost2010PropOp37
 70
     1
102
RTVSPost2010Prop38
140
0.0
102
RTVSPost2010PropOp38
 70
     1
102
RTVSPost2010Prop39
140
1.0
102
RTVSPost2010PropOp39
 70
     1
102
RTVSPost2010Prop40
 90
        0
102
RTVSPost2010PropOp40
 70
     1
102
RTVSPost2010Prop41ColorIndex
 90
       18
102
RTVSPost2010Prop41ColorRGB
 90
        0
102
RTVSPost2010PropOp41
 70
     1
102
RTVSPost2010Prop42
 90
       50
102
RTVSPost2010PropOp42
 70
     1
102
RTVSPost2010Prop43
 90
        3
102
RTVSPost2010PropOp43
 70
     1
102
RTVSPost2010Prop44ColorIndex
 90
        5
102
RTVSPost2010Prop44ColorRGB
 90
      255
102
RTVSPost2010PropOp44
 70
     1
102
RTVSPost2010Prop45
280
     0
102
RTVSPost2010PropOp45
 70
     1
102
RTVSPost2010Prop46
 90
       50
102
RTVSPost2010PropOp46
 70
     1
102
RTVSPost2010Prop47
 90
       50
102
RTVSPost2010PropOp47
 70
     1
102
RTVSPost2010Prop48
 90
       50
102
RTVSPost2010PropOp48
 70
     1
102
RTVSPost2010Prop49
280
     0
102
RTVSPost2010PropOp49
 70
     1
102
RTVSPost2010Prop50
 90
       50
102
RTVSPost2010PropOp50
 70
     1
102
RTVSPost2010Prop51ColorIndex
 90
      256
102
RTVSPost2010Prop51ColorRGB
 90
-16777216
102
RTVSPost2010PropOp51
 70
     0
102
RTVSPost2010Prop52
140
1.0
102
RTVSPost2010PropOp52
 70
     0
102
RTVSPost2010Prop53
 90
        2
102
RTVSPost2010PropOp53
 70
     1
102
RTVSPost2010Prop54
  1
strokes_ogs.tif
102
RTVSPost2010PropOp54
 70
     1
102
RTVSPost2010Prop55
280
     0
102
RTVSPost2010PropOp55
 70
     1
102
RTVSPost2010Prop56
140
1.0
102
RTVSPost2010PropOp56
 70
     1
102
RTVSPost2010Prop57
140
1.0
102
RTVSPost2010PropOp57
 70
     1
102
RTVSPropertyOp0
 70
     1
102
RTVSPropertyOp1
 70
     1
102
RTVSPropertyOp2
 70
     1
102
RTVSPropertyOp3
 70
     1
102
RTVSPropertyOp4
 70
     1
102
RTVSPropertyOp5
 70
     1
102
RTVSPropertyOp6
 70
     1
102
RTVSPropertyOp7
 70
     1
102
RTVSPropertyOp8
 70
     1
102
RTVSPropertyOp9
 70
     1
102
RTVSPropertyOp10
 70
     1
102
RTVSPropertyOp11
 70
     1
102
RTVSPropertyOp12
 70
     1
102
RTVSPropertyOp13
 70
     1
102
RTVSPropertyOp14
 70
     1
102
RTVSPropertyOp15
 70
     1
102
RTVSPropertyOp16
 70
     1
102
RTVSPropertyOp17
 70
     1
102
RTVSPropertyOp18
 70
     1
102
RTVSPropertyOp19
 70
     1
102
RTVSPropertyOp20
 70
     1
102
RTVSPropertyOp21
 70
     1
102
RTVSPropertyOp22
 70
     1
102
RTVSPropertyOp23
 70
     1
102
RTVSPropertyOp24
 70
     1
102
RTVSPropertyOp25
 70
     1
102
RTVSPropertyOp26
 70
     1
102
RTVSPropertyOp27
 70
     1
102
RTVSPropertyOp28
 70
     1
102
RTVSPropertyOp29
 70
     1
102
RTVSPropertyOp30
 70
     1
102
RTVSPropertyOp31
 70
     1
102
RTVSPropertyOp32
 70
     1
102
RTVSPropertyOp33
 70
     1
102
RTVSPropertyOp34
 70
     1
102
RTVSPropertyOp35
 70
     1
102
RTVSPropertyOp36
 70
     1
102
RTVSPropertyOp37
 70
     1
102
RTVSPropertyOp38
 70
     1
102
RTVSPropertyOp39
 70
     1
102
RTVSPropertyOp40
 70
     1
102
RTVSPropertyOp41
 70
     1
102
RTVSPropertyOp42
 70
     1
102
RTVSPropertyOp43
 70
     1
102
RTVSPropertyOp44
 70
     1
102
RTVSPropertyOp45
 70
     1
102
RTVSPropertyOp46
 70
     1
102
RTVSPropertyOp47
 70
     1
102
RTVSPropertyOp48
 70
     1
102
RTVSPropertyOp49
 70
     1
102
RTVSPropertyOp50
 70
     1
102
RTVSPropertyOp51
 70
     0
102
RTVSPropertyOp52
 70
     0
102
RTVSPropertyOp53
 70
     1
102
RTVSPropertyOp54
 70
     1
102
RTVSPropertyOp55
 70
     1
102
RTVSPropertyOp56
 70
     1
102
RTVSPropertyOp57
 70
     1
102
RTVSPropertyOp58
 70
     1
102
RTVSPropertyOp59
 70
     1
102
RTVSPropertyOp60
 70
     1
102
RTVSPropertyOp61
 70
     1
102
RTVSPropertyOp62
 70
     1
  0
XRECORD
  5
932C
102
{ACAD_REACTORS
330
932B
102
}
330
932B
100
AcDbXrecord
280
     1
102
RTVSPost2010Prop28
280
     0
102
RTVSPost2010PropOp28
 70
     0
102
RTVSPost2010Prop29
280
     1
102
RTVSPost2010PropOp29
 70
     0
102
RTVSPost2010Prop30
280
     1
102
RTVSPost2010PropOp30
 70
     0
102
RTVSPost2010Prop31
280
     0
102
RTVSPost2010PropOp31
 70
     0
102
RTVSPost2010Prop32
280
     0
102
RTVSPost2010PropOp32
 70
     0
102
RTVSPost2010Prop33
280
     0
102
RTVSPost2010PropOp33
 70
     0
102
RTVSPost2010Prop34
280
     0
102
RTVSPost2010PropOp34
 70
     0
102
RTVSPost2010Prop35
280
     0
102
RTVSPost2010PropOp35
 70
     0
102
RTVSPost2010Prop36
280
     0
102
RTVSPost2010PropOp36
 70
     0
102
RTVSPost2010Prop37
 90
       50
102
RTVSPost2010PropOp37
 70
     0
102
RTVSPost2010Prop38
140
0.0
102
RTVSPost2010PropOp38
 70
     0
102
RTVSPost2010Prop39
140
1.0
102
RTVSPost2010PropOp39
 70
     0
102
RTVSPost2010Prop40
 90
        0
102
RTVSPost2010PropOp40
 70
     0
102
RTVSPost2010Prop41ColorIndex
 90
       18
102
RTVSPost2010Prop41ColorRGB
 90
        0
102
RTVSPost2010PropOp41
 70
     0
102
RTVSPost2010Prop42
 90
       50
102
RTVSPost2010PropOp42
 70
     0
102
RTVSPost2010Prop43
 90
        3
102
RTVSPost2010PropOp43
 70
     0
102
RTVSPost2010Prop44ColorIndex
 90
        5
102
RTVSPost2010Prop44ColorRGB
 90
      255
102
RTVSPost2010PropOp44
 70
     0
102
RTVSPost2010Prop45
280
     0
102
RTVSPost2010PropOp45
 70
     0
102
RTVSPost2010Prop46
 90
       50
102
RTVSPost2010PropOp46
 70
     0
102
RTVSPost2010Prop47
 90
       50
102
RTVSPost2010PropOp47
 70
     0
102
RTVSPost2010Prop48
 90
       50
102
RTVSPost2010PropOp48
 70
     0
102
RTVSPost2010Prop49
280
     0
102
RTVSPost2010PropOp49
 70
     0
102
RTVSPost2010Prop50
 90
       50
102
RTVSPost2010PropOp50
 70
     0
102
RTVSPost2010Prop51ColorIndex
 90
      256
102
RTVSPost2010Prop51ColorRGB
 90
-16777216
102
RTVSPost2010PropOp51
 70
     0
102
RTVSPost2010Prop52
140
1.0
102
RTVSPost2010PropOp52
 70
     0
102
RTVSPost2010Prop53
 90
        2
102
RTVSPost2010PropOp53
 70
     0
102
RTVSPost2010Prop54
  1
strokes_ogs.tif
102
RTVSPost2010PropOp54
 70
     0
102
RTVSPost2010Prop55
280
     0
102
RTVSPost2010PropOp55
 70
     0
102
RTVSPost2010Prop56
140
1.0
102
RTVSPost2010PropOp56
 70
     0
102
RTVSPost2010Prop57
140
1.0
102
RTVSPost2010PropOp57
 70
     0
102
RTVSPropertyOp0
 70
     0
102
RTVSPropertyOp1
 70
     0
102
RTVSPropertyOp2
 70
     0
102
RTVSPropertyOp3
 70
     0
102
RTVSPropertyOp4
 70
     0
102
RTVSPropertyOp5
 70
     0
102
RTVSPropertyOp6
 70
     0
102
RTVSPropertyOp7
 70
     0
102
RTVSPropertyOp8
 70
     0
102
RTVSPropertyOp9
 70
     0
102
RTVSPropertyOp10
 70
     0
102
RTVSPropertyOp11
 70
     0
102
RTVSPropertyOp12
 70
     0
102
RTVSPropertyOp13
 70
     0
102
RTVSPropertyOp14
 70
     2
102
RTVSPropertyOp15
 70
     0
102
RTVSPropertyOp16
 70
     0
102
RTVSPropertyOp17
 70
     0
102
RTVSPropertyOp18
 70
     0
102
RTVSPropertyOp19
 70
     0
102
RTVSPropertyOp20
 70
     0
102
RTVSPropertyOp21
 70
     0
102
RTVSPropertyOp22
 70
     0
102
RTVSPropertyOp23
 70
     0
102
RTVSPropertyOp24
 70
     0
102
RTVSPropertyOp25
 70
     0
102
RTVSPropertyOp26
 70
     0
102
RTVSPropertyOp27
 70
     0
102
RTVSPropertyOp28
 70
     0
102
RTVSPropertyOp29
 70
     0
102
RTVSPropertyOp30
 70
     0
102
RTVSPropertyOp31
 70
     0
102
RTVSPropertyOp32
 70
     0
102
RTVSPropertyOp33
 70
     0
102
RTVSPropertyOp34
 70
     0
102
RTVSPropertyOp35
 70
     0
102
RTVSPropertyOp36
 70
     0
102
RTVSPropertyOp37
 70
     0
102
RTVSPropertyOp38
 70
     0
102
RTVSPropertyOp39
 70
     0
102
RTVSPropertyOp40
 70
     0
102
RTVSPropertyOp41
 70
     0
102
RTVSPropertyOp42
 70
     0
102
RTVSPropertyOp43
 70
     0
102
RTVSPropertyOp44
 70
     0
102
RTVSPropertyOp45
 70
     0
102
RTVSPropertyOp46
 70
     0
102
RTVSPropertyOp47
 70
     0
102
RTVSPropertyOp48
 70
     0
102
RTVSPropertyOp49
 70
     0
102
RTVSPropertyOp50
 70
     0
102
RTVSPropertyOp51
 70
     0
102
RTVSPropertyOp52
 70
     0
102
RTVSPropertyOp53
 70
     0
102
RTVSPropertyOp54
 70
     0
102
RTVSPropertyOp55
 70
     0
102
RTVSPropertyOp56
 70
     0
102
RTVSPropertyOp57
 70
     0
102
RTVSPropertyOp58
 70
     1
102
RTVSPropertyOp59
 70
     1
102
RTVSPropertyOp60
 70
     1
102
RTVSPropertyOp61
 70
     1
102
RTVSPropertyOp62
 70
     1
  0
XRECORD
  5
9312
102
{ACAD_REACTORS
330
9311
102
}
330
9311
100
AcDbXrecord
280
     1
102
RTVSPost2010Prop28
280
     0
102
RTVSPost2010PropOp28
 70
     1
102
RTVSPost2010Prop29
280
     1
102
RTVSPost2010PropOp29
 70
     1
102
RTVSPost2010Prop30
280
     1
102
RTVSPost2010PropOp30
 70
     1
102
RTVSPost2010Prop31
280
     0
102
RTVSPost2010PropOp31
 70
     1
102
RTVSPost2010Prop32
280
     0
102
RTVSPost2010PropOp32
 70
     1
102
RTVSPost2010Prop33
280
     0
102
RTVSPost2010PropOp33
 70
     1
102
RTVSPost2010Prop34
280
     0
102
RTVSPost2010PropOp34
 70
     1
102
RTVSPost2010Prop35
280
     0
102
RTVSPost2010PropOp35
 70
     1
102
RTVSPost2010Prop36
280
     0
102
RTVSPost2010PropOp36
 70
     1
102
RTVSPost2010Prop37
 90
       50
102
RTVSPost2010PropOp37
 70
     1
102
RTVSPost2010Prop38
140
0.0
102
RTVSPost2010PropOp38
 70
     1
102
RTVSPost2010Prop39
140
1.0
102
RTVSPost2010PropOp39
 70
     1
102
RTVSPost2010Prop40
 90
        0
102
RTVSPost2010PropOp40
 70
     1
102
RTVSPost2010Prop41ColorIndex
 90
       18
102
RTVSPost2010Prop41ColorRGB
 90
        0
102
RTVSPost2010PropOp41
 70
     1
102
RTVSPost2010Prop42
 90
       50
102
RTVSPost2010PropOp42
 70
     1
102
RTVSPost2010Prop43
 90
        3
102
RTVSPost2010PropOp43
 70
     1
102
RTVSPost2010Prop44ColorIndex
 90
        5
102
RTVSPost2010Prop44ColorRGB
 90
      255
102
RTVSPost2010PropOp44
 70
     1
102
RTVSPost2010Prop45
280
     0
102
RTVSPost2010PropOp45
 70
     1
102
RTVSPost2010Prop46
 90
       50
102
RTVSPost2010PropOp46
 70
     1
102
RTVSPost2010Prop47
 90
       50
102
RTVSPost2010PropOp47
 70
     1
102
RTVSPost2010Prop48
 90
       50
102
RTVSPost2010PropOp48
 70
     1
102
RTVSPost2010Prop49
280
     0
102
RTVSPost2010PropOp49
 70
     1
102
RTVSPost2010Prop50
 90
       50
102
RTVSPost2010PropOp50
 70
     1
102
RTVSPost2010Prop51ColorIndex
 90
      256
102
RTVSPost2010Prop51ColorRGB
 90
-16777216
102
RTVSPost2010PropOp51
 70
     0
102
RTVSPost2010Prop52
140
1.0
102
RTVSPost2010PropOp52
 70
     0
102
RTVSPost2010Prop53
 90
        2
102
RTVSPost2010PropOp53
 70
     1
102
RTVSPost2010Prop54
  1
strokes_ogs.tif
102
RTVSPost2010PropOp54
 70
     1
102
RTVSPost2010Prop55
280
     0
102
RTVSPost2010PropOp55
 70
     1
102
RTVSPost2010Prop56
140
1.0
102
RTVSPost2010PropOp56
 70
     1
102
RTVSPost2010Prop57
140
1.0
102
RTVSPost2010PropOp57
 70
     1
102
RTVSPropertyOp0
 70
     1
102
RTVSPropertyOp1
 70
     1
102
RTVSPropertyOp2
 70
     1
102
RTVSPropertyOp3
 70
     1
102
RTVSPropertyOp4
 70
     1
102
RTVSPropertyOp5
 70
     1
102
RTVSPropertyOp6
 70
     1
102
RTVSPropertyOp7
 70
     1
102
RTVSPropertyOp8
 70
     1
102
RTVSPropertyOp9
 70
     1
102
RTVSPropertyOp10
 70
     1
102
RTVSPropertyOp11
 70
     1
102
RTVSPropertyOp12
 70
     1
102
RTVSPropertyOp13
 70
     1
102
RTVSPropertyOp14
 70
     1
102
RTVSPropertyOp15
 70
     1
102
RTVSPropertyOp16
 70
     1
102
RTVSPropertyOp17
 70
     1
102
RTVSPropertyOp18
 70
     1
102
RTVSPropertyOp19
 70
     1
102
RTVSPropertyOp20
 70
     1
102
RTVSPropertyOp21
 70
     1
102
RTVSPropertyOp22
 70
     1
102
RTVSPropertyOp23
 70
     1
102
RTVSPropertyOp24
 70
     1
102
RTVSPropertyOp25
 70
     1
102
RTVSPropertyOp26
 70
     1
102
RTVSPropertyOp27
 70
     1
102
RTVSPropertyOp28
 70
     1
102
RTVSPropertyOp29
 70
     1
102
RTVSPropertyOp30
 70
     1
102
RTVSPropertyOp31
 70
     1
102
RTVSPropertyOp32
 70
     1
102
RTVSPropertyOp33
 70
     1
102
RTVSPropertyOp34
 70
     1
102
RTVSPropertyOp35
 70
     1
102
RTVSPropertyOp36
 70
     1
102
RTVSPropertyOp37
 70
     1
102
RTVSPropertyOp38
 70
     1
102
RTVSPropertyOp39
 70
     1
102
RTVSPropertyOp40
 70
     1
102
RTVSPropertyOp41
 70
     1
102
RTVSPropertyOp42
 70
     1
102
RTVSPropertyOp43
 70
     1
102
RTVSPropertyOp44
 70
     1
102
RTVSPropertyOp45
 70
     1
102
RTVSPropertyOp46
 70
     1
102
RTVSPropertyOp47
 70
     1
102
RTVSPropertyOp48
 70
     1
102
RTVSPropertyOp49
 70
     1
102
RTVSPropertyOp50
 70
     1
102
RTVSPropertyOp51
 70
     0
102
RTVSPropertyOp52
 70
     0
102
RTVSPropertyOp53
 70
     1
102
RTVSPropertyOp54
 70
     1
102
RTVSPropertyOp55
 70
     1
102
RTVSPropertyOp56
 70
     1
102
RTVSPropertyOp57
 70
     1
102
RTVSPropertyOp58
 70
     1
102
RTVSPropertyOp59
 70
     1
102
RTVSPropertyOp60
 70
     1
102
RTVSPropertyOp61
 70
     1
102
RTVSPropertyOp62
 70
     1
  0
XRECORD
  5
9328
102
{ACAD_REACTORS
330
9327
102
}
330
9327
100
AcDbXrecord
280
     1
102
RTVSPost2010Prop28
280
     0
102
RTVSPost2010PropOp28
 70
     1
102
RTVSPost2010Prop29
280
     1
102
RTVSPost2010PropOp29
 70
     1
102
RTVSPost2010Prop30
280
     1
102
RTVSPost2010PropOp30
 70
     1
102
RTVSPost2010Prop31
280
     0
102
RTVSPost2010PropOp31
 70
     1
102
RTVSPost2010Prop32
280
     0
102
RTVSPost2010PropOp32
 70
     1
102
RTVSPost2010Prop33
280
     0
102
RTVSPost2010PropOp33
 70
     1
102
RTVSPost2010Prop34
280
     0
102
RTVSPost2010PropOp34
 70
     1
102
RTVSPost2010Prop35
280
     0
102
RTVSPost2010PropOp35
 70
     1
102
RTVSPost2010Prop36
280
     0
102
RTVSPost2010PropOp36
 70
     1
102
RTVSPost2010Prop37
 90
       50
102
RTVSPost2010PropOp37
 70
     1
102
RTVSPost2010Prop38
140
0.0
102
RTVSPost2010PropOp38
 70
     1
102
RTVSPost2010Prop39
140
1.0
102
RTVSPost2010PropOp39
 70
     1
102
RTVSPost2010Prop40
 90
        0
102
RTVSPost2010PropOp40
 70
     1
102
RTVSPost2010Prop41ColorIndex
 90
       18
102
RTVSPost2010Prop41ColorRGB
 90
        0
102
RTVSPost2010PropOp41
 70
     1
102
RTVSPost2010Prop42
 90
       50
102
RTVSPost2010PropOp42
 70
     1
102
RTVSPost2010Prop43
 90
        3
102
RTVSPost2010PropOp43
 70
     1
102
RTVSPost2010Prop44ColorIndex
 90
        5
102
RTVSPost2010Prop44ColorRGB
 90
      255
102
RTVSPost2010PropOp44
 70
     1
102
RTVSPost2010Prop45
280
     0
102
RTVSPost2010PropOp45
 70
     1
102
RTVSPost2010Prop46
 90
       50
102
RTVSPost2010PropOp46
 70
     1
102
RTVSPost2010Prop47
 90
       50
102
RTVSPost2010PropOp47
 70
     1
102
RTVSPost2010Prop48
 90
       50
102
RTVSPost2010PropOp48
 70
     1
102
RTVSPost2010Prop49
280
     0
102
RTVSPost2010PropOp49
 70
     1
102
RTVSPost2010Prop50
 90
       50
102
RTVSPost2010PropOp50
 70
     1
102
RTVSPost2010Prop51ColorIndex
 90
      256
102
RTVSPost2010Prop51ColorRGB
 90
-16777216
102
RTVSPost2010PropOp51
 70
     0
102
RTVSPost2010Prop52
140
1.0
102
RTVSPost2010PropOp52
 70
     0
102
RTVSPost2010Prop53
 90
        2
102
RTVSPost2010PropOp53
 70
     1
102
RTVSPost2010Prop54
  1
strokes_ogs.tif
102
RTVSPost2010PropOp54
 70
     1
102
RTVSPost2010Prop55
280
     0
102
RTVSPost2010PropOp55
 70
     1
102
RTVSPost2010Prop56
140
1.0
102
RTVSPost2010PropOp56
 70
     1
102
RTVSPost2010Prop57
140
1.0
102
RTVSPost2010PropOp57
 70
     1
102
RTVSPropertyOp0
 70
     1
102
RTVSPropertyOp1
 70
     1
102
RTVSPropertyOp2
 70
     1
102
RTVSPropertyOp3
 70
     1
102
RTVSPropertyOp4
 70
     1
102
RTVSPropertyOp5
 70
     1
102
RTVSPropertyOp6
 70
     1
102
RTVSPropertyOp7
 70
     1
102
RTVSPropertyOp8
 70
     1
102
RTVSPropertyOp9
 70
     1
102
RTVSPropertyOp10
 70
     1
102
RTVSPropertyOp11
 70
     1
102
RTVSPropertyOp12
 70
     1
102
RTVSPropertyOp13
 70
     1
102
RTVSPropertyOp14
 70
     1
102
RTVSPropertyOp15
 70
     1
102
RTVSPropertyOp16
 70
     1
102
RTVSPropertyOp17
 70
     1
102
RTVSPropertyOp18
 70
     1
102
RTVSPropertyOp19
 70
     1
102
RTVSPropertyOp20
 70
     1
102
RTVSPropertyOp21
 70
     1
102
RTVSPropertyOp22
 70
     1
102
RTVSPropertyOp23
 70
     1
102
RTVSPropertyOp24
 70
     1
102
RTVSPropertyOp25
 70
     1
102
RTVSPropertyOp26
 70
     1
102
RTVSPropertyOp27
 70
     1
102
RTVSPropertyOp28
 70
     1
102
RTVSPropertyOp29
 70
     1
102
RTVSPropertyOp30
 70
     1
102
RTVSPropertyOp31
 70
     1
102
RTVSPropertyOp32
 70
     1
102
RTVSPropertyOp33
 70
     1
102
RTVSPropertyOp34
 70
     1
102
RTVSPropertyOp35
 70
     1
102
RTVSPropertyOp36
 70
     1
102
RTVSPropertyOp37
 70
     1
102
RTVSPropertyOp38
 70
     1
102
RTVSPropertyOp39
 70
     1
102
RTVSPropertyOp40
 70
     1
102
RTVSPropertyOp41
 70
     1
102
RTVSPropertyOp42
 70
     1
102
RTVSPropertyOp43
 70
     1
102
RTVSPropertyOp44
 70
     1
102
RTVSPropertyOp45
 70
     1
102
RTVSPropertyOp46
 70
     1
102
RTVSPropertyOp47
 70
     1
102
RTVSPropertyOp48
 70
     1
102
RTVSPropertyOp49
 70
     1
102
RTVSPropertyOp50
 70
     1
102
RTVSPropertyOp51
 70
     0
102
RTVSPropertyOp52
 70
     0
102
RTVSPropertyOp53
 70
     1
102
RTVSPropertyOp54
 70
     1
102
RTVSPropertyOp55
 70
     1
102
RTVSPropertyOp56
 70
     1
102
RTVSPropertyOp57
 70
     1
102
RTVSPropertyOp58
 70
     1
102
RTVSPropertyOp59
 70
     1
102
RTVSPropertyOp60
 70
     1
102
RTVSPropertyOp61
 70
     1
102
RTVSPropertyOp62
 70
     1
  0
XRECORD
  5
9326
102
{ACAD_REACTORS
330
9325
102
}
330
9325
100
AcDbXrecord
280
     1
102
RTVSPost2010Prop28
280
     0
102
RTVSPost2010PropOp28
 70
     1
102
RTVSPost2010Prop29
280
     1
102
RTVSPost2010PropOp29
 70
     1
102
RTVSPost2010Prop30
280
     1
102
RTVSPost2010PropOp30
 70
     1
102
RTVSPost2010Prop31
280
     0
102
RTVSPost2010PropOp31
 70
     1
102
RTVSPost2010Prop32
280
     0
102
RTVSPost2010PropOp32
 70
     1
102
RTVSPost2010Prop33
280
     0
102
RTVSPost2010PropOp33
 70
     1
102
RTVSPost2010Prop34
280
     0
102
RTVSPost2010PropOp34
 70
     1
102
RTVSPost2010Prop35
280
     0
102
RTVSPost2010PropOp35
 70
     1
102
RTVSPost2010Prop36
280
     0
102
RTVSPost2010PropOp36
 70
     1
102
RTVSPost2010Prop37
 90
       50
102
RTVSPost2010PropOp37
 70
     1
102
RTVSPost2010Prop38
140
0.0
102
RTVSPost2010PropOp38
 70
     1
102
RTVSPost2010Prop39
140
1.0
102
RTVSPost2010PropOp39
 70
     1
102
RTVSPost2010Prop40
 90
        0
102
RTVSPost2010PropOp40
 70
     1
102
RTVSPost2010Prop41ColorIndex
 90
       18
102
RTVSPost2010Prop41ColorRGB
 90
        0
102
RTVSPost2010PropOp41
 70
     1
102
RTVSPost2010Prop42
 90
       50
102
RTVSPost2010PropOp42
 70
     1
102
RTVSPost2010Prop43
 90
        3
102
RTVSPost2010PropOp43
 70
     1
102
RTVSPost2010Prop44ColorIndex
 90
        5
102
RTVSPost2010Prop44ColorRGB
 90
      255
102
RTVSPost2010PropOp44
 70
     1
102
RTVSPost2010Prop45
280
     0
102
RTVSPost2010PropOp45
 70
     1
102
RTVSPost2010Prop46
 90
       50
102
RTVSPost2010PropOp46
 70
     1
102
RTVSPost2010Prop47
 90
       50
102
RTVSPost2010PropOp47
 70
     1
102
RTVSPost2010Prop48
 90
       50
102
RTVSPost2010PropOp48
 70
     1
102
RTVSPost2010Prop49
280
     0
102
RTVSPost2010PropOp49
 70
     1
102
RTVSPost2010Prop50
 90
       50
102
RTVSPost2010PropOp50
 70
     1
102
RTVSPost2010Prop51ColorIndex
 90
      256
102
RTVSPost2010Prop51ColorRGB
 90
-16777216
102
RTVSPost2010PropOp51
 70
     0
102
RTVSPost2010Prop52
140
1.0
102
RTVSPost2010PropOp52
 70
     0
102
RTVSPost2010Prop53
 90
        2
102
RTVSPost2010PropOp53
 70
     1
102
RTVSPost2010Prop54
  1
strokes_ogs.tif
102
RTVSPost2010PropOp54
 70
     1
102
RTVSPost2010Prop55
280
     0
102
RTVSPost2010PropOp55
 70
     1
102
RTVSPost2010Prop56
140
1.0
102
RTVSPost2010PropOp56
 70
     1
102
RTVSPost2010Prop57
140
1.0
102
RTVSPost2010PropOp57
 70
     1
102
RTVSPropertyOp0
 70
     1
102
RTVSPropertyOp1
 70
     1
102
RTVSPropertyOp2
 70
     1
102
RTVSPropertyOp3
 70
     1
102
RTVSPropertyOp4
 70
     1
102
RTVSPropertyOp5
 70
     1
102
RTVSPropertyOp6
 70
     1
102
RTVSPropertyOp7
 70
     1
102
RTVSPropertyOp8
 70
     1
102
RTVSPropertyOp9
 70
     1
102
RTVSPropertyOp10
 70
     1
102
RTVSPropertyOp11
 70
     1
102
RTVSPropertyOp12
 70
     1
102
RTVSPropertyOp13
 70
     1
102
RTVSPropertyOp14
 70
     1
102
RTVSPropertyOp15
 70
     1
102
RTVSPropertyOp16
 70
     1
102
RTVSPropertyOp17
 70
     1
102
RTVSPropertyOp18
 70
     1
102
RTVSPropertyOp19
 70
     1
102
RTVSPropertyOp20
 70
     1
102
RTVSPropertyOp21
 70
     1
102
RTVSPropertyOp22
 70
     1
102
RTVSPropertyOp23
 70
     1
102
RTVSPropertyOp24
 70
     1
102
RTVSPropertyOp25
 70
     1
102
RTVSPropertyOp26
 70
     1
102
RTVSPropertyOp27
 70
     1
102
RTVSPropertyOp28
 70
     1
102
RTVSPropertyOp29
 70
     1
102
RTVSPropertyOp30
 70
     1
102
RTVSPropertyOp31
 70
     1
102
RTVSPropertyOp32
 70
     1
102
RTVSPropertyOp33
 70
     1
102
RTVSPropertyOp34
 70
     1
102
RTVSPropertyOp35
 70
     1
102
RTVSPropertyOp36
 70
     1
102
RTVSPropertyOp37
 70
     1
102
RTVSPropertyOp38
 70
     1
102
RTVSPropertyOp39
 70
     1
102
RTVSPropertyOp40
 70
     1
102
RTVSPropertyOp41
 70
     1
102
RTVSPropertyOp42
 70
     1
102
RTVSPropertyOp43
 70
     1
102
RTVSPropertyOp44
 70
     1
102
RTVSPropertyOp45
 70
     1
102
RTVSPropertyOp46
 70
     1
102
RTVSPropertyOp47
 70
     1
102
RTVSPropertyOp48
 70
     1
102
RTVSPropertyOp49
 70
     1
102
RTVSPropertyOp50
 70
     1
102
RTVSPropertyOp51
 70
     0
102
RTVSPropertyOp52
 70
     0
102
RTVSPropertyOp53
 70
     1
102
RTVSPropertyOp54
 70
     1
102
RTVSPropertyOp55
 70
     1
102
RTVSPropertyOp56
 70
     1
102
RTVSPropertyOp57
 70
     1
102
RTVSPropertyOp58
 70
     1
102
RTVSPropertyOp59
 70
     1
102
RTVSPropertyOp60
 70
     1
102
RTVSPropertyOp61
 70
     1
102
RTVSPropertyOp62
 70
     1
  0
XRECORD
  5
9320
102
{ACAD_REACTORS
330
931F
102
}
330
931F
100
AcDbXrecord
280
     1
102
RTVSPost2010Prop28
280
     0
102
RTVSPost2010PropOp28
 70
     1
102
RTVSPost2010Prop29
280
     1
102
RTVSPost2010PropOp29
 70
     1
102
RTVSPost2010Prop30
280
     1
102
RTVSPost2010PropOp30
 70
     1
102
RTVSPost2010Prop31
280
     0
102
RTVSPost2010PropOp31
 70
     1
102
RTVSPost2010Prop32
280
     0
102
RTVSPost2010PropOp32
 70
     1
102
RTVSPost2010Prop33
280
     0
102
RTVSPost2010PropOp33
 70
     1
102
RTVSPost2010Prop34
280
     0
102
RTVSPost2010PropOp34
 70
     1
102
RTVSPost2010Prop35
280
     0
102
RTVSPost2010PropOp35
 70
     1
102
RTVSPost2010Prop36
280
     0
102
RTVSPost2010PropOp36
 70
     1
102
RTVSPost2010Prop37
 90
       50
102
RTVSPost2010PropOp37
 70
     1
102
RTVSPost2010Prop38
140
0.0
102
RTVSPost2010PropOp38
 70
     1
102
RTVSPost2010Prop39
140
1.0
102
RTVSPost2010PropOp39
 70
     1
102
RTVSPost2010Prop40
 90
        0
102
RTVSPost2010PropOp40
 70
     1
102
RTVSPost2010Prop41ColorIndex
 90
       18
102
RTVSPost2010Prop41ColorRGB
 90
        0
102
RTVSPost2010PropOp41
 70
     1
102
RTVSPost2010Prop42
 90
       50
102
RTVSPost2010PropOp42
 70
     1
102
RTVSPost2010Prop43
 90
        3
102
RTVSPost2010PropOp43
 70
     1
102
RTVSPost2010Prop44ColorIndex
 90
        5
102
RTVSPost2010Prop44ColorRGB
 90
      255
102
RTVSPost2010PropOp44
 70
     1
102
RTVSPost2010Prop45
280
     0
102
RTVSPost2010PropOp45
 70
     1
102
RTVSPost2010Prop46
 90
       50
102
RTVSPost2010PropOp46
 70
     1
102
RTVSPost2010Prop47
 90
       50
102
RTVSPost2010PropOp47
 70
     1
102
RTVSPost2010Prop48
 90
       50
102
RTVSPost2010PropOp48
 70
     1
102
RTVSPost2010Prop49
280
     0
102
RTVSPost2010PropOp49
 70
     1
102
RTVSPost2010Prop50
 90
       50
102
RTVSPost2010PropOp50
 70
     1
102
RTVSPost2010Prop51ColorIndex
 90
      256
102
RTVSPost2010Prop51ColorRGB
 90
-16777216
102
RTVSPost2010PropOp51
 70
     0
102
RTVSPost2010Prop52
140
1.0
102
RTVSPost2010PropOp52
 70
     0
102
RTVSPost2010Prop53
 90
        2
102
RTVSPost2010PropOp53
 70
     1
102
RTVSPost2010Prop54
  1
strokes_ogs.tif
102
RTVSPost2010PropOp54
 70
     1
102
RTVSPost2010Prop55
280
     0
102
RTVSPost2010PropOp55
 70
     1
102
RTVSPost2010Prop56
140
1.0
102
RTVSPost2010PropOp56
 70
     1
102
RTVSPost2010Prop57
140
1.0
102
RTVSPost2010PropOp57
 70
     1
102
RTVSPropertyOp0
 70
     1
102
RTVSPropertyOp1
 70
     1
102
RTVSPropertyOp2
 70
     1
102
RTVSPropertyOp3
 70
     1
102
RTVSPropertyOp4
 70
     1
102
RTVSPropertyOp5
 70
     1
102
RTVSPropertyOp6
 70
     1
102
RTVSPropertyOp7
 70
     1
102
RTVSPropertyOp8
 70
     1
102
RTVSPropertyOp9
 70
     1
102
RTVSPropertyOp10
 70
     1
102
RTVSPropertyOp11
 70
     1
102
RTVSPropertyOp12
 70
     1
102
RTVSPropertyOp13
 70
     1
102
RTVSPropertyOp14
 70
     1
102
RTVSPropertyOp15
 70
     1
102
RTVSPropertyOp16
 70
     1
102
RTVSPropertyOp17
 70
     1
102
RTVSPropertyOp18
 70
     1
102
RTVSPropertyOp19
 70
     1
102
RTVSPropertyOp20
 70
     1
102
RTVSPropertyOp21
 70
     1
102
RTVSPropertyOp22
 70
     1
102
RTVSPropertyOp23
 70
     1
102
RTVSPropertyOp24
 70
     1
102
RTVSPropertyOp25
 70
     1
102
RTVSPropertyOp26
 70
     1
102
RTVSPropertyOp27
 70
     1
102
RTVSPropertyOp28
 70
     1
102
RTVSPropertyOp29
 70
     1
102
RTVSPropertyOp30
 70
     1
102
RTVSPropertyOp31
 70
     1
102
RTVSPropertyOp32
 70
     1
102
RTVSPropertyOp33
 70
     1
102
RTVSPropertyOp34
 70
     1
102
RTVSPropertyOp35
 70
     1
102
RTVSPropertyOp36
 70
     1
102
RTVSPropertyOp37
 70
     1
102
RTVSPropertyOp38
 70
     1
102
RTVSPropertyOp39
 70
     1
102
RTVSPropertyOp40
 70
     1
102
RTVSPropertyOp41
 70
     1
102
RTVSPropertyOp42
 70
     1
102
RTVSPropertyOp43
 70
     1
102
RTVSPropertyOp44
 70
     1
102
RTVSPropertyOp45
 70
     1
102
RTVSPropertyOp46
 70
     1
102
RTVSPropertyOp47
 70
     1
102
RTVSPropertyOp48
 70
     1
102
RTVSPropertyOp49
 70
     1
102
RTVSPropertyOp50
 70
     1
102
RTVSPropertyOp51
 70
     0
102
RTVSPropertyOp52
 70
     0
102
RTVSPropertyOp53
 70
     1
102
RTVSPropertyOp54
 70
     1
102
RTVSPropertyOp55
 70
     1
102
RTVSPropertyOp56
 70
     1
102
RTVSPropertyOp57
 70
     1
102
RTVSPropertyOp58
 70
     1
102
RTVSPropertyOp59
 70
     1
102
RTVSPropertyOp60
 70
     1
102
RTVSPropertyOp61
 70
     1
102
RTVSPropertyOp62
 70
     1
  0
XRECORD
  5
9322
102
{ACAD_REACTORS
330
9321
102
}
330
9321
100
AcDbXrecord
280
     1
102
RTVSPost2010Prop28
280
     0
102
RTVSPost2010PropOp28
 70
     1
102
RTVSPost2010Prop29
280
     1
102
RTVSPost2010PropOp29
 70
     1
102
RTVSPost2010Prop30
280
     1
102
RTVSPost2010PropOp30
 70
     1
102
RTVSPost2010Prop31
280
     0
102
RTVSPost2010PropOp31
 70
     1
102
RTVSPost2010Prop32
280
     0
102
RTVSPost2010PropOp32
 70
     1
102
RTVSPost2010Prop33
280
     0
102
RTVSPost2010PropOp33
 70
     1
102
RTVSPost2010Prop34
280
     0
102
RTVSPost2010PropOp34
 70
     1
102
RTVSPost2010Prop35
280
     0
102
RTVSPost2010PropOp35
 70
     1
102
RTVSPost2010Prop36
280
     0
102
RTVSPost2010PropOp36
 70
     1
102
RTVSPost2010Prop37
 90
       50
102
RTVSPost2010PropOp37
 70
     1
102
RTVSPost2010Prop38
140
0.0
102
RTVSPost2010PropOp38
 70
     1
102
RTVSPost2010Prop39
140
1.0
102
RTVSPost2010PropOp39
 70
     1
102
RTVSPost2010Prop40
 90
        0
102
RTVSPost2010PropOp40
 70
     1
102
RTVSPost2010Prop41ColorIndex
 90
       18
102
RTVSPost2010Prop41ColorRGB
 90
        0
102
RTVSPost2010PropOp41
 70
     1
102
RTVSPost2010Prop42
 90
       50
102
RTVSPost2010PropOp42
 70
     1
102
RTVSPost2010Prop43
 90
        3
102
RTVSPost2010PropOp43
 70
     1
102
RTVSPost2010Prop44ColorIndex
 90
        5
102
RTVSPost2010Prop44ColorRGB
 90
      255
102
RTVSPost2010PropOp44
 70
     1
102
RTVSPost2010Prop45
280
     0
102
RTVSPost2010PropOp45
 70
     1
102
RTVSPost2010Prop46
 90
       50
102
RTVSPost2010PropOp46
 70
     1
102
RTVSPost2010Prop47
 90
       50
102
RTVSPost2010PropOp47
 70
     1
102
RTVSPost2010Prop48
 90
       50
102
RTVSPost2010PropOp48
 70
     1
102
RTVSPost2010Prop49
280
     0
102
RTVSPost2010PropOp49
 70
     1
102
RTVSPost2010Prop50
 90
       50
102
RTVSPost2010PropOp50
 70
     1
102
RTVSPost2010Prop51ColorIndex
 90
      256
102
RTVSPost2010Prop51ColorRGB
 90
-16777216
102
RTVSPost2010PropOp51
 70
     0
102
RTVSPost2010Prop52
140
1.0
102
RTVSPost2010PropOp52
 70
     0
102
RTVSPost2010Prop53
 90
        2
102
RTVSPost2010PropOp53
 70
     1
102
RTVSPost2010Prop54
  1
strokes_ogs.tif
102
RTVSPost2010PropOp54
 70
     1
102
RTVSPost2010Prop55
280
     0
102
RTVSPost2010PropOp55
 70
     1
102
RTVSPost2010Prop56
140
1.0
102
RTVSPost2010PropOp56
 70
     1
102
RTVSPost2010Prop57
140
1.0
102
RTVSPost2010PropOp57
 70
     1
102
RTVSPropertyOp0
 70
     1
102
RTVSPropertyOp1
 70
     1
102
RTVSPropertyOp2
 70
     1
102
RTVSPropertyOp3
 70
     1
102
RTVSPropertyOp4
 70
     1
102
RTVSPropertyOp5
 70
     1
102
RTVSPropertyOp6
 70
     1
102
RTVSPropertyOp7
 70
     1
102
RTVSPropertyOp8
 70
     1
102
RTVSPropertyOp9
 70
     1
102
RTVSPropertyOp10
 70
     1
102
RTVSPropertyOp11
 70
     1
102
RTVSPropertyOp12
 70
     1
102
RTVSPropertyOp13
 70
     1
102
RTVSPropertyOp14
 70
     1
102
RTVSPropertyOp15
 70
     1
102
RTVSPropertyOp16
 70
     1
102
RTVSPropertyOp17
 70
     1
102
RTVSPropertyOp18
 70
     1
102
RTVSPropertyOp19
 70
     1
102
RTVSPropertyOp20
 70
     1
102
RTVSPropertyOp21
 70
     1
102
RTVSPropertyOp22
 70
     1
102
RTVSPropertyOp23
 70
     1
102
RTVSPropertyOp24
 70
     1
102
RTVSPropertyOp25
 70
     1
102
RTVSPropertyOp26
 70
     1
102
RTVSPropertyOp27
 70
     1
102
RTVSPropertyOp28
 70
     1
102
RTVSPropertyOp29
 70
     1
102
RTVSPropertyOp30
 70
     1
102
RTVSPropertyOp31
 70
     1
102
RTVSPropertyOp32
 70
     1
102
RTVSPropertyOp33
 70
     1
102
RTVSPropertyOp34
 70
     1
102
RTVSPropertyOp35
 70
     1
102
RTVSPropertyOp36
 70
     1
102
RTVSPropertyOp37
 70
     1
102
RTVSPropertyOp38
 70
     1
102
RTVSPropertyOp39
 70
     1
102
RTVSPropertyOp40
 70
     1
102
RTVSPropertyOp41
 70
     1
102
RTVSPropertyOp42
 70
     1
102
RTVSPropertyOp43
 70
     1
102
RTVSPropertyOp44
 70
     1
102
RTVSPropertyOp45
 70
     1
102
RTVSPropertyOp46
 70
     1
102
RTVSPropertyOp47
 70
     1
102
RTVSPropertyOp48
 70
     1
102
RTVSPropertyOp49
 70
     1
102
RTVSPropertyOp50
 70
     1
102
RTVSPropertyOp51
 70
     0
102
RTVSPropertyOp52
 70
     0
102
RTVSPropertyOp53
 70
     1
102
RTVSPropertyOp54
 70
     1
102
RTVSPropertyOp55
 70
     1
102
RTVSPropertyOp56
 70
     1
102
RTVSPropertyOp57
 70
     1
102
RTVSPropertyOp58
 70
     1
102
RTVSPropertyOp59
 70
     1
102
RTVSPropertyOp60
 70
     1
102
RTVSPropertyOp61
 70
     1
102
RTVSPropertyOp62
 70
     1
  0
XRECORD
  5
9318
102
{ACAD_REACTORS
330
9317
102
}
330
9317
100
AcDbXrecord
280
     1
102
RTVSPost2010Prop28
280
     0
102
RTVSPost2010PropOp28
 70
     1
102
RTVSPost2010Prop29
280
     1
102
RTVSPost2010PropOp29
 70
     1
102
RTVSPost2010Prop30
280
     1
102
RTVSPost2010PropOp30
 70
     1
102
RTVSPost2010Prop31
280
     0
102
RTVSPost2010PropOp31
 70
     1
102
RTVSPost2010Prop32
280
     0
102
RTVSPost2010PropOp32
 70
     1
102
RTVSPost2010Prop33
280
     0
102
RTVSPost2010PropOp33
 70
     1
102
RTVSPost2010Prop34
280
     0
102
RTVSPost2010PropOp34
 70
     1
102
RTVSPost2010Prop35
280
     0
102
RTVSPost2010PropOp35
 70
     1
102
RTVSPost2010Prop36
280
     0
102
RTVSPost2010PropOp36
 70
     1
102
RTVSPost2010Prop37
 90
       50
102
RTVSPost2010PropOp37
 70
     1
102
RTVSPost2010Prop38
140
0.0
102
RTVSPost2010PropOp38
 70
     1
102
RTVSPost2010Prop39
140
1.0
102
RTVSPost2010PropOp39
 70
     1
102
RTVSPost2010Prop40
 90
        0
102
RTVSPost2010PropOp40
 70
     1
102
RTVSPost2010Prop41ColorIndex
 90
       18
102
RTVSPost2010Prop41ColorRGB
 90
        0
102
RTVSPost2010PropOp41
 70
     1
102
RTVSPost2010Prop42
 90
       50
102
RTVSPost2010PropOp42
 70
     1
102
RTVSPost2010Prop43
 90
        3
102
RTVSPost2010PropOp43
 70
     1
102
RTVSPost2010Prop44ColorIndex
 90
        5
102
RTVSPost2010Prop44ColorRGB
 90
      255
102
RTVSPost2010PropOp44
 70
     1
102
RTVSPost2010Prop45
280
     0
102
RTVSPost2010PropOp45
 70
     1
102
RTVSPost2010Prop46
 90
       50
102
RTVSPost2010PropOp46
 70
     1
102
RTVSPost2010Prop47
 90
       50
102
RTVSPost2010PropOp47
 70
     1
102
RTVSPost2010Prop48
 90
       50
102
RTVSPost2010PropOp48
 70
     1
102
RTVSPost2010Prop49
280
     0
102
RTVSPost2010PropOp49
 70
     1
102
RTVSPost2010Prop50
 90
       50
102
RTVSPost2010PropOp50
 70
     1
102
RTVSPost2010Prop51ColorIndex
 90
      256
102
RTVSPost2010Prop51ColorRGB
 90
-16777216
102
RTVSPost2010PropOp51
 70
     0
102
RTVSPost2010Prop52
140
1.0
102
RTVSPost2010PropOp52
 70
     0
102
RTVSPost2010Prop53
 90
        2
102
RTVSPost2010PropOp53
 70
     1
102
RTVSPost2010Prop54
  1
strokes_ogs.tif
102
RTVSPost2010PropOp54
 70
     1
102
RTVSPost2010Prop55
280
     0
102
RTVSPost2010PropOp55
 70
     1
102
RTVSPost2010Prop56
140
1.0
102
RTVSPost2010PropOp56
 70
     1
102
RTVSPost2010Prop57
140
1.0
102
RTVSPost2010PropOp57
 70
     1
102
RTVSPropertyOp0
 70
     1
102
RTVSPropertyOp1
 70
     1
102
RTVSPropertyOp2
 70
     1
102
RTVSPropertyOp3
 70
     1
102
RTVSPropertyOp4
 70
     1
102
RTVSPropertyOp5
 70
     1
102
RTVSPropertyOp6
 70
     1
102
RTVSPropertyOp7
 70
     1
102
RTVSPropertyOp8
 70
     1
102
RTVSPropertyOp9
 70
     1
102
RTVSPropertyOp10
 70
     1
102
RTVSPropertyOp11
 70
     1
102
RTVSPropertyOp12
 70
     1
102
RTVSPropertyOp13
 70
     1
102
RTVSPropertyOp14
 70
     1
102
RTVSPropertyOp15
 70
     1
102
RTVSPropertyOp16
 70
     1
102
RTVSPropertyOp17
 70
     1
102
RTVSPropertyOp18
 70
     1
102
RTVSPropertyOp19
 70
     1
102
RTVSPropertyOp20
 70
     1
102
RTVSPropertyOp21
 70
     1
102
RTVSPropertyOp22
 70
     1
102
RTVSPropertyOp23
 70
     1
102
RTVSPropertyOp24
 70
     1
102
RTVSPropertyOp25
 70
     1
102
RTVSPropertyOp26
 70
     1
102
RTVSPropertyOp27
 70
     1
102
RTVSPropertyOp28
 70
     1
102
RTVSPropertyOp29
 70
     1
102
RTVSPropertyOp30
 70
     1
102
RTVSPropertyOp31
 70
     1
102
RTVSPropertyOp32
 70
     1
102
RTVSPropertyOp33
 70
     1
102
RTVSPropertyOp34
 70
     1
102
RTVSPropertyOp35
 70
     1
102
RTVSPropertyOp36
 70
     1
102
RTVSPropertyOp37
 70
     1
102
RTVSPropertyOp38
 70
     1
102
RTVSPropertyOp39
 70
     1
102
RTVSPropertyOp40
 70
     1
102
RTVSPropertyOp41
 70
     1
102
RTVSPropertyOp42
 70
     1
102
RTVSPropertyOp43
 70
     1
102
RTVSPropertyOp44
 70
     1
102
RTVSPropertyOp45
 70
     1
102
RTVSPropertyOp46
 70
     1
102
RTVSPropertyOp47
 70
     1
102
RTVSPropertyOp48
 70
     1
102
RTVSPropertyOp49
 70
     1
102
RTVSPropertyOp50
 70
     1
102
RTVSPropertyOp51
 70
     0
102
RTVSPropertyOp52
 70
     0
102
RTVSPropertyOp53
 70
     1
102
RTVSPropertyOp54
 70
     1
102
RTVSPropertyOp55
 70
     1
102
RTVSPropertyOp56
 70
     1
102
RTVSPropertyOp57
 70
     1
102
RTVSPropertyOp58
 70
     1
102
RTVSPropertyOp59
 70
     1
102
RTVSPropertyOp60
 70
     1
102
RTVSPropertyOp61
 70
     1
102
RTVSPropertyOp62
 70
     1
  0
XRECORD
  5
930C
102
{ACAD_REACTORS
330
930B
102
}
330
930B
100
AcDbXrecord
280
     1
102
RTVSPost2010Prop28
280
     0
102
RTVSPost2010PropOp28
 70
     1
102
RTVSPost2010Prop29
280
     1
102
RTVSPost2010PropOp29
 70
     1
102
RTVSPost2010Prop30
280
     1
102
RTVSPost2010PropOp30
 70
     1
102
RTVSPost2010Prop31
280
     0
102
RTVSPost2010PropOp31
 70
     1
102
RTVSPost2010Prop32
280
     0
102
RTVSPost2010PropOp32
 70
     1
102
RTVSPost2010Prop33
280
     0
102
RTVSPost2010PropOp33
 70
     1
102
RTVSPost2010Prop34
280
     0
102
RTVSPost2010PropOp34
 70
     1
102
RTVSPost2010Prop35
280
     0
102
RTVSPost2010PropOp35
 70
     1
102
RTVSPost2010Prop36
280
     0
102
RTVSPost2010PropOp36
 70
     1
102
RTVSPost2010Prop37
 90
       50
102
RTVSPost2010PropOp37
 70
     1
102
RTVSPost2010Prop38
140
0.0
102
RTVSPost2010PropOp38
 70
     1
102
RTVSPost2010Prop39
140
1.0
102
RTVSPost2010PropOp39
 70
     1
102
RTVSPost2010Prop40
 90
        0
102
RTVSPost2010PropOp40
 70
     1
102
RTVSPost2010Prop41ColorIndex
 90
       18
102
RTVSPost2010Prop41ColorRGB
 90
        0
102
RTVSPost2010PropOp41
 70
     1
102
RTVSPost2010Prop42
 90
       50
102
RTVSPost2010PropOp42
 70
     1
102
RTVSPost2010Prop43
 90
        3
102
RTVSPost2010PropOp43
 70
     1
102
RTVSPost2010Prop44ColorIndex
 90
        5
102
RTVSPost2010Prop44ColorRGB
 90
      255
102
RTVSPost2010PropOp44
 70
     1
102
RTVSPost2010Prop45
280
     0
102
RTVSPost2010PropOp45
 70
     1
102
RTVSPost2010Prop46
 90
       50
102
RTVSPost2010PropOp46
 70
     1
102
RTVSPost2010Prop47
 90
       50
102
RTVSPost2010PropOp47
 70
     1
102
RTVSPost2010Prop48
 90
       50
102
RTVSPost2010PropOp48
 70
     1
102
RTVSPost2010Prop49
280
     0
102
RTVSPost2010PropOp49
 70
     1
102
RTVSPost2010Prop50
 90
       50
102
RTVSPost2010PropOp50
 70
     1
102
RTVSPost2010Prop51ColorIndex
 90
      256
102
RTVSPost2010Prop51ColorRGB
 90
-16777216
102
RTVSPost2010PropOp51
 70
     0
102
RTVSPost2010Prop52
140
1.0
102
RTVSPost2010PropOp52
 70
     0
102
RTVSPost2010Prop53
 90
        2
102
RTVSPost2010PropOp53
 70
     1
102
RTVSPost2010Prop54
  1
strokes_ogs.tif
102
RTVSPost2010PropOp54
 70
     1
102
RTVSPost2010Prop55
280
     0
102
RTVSPost2010PropOp55
 70
     1
102
RTVSPost2010Prop56
140
1.0
102
RTVSPost2010PropOp56
 70
     1
102
RTVSPost2010Prop57
140
1.0
102
RTVSPost2010PropOp57
 70
     1
102
RTVSPropertyOp0
 70
     1
102
RTVSPropertyOp1
 70
     1
102
RTVSPropertyOp2
 70
     1
102
RTVSPropertyOp3
 70
     1
102
RTVSPropertyOp4
 70
     1
102
RTVSPropertyOp5
 70
     1
102
RTVSPropertyOp6
 70
     1
102
RTVSPropertyOp7
 70
     1
102
RTVSPropertyOp8
 70
     1
102
RTVSPropertyOp9
 70
     1
102
RTVSPropertyOp10
 70
     1
102
RTVSPropertyOp11
 70
     1
102
RTVSPropertyOp12
 70
     1
102
RTVSPropertyOp13
 70
     1
102
RTVSPropertyOp14
 70
     1
102
RTVSPropertyOp15
 70
     1
102
RTVSPropertyOp16
 70
     1
102
RTVSPropertyOp17
 70
     1
102
RTVSPropertyOp18
 70
     1
102
RTVSPropertyOp19
 70
     1
102
RTVSPropertyOp20
 70
     1
102
RTVSPropertyOp21
 70
     1
102
RTVSPropertyOp22
 70
     1
102
RTVSPropertyOp23
 70
     1
102
RTVSPropertyOp24
 70
     1
102
RTVSPropertyOp25
 70
     1
102
RTVSPropertyOp26
 70
     1
102
RTVSPropertyOp27
 70
     1
102
RTVSPropertyOp28
 70
     1
102
RTVSPropertyOp29
 70
     1
102
RTVSPropertyOp30
 70
     1
102
RTVSPropertyOp31
 70
     1
102
RTVSPropertyOp32
 70
     1
102
RTVSPropertyOp33
 70
     1
102
RTVSPropertyOp34
 70
     1
102
RTVSPropertyOp35
 70
     1
102
RTVSPropertyOp36
 70
     1
102
RTVSPropertyOp37
 70
     1
102
RTVSPropertyOp38
 70
     1
102
RTVSPropertyOp39
 70
     1
102
RTVSPropertyOp40
 70
     1
102
RTVSPropertyOp41
 70
     1
102
RTVSPropertyOp42
 70
     1
102
RTVSPropertyOp43
 70
     1
102
RTVSPropertyOp44
 70
     1
102
RTVSPropertyOp45
 70
     1
102
RTVSPropertyOp46
 70
     1
102
RTVSPropertyOp47
 70
     1
102
RTVSPropertyOp48
 70
     1
102
RTVSPropertyOp49
 70
     1
102
RTVSPropertyOp50
 70
     1
102
RTVSPropertyOp51
 70
     0
102
RTVSPropertyOp52
 70
     0
102
RTVSPropertyOp53
 70
     1
102
RTVSPropertyOp54
 70
     1
102
RTVSPropertyOp55
 70
     1
102
RTVSPropertyOp56
 70
     1
102
RTVSPropertyOp57
 70
     1
102
RTVSPropertyOp58
 70
     1
102
RTVSPropertyOp59
 70
     1
102
RTVSPropertyOp60
 70
     1
102
RTVSPropertyOp61
 70
     1
102
RTVSPropertyOp62
 70
     1
  0
XRECORD
  5
9324
102
{ACAD_REACTORS
330
9323
102
}
330
9323
100
AcDbXrecord
280
     1
102
RTVSPost2010Prop28
280
     0
102
RTVSPost2010PropOp28
 70
     1
102
RTVSPost2010Prop29
280
     1
102
RTVSPost2010PropOp29
 70
     1
102
RTVSPost2010Prop30
280
     1
102
RTVSPost2010PropOp30
 70
     1
102
RTVSPost2010Prop31
280
     0
102
RTVSPost2010PropOp31
 70
     1
102
RTVSPost2010Prop32
280
     0
102
RTVSPost2010PropOp32
 70
     1
102
RTVSPost2010Prop33
280
     0
102
RTVSPost2010PropOp33
 70
     1
102
RTVSPost2010Prop34
280
     0
102
RTVSPost2010PropOp34
 70
     1
102
RTVSPost2010Prop35
280
     0
102
RTVSPost2010PropOp35
 70
     1
102
RTVSPost2010Prop36
280
     0
102
RTVSPost2010PropOp36
 70
     1
102
RTVSPost2010Prop37
 90
       50
102
RTVSPost2010PropOp37
 70
     1
102
RTVSPost2010Prop38
140
0.0
102
RTVSPost2010PropOp38
 70
     1
102
RTVSPost2010Prop39
140
1.0
102
RTVSPost2010PropOp39
 70
     1
102
RTVSPost2010Prop40
 90
        0
102
RTVSPost2010PropOp40
 70
     1
102
RTVSPost2010Prop41ColorIndex
 90
       18
102
RTVSPost2010Prop41ColorRGB
 90
        0
102
RTVSPost2010PropOp41
 70
     1
102
RTVSPost2010Prop42
 90
       50
102
RTVSPost2010PropOp42
 70
     1
102
RTVSPost2010Prop43
 90
        3
102
RTVSPost2010PropOp43
 70
     1
102
RTVSPost2010Prop44ColorIndex
 90
        5
102
RTVSPost2010Prop44ColorRGB
 90
      255
102
RTVSPost2010PropOp44
 70
     1
102
RTVSPost2010Prop45
280
     0
102
RTVSPost2010PropOp45
 70
     1
102
RTVSPost2010Prop46
 90
       50
102
RTVSPost2010PropOp46
 70
     1
102
RTVSPost2010Prop47
 90
       50
102
RTVSPost2010PropOp47
 70
     1
102
RTVSPost2010Prop48
 90
       50
102
RTVSPost2010PropOp48
 70
     1
102
RTVSPost2010Prop49
280
     0
102
RTVSPost2010PropOp49
 70
     1
102
RTVSPost2010Prop50
 90
       50
102
RTVSPost2010PropOp50
 70
     1
102
RTVSPost2010Prop51ColorIndex
 90
      256
102
RTVSPost2010Prop51ColorRGB
 90
-16777216
102
RTVSPost2010PropOp51
 70
     0
102
RTVSPost2010Prop52
140
1.0
102
RTVSPost2010PropOp52
 70
     0
102
RTVSPost2010Prop53
 90
        2
102
RTVSPost2010PropOp53
 70
     1
102
RTVSPost2010Prop54
  1
strokes_ogs.tif
102
RTVSPost2010PropOp54
 70
     1
102
RTVSPost2010Prop55
280
     0
102
RTVSPost2010PropOp55
 70
     1
102
RTVSPost2010Prop56
140
1.0
102
RTVSPost2010PropOp56
 70
     1
102
RTVSPost2010Prop57
140
1.0
102
RTVSPost2010PropOp57
 70
     1
102
RTVSPropertyOp0
 70
     1
102
RTVSPropertyOp1
 70
     1
102
RTVSPropertyOp2
 70
     1
102
RTVSPropertyOp3
 70
     1
102
RTVSPropertyOp4
 70
     1
102
RTVSPropertyOp5
 70
     1
102
RTVSPropertyOp6
 70
     1
102
RTVSPropertyOp7
 70
     1
102
RTVSPropertyOp8
 70
     1
102
RTVSPropertyOp9
 70
     1
102
RTVSPropertyOp10
 70
     1
102
RTVSPropertyOp11
 70
     1
102
RTVSPropertyOp12
 70
     1
102
RTVSPropertyOp13
 70
     1
102
RTVSPropertyOp14
 70
     1
102
RTVSPropertyOp15
 70
     1
102
RTVSPropertyOp16
 70
     1
102
RTVSPropertyOp17
 70
     1
102
RTVSPropertyOp18
 70
     1
102
RTVSPropertyOp19
 70
     1
102
RTVSPropertyOp20
 70
     1
102
RTVSPropertyOp21
 70
     1
102
RTVSPropertyOp22
 70
     1
102
RTVSPropertyOp23
 70
     1
102
RTVSPropertyOp24
 70
     1
102
RTVSPropertyOp25
 70
     1
102
RTVSPropertyOp26
 70
     1
102
RTVSPropertyOp27
 70
     1
102
RTVSPropertyOp28
 70
     1
102
RTVSPropertyOp29
 70
     1
102
RTVSPropertyOp30
 70
     1
102
RTVSPropertyOp31
 70
     1
102
RTVSPropertyOp32
 70
     1
102
RTVSPropertyOp33
 70
     1
102
RTVSPropertyOp34
 70
     1
102
RTVSPropertyOp35
 70
     1
102
RTVSPropertyOp36
 70
     1
102
RTVSPropertyOp37
 70
     1
102
RTVSPropertyOp38
 70
     1
102
RTVSPropertyOp39
 70
     1
102
RTVSPropertyOp40
 70
     1
102
RTVSPropertyOp41
 70
     1
102
RTVSPropertyOp42
 70
     1
102
RTVSPropertyOp43
 70
     1
102
RTVSPropertyOp44
 70
     1
102
RTVSPropertyOp45
 70
     1
102
RTVSPropertyOp46
 70
     1
102
RTVSPropertyOp47
 70
     1
102
RTVSPropertyOp48
 70
     1
102
RTVSPropertyOp49
 70
     1
102
RTVSPropertyOp50
 70
     1
102
RTVSPropertyOp51
 70
     0
102
RTVSPropertyOp52
 70
     0
102
RTVSPropertyOp53
 70
     1
102
RTVSPropertyOp54
 70
     1
102
RTVSPropertyOp55
 70
     1
102
RTVSPropertyOp56
 70
     1
102
RTVSPropertyOp57
 70
     1
102
RTVSPropertyOp58
 70
     1
102
RTVSPropertyOp59
 70
     1
102
RTVSPropertyOp60
 70
     1
102
RTVSPropertyOp61
 70
     1
102
RTVSPropertyOp62
 70
     1
  0
ENDSEC
  0
EOF
