  0
SECTION
  2
HEADER
  9
$ACADVER
  1
AC1015
  9
$ACADMAINTVER
 70
    20
  9
$DWGCODEPAGE
  3
ANSI_932
  9
$INSBASE
 10
0.0
 20
0.0
 30
0.0
  9
$EXTMIN
 10
-6746.420439884864
 20
-1817.203373440811
 30
0.0
  9
$EXTMAX
 10
-2546.420439884863
 20
4082.796626559189
 30
0.0
  9
$LIMMIN
 10
0.0
 20
0.0
  9
$LIMMAX
 10
297.0
 20
210.0
  9
$ORTHOMODE
 70
     1
  9
$REGENMODE
 70
     1
  9
$FILLMODE
 70
     0
  9
$QTEXTMODE
 70
     0
  9
$MIRRTEXT
 70
     1
  9
$LTSCALE
 40
100.0
  9
$ATTMODE
 70
     1
  9
$TEXTSIZE
 40
180.0
  9
$TRACEWID
 40
0.05
  9
$TEXTSTYLE
  7
STANDARD
  9
$CLAYER
  8
3
  9
$CELTYPE
  6
BYLAYER
  9
$CECOLOR
 62
   256
  9
$CELTSCALE
 40
1.0
  9
$DISPSILH
 70
     0
  9
$DIMSCALE
 40
20.0
  9
$DIMASZ
 40
2.0
  9
$DIMEXO
 40
0.5
  9
$DIMDLI
 40
10.0
  9
$DIMRND
 40
0.0
  9
$DIMDLE
 40
0.0
  9
$DIMEXE
 40
1.0
  9
$DIMTP
 40
1.0
  9
$DIMTM
 40
1.0
  9
$DIMTXT
 40
3.0
  9
$DIMCEN
 40
0.0
  9
$DIMTSZ
 40
0.0
  9
$DIMTOL
 70
     0
  9
$DIMLIM
 70
     0
  9
$DIMTIH
 70
     0
  9
$DIMTOH
 70
     0
  9
$DIMSE1
 70
     0
  9
$DIMSE2
 70
     0
  9
$DIMTAD
 70
     1
  9
$DIMZIN
 70
     8
  9
$DIMBLK
  1

  9
$DIMASO
 70
     1
  9
$DIMSHO
 70
     1
  9
$DIMPOST
  1

  9
$DIMAPOST
  1

  9
$DIMALT
 70
     0
  9
$DIMALTD
 70
     2
  9
$DIMALTF
 40
0.039
  9
$DIMLFAC
 40
1.0
  9
$DIMTOFL
 70
     1
  9
$DIMTVP
 40
0.0
  9
$DIMTIX
 70
     0
  9
$DIMSOXD
 70
     0
  9
$DIMSAH
 70
     1
  9
$DIMBLK1
  1
OPEN
  9
$DIMBLK2
  1
OPEN
  9
$DIMSTYLE
  2
IGA
  9
$DIMCLRD
 70
     0
  9
$DIMCLRE
 70
     0
  9
$DIMCLRT
 70
     0
  9
$DIMTFAC
 40
10.0
  9
$DIMGAP
 40
1.0
  9
$DIMJUST
 70
     0
  9
$DIMSD1
 70
     0
  9
$DIMSD2
 70
     0
  9
$DIMTOLJ
 70
     1
  9
$DIMTZIN
 70
     8
  9
$DIMALTZ
 70
     0
  9
$DIMALTTZ
 70
     0
  9
$DIMUPT
 70
     1
  9
$DIMDEC
 70
     0
  9
$DIMTDEC
 70
     0
  9
$DIMALTU
 70
     2
  9
$DIMALTTD
 70
     2
  9
$DIMTXSTY
  7
STANDARD
  9
$DIMAUNIT
 70
     0
  9
$DIMADEC
 70
     0
  9
$DIMALTRND
 40
0.0
  9
$DIMAZIN
 70
     0
  9
$DIMDSEP
 70
    46
  9
$DIMATFIT
 70
     3
  9
$DIMFRAC
 70
     0
  9
$DIMLDRBLK
  1
OPEN
  9
$DIMLUNIT
 70
     2
  9
$DIMLWD
 70
    -2
  9
$DIMLWE
 70
    -2
  9
$DIMTMOVE
 70
     0
  9
$LUNITS
 70
     2
  9
$LUPREC
 70
     3
  9
$SKETCHINC
 40
0.1
  9
$FILLETRAD
 40
8.0
  9
$AUNITS
 70
     0
  9
$AUPREC
 70
     0
  9
$MENU
  1
acad
  9
$ELEVATION
 40
0.0
  9
$PELEVATION
 40
0.0
  9
$THICKNESS
 40
0.0
  9
$LIMCHECK
 70
     0
  9
$CHAMFERA
 40
0.5
  9
$CHAMFERB
 40
0.5
  9
$CHAMFERC
 40
20.0
  9
$CHAMFERD
 40
0.0
  9
$SKPOLY
 70
     0
  9
$TDCREATE
 40
2453249.427640046
  9
$TDUCREATE
 40
2453249.052640047
  9
$TDUPDATE
 40
2457773.702626412
  9
$TDUUPDATE
 40
2457773.327626412
  9
$TDINDWG
 40
0.0910167361
  9
$TDUSRTIMER
 40
0.0910167361
  9
$USRTIMER
 70
     1
  9
$ANGBASE
 50
0.0
  9
$ANGDIR
 70
     0
  9
$PDMODE
 70
     0
  9
$PDSIZE
 40
0.0
  9
$PLINEWID
 40
0.0
  9
$SPLFRAME
 70
     0
  9
$SPLINETYPE
 70
     6
  9
$SPLINESEGS
 70
     8
  9
$HANDSEED
  5
8DC8
  9
$SURFTAB1
 70
     6
  9
$SURFTAB2
 70
     6
  9
$SURFTYPE
 70
     6
  9
$SURFU
 70
     6
  9
$SURFV
 70
     6
  9
$UCSBASE
  2

  9
$UCSNAME
  2

  9
$UCSORG
 10
0.0
 20
0.0
 30
0.0
  9
$UCSXDIR
 10
1.0
 20
0.0
 30
0.0
  9
$UCSYDIR
 10
0.0
 20
1.0
 30
0.0
  9
$UCSORTHOREF
  2

  9
$UCSORTHOVIEW
 70
     0
  9
$UCSORGTOP
 10
0.0
 20
0.0
 30
0.0
  9
$UCSORGBOTTOM
 10
0.0
 20
0.0
 30
0.0
  9
$UCSORGLEFT
 10
0.0
 20
0.0
 30
0.0
  9
$UCSORGRIGHT
 10
0.0
 20
0.0
 30
0.0
  9
$UCSORGFRONT
 10
0.0
 20
0.0
 30
0.0
  9
$UCSORGBACK
 10
0.0
 20
0.0
 30
0.0
  9
$PUCSBASE
  2

  9
$PUCSNAME
  2

  9
$PUCSORG
 10
0.0
 20
0.0
 30
0.0
  9
$PUCSXDIR
 10
1.0
 20
0.0
 30
0.0
  9
$PUCSYDIR
 10
0.0
 20
1.0
 30
0.0
  9
$PUCSORTHOREF
  2

  9
$PUCSORTHOVIEW
 70
     0
  9
$PUCSORGTOP
 10
0.0
 20
0.0
 30
0.0
  9
$PUCSORGBOTTOM
 10
0.0
 20
0.0
 30
0.0
  9
$PUCSORGLEFT
 10
0.0
 20
0.0
 30
0.0
  9
$PUCSORGRIGHT
 10
0.0
 20
0.0
 30
0.0
  9
$PUCSORGFRONT
 10
0.0
 20
0.0
 30
0.0
  9
$PUCSORGBACK
 10
0.0
 20
0.0
 30
0.0
  9
$USERI1
 70
     0
  9
$USERI2
 70
     0
  9
$USERI3
 70
     0
  9
$USERI4
 70
     0
  9
$USERI5
 70
     0
  9
$USERR1
 40
0.0
  9
$USERR2
 40
0.0
  9
$USERR3
 40
0.0
  9
$USERR4
 40
0.0
  9
$USERR5
 40
0.0
  9
$WORLDVIEW
 70
     1
  9
$SHADEDGE
 70
     3
  9
$SHADEDIF
 70
    70
  9
$TILEMODE
 70
     1
  9
$MAXACTVP
 70
    16
  9
$PINSBASE
 10
0.0
 20
0.0
 30
0.0
  9
$PLIMCHECK
 70
     0
  9
$PEXTMIN
 10
1.000000000000000E+20
 20
1.000000000000000E+20
 30
1.000000000000000E+20
  9
$PEXTMAX
 10
-1.000000000000000E+20
 20
-1.000000000000000E+20
 30
-1.000000000000000E+20
  9
$PLIMMIN
 10
0.0
 20
0.0
  9
$PLIMMAX
 10
12.0
 20
9.0
  9
$UNITMODE
 70
     0
  9
$VISRETAIN
 70
     0
  9
$PLINEGEN
 70
     0
  9
$PSLTSCALE
 70
     1
  9
$TREEDEPTH
 70
  3020
  9
$CMLSTYLE
  2
STANDARD
  9
$CMLJUST
 70
     0
  9
$CMLSCALE
 40
20.0
  9
$PROXYGRAPHICS
 70
     1
  9
$MEASUREMENT
 70
     1
  9
$CELWEIGHT
370
    -1
  9
$ENDCAPS
280
     0
  9
$JOINSTYLE
280
     0
  9
$LWDISPLAY
290
     0
  9
$INSUNITS
 70
     0
  9
$HYPERLINKBASE
  1

  9
$STYLESHEET
  1

  9
$XEDIT
290
     1
  9
$CEPSNTYPE
380
     0
  9
$PSTYLEMODE
290
     1
  9
$FINGERPRINTGUID
  2
{1621A398-C0F4-4D09-AE58-8A52DA684C31}
  9
$VERSIONGUID
  2
{7AE0116B-ABD7-436C-825E-C0C821412DE7}
  9
$EXTNAMES
290
     1
  9
$PSVPSCALE
 40
0.0
  9
$OLESTARTUP
290
     0
  0
ENDSEC
  0
SECTION
  2
CLASSES
  0
CLASS
  1
ACDBDICTIONARYWDFLT
  2
AcDbDictionaryWithDefault
  3
ObjectDBX Classes
 90
        0
280
     0
281
     0
  0
CLASS
  1
ACDBPLACEHOLDER
  2
AcDbPlaceHolder
  3
ObjectDBX Classes
 90
        0
280
     0
281
     0
  0
CLASS
  1
LAYOUT
  2
AcDbLayout
  3
ObjectDBX Classes
 90
        0
280
     0
281
     0
  0
CLASS
  1
DICTIONARYVAR
  2
AcDbDictionaryVar
  3
ObjectDBX Classes
 90
        0
280
     0
281
     0
  0
CLASS
  1
MATERIAL
  2
AcDbMaterial
  3
ObjectDBX Classes
 90
     1153
280
     0
281
     0
  0
CLASS
  1
VISUALSTYLE
  2
AcDbVisualStyle
  3
ObjectDBX Classes
 90
     4095
280
     0
281
     0
  0
CLASS
  1
TABLESTYLE
  2
AcDbTableStyle
  3
ObjectDBX Classes
 90
     4095
280
     0
281
     0
  0
CLASS
  1
SCALE
  2
AcDbScale
  3
ObjectDBX Classes
 90
     1153
280
     0
281
     0
  0
CLASS
  1
MLEADERSTYLE
  2
AcDbMLeaderStyle
  3
ACDB_MLEADERSTYLE_CLASS
 90
     4095
280
     0
281
     0
  0
CLASS
  1
ACDBSECTIONVIEWSTYLE
  2
AcDbSectionViewStyle
  3
ObjectDBX Classes
 90
     1025
280
     0
281
     0
  0
CLASS
  1
ACDBDETAILVIEWSTYLE
  2
AcDbDetailViewStyle
  3
ObjectDBX Classes
 90
     1025
280
     0
281
     0
  0
CLASS
  1
CELLSTYLEMAP
  2
AcDbCellStyleMap
  3
ObjectDBX Classes
 90
     1152
280
     0
281
     0
  0
ENDSEC
  0
SECTION
  2
TABLES
  0
TABLE
  2
VPORT
  5
8
330
0
100
AcDbSymbolTable
 70
     1
  0
VPORT
  5
8BEB
330
8
100
AcDbSymbolTableRecord
100
AcDbViewportTableRecord
  2
*Active
 70
     0
 10
0.0
 20
0.0
 11
1.0
 21
1.0
 12
-4646.474270157026
 22
1132.796654034042
 13
0.0
 23
0.0
 14
10.0
 24
10.0
 15
10.0
 25
10.0
 16
0.0
 26
0.0
 36
1.0
 17
0.0
 27
0.0
 37
0.0
 40
5947.000395543986
 41
2.181937172774869
 42
50.0
 43
0.0
 44
0.0
 50
0.0
 51
0.0
 71
     0
 72
   100
 73
     1
 74
     0
 75
     0
 76
     0
 77
     0
 78
     0
281
     0
 65
     1
110
0.0
120
0.0
130
0.0
111
1.0
121
0.0
131
0.0
112
0.0
122
1.0
132
0.0
 79
     0
146
0.0
1001
ACAD_NAV_VCDISPLAY
1070
     3
  0
ENDTAB
  0
TABLE
  2
LTYPE
  5
5
330
0
100
AcDbSymbolTable
 70
     2
  0
LTYPE
  5
13
330
5
100
AcDbSymbolTableRecord
100
AcDbLinetypeTableRecord
  2
BYBLOCK
 70
     0
  3

 72
    65
 73
     0
 40
0.0
  0
LTYPE
  5
14
330
5
100
AcDbSymbolTableRecord
100
AcDbLinetypeTableRecord
  2
BYLAYER
 70
     0
  3

 72
    65
 73
     0
 40
0.0
  0
LTYPE
  5
15
330
5
100
AcDbSymbolTableRecord
100
AcDbLinetypeTableRecord
  2
CONTINUOUS
 70
     0
  3
Solid line
 72
    65
 73
     0
 40
0.0
  0
LTYPE
  5
1F
330
5
100
AcDbSymbolTableRecord
100
AcDbLinetypeTableRecord
  2
CENTER
 70
     0
  3
____ _ ____ _ ____ _ ____ _ ____ _ ____ _ ____ 
 72
    65
 73
     4
 40
2.0
 49
1.25
 74
     0
 49
-0.25
 74
     0
 49
0.25
 74
     0
 49
-0.25
 74
     0
  0
ENDTAB
  0
TABLE
  2
LAYER
  5
2
102
{ACAD_XDICTIONARY
360
8D65
102
}
330
0
100
AcDbSymbolTable
 70
     6
  0
LAYER
  5
F
102
{ACAD_XDICTIONARY
360
8D30
102
}
330
2
100
AcDbSymbolTableRecord
100
AcDbLayerTableRecord
  2
0
 70
     0
 62
     7
  6
CONTINUOUS
370
    -3
390
80DE
  0
LAYER
  5
31
102
{ACAD_XDICTIONARY
360
8D32
102
}
330
2
100
AcDbSymbolTableRecord
100
AcDbLayerTableRecord
  2
3
 70
     0
 62
     2
  6
CONTINUOUS
370
    -3
390
80DE
  0
LAYER
  5
76D0
102
{ACAD_XDICTIONARY
360
8D34
102
}
330
2
100
AcDbSymbolTableRecord
100
AcDbLayerTableRecord
  2
2
 70
     0
 62
     3
  6
CENTER
370
    -3
390
80DE
  0
LAYER
  5
76D1
102
{ACAD_XDICTIONARY
360
8D36
102
}
330
2
100
AcDbSymbolTableRecord
100
AcDbLayerTableRecord
  2
1
 70
     0
 62
     4
  6
CONTINUOUS
370
    -3
390
80DE
  0
LAYER
  5
76D2
102
{ACAD_XDICTIONARY
360
8D38
102
}
330
2
100
AcDbSymbolTableRecord
100
AcDbLayerTableRecord
  2
4
 70
     0
 62
     7
  6
CONTINUOUS
370
    -3
390
80DE
  0
LAYER
  5
7B90
330
2
100
AcDbSymbolTableRecord
100
AcDbLayerTableRecord
  2
DEFPOINTS
 70
     0
 62
     7
  6
CONTINUOUS
290
     0
370
    -3
390
80DE
  0
ENDTAB
  0
TABLE
  2
STYLE
  5
3
330
0
100
AcDbSymbolTable
 70
     1
  0
STYLE
  5
10
330
3
100
AcDbSymbolTableRecord
100
AcDbTextStyleTableRecord
  2
STANDARD
 70
     0
 40
0.0
 41
1.0
 50
0.0
 71
     0
 42
180.0
  3
simplex.shx
  4
extfont.shx
  0
ENDTAB
  0
TABLE
  2
VIEW
  5
6
330
0
100
AcDbSymbolTable
 70
     1
  0
ENDTAB
  0
TABLE
  2
UCS
  5
7
330
0
100
AcDbSymbolTable
 70
     0
  0
ENDTAB
  0
TABLE
  2
APPID
  5
9
330
0
100
AcDbSymbolTable
 70
     5
  0
APPID
  5
11
330
9
100
AcDbSymbolTableRecord
100
AcDbRegAppTableRecord
  2
ACAD
 70
     0
  0
APPID
  5
8D3A
330
9
100
AcDbSymbolTableRecord
100
AcDbRegAppTableRecord
  2
ACAD_NAV_VCDISPLAY
 70
     0
  0
APPID
  5
8D4D
330
9
100
AcDbSymbolTableRecord
100
AcDbRegAppTableRecord
  2
AcadAnnoMonitorAlertIconDisabled
 70
     0
  0
APPID
  5
8D4E
330
9
100
AcDbSymbolTableRecord
100
AcDbRegAppTableRecord
  2
ACAD_EXEMPT_FROM_CAD_STANDARDS
 70
     0
  0
APPID
  5
8DC3
330
9
100
AcDbSymbolTableRecord
100
AcDbRegAppTableRecord
  2
ACAD_MLEADERVER
 70
     0
  0
ENDTAB
  0
TABLE
  2
DIMSTYLE
  5
A
330
0
100
AcDbSymbolTable
 70
     2
100
AcDbDimStyleTable
 71
     1
340
1D
  0
DIMSTYLE
105
1D
102
{ACAD_REACTORS
330
8897
330
88A4
330
88BA
330
88C7
330
88D6
330
88E3
330
8918
330
8926
330
8933
330
88F0
102
}
330
A
100
AcDbSymbolTableRecord
100
AcDbDimStyleTableRecord
  2
IGA
 70
     0
 40
2.0
 41
2.0
 42
0.5
 43
10.0
 44
1.0
 47
1.0
 48
1.0
 73
     0
 74
     0
 77
     1
 78
     8
140
3.0
141
0.0
143
0.03937
146
10.0
147
1.0
173
     1
271
     1
272
     0
279
     2
284
     8
340
10
341
79FC
343
79FC
344
79FC
  0
DIMSTYLE
105
7B94
330
A
100
AcDbSymbolTableRecord
100
AcDbDimStyleTableRecord
  2
MATSU
 70
     0
 40
12.0
 41
2.0
 42
1.0
 43
10.0
 44
1.0
 73
     0
 74
     0
 77
     1
 78
     8
140
3.0
141
0.0
143
0.03937
147
0.5
172
     1
173
     1
176
   256
177
   256
178
   256
284
     8
289
     0
340
10
341
79FC
343
79FC
344
79FC
  0
ENDTAB
  0
TABLE
  2
BLOCK_RECORD
  5
1
330
0
100
AcDbSymbolTable
 70
    12
  0
BLOCK_RECORD
  5
19
102
{ACAD_XDICTIONARY
360
8170
102
}
330
1
100
AcDbSymbolTableRecord
100
AcDbBlockTableRecord
  2
*MODEL_SPACE
340
80E1
  0
BLOCK_RECORD
  5
16
102
{ACAD_XDICTIONARY
360
816E
102
}
330
1
100
AcDbSymbolTableRecord
100
AcDbBlockTableRecord
  2
*PAPER_SPACE
340
80E2
  0
BLOCK_RECORD
  5
79FC
330
1
100
AcDbSymbolTableRecord
100
AcDbBlockTableRecord
  2
_OPEN
340
0
102
{BLKREFS
331
8C9D
331
8C9E
331
8CA6
331
8CA7
331
8CB8
331
8CB9
331
8CFA
331
8CFB
331
8D03
331
8D04
331
8D0C
331
8D0D
331
8D18
331
8D19
331
8D21
331
8D22
331
8D2A
331
8D2B
331
8D5C
331
8D5D
102
}
  0
BLOCK_RECORD
  5
8076
330
1
100
AcDbSymbolTableRecord
100
AcDbBlockTableRecord
  2
_DOT
340
0
  0
BLOCK_RECORD
  5
8898
330
1
100
AcDbSymbolTableRecord
100
AcDbBlockTableRecord
  2
*D2
340
0
  0
BLOCK_RECORD
  5
88A5
330
1
100
AcDbSymbolTableRecord
100
AcDbBlockTableRecord
  2
*D3
340
0
  0
BLOCK_RECORD
  5
88BB
330
1
100
AcDbSymbolTableRecord
100
AcDbBlockTableRecord
  2
*D4
340
0
  0
BLOCK_RECORD
  5
88C8
330
1
100
AcDbSymbolTableRecord
100
AcDbBlockTableRecord
  2
*D5
340
0
  0
BLOCK_RECORD
  5
88D7
330
1
100
AcDbSymbolTableRecord
100
AcDbBlockTableRecord
  2
*D6
340
0
  0
BLOCK_RECORD
  5
88E4
330
1
100
AcDbSymbolTableRecord
100
AcDbBlockTableRecord
  2
*D7
340
0
  0
BLOCK_RECORD
  5
88F1
330
1
100
AcDbSymbolTableRecord
100
AcDbBlockTableRecord
  2
*D8
340
0
  0
BLOCK_RECORD
  5
8919
330
1
100
AcDbSymbolTableRecord
100
AcDbBlockTableRecord
  2
*D9
340
0
  0
BLOCK_RECORD
  5
8927
330
1
100
AcDbSymbolTableRecord
100
AcDbBlockTableRecord
  2
*D10
340
0
  0
BLOCK_RECORD
  5
8934
330
1
100
AcDbSymbolTableRecord
100
AcDbBlockTableRecord
  2
*D11
340
0
  0
ENDTAB
  0
ENDSEC
  0
SECTION
  2
BLOCKS
  0
BLOCK
  5
1A
330
19
100
AcDbEntity
  8
0
100
AcDbBlockBegin
  2
*MODEL_SPACE
 70
     0
 10
0.0
 20
0.0
 30
0.0
  3
*MODEL_SPACE
  1

  0
ENDBLK
  5
1B
330
19
100
AcDbEntity
  8
0
100
AcDbBlockEnd
  0
BLOCK
  5
17
330
16
100
AcDbEntity
 67
     1
  8
0
100
AcDbBlockBegin
  2
*PAPER_SPACE
 70
     0
 10
0.0
 20
0.0
 30
0.0
  3
*PAPER_SPACE
  1

  0
ENDBLK
  5
18
330
16
100
AcDbEntity
 67
     1
  8
0
100
AcDbBlockEnd
  0
BLOCK
  5
7A00
330
79FC
100
AcDbEntity
  8
0
100
AcDbBlockBegin
  2
_OPEN
 70
     0
 10
0.0
 20
0.0
 30
0.0
  3
_OPEN
  1

  0
LINE
  5
79FD
330
79FC
100
AcDbEntity
  8
0
  6
ByBlock
 62
     0
100
AcDbLine
 10
-1.0
 20
0.1666666666666666
 30
0.0
 11
0.0
 21
0.0
 31
0.0
  0
LINE
  5
79FE
330
79FC
100
AcDbEntity
  8
0
  6
ByBlock
 62
     0
100
AcDbLine
 10
0.0
 20
0.0
 30
0.0
 11
-1.0
 21
-0.1666666666666666
 31
0.0
  0
LINE
  5
79FF
330
79FC
100
AcDbEntity
  8
0
  6
ByBlock
 62
     0
100
AcDbLine
 10
0.0
 20
0.0
 30
0.0
 11
-1.0
 21
0.0
 31
0.0
  0
ENDBLK
  5
7A01
330
79FC
100
AcDbEntity
  8
0
100
AcDbBlockEnd
  0
BLOCK
  5
8077
330
8076
100
AcDbEntity
  8
0
100
AcDbBlockBegin
  2
_DOT
 70
     0
 10
0.0
 20
0.0
 30
0.0
  3
_DOT
  1

  0
LWPOLYLINE
  5
8078
330
8076
100
AcDbEntity
  8
0
  6
ByBlock
 62
     0
100
AcDbPolyline
 90
        2
 70
     1
 43
0.5
 10
-0.25
 20
0.0
 42
1.0
 10
0.25
 20
0.0
 42
1.0
  0
LINE
  5
807C
330
8076
100
AcDbEntity
  8
0
  6
ByBlock
 62
     0
100
AcDbLine
 10
-0.5
 20
0.0
 30
0.0
 11
-1.0
 21
0.0
 31
0.0
  0
ENDBLK
  5
807D
330
8076
100
AcDbEntity
  8
0
100
AcDbBlockEnd
  0
BLOCK
  5
88A2
330
8898
100
AcDbEntity
  8
0
100
AcDbBlockBegin
  2
*D2
 70
     1
 10
0.0
 20
0.0
 30
0.0
  3
*D2
  1

  0
LINE
  5
8C9A
330
8898
100
AcDbEntity
  8
3
 62
     0
370
    -2
100
AcDbLine
 10
-6207.891945525515
 20
1595.036121568381
 30
0.0
 11
-6207.891945525515
 21
2352.25255934911
 31
0.0
  0
LINE
  5
8C9B
330
8898
100
AcDbEntity
  8
3
 62
     0
370
    -2
100
AcDbLine
 10
-5007.891945525515
 20
1595.036121568381
 30
0.0
 11
-5007.891945525515
 21
2352.25255934911
 31
0.0
  0
LINE
  5
8C9C
330
8898
100
AcDbEntity
  8
3
 62
     0
370
    -2
100
AcDbLine
 10
-6167.891945525515
 20
2332.25255934911
 30
0.0
 11
-5047.891945525515
 21
2332.25255934911
 31
0.0
  0
INSERT
  5
8C9D
330
8898
100
AcDbEntity
  8
3
 62
     0
370
    -2
100
AcDbBlockReference
  2
_OPEN
 10
-6207.891945525515
 20
2332.25255934911
 30
0.0
 41
40.0
 42
40.0
 43
40.0
 50
180.0
  0
INSERT
  5
8C9E
330
8898
100
AcDbEntity
  8
3
 62
     0
370
    -2
100
AcDbBlockReference
  2
_OPEN
 10
-5007.891945525515
 20
2332.25255934911
 30
0.0
 41
40.0
 42
40.0
 43
40.0
  0
MTEXT
  5
8C9F
330
8898
100
AcDbEntity
  8
3
 62
     0
100
AcDbMText
 10
-5641.611994445455
 20
2382.25255934911
 30
0.0
 40
60.0
 41
0.0
 71
     5
 72
     1
  1
\A1;1200
 73
     1
 44
1.0
1001
ACAD
1000
MTEXTBEGIN
1070
    73
1070
     1
1070
    44
1040
1.0
1070
    74
1070
     0
1000
MTEXTEND
  0
POINT
  5
8CA0
330
8898
100
AcDbEntity
  8
DEFPOINTS
 62
     0
100
AcDbPoint
 10
-6207.891945525515
 20
1585.036121568381
 30
0.0
  0
POINT
  5
8CA1
330
8898
100
AcDbEntity
  8
DEFPOINTS
 62
     0
100
AcDbPoint
 10
-5007.891945525515
 20
1585.03612156838
 30
0.0
  0
POINT
  5
8CA2
330
8898
100
AcDbEntity
  8
DEFPOINTS
 62
     0
100
AcDbPoint
 10
-5007.891945525515
 20
2332.25255934911
 30
0.0
  0
ENDBLK
  5
88A3
330
8898
100
AcDbEntity
  8
0
100
AcDbBlockEnd
  0
BLOCK
  5
88AF
330
88A5
100
AcDbEntity
  8
0
100
AcDbBlockBegin
  2
*D3
 70
     1
 10
0.0
 20
0.0
 30
0.0
  3
*D3
  1

  0
LINE
  5
8CA3
330
88A5
100
AcDbEntity
  8
3
 62
     0
370
    -2
100
AcDbLine
 10
-6267.891945525515
 20
1535.03612156838
 30
0.0
 11
-6490.100250033993
 21
1535.03612156838
 31
0.0
  0
LINE
  5
8CA4
330
88A5
100
AcDbEntity
  8
3
 62
     0
370
    -2
100
AcDbLine
 10
-6267.891945525515
 20
135.0361215683808
 30
0.0
 11
-6490.100250033993
 21
135.0361215683809
 31
0.0
  0
LINE
  5
8CA5
330
88A5
100
AcDbEntity
  8
3
 62
     0
370
    -2
100
AcDbLine
 10
-6470.100250033993
 20
1495.03612156838
 30
0.0
 11
-6470.100250033993
 21
175.0361215683809
 31
0.0
  0
INSERT
  5
8CA6
330
88A5
100
AcDbEntity
  8
3
 62
     0
370
    -2
100
AcDbBlockReference
  2
_OPEN
 10
-6470.100250033993
 20
1535.03612156838
 30
0.0
 41
40.0
 42
40.0
 43
40.0
 50
90.0
  0
INSERT
  5
8CA7
330
88A5
100
AcDbEntity
  8
3
 62
     0
370
    -2
100
AcDbBlockReference
  2
_OPEN
 10
-6470.100250033993
 20
135.0361215683809
 30
0.0
 41
40.0
 42
40.0
 43
40.0
 50
270.0
  0
MTEXT
  5
8CA8
330
88A5
100
AcDbEntity
  8
3
 62
     0
100
AcDbMText
 10
-6520.100250033992
 20
870.5726652411614
 30
0.0
 40
60.0
 41
0.0
 71
     5
 72
     1
  1
\A1;\U+03C61400
 11
0.0000000000000001
 21
1.0
 31
0.0
 73
     1
 44
1.0
1001
ACAD
1000
MTEXTBEGIN
1070
    73
1070
     1
1070
    44
1040
1.0
1070
    74
1070
     0
1000
MTEXTEND
  0
POINT
  5
8CA9
330
88A5
100
AcDbEntity
  8
DEFPOINTS
 62
     0
100
AcDbPoint
 10
-6257.891945525514
 20
1535.03612156838
 30
0.0
  0
POINT
  5
8CAA
330
88A5
100
AcDbEntity
  8
DEFPOINTS
 62
     0
100
AcDbPoint
 10
-6257.891945525514
 20
135.0361215683808
 30
0.0
  0
POINT
  5
8CAB
330
88A5
100
AcDbEntity
  8
DEFPOINTS
 62
     0
100
AcDbPoint
 10
-6470.100250033993
 20
135.0361215683809
 30
0.0
  0
ENDBLK
  5
88B0
330
88A5
100
AcDbEntity
  8
0
100
AcDbBlockEnd
  0
BLOCK
  5
88C5
330
88BB
100
AcDbEntity
  8
0
100
AcDbBlockBegin
  2
*D4
 70
     1
 10
0.0
 20
0.0
 30
0.0
  3
*D4
  1

  0
LINE
  5
8CF7
330
88BB
100
AcDbEntity
  8
3
 62
     0
370
    -2
100
AcDbLine
 10
-6207.891945525513
 20
-294.9638784316191
 30
0.0
 11
-6207.891945525513
 21
-565.299415872032
 31
0.0
  0
LINE
  5
8CF8
330
88BB
100
AcDbEntity
  8
3
 62
     0
370
    -2
100
AcDbLine
 10
-5007.891945525514
 20
-294.9638784316162
 30
0.0
 11
-5007.891945525514
 21
-565.299415872032
 31
0.0
  0
LINE
  5
8CF9
330
88BB
100
AcDbEntity
  8
3
 62
     0
370
    -2
100
AcDbLine
 10
-6167.891945525514
 20
-545.2994158720321
 30
0.0
 11
-5047.891945525513
 21
-545.2994158720321
 31
0.0
  0
INSERT
  5
8CFA
330
88BB
100
AcDbEntity
  8
3
 62
     0
370
    -2
100
AcDbBlockReference
  2
_OPEN
 10
-6207.891945525513
 20
-545.2994158720321
 30
0.0
 41
40.0
 42
40.0
 43
40.0
 50
180.0
  0
INSERT
  5
8CFB
330
88BB
100
AcDbEntity
  8
3
 62
     0
370
    -2
100
AcDbBlockReference
  2
_OPEN
 10
-5007.891945525514
 20
-545.2994158720321
 30
0.0
 41
40.0
 42
40.0
 43
40.0
  0
MTEXT
  5
8CFC
330
88BB
100
AcDbEntity
  8
3
 62
     0
100
AcDbMText
 10
-5585.203622323589
 20
-495.2994158720321
 30
0.0
 40
60.0
 41
0.0
 71
     5
 72
     1
  1
\A1;1200
 73
     1
 44
1.0
1001
ACAD
1000
MTEXTBEGIN
1070
    73
1070
     1
1070
    44
1040
1.0
1070
    74
1070
     0
1000
MTEXTEND
  0
POINT
  5
8CFD
330
88BB
100
AcDbEntity
  8
DEFPOINTS
 62
     0
100
AcDbPoint
 10
-6207.891945525513
 20
-284.9638784316191
 30
0.0
  0
POINT
  5
8CFE
330
88BB
100
AcDbEntity
  8
DEFPOINTS
 62
     0
100
AcDbPoint
 10
-5007.891945525514
 20
-284.9638784316162
 30
0.0
  0
POINT
  5
8CFF
330
88BB
100
AcDbEntity
  8
DEFPOINTS
 62
     0
100
AcDbPoint
 10
-5007.891945525514
 20
-545.2994158720321
 30
0.0
  0
ENDBLK
  5
88C6
330
88BB
100
AcDbEntity
  8
0
100
AcDbBlockEnd
  0
BLOCK
  5
88D2
330
88C8
100
AcDbEntity
  8
0
100
AcDbBlockBegin
  2
*D5
 70
     1
 10
0.0
 20
0.0
 30
0.0
  3
*D5
  1

  0
LINE
  5
8CB5
330
88C8
100
AcDbEntity
  8
3
 62
     0
370
    -2
100
AcDbLine
 10
-4307.901477775333
 20
845.0361215683809
 30
0.0
 11
-4307.901477775333
 21
2335.180388292302
 31
0.0
  0
LINE
  5
8CB6
330
88C8
100
AcDbEntity
  8
3
 62
     0
370
    -2
100
AcDbLine
 10
-2807.901477775333
 20
845.0361215683809
 30
0.0
 11
-2807.901477775333
 21
2335.180388292302
 31
0.0
  0
LINE
  5
8CB7
330
88C8
100
AcDbEntity
  8
3
 62
     0
370
    -2
100
AcDbLine
 10
-4267.901477775333
 20
2315.180388292302
 30
0.0
 11
-2847.901477775333
 21
2315.180388292302
 31
0.0
  0
INSERT
  5
8CB8
330
88C8
100
AcDbEntity
  8
3
 62
     0
370
    -2
100
AcDbBlockReference
  2
_OPEN
 10
-4307.901477775333
 20
2315.180388292302
 30
0.0
 41
40.0
 42
40.0
 43
40.0
 50
180.0
  0
INSERT
  5
8CB9
330
88C8
100
AcDbEntity
  8
3
 62
     0
370
    -2
100
AcDbBlockReference
  2
_OPEN
 10
-2807.901477775333
 20
2315.180388292302
 30
0.0
 41
40.0
 42
40.0
 43
40.0
  0
MTEXT
  5
8CBA
330
88C8
100
AcDbEntity
  8
3
 62
     0
100
AcDbMText
 10
-3601.211703309324
 20
2365.180388292301
 30
0.0
 40
60.0
 41
0.0
 71
     5
 72
     1
  1
\A1;1500
 73
     1
 44
1.0
1001
ACAD
1000
MTEXTBEGIN
1070
    73
1070
     1
1070
    44
1040
1.0
1070
    74
1070
     0
1000
MTEXTEND
  0
POINT
  5
8CBB
330
88C8
100
AcDbEntity
  8
DEFPOINTS
 62
     0
100
AcDbPoint
 10
-4307.901477775333
 20
835.0361215683808
 30
0.0
  0
POINT
  5
8CBC
330
88C8
100
AcDbEntity
  8
DEFPOINTS
 62
     0
100
AcDbPoint
 10
-2807.901477775333
 20
835.0361215683808
 30
0.0
  0
POINT
  5
8CBD
330
88C8
100
AcDbEntity
  8
DEFPOINTS
 62
     0
100
AcDbPoint
 10
-2807.901477775333
 20
2315.180388292302
 30
0.0
  0
ENDBLK
  5
88D3
330
88C8
100
AcDbEntity
  8
0
100
AcDbBlockEnd
  0
BLOCK
  5
88E1
330
88D7
100
AcDbEntity
  8
0
100
AcDbBlockBegin
  2
*D6
 70
     1
 10
0.0
 20
0.0
 30
0.0
  3
*D6
  1

  0
LINE
  5
8D00
330
88D7
100
AcDbEntity
  8
3
 62
     0
370
    -2
100
AcDbLine
 10
-4257.901477775333
 20
-294.9638784316192
 30
0.0
 11
-4257.901477775333
 21
-568.4435201474461
 31
0.0
  0
LINE
  5
8D01
330
88D7
100
AcDbEntity
  8
3
 62
     0
370
    -2
100
AcDbLine
 10
-2857.901477775332
 20
-294.9638784316192
 30
0.0
 11
-2857.901477775332
 21
-568.4435201474461
 31
0.0
  0
LINE
  5
8D02
330
88D7
100
AcDbEntity
  8
3
 62
     0
370
    -2
100
AcDbLine
 10
-4217.901477775333
 20
-548.4435201474461
 30
0.0
 11
-2897.901477775332
 21
-548.4435201474461
 31
0.0
  0
INSERT
  5
8D03
330
88D7
100
AcDbEntity
  8
3
 62
     0
370
    -2
100
AcDbBlockReference
  2
_OPEN
 10
-4257.901477775333
 20
-548.4435201474461
 30
0.0
 41
40.0
 42
40.0
 43
40.0
 50
180.0
  0
INSERT
  5
8D04
330
88D7
100
AcDbEntity
  8
3
 62
     0
370
    -2
100
AcDbBlockReference
  2
_OPEN
 10
-2857.901477775332
 20
-548.4435201474461
 30
0.0
 41
40.0
 42
40.0
 43
40.0
  0
MTEXT
  5
8D05
330
88D7
100
AcDbEntity
  8
3
 62
     0
100
AcDbMText
 10
-3551.020686264671
 20
-498.4435201474461
 30
0.0
 40
60.0
 41
0.0
 71
     5
 72
     1
  1
\A1;1400
 73
     1
 44
1.0
1001
ACAD
1000
MTEXTBEGIN
1070
    73
1070
     1
1070
    44
1040
1.0
1070
    74
1070
     0
1000
MTEXTEND
  0
POINT
  5
8D06
330
88D7
100
AcDbEntity
  8
DEFPOINTS
 62
     0
100
AcDbPoint
 10
-4257.901477775333
 20
-284.9638784316192
 30
0.0
  0
POINT
  5
8D07
330
88D7
100
AcDbEntity
  8
DEFPOINTS
 62
     0
100
AcDbPoint
 10
-2857.901477775332
 20
-284.9638784316192
 30
0.0
  0
POINT
  5
8D08
330
88D7
100
AcDbEntity
  8
DEFPOINTS
 62
     0
100
AcDbPoint
 10
-2857.901477775332
 20
-548.4435201474461
 30
0.0
  0
ENDBLK
  5
88E2
330
88D7
100
AcDbEntity
  8
0
100
AcDbBlockEnd
  0
BLOCK
  5
88EE
330
88E4
100
AcDbEntity
  8
0
100
AcDbBlockBegin
  2
*D7
 70
     1
 10
0.0
 20
0.0
 30
0.0
  3
*D7
  1

  0
LINE
  5
8D09
330
88E4
100
AcDbEntity
  8
3
 62
     0
370
    -2
100
AcDbLine
 10
-4367.901477775332
 20
835.0361215683808
 30
0.0
 11
-4449.572376411554
 21
835.0361215683808
 31
0.0
  0
LINE
  5
8D0A
330
88E4
100
AcDbEntity
  8
3
 62
     0
370
    -2
100
AcDbLine
 10
-4267.901477775331
 20
-114.9638784316191
 30
0.0
 11
-4449.572376411554
 21
-114.9638784316191
 31
0.0
  0
LINE
  5
8D0B
330
88E4
100
AcDbEntity
  8
3
 62
     0
370
    -2
100
AcDbLine
 10
-4429.572376411553
 20
795.0361215683808
 30
0.0
 11
-4429.572376411553
 21
-74.96387843161913
 31
0.0
  0
INSERT
  5
8D0C
330
88E4
100
AcDbEntity
  8
3
 62
     0
370
    -2
100
AcDbBlockReference
  2
_OPEN
 10
-4429.572376411553
 20
835.0361215683808
 30
0.0
 41
40.0
 42
40.0
 43
40.0
 50
90.0
  0
INSERT
  5
8D0D
330
88E4
100
AcDbEntity
  8
3
 62
     0
370
    -2
100
AcDbBlockReference
  2
_OPEN
 10
-4429.572376411553
 20
-114.9638784316191
 30
0.0
 41
40.0
 42
40.0
 43
40.0
 50
270.0
  0
MTEXT
  5
8D0E
330
88E4
100
AcDbEntity
  8
3
 62
     0
100
AcDbMText
 10
-4479.572376411553
 20
348.089645729975
 30
0.0
 40
60.0
 41
0.0
 71
     5
 72
     1
  1
\A1;950
 11
0.0000000000000001
 21
1.0
 31
0.0
 73
     1
 44
1.0
1001
ACAD
1000
MTEXTBEGIN
1070
    73
1070
     1
1070
    44
1040
1.0
1070
    74
1070
     0
1000
MTEXTEND
  0
POINT
  5
8D0F
330
88E4
100
AcDbEntity
  8
DEFPOINTS
 62
     0
100
AcDbPoint
 10
-4357.901477775333
 20
835.0361215683808
 30
0.0
  0
POINT
  5
8D10
330
88E4
100
AcDbEntity
  8
DEFPOINTS
 62
     0
100
AcDbPoint
 10
-4257.901477775332
 20
-114.9638784316191
 30
0.0
  0
POINT
  5
8D11
330
88E4
100
AcDbEntity
  8
DEFPOINTS
 62
     0
100
AcDbPoint
 10
-4429.572376411553
 20
-114.9638784316191
 30
0.0
  0
ENDBLK
  5
88EF
330
88E4
100
AcDbEntity
  8
0
100
AcDbBlockEnd
  0
BLOCK
  5
88FD
330
88F1
100
AcDbEntity
  8
0
100
AcDbBlockBegin
  2
*D8
 70
     1
 10
0.0
 20
0.0
 30
0.0
  3
*D8
  1

  0
LINE
  5
8D12
330
88F1
100
AcDbEntity
  8
3
 62
     0
370
    -2
100
AcDbLine
 10
-4267.901477775331
 20
-114.9638784316191
 30
0.0
 11
-4449.572376411554
 21
-114.9638784316191
 31
0.0
  0
LINE
  5
8D13
330
88F1
100
AcDbEntity
  8
3
 62
     0
370
    -2
100
AcDbLine
 10
-4267.901477775333
 20
-159.9638784316191
 30
0.0
 11
-4449.572376411554
 21
-159.9638784316191
 31
0.0
  0
LINE
  5
8D14
330
88F1
100
AcDbEntity
  8
3
 62
     0
370
    -2
100
AcDbLine
 10
-4429.572376411553
 20
-74.96387843161913
 30
0.0
 11
-4429.572376411553
 21
-34.96387843161914
 31
0.0
  0
LINE
  5
8D15
330
88F1
100
AcDbEntity
  8
3
 62
     0
370
    -2
100
AcDbLine
 10
-4429.572376411553
 20
-199.9638784316191
 30
0.0
 11
-4429.572376411553
 21
-239.9638784316191
 31
0.0
  0
MTEXT
  5
8D16
330
88F1
100
AcDbEntity
  8
3
 62
     0
100
AcDbMText
 10
-4499.572376411554
 20
-114.9638784316191
 30
0.0
 40
60.0
 41
0.0
 71
     5
 72
     1
  1
\A1;45
 11
0.0000000000000001
 21
1.0
 31
0.0
 73
     1
 44
1.0
1001
ACAD
1000
MTEXTBEGIN
1070
    73
1070
     1
1070
    44
1040
1.0
1070
    74
1070
     0
1000
MTEXTEND
  0
LINE
  5
8D17
330
88F1
100
AcDbEntity
  8
3
 62
     0
370
    -2
100
AcDbLine
 10
-4429.572376411553
 20
-114.9638784316191
 30
0.0
 11
-4429.572376411553
 21
-159.9638784316191
 31
0.0
  0
INSERT
  5
8D18
330
88F1
100
AcDbEntity
  8
3
 62
     0
370
    -2
100
AcDbBlockReference
  2
_OPEN
 10
-4429.572376411553
 20
-114.9638784316191
 30
0.0
 41
40.0
 42
40.0
 43
40.0
 50
270.0
  0
INSERT
  5
8D19
330
88F1
100
AcDbEntity
  8
3
 62
     0
370
    -2
100
AcDbBlockReference
  2
_OPEN
 10
-4429.572376411553
 20
-159.9638784316191
 30
0.0
 41
40.0
 42
40.0
 43
40.0
 50
90.0
  0
POINT
  5
8D1A
330
88F1
100
AcDbEntity
  8
DEFPOINTS
 62
     0
100
AcDbPoint
 10
-4257.901477775332
 20
-114.9638784316191
 30
0.0
  0
POINT
  5
8D1B
330
88F1
100
AcDbEntity
  8
DEFPOINTS
 62
     0
100
AcDbPoint
 10
-4257.901477775333
 20
-159.9638784316191
 30
0.0
  0
POINT
  5
8D1C
330
88F1
100
AcDbEntity
  8
DEFPOINTS
 62
     0
100
AcDbPoint
 10
-4429.572376411553
 20
-159.9638784316191
 30
0.0
  0
ENDBLK
  5
88FE
330
88F1
100
AcDbEntity
  8
0
100
AcDbBlockEnd
  0
BLOCK
  5
8924
330
8919
100
AcDbEntity
  8
0
100
AcDbBlockBegin
  2
*D9
 70
     1
 10
0.0
 20
0.0
 30
0.0
  3
*D9
  1

  0
LINE
  5
8D1D
330
8919
100
AcDbEntity
  8
3
 62
     0
370
    -2
100
AcDbLine
 10
-4267.901477775333
 20
-159.9638784316191
 30
0.0
 11
-4449.572376411554
 21
-159.9638784316191
 31
0.0
  0
LINE
  5
8D1E
330
8919
100
AcDbEntity
  8
3
 62
     0
370
    -2
100
AcDbLine
 10
-4267.901477775333
 20
-284.9638784316192
 30
0.0
 11
-4449.572376411554
 21
-284.9638784316192
 31
0.0
  0
LINE
  5
8D1F
330
8919
100
AcDbEntity
  8
3
 62
     0
370
    -2
100
AcDbLine
 10
-4429.572376411553
 20
-199.9638784316191
 30
0.0
 11
-4429.572376411553
 21
-244.9638784316191
 31
0.0
  0
LINE
  5
8D20
330
8919
100
AcDbEntity
  8
3
 62
     0
370
    -2
100
AcDbLine
 10
-4429.572376411553
 20
-284.9638784316192
 30
0.0
 11
-4429.572376411553
 21
-507.8210212887619
 31
0.0
  0
INSERT
  5
8D21
330
8919
100
AcDbEntity
  8
3
 62
     0
370
    -2
100
AcDbBlockReference
  2
_OPEN
 10
-4429.572376411553
 20
-159.9638784316191
 30
0.0
 41
40.0
 42
40.0
 43
40.0
 50
90.0
  0
INSERT
  5
8D22
330
8919
100
AcDbEntity
  8
3
 62
     0
370
    -2
100
AcDbBlockReference
  2
_OPEN
 10
-4429.572376411553
 20
-284.9638784316192
 30
0.0
 41
40.0
 42
40.0
 43
40.0
 50
270.0
  0
MTEXT
  5
8D23
330
8919
100
AcDbEntity
  8
3
 62
     0
100
AcDbMText
 10
-4479.572376411553
 20
-416.3924498601913
 30
0.0
 40
60.0
 41
0.0
 71
     5
 72
     1
  1
\A1;125
 11
0.0000000000000001
 21
1.0
 31
0.0
 73
     1
 44
1.0
1001
ACAD
1000
MTEXTBEGIN
1070
    73
1070
     1
1070
    44
1040
1.0
1070
    74
1070
     0
1000
MTEXTEND
  0
POINT
  5
8D24
330
8919
100
AcDbEntity
  8
DEFPOINTS
 62
     0
100
AcDbPoint
 10
-4257.901477775333
 20
-159.9638784316191
 30
0.0
  0
POINT
  5
8D25
330
8919
100
AcDbEntity
  8
DEFPOINTS
 62
     0
100
AcDbPoint
 10
-4257.901477775333
 20
-284.9638784316192
 30
0.0
  0
POINT
  5
8D26
330
8919
100
AcDbEntity
  8
DEFPOINTS
 62
     0
100
AcDbPoint
 10
-4429.572376411553
 20
-284.9638784316192
 30
0.0
  0
ENDBLK
  5
8925
330
8919
100
AcDbEntity
  8
0
100
AcDbBlockEnd
  0
BLOCK
  5
8931
330
8927
100
AcDbEntity
  8
0
100
AcDbBlockBegin
  2
*D10
 70
     1
 10
0.0
 20
0.0
 30
0.0
  3
*D10
  1

  0
LINE
  5
8D27
330
8927
100
AcDbEntity
  8
3
 62
     0
370
    -2
100
AcDbLine
 10
-4377.901477775332
 20
835.0361215683808
 30
0.0
 11
-4716.299704917699
 21
835.0361215683808
 31
0.0
  0
LINE
  5
8D28
330
8927
100
AcDbEntity
  8
3
 62
     0
370
    -2
100
AcDbLine
 10
-4267.901477775333
 20
-284.9638784316192
 30
0.0
 11
-4716.299704917699
 21
-284.9638784316191
 31
0.0
  0
LINE
  5
8D29
330
8927
100
AcDbEntity
  8
3
 62
     0
370
    -2
100
AcDbLine
 10
-4696.299704917699
 20
795.0361215683808
 30
0.0
 11
-4696.299704917699
 21
-244.9638784316191
 31
0.0
  0
INSERT
  5
8D2A
330
8927
100
AcDbEntity
  8
3
 62
     0
370
    -2
100
AcDbBlockReference
  2
_OPEN
 10
-4696.299704917699
 20
835.0361215683808
 30
0.0
 41
40.0
 42
40.0
 43
40.0
 50
90.0
  0
INSERT
  5
8D2B
330
8927
100
AcDbEntity
  8
3
 62
     0
370
    -2
100
AcDbBlockReference
  2
_OPEN
 10
-4696.299704917699
 20
-284.9638784316191
 30
0.0
 41
40.0
 42
40.0
 43
40.0
 50
270.0
  0
MTEXT
  5
8D2C
330
8927
100
AcDbEntity
  8
3
 62
     0
100
AcDbMText
 10
-4746.299704917698
 20
258.3299902065919
 30
0.0
 40
60.0
 41
0.0
 71
     5
 72
     1
  1
\A1;1120
 11
0.0000000000000001
 21
1.0
 31
0.0
 73
     1
 44
1.0
1001
ACAD
1000
MTEXTBEGIN
1070
    73
1070
     1
1070
    44
1040
1.0
1070
    74
1070
     0
1000
MTEXTEND
  0
POINT
  5
8D2D
330
8927
100
AcDbEntity
  8
DEFPOINTS
 62
     0
100
AcDbPoint
 10
-4367.901477775332
 20
835.0361215683808
 30
0.0
  0
POINT
  5
8D2E
330
8927
100
AcDbEntity
  8
DEFPOINTS
 62
     0
100
AcDbPoint
 10
-4257.901477775333
 20
-284.9638784316192
 30
0.0
  0
POINT
  5
8D2F
330
8927
100
AcDbEntity
  8
DEFPOINTS
 62
     0
100
AcDbPoint
 10
-4696.299704917699
 20
-284.9638784316191
 30
0.0
  0
ENDBLK
  5
8932
330
8927
100
AcDbEntity
  8
0
100
AcDbBlockEnd
  0
BLOCK
  5
893E
330
8934
100
AcDbEntity
  8
0
100
AcDbBlockBegin
  2
*D11
 70
     1
 10
0.0
 20
0.0
 30
0.0
  3
*D11
  1

  0
LINE
  5
8D59
330
8934
100
AcDbEntity
  8
3
 62
     0
370
    -2
100
AcDbLine
 10
-3567.901477775333
 20
2092.036121568381
 30
0.0
 11
-4711.98612458015
 21
2092.036121568381
 31
0.0
  0
LINE
  5
8D5A
330
8934
100
AcDbEntity
  8
3
 62
     0
370
    -2
100
AcDbLine
 10
-4367.901477775332
 20
835.0361215683808
 30
0.0
 11
-4711.986124580151
 21
835.0361215683808
 31
0.0
  0
LINE
  5
8D5B
330
8934
100
AcDbEntity
  8
3
 62
     0
370
    -2
100
AcDbLine
 10
-4691.98612458015
 20
2052.036121568381
 30
0.0
 11
-4691.986124580151
 21
875.0361215683808
 31
0.0
  0
INSERT
  5
8D5C
330
8934
100
AcDbEntity
  8
3
 62
     0
370
    -2
100
AcDbBlockReference
  2
_OPEN
 10
-4691.98612458015
 20
2092.036121568381
 30
0.0
 41
40.0
 42
40.0
 43
40.0
 50
90.0
  0
INSERT
  5
8D5D
330
8934
100
AcDbEntity
  8
3
 62
     0
370
    -2
100
AcDbBlockReference
  2
_OPEN
 10
-4691.986124580151
 20
835.0361215683808
 30
0.0
 41
40.0
 42
40.0
 43
40.0
 50
270.0
  0
MTEXT
  5
8D5E
330
8934
100
AcDbEntity
  8
3
 62
     0
100
AcDbMText
 10
-4757.700410294436
 20
1478.770834931383
 30
0.0
 40
60.0
 41
0.0
 71
     5
 72
     1
  1
\A1;(1600)
 11
0.0000000000000001
 21
1.0
 31
0.0
 73
     1
 44
1.0
1001
ACAD
1000
MTEXTBEGIN
1070
    73
1070
     1
1070
    44
1040
1.0
1070
    74
1070
     0
1000
MTEXTEND
  0
POINT
  5
8D5F
330
8934
100
AcDbEntity
  8
DEFPOINTS
 62
     0
100
AcDbPoint
 10
-3557.901477775333
 20
2092.036121568381
 30
0.0
  0
POINT
  5
8D60
330
8934
100
AcDbEntity
  8
DEFPOINTS
 62
     0
100
AcDbPoint
 10
-4357.901477775333
 20
835.0361215683808
 30
0.0
  0
POINT
  5
8D61
330
8934
100
AcDbEntity
  8
DEFPOINTS
 62
     0
100
AcDbPoint
 10
-4691.986124580151
 20
835.0361215683808
 30
0.0
  0
ENDBLK
  5
893F
330
8934
100
AcDbEntity
  8
0
100
AcDbBlockEnd
  0
ENDSEC
  0
SECTION
  2
ENTITIES
  0
LINE
  5
7D76
330
19
100
AcDbEntity
  8
1
100
AcDbLine
 10
-3660.401477775333
 20
1661.036121568381
 30
0.0
 11
-3719.901477775333
 21
1661.036121568381
 31
0.0
  0
LINE
  5
7D77
330
19
100
AcDbEntity
  8
1
100
AcDbLine
 10
-3663.401477775333
 20
1681.036121568381
 30
0.0
 11
-3716.901477775333
 21
1681.036121568381
 31
0.0
  0
LINE
  5
7D78
330
19
100
AcDbEntity
  8
2
100
AcDbLine
 10
-3362.449054775334
 20
1841.036121568381
 30
0.0
 11
-3753.353900775334
 21
1841.036121568381
 31
0.0
  0
LINE
  5
7D79
330
19
100
AcDbEntity
  8
1
100
AcDbLine
 10
-3378.489978775333
 20
2041.036121568381
 30
0.0
 11
-3737.312976775333
 21
2041.036121568381
 31
0.0
  0
LINE
  5
7D7A
330
19
100
AcDbEntity
  8
1
100
AcDbLine
 10
-3792.901477775333
 20
1661.036121568381
 30
0.0
 11
-3322.901477775332
 21
1661.03612156838
 31
0.0
  0
ARC
  5
7D7B
330
19
100
AcDbEntity
  8
1
100
AcDbCircle
 10
-3557.901477775333
 20
1841.036121568381
 30
0.0
 40
185.0
100
AcDbArc
 50
287.9452509999998
 51
252.0547490000001
  0
LINE
  5
7D7D
330
19
100
AcDbEntity
  8
1
100
AcDbLine
 10
-4251.961273470199
 20
744.0361215683813
 30
0.0
 11
-2863.841682080466
 21
744.0361215683812
 31
0.0
  0
LINE
  5
7D7E
330
19
100
AcDbEntity
  8
1
100
AcDbLine
 10
-4253.199255709363
 20
754.0361215683814
 30
0.0
 11
-2862.603699841303
 21
754.0361215683812
 31
0.0
  0
ARC
  5
7D7F
330
19
100
AcDbEntity
  8
1
100
AcDbCircle
 10
-3557.901477775333
 20
835.0361215683808
 30
0.0
 40
222.0
100
AcDbArc
 50
338.6007335046491
 51
201.3992664953509
  0
ARC
  5
7D80
330
19
100
AcDbEntity
  8
1
100
AcDbCircle
 10
-3557.901477775333
 20
835.0361215683808
 30
0.0
 40
228.0
100
AcDbArc
 50
339.1904264223235
 51
200.8095735776765
  0
LINE
  5
7D81
330
19
100
AcDbEntity
  8
1
100
AcDbLine
 10
-3792.901477775333
 20
1611.036121568381
 30
0.0
 11
-3322.901477775332
 21
1611.03612156838
 31
0.0
  0
LINE
  5
7D82
330
19
100
AcDbEntity
  8
1
100
AcDbLine
 10
-4257.901477775332
 20
-114.9638784316191
 30
0.0
 11
-2857.901477775333
 21
-114.9638784316191
 31
0.0
  0
LINE
  5
7D86
330
19
100
AcDbEntity
  8
2
100
AcDbLine
 10
-4357.901477775333
 20
835.0361215683808
 30
0.0
 11
-2757.901477775333
 21
835.0361215683808
 31
0.0
  0
LINE
  5
7D89
330
19
100
AcDbEntity
  8
1
100
AcDbLine
 10
-5176.891945525514
 20
715.0361215683807
 30
0.0
 11
-5176.891945525515
 21
1941.036121568382
 31
0.0
  0
LINE
  5
7D8A
330
19
100
AcDbEntity
  8
1
100
AcDbLine
 10
-5256.891945525513
 20
715.0361215683807
 30
0.0
 11
-5256.891945525515
 21
1941.036121568382
 31
0.0
  0
LINE
  5
7D8B
330
19
100
AcDbEntity
  8
1
100
AcDbLine
 10
-5012.391945525514
 20
1585.036121568382
 30
0.0
 11
-5012.391945525514
 21
485.0361215683808
 31
0.0
  0
LINE
  5
7D8C
330
19
100
AcDbEntity
  8
1
100
AcDbLine
 10
-6203.391945525514
 20
1585.036121568382
 30
0.0
 11
-6203.391945525514
 21
485.0361215683808
 31
0.0
  0
LINE
  5
7D8D
330
19
100
AcDbEntity
  8
1
100
AcDbLine
 10
-6207.891945525515
 20
1585.036121568381
 30
0.0
 11
-6207.891945525513
 21
135.0361215683808
 31
0.0
  0
LINE
  5
7D8E
330
19
100
AcDbEntity
  8
1
100
AcDbLine
 10
-5007.891945525515
 20
1585.03612156838
 30
0.0
 11
-5007.891945525512
 21
135.036121568381
 31
0.0
  0
LINE
  5
7D8F
330
19
100
AcDbEntity
  8
1
100
AcDbLine
 10
-4957.891945525514
 20
1536.036121568381
 30
0.0
 11
-4957.891945525515
 21
135.036121568381
 31
0.0
  0
LINE
  5
7D90
330
19
100
AcDbEntity
  8
1
100
AcDbLine
 10
-6257.891945525514
 20
1536.036121568381
 30
0.0
 11
-6257.891945525514
 21
135.0361215683808
 31
0.0
  0
LINE
  5
7D91
330
19
100
AcDbEntity
  8
1
100
AcDbLine
 10
-5003.891945525515
 20
88.03612156838083
 30
0.0
 11
-5003.891945525515
 21
1582.036121568381
 31
0.0
  0
LINE
  5
7D92
330
19
100
AcDbEntity
  8
1
100
AcDbLine
 10
-6211.891945525514
 20
88.03612156838084
 30
0.0
 11
-6211.891945525514
 21
1582.036121568381
 31
0.0
  0
LINE
  5
7D93
330
19
100
AcDbEntity
  8
1
100
AcDbLine
 10
-5997.859988445092
 20
130.5361215683805
 30
0.0
 11
-5217.923902605935
 21
130.536121568381
 31
0.0
  0
LINE
  5
7D94
330
19
100
AcDbEntity
  8
2
100
AcDbLine
 10
-6307.891945525515
 20
835.0361215683808
 30
0.0
 11
-4921.054409032704
 21
835.0361215683808
 31
0.0
  0
LINE
  5
7D95
330
19
100
AcDbEntity
  8
1
100
AcDbLine
 10
-6207.891945525514
 20
135.0361215683808
 30
0.0
 11
-6257.891945525514
 21
135.0361215683808
 31
0.0
  0
LINE
  5
7D96
330
19
100
AcDbEntity
  8
1
100
AcDbLine
 10
-6218.391945525514
 20
131.0361215683808
 30
0.0
 11
-6254.891945525514
 21
131.0361215683808
 31
0.0
  0
LINE
  5
7D97
330
19
100
AcDbEntity
  8
1
100
AcDbLine
 10
-6225.082930847373
 20
107.5361215683808
 30
0.0
 11
-6186.755245024186
 21
107.5361215683808
 31
0.0
  0
LINE
  5
7D98
330
19
100
AcDbEntity
  8
1
100
AcDbLine
 10
-6257.891945525514
 20
135.0361215683808
 30
0.0
 11
-6257.891945525514
 21
134.0361215683808
 31
0.0
  0
ARC
  5
7D99
330
19
100
AcDbEntity
  8
1
100
AcDbCircle
 10
-6254.891945525514
 20
134.0361215683808
 30
0.0
 40
3.0
100
AcDbArc
 50
180.0
 51
270.0
  0
LINE
  5
7D9A
330
19
100
AcDbEntity
  8
1
100
AcDbLine
 10
-6117.891945525514
 20
1070.036121568381
 30
0.0
 11
-6117.891945525514
 21
600.0361215683808
 31
0.0
  0
LINE
  5
7D9B
330
19
100
AcDbEntity
  8
1
100
AcDbLine
 10
-6132.891945525514
 20
1070.036121568381
 30
0.0
 11
-6132.891945525514
 21
600.0361215683808
 31
0.0
  0
LINE
  5
7D9C
330
19
100
AcDbEntity
  8
1
100
AcDbLine
 10
-5967.891945525515
 20
1085.036121568381
 30
0.0
 11
-5967.891945525515
 21
585.0361215683808
 31
0.0
  0
LINE
  5
7D9D
330
19
100
AcDbEntity
  8
1
100
AcDbLine
 10
-6187.891945525514
 20
1085.036121568381
 30
0.0
 11
-6187.891945525514
 21
585.0361215683808
 31
0.0
  0
LINE
  5
7D9E
330
19
100
AcDbEntity
  8
1
100
AcDbLine
 10
-6187.891945525514
 20
600.0361215683808
 30
0.0
 11
-5967.891945525515
 21
600.0361215683808
 31
0.0
  0
LINE
  5
7D9F
330
19
100
AcDbEntity
  8
1
100
AcDbLine
 10
-6187.891945525514
 20
585.0361215683808
 30
0.0
 11
-5967.891945525515
 21
585.0361215683808
 31
0.0
  0
LINE
  5
7DA0
330
19
100
AcDbEntity
  8
1
100
AcDbLine
 10
-6058.542352029579
 20
139.0361215683812
 30
0.0
 11
-5967.891945525515
 21
585.0361215683808
 31
0.0
  0
LINE
  5
7DA1
330
19
100
AcDbEntity
  8
1
100
AcDbLine
 10
-6097.241539021449
 20
139.0361215683809
 30
0.0
 11
-6187.891945525514
 21
585.0361215683808
 31
0.0
  0
LINE
  5
7DA2
330
19
100
AcDbEntity
  8
1
100
AcDbLine
 10
-6097.241539021449
 20
139.0361215683809
 30
0.0
 11
-6058.542352029582
 21
139.0361215683812
 31
0.0
  0
ARC
  5
7DA3
330
19
100
AcDbEntity
  8
1
100
AcDbCircle
 10
-6218.391945525514
 20
124.5361215683808
 30
0.0
 40
6.5
100
AcDbArc
 50
0.0
 51
90.0
  0
LINE
  5
7DA4
330
19
100
AcDbEntity
  8
1
100
AcDbLine
 10
-6203.391945525514
 20
85.03612156838086
 30
0.0
 11
-6207.891945525514
 21
85.03612156838086
 31
0.0
  0
LINE
  5
7DA5
330
19
100
AcDbEntity
  8
1
100
AcDbLine
 10
-6207.891945525514
 20
85.03612156838086
 30
0.0
 11
-6208.891945525514
 21
85.03612156838086
 31
0.0
  0
ARC
  5
7DA6
330
19
100
AcDbEntity
  8
1
100
AcDbCircle
 10
-6208.891945525514
 20
88.03612156838084
 30
0.0
 40
3.0
100
AcDbArc
 50
180.0
 51
270.0
  0
LINE
  5
7DA7
330
19
100
AcDbEntity
  8
1
100
AcDbLine
 10
-6207.891945525514
 20
135.0361215683808
 30
0.0
 11
-6207.891945525514
 21
85.03612156838086
 31
0.0
  0
LINE
  5
7DA8
330
19
100
AcDbEntity
  8
1
100
AcDbLine
 10
-6187.891945525514
 20
1070.036121568381
 30
0.0
 11
-5967.891945525515
 21
1070.03612156838
 31
0.0
  0
LINE
  5
7DA9
330
19
100
AcDbEntity
  8
1
100
AcDbLine
 10
-6187.891945525514
 20
1085.036121568381
 30
0.0
 11
-5967.891945525515
 21
1085.03612156838
 31
0.0
  0
LINE
  5
7DAA
330
19
100
AcDbEntity
  8
1
100
AcDbLine
 10
-6152.891945525515
 20
895.0361215683809
 30
0.0
 11
-6052.891945525515
 21
895.0361215683809
 31
0.0
  0
LINE
  5
7DAB
330
19
100
AcDbEntity
  8
1
100
AcDbLine
 10
-6152.891945525515
 20
775.0361215683808
 30
0.0
 11
-6052.891945525515
 21
775.0361215683808
 31
0.0
  0
LINE
  5
7DAC
330
19
100
AcDbEntity
  8
1
100
AcDbLine
 10
-6152.891945525515
 20
895.0361215683809
 30
0.0
 11
-6152.891945525515
 21
775.0361215683808
 31
0.0
  0
LINE
  5
7DAD
330
19
100
AcDbEntity
  8
1
100
AcDbLine
 10
-6052.891945525515
 20
895.0361215683809
 30
0.0
 11
-6052.891945525515
 21
775.0361215683808
 31
0.0
  0
LINE
  5
7DAE
330
19
100
AcDbEntity
  8
1
100
AcDbLine
 10
-5030.201588474323
 20
107.5361215683808
 30
0.0
 11
-4984.208371477886
 21
107.5361215683808
 31
0.0
  0
LINE
  5
7DAF
330
19
100
AcDbEntity
  8
1
100
AcDbLine
 10
-5176.891945525515
 20
715.0361215683808
 30
0.0
 11
-5256.891945525515
 21
715.0361215683808
 31
0.0
  0
LINE
  5
7DB0
330
19
100
AcDbEntity
  8
1
100
AcDbLine
 10
-5176.891945525515
 20
955.0361215683809
 30
0.0
 11
-5256.891945525515
 21
955.0361215683809
 31
0.0
  0
LINE
  5
7DB1
330
19
100
AcDbEntity
  8
1
100
AcDbLine
 10
-4997.391945525515
 20
131.0361215683808
 30
0.0
 11
-4960.891945525514
 21
131.0361215683808
 31
0.0
  0
LINE
  5
7DB2
330
19
100
AcDbEntity
  8
1
100
AcDbLine
 10
-4957.891945525514
 20
135.0361215683808
 30
0.0
 11
-4957.891945525514
 21
134.0361215683808
 31
0.0
  0
ARC
  5
7DB3
330
19
100
AcDbEntity
  8
1
100
AcDbCircle
 10
-4960.891945525514
 20
134.0361215683808
 30
0.0
 40
3.0
100
AcDbArc
 50
270.0
 51
0.0
  0
LINE
  5
7DB4
330
19
100
AcDbEntity
  8
1
100
AcDbLine
 10
-4957.891945525514
 20
135.0361215683808
 30
0.0
 11
-4957.891945525514
 21
134.0361215683808
 31
0.0
  0
LINE
  5
7DB5
330
19
100
AcDbEntity
  8
1
100
AcDbLine
 10
-5012.391945525514
 20
85.03612156838086
 30
0.0
 11
-5007.891945525514
 21
85.03612156838086
 31
0.0
  0
LINE
  5
7DB6
330
19
100
AcDbEntity
  8
1
100
AcDbLine
 10
-5007.891945525514
 20
85.03612156838086
 30
0.0
 11
-5006.891945525515
 21
85.03612156838086
 31
0.0
  0
ARC
  5
7DB7
330
19
100
AcDbEntity
  8
1
100
AcDbCircle
 10
-5006.891945525515
 20
88.03612156838084
 30
0.0
 40
3.0
100
AcDbArc
 50
270.0
 51
0.0
  0
LINE
  5
7DB8
330
19
100
AcDbEntity
  8
1
100
AcDbLine
 10
-5007.891945525514
 20
85.03612156838086
 30
0.0
 11
-5006.891945525515
 21
85.03612156838086
 31
0.0
  0
LINE
  5
7DB9
330
19
100
AcDbEntity
  8
1
100
AcDbLine
 10
-5007.891945525514
 20
135.0361215683808
 30
0.0
 11
-5007.891945525514
 21
85.03612156838086
 31
0.0
  0
LINE
  5
7DBA
330
19
100
AcDbEntity
  8
1
100
AcDbLine
 10
-5007.891945525514
 20
135.0361215683808
 30
0.0
 11
-5007.891945525514
 21
85.03612156838086
 31
0.0
  0
LINE
  5
7DBB
330
19
100
AcDbEntity
  8
1
100
AcDbLine
 10
-5007.891945525514
 20
135.0361215683808
 30
0.0
 11
-4957.891945525514
 21
135.0361215683808
 31
0.0
  0
ARC
  5
7DBC
330
19
100
AcDbEntity
  8
1
100
AcDbCircle
 10
-4997.391945525515
 20
124.5361215683808
 30
0.0
 40
6.5
100
AcDbArc
 50
90.0
 51
180.0
  0
CIRCLE
  5
7DBD
330
19
100
AcDbEntity
  8
1
100
AcDbCircle
 10
-5528.391945525514
 20
2062.036121568381
 30
0.0
 40
17.5
  0
LINE
  5
7DBE
330
19
100
AcDbEntity
  8
1
100
AcDbLine
 10
-5528.391945525514
 20
2044.536121568381
 30
0.0
 11
-5516.837380525515
 21
2043.29814556838
 31
0.0
  0
LINE
  5
7DBF
330
19
100
AcDbEntity
  8
1
100
AcDbLine
 10
-5516.837380525515
 20
2043.29814556838
 30
0.0
 11
-5539.946511525515
 21
2043.29814556838
 31
0.0
  0
LINE
  5
7DC0
330
19
100
AcDbEntity
  8
1
100
AcDbLine
 10
-5569.860268525515
 20
2062.036121568381
 30
0.0
 11
-5488.509865525514
 21
2062.036121568381
 31
0.0
  0
ARC
  5
7DC1
330
19
100
AcDbEntity
  8
1
100
AcDbCircle
 10
-5528.391945525514
 20
2062.036121568381
 30
0.0
 40
29.99998900000001
100
AcDbArc
 50
305.6038510000001
 51
234.3961330000003
  0
LINE
  5
7DC2
330
19
100
AcDbEntity
  8
1
100
AcDbLine
 10
-5469.391945525515
 20
1965.03612156838
 30
0.0
 11
-5587.391945525514
 21
1965.03612156838
 31
0.0
  0
LINE
  5
7DC3
330
19
100
AcDbEntity
  8
1
100
AcDbLine
 10
-5590.391945525515
 20
1958.03612156838
 30
0.0
 11
-5466.391945525515
 21
1958.03612156838
 31
0.0
  0
LINE
  5
7DC4
330
19
100
AcDbEntity
  8
2
100
AcDbLine
 10
-5588.712258525514
 20
1891.036121568381
 30
0.0
 11
-5464.704811525514
 21
1891.036121568381
 31
0.0
  0
LINE
  5
7DC5
330
19
100
AcDbEntity
  8
1
100
AcDbLine
 10
-5472.891945525514
 20
1667.036121568381
 30
0.0
 11
-5528.391945525514
 21
1667.036121568381
 31
0.0
  0
LINE
  5
7DC6
330
19
100
AcDbEntity
  8
1
100
AcDbLine
 10
-5587.391945525514
 20
1743.338245568381
 30
0.0
 11
-5469.391945525515
 21
1743.338245568381
 31
0.0
  0
LINE
  5
7DC7
330
19
100
AcDbEntity
  8
1
100
AcDbLine
 10
-5466.391945525515
 20
1763.33824556838
 30
0.0
 11
-5590.391945525515
 21
1763.33824556838
 31
0.0
  0
LINE
  5
7DC8
330
19
100
AcDbEntity
  8
2
100
AcDbLine
 10
-5861.801003525516
 20
1841.036121568381
 30
0.0
 11
-5167.102150525516
 21
1841.036121568381
 31
0.0
  0
LINE
  5
7DC9
330
19
100
AcDbEntity
  8
1
100
AcDbLine
 10
-5408.391945525515
 20
2032.036121568381
 30
0.0
 11
-5528.391945525514
 21
2032.036121568381
 31
0.0
  0
LINE
  5
7DCA
330
19
100
AcDbEntity
  8
1
100
AcDbLine
 10
-5339.891945525515
 20
1655.036121568381
 30
0.0
 11
-5715.891945525514
 21
1655.036121568381
 31
0.0
  0
LINE
  5
7DCB
330
19
100
AcDbEntity
  8
1
100
AcDbLine
 10
-5339.891945525515
 20
1661.036121568381
 30
0.0
 11
-5715.891945525514
 21
1661.036121568381
 31
0.0
  0
LINE
  5
7DCC
330
19
100
AcDbEntity
  8
1
100
AcDbLine
 10
-6203.391945525516
 20
1539.536121568382
 30
0.0
 11
-5587.891945525514
 21
1539.536121568381
 31
0.0
  0
LINE
  5
7DCD
330
19
100
AcDbEntity
  8
1
100
AcDbLine
 10
-5147.891945525515
 20
1495.036121568381
 30
0.0
 11
-6142.891945525515
 21
1495.036121568381
 31
0.0
  0
LINE
  5
7DCE
330
19
100
AcDbEntity
  8
1
100
AcDbLine
 10
-5147.891945525514
 20
1531.03612156838
 30
0.0
 11
-6142.891945525515
 21
1531.036121568382
 31
0.0
  0
LINE
  5
7DCF
330
19
100
AcDbEntity
  8
1
100
AcDbLine
 10
-5387.891945525514
 20
1617.036121568381
 30
0.0
 11
-5667.891945525514
 21
1617.036121568381
 31
0.0
  0
LINE
  5
7DD0
330
19
100
AcDbEntity
  8
1
100
AcDbLine
 10
-6218.391945525514
 20
1539.036121568381
 30
0.0
 11
-6254.891945525514
 21
1539.036121568381
 31
0.0
  0
LINE
  5
7DD1
330
19
100
AcDbEntity
  8
1
100
AcDbLine
 10
-6225.082930847373
 20
1562.536121568381
 30
0.0
 11
-6186.755245024186
 21
1562.536121568381
 31
0.0
  0
LINE
  5
7DD2
330
19
100
AcDbEntity
  8
1
100
AcDbLine
 10
-6257.891945525514
 20
1535.036121568381
 30
0.0
 11
-6257.891945525514
 21
1536.036121568381
 31
0.0
  0
ARC
  5
7DD3
330
19
100
AcDbEntity
  8
1
100
AcDbCircle
 10
-6254.891945525514
 20
1536.036121568381
 30
0.0
 40
3.0
100
AcDbArc
 50
90.0
 51
180.0
  0
LINE
  5
7DD4
330
19
100
AcDbEntity
  8
1
100
AcDbLine
 10
-5617.391945525515
 20
1935.036121568381
 30
0.0
 11
-5617.391945525515
 21
1773.33824556838
 31
0.0
  0
LINE
  5
7DD5
330
19
100
AcDbEntity
  8
1
100
AcDbLine
 10
-5610.391945525514
 20
1938.03612156838
 30
0.0
 11
-5610.391945525514
 21
1783.338245568381
 31
0.0
  0
LINE
  5
7DD6
330
19
100
AcDbEntity
  8
1
100
AcDbLine
 10
-5708.391945525515
 20
2025.72276656838
 30
0.0
 11
-5708.391945525515
 21
1665.036121568381
 31
0.0
  0
LINE
  5
7DD7
330
19
100
AcDbEntity
  8
1
100
AcDbLine
 10
-5658.391945525515
 20
1681.036121568381
 30
0.0
 11
-5658.391945525515
 21
2026.036121568381
 31
0.0
  0
LINE
  5
7DD8
330
19
100
AcDbEntity
  8
1
100
AcDbLine
 10
-5848.391945525515
 20
1978.14940256838
 30
0.0
 11
-5848.391945525515
 21
1703.92283956838
 31
0.0
  0
LINE
  5
7DD9
330
19
100
AcDbEntity
  8
1
100
AcDbLine
 10
-5788.291970525516
 20
2014.408862568381
 30
0.0
 11
-5788.291970525516
 21
1667.662463568381
 31
0.0
  0
LINE
  5
7DDA
330
19
100
AcDbEntity
  8
1
100
AcDbLine
 10
-5739.991921525515
 20
1667.536121568381
 30
0.0
 11
-5739.991921525515
 21
2014.849475568381
 31
0.0
  0
LINE
  5
7DDB
330
19
100
AcDbEntity
  8
2
100
AcDbLine
 10
-5528.391945525514
 20
2099.53429056838
 30
0.0
 11
-5528.391945525514
 21
1648.79088156838
 31
0.0
  0
LINE
  5
7DDC
330
19
100
AcDbEntity
  8
1
100
AcDbLine
 10
-5733.122414525515
 20
1665.036121568381
 30
0.0
 11
-5695.212453601204
 21
1665.036121568381
 31
0.0
  0
LINE
  5
7DDE
330
19
100
AcDbEntity
  8
1
100
AcDbLine
 10
-6142.891945525515
 20
1531.036121568381
 30
0.0
 11
-6142.891945525515
 21
1495.036121568381
 31
0.0
  0
LINE
  5
7DDF
330
19
100
AcDbEntity
  8
1
100
AcDbLine
 10
-6203.391945525514
 20
1585.036121568382
 30
0.0
 11
-6207.891945525514
 21
1585.03612156838
 31
0.0
  0
LINE
  5
7DE0
330
19
100
AcDbEntity
  8
1
100
AcDbLine
 10
-6207.891945525514
 20
1585.03612156838
 30
0.0
 11
-6208.891945525514
 21
1585.03612156838
 31
0.0
  0
ARC
  5
7DE1
330
19
100
AcDbEntity
  8
1
100
AcDbCircle
 10
-6208.891945525514
 20
1582.036121568381
 30
0.0
 40
3.0
100
AcDbArc
 50
90.0
 51
180.0
  0
ARC
  5
7DE2
330
19
100
AcDbEntity
  8
1
100
AcDbCircle
 10
-6218.391945525514
 20
1545.536121568381
 30
0.0
 40
6.5
100
AcDbArc
 50
270.0
 51
0.0
  0
LINE
  5
7DE3
330
19
100
AcDbEntity
  8
1
100
AcDbLine
 10
-6207.891945525514
 20
1535.036121568381
 30
0.0
 11
-6207.891945525514
 21
1585.03612156838
 31
0.0
  0
LINE
  5
7DE4
330
19
100
AcDbEntity
  8
1
100
AcDbLine
 10
-5793.848976525516
 20
1669.545764568381
 30
0.0
 11
-5845.891945525515
 21
1699.59276156838
 31
0.0
  0
ARC
  5
7DE5
330
19
100
AcDbEntity
  8
1
100
AcDbCircle
 10
-5843.391945525514
 20
1703.92283956838
 30
0.0
 40
5.0
100
AcDbArc
 50
180.0
 51
239.9997249999998
  0
LINE
  5
7DE6
330
19
100
AcDbEntity
  8
1
100
AcDbLine
 10
-5786.348976525515
 20
1667.536121568381
 30
0.0
 11
-5739.991921525515
 21
1667.536121568381
 31
0.0
  0
ARC
  5
7DE7
330
19
100
AcDbEntity
  8
1
100
AcDbCircle
 10
-5786.348976525515
 20
1682.536121568381
 30
0.0
 40
15.0
100
AcDbArc
 50
239.9999540000003
 51
270.0
  0
LINE
  5
7DE8
330
19
100
AcDbEntity
  8
1
100
AcDbLine
 10
-5733.122414525515
 20
1665.036121568381
 30
0.0
 11
-5739.991921525515
 21
1667.536121568381
 31
0.0
  0
LINE
  5
7DE9
330
19
100
AcDbEntity
  8
1
100
AcDbLine
 10
-5721.891945525515
 20
1649.036121568381
 30
0.0
 11
-5721.891945525515
 21
1611.036121568381
 31
0.0
  0
LINE
  5
7DEA
330
19
100
AcDbEntity
  8
1
100
AcDbLine
 10
-5727.891945525515
 20
1649.036121568381
 30
0.0
 11
-5727.891945525515
 21
1611.036121568381
 31
0.0
  0
LINE
  5
7DEB
330
19
100
AcDbEntity
  8
1
100
AcDbLine
 10
-5667.891945525514
 20
1531.036121568382
 30
0.0
 11
-5667.891945525514
 21
1639.036121568381
 31
0.0
  0
LINE
  5
7DEC
330
19
100
AcDbEntity
  8
1
100
AcDbLine
 10
-5687.891945525514
 20
1639.036121568381
 30
0.0
 11
-5687.891945525514
 21
1531.036121568382
 31
0.0
  0
LINE
  5
7DED
330
19
100
AcDbEntity
  8
1
100
AcDbLine
 10
-5677.891945525515
 20
1742.502315741766
 30
0.0
 11
-5677.891945525515
 21
1516.637617274343
 31
0.0
  0
LINE
  5
7DEE
330
19
100
AcDbEntity
  8
1
100
AcDbLine
 10
-5721.891945525515
 20
1611.036121568381
 30
0.0
 11
-5727.891945525515
 21
1611.036121568381
 31
0.0
  0
LINE
  5
7DEF
330
19
100
AcDbEntity
  8
1
100
AcDbLine
 10
-5687.891945525514
 20
1617.036121568381
 30
0.0
 11
-5721.891945525515
 21
1617.036121568381
 31
0.0
  0
LINE
  5
7DF0
330
19
100
AcDbEntity
  8
1
100
AcDbLine
 10
-5668.391945525514
 20
1681.036121568381
 30
0.0
 11
-5611.391945525515
 21
1681.036121568381
 31
0.0
  0
LINE
  5
7DF1
330
19
100
AcDbEntity
  8
1
100
AcDbLine
 10
-5588.891945525515
 20
1661.036121568381
 30
0.0
 11
-5671.391945525514
 21
1661.036121568381
 31
0.0
  0
LINE
  5
7DF2
330
19
100
AcDbEntity
  8
1
100
AcDbLine
 10
-5648.891945525514
 20
1685.138049568381
 30
0.0
 11
-5648.891945525514
 21
1657.207263568381
 31
0.0
  0
ARC
  5
7DF3
330
19
100
AcDbEntity
  8
1
100
AcDbCircle
 10
-5653.780495525515
 20
1684.036121568381
 30
0.0
 40
3.0
100
AcDbArc
 50
270.0
 51
0.0
  0
LINE
  5
7DF4
330
19
100
AcDbEntity
  8
1
100
AcDbLine
 10
-5667.891945525514
 20
1708.536121568382
 30
0.0
 11
-5687.891945525514
 21
1708.536121568382
 31
0.0
  0
LINE
  5
7DF5
330
19
100
AcDbEntity
  8
1
100
AcDbLine
 10
-5662.891945525514
 20
1677.036121568381
 30
0.0
 11
-5660.571437449825
 21
1675.696375606225
 31
0.0
  0
ARC
  5
7DF6
330
19
100
AcDbEntity
  8
1
100
AcDbCircle
 10
-5664.901564468748
 20
1669.368653323112
 30
0.0
 40
7.667468245269114
100
AcDbArc
 50
55.6157525319557
 51
124.3842474680443
  0
LINE
  5
7DF7
330
19
100
AcDbEntity
  8
1
100
AcDbLine
 10
-5692.891945525515
 20
1677.036121568381
 30
0.0
 11
-5695.212453601204
 21
1675.696375606225
 31
0.0
  0
ARC
  5
7DF8
330
19
100
AcDbEntity
  8
1
100
AcDbCircle
 10
-5690.882326582281
 20
1669.368653323112
 30
0.0
 40
7.667468245269114
100
AcDbArc
 50
55.6157525319557
 51
124.3842474680443
  0
ARC
  5
7DF9
330
19
100
AcDbEntity
  8
1
100
AcDbCircle
 10
-5677.891945525515
 20
1648.375867530536
 30
0.0
 40
28.66025403784414
100
AcDbArc
 50
72.41204622600595
 51
107.587953773994
  0
LINE
  5
7DFA
330
19
100
AcDbEntity
  8
1
100
AcDbLine
 10
-5660.571437449825
 20
1655.036121568381
 30
0.0
 11
-5695.212453601204
 21
1655.036121568381
 31
0.0
  0
LINE
  5
7DFB
330
19
100
AcDbEntity
  8
1
100
AcDbLine
 10
-5695.212453601204
 20
1661.036121568381
 30
0.0
 11
-5660.571437449825
 21
1661.036121568381
 31
0.0
  0
LINE
  5
7DFC
330
19
100
AcDbEntity
  8
1
100
AcDbLine
 10
-5695.212453601204
 20
1675.696375606225
 30
0.0
 11
-5695.212453601204
 21
1661.036121568381
 31
0.0
  0
LINE
  5
7DFD
330
19
100
AcDbEntity
  8
1
100
AcDbLine
 10
-5686.552199563359
 20
1675.696375606225
 30
0.0
 11
-5686.552199563359
 21
1661.036121568381
 31
0.0
  0
LINE
  5
7DFE
330
19
100
AcDbEntity
  8
1
100
AcDbLine
 10
-5669.23169148767
 20
1675.696375606225
 30
0.0
 11
-5669.23169148767
 21
1661.036121568381
 31
0.0
  0
LINE
  5
7DFF
330
19
100
AcDbEntity
  8
1
100
AcDbLine
 10
-5660.571437449825
 20
1675.696375606225
 30
0.0
 11
-5660.571437449825
 21
1661.036121568381
 31
0.0
  0
LINE
  5
7E00
330
19
100
AcDbEntity
  8
1
100
AcDbLine
 10
-5692.891945525515
 20
1677.036121568381
 30
0.0
 11
-5662.891945525514
 21
1677.036121568381
 31
0.0
  0
LINE
  5
7E01
330
19
100
AcDbEntity
  8
1
100
AcDbLine
 10
-5667.891945525514
 20
1677.036121568381
 30
0.0
 11
-5667.891945525514
 21
1708.536121568382
 31
0.0
  0
LINE
  5
7E02
330
19
100
AcDbEntity
  8
1
100
AcDbLine
 10
-5687.891945525514
 20
1708.536121568382
 30
0.0
 11
-5687.891945525514
 21
1677.036121568381
 31
0.0
  0
ARC
  5
7E03
330
19
100
AcDbEntity
  8
1
100
AcDbCircle
 10
-5677.891945525515
 20
1667.696375606225
 30
0.0
 40
28.66025403784414
100
AcDbArc
 50
252.412046226006
 51
287.587953773994
  0
LINE
  5
7E04
330
19
100
AcDbEntity
  8
1
100
AcDbLine
 10
-5662.891945525514
 20
1639.036121568381
 30
0.0
 11
-5692.891945525515
 21
1639.036121568381
 31
0.0
  0
LINE
  5
7E05
330
19
100
AcDbEntity
  8
1
100
AcDbLine
 10
-5692.891945525515
 20
1639.036121568381
 30
0.0
 11
-5695.212453601204
 21
1640.375867530536
 31
0.0
  0
ARC
  5
7E06
330
19
100
AcDbEntity
  8
1
100
AcDbCircle
 10
-5690.882326582281
 20
1646.703589813649
 30
0.0
 40
7.667468245269114
100
AcDbArc
 50
235.6157525319557
 51
304.3842474680443
  0
LINE
  5
7E07
330
19
100
AcDbEntity
  8
1
100
AcDbLine
 10
-5662.891945525514
 20
1639.036121568381
 30
0.0
 11
-5660.571437449825
 21
1640.375867530536
 31
0.0
  0
ARC
  5
7E08
330
19
100
AcDbEntity
  8
1
100
AcDbCircle
 10
-5664.901564468748
 20
1646.703589813649
 30
0.0
 40
7.667468245269114
100
AcDbArc
 50
235.6157525319557
 51
304.3842474680443
  0
ARC
  5
7E09
330
19
100
AcDbEntity
  8
1
100
AcDbCircle
 10
-5715.891945525514
 20
1649.036121568381
 30
0.0
 40
12.0
100
AcDbArc
 50
90.0
 51
180.0
  0
ARC
  5
7E0A
330
19
100
AcDbEntity
  8
1
100
AcDbCircle
 10
-5715.891945525514
 20
1649.036121568381
 30
0.0
 40
6.0
100
AcDbArc
 50
90.0
 51
180.0
  0
LINE
  5
7E0B
330
19
100
AcDbEntity
  8
1
100
AcDbLine
 10
-5686.552199563359
 20
1640.375867530536
 30
0.0
 11
-5686.552199563359
 21
1655.036121568381
 31
0.0
  0
LINE
  5
7E0C
330
19
100
AcDbEntity
  8
1
100
AcDbLine
 10
-5695.212453601204
 20
1640.375867530536
 30
0.0
 11
-5695.212453601204
 21
1655.036121568381
 31
0.0
  0
LINE
  5
7E0D
330
19
100
AcDbEntity
  8
1
100
AcDbLine
 10
-5660.571437449825
 20
1640.375867530536
 30
0.0
 11
-5660.571437449825
 21
1655.036121568381
 31
0.0
  0
LINE
  5
7E0E
330
19
100
AcDbEntity
  8
1
100
AcDbLine
 10
-5669.23169148767
 20
1640.375867530536
 30
0.0
 11
-5669.23169148767
 21
1655.036121568381
 31
0.0
  0
LINE
  5
7E0F
330
19
100
AcDbEntity
  8
1
100
AcDbLine
 10
-5543.391945525514
 20
1702.099841568381
 30
0.0
 11
-5543.391945525514
 21
1734.11497856838
 31
0.0
  0
ARC
  5
7E10
330
19
100
AcDbEntity
  8
1
100
AcDbCircle
 10
-5563.391945525514
 20
1702.099841568381
 30
0.0
 40
19.999981
100
AcDbArc
 50
271.26358
 51
0.0
  0
ARC
  5
7E11
330
19
100
AcDbEntity
  8
1
100
AcDbCircle
 10
-5583.891945525515
 20
1662.03612156838
 30
0.0
 40
5.0
100
AcDbArc
 50
90.0
 51
180.0
  0
LINE
  5
7E12
330
19
100
AcDbEntity
  8
1
100
AcDbLine
 10
-5588.891945525515
 20
1662.03612156838
 30
0.0
 11
-5588.891945525515
 21
1661.036121568381
 31
0.0
  0
ARC
  5
7E13
330
19
100
AcDbEntity
  8
1
100
AcDbCircle
 10
-5590.391945525515
 20
1783.338245568381
 30
0.0
 40
20.0
100
AcDbArc
 50
180.0
 51
270.0
  0
ARC
  5
7E14
330
19
100
AcDbEntity
  8
1
100
AcDbCircle
 10
-5587.391945525514
 20
1773.33824556838
 30
0.0
 40
30.0
100
AcDbArc
 50
180.0
 51
270.0
  0
LINE
  5
7E15
330
19
100
AcDbEntity
  8
1
100
AcDbLine
 10
-5583.891945525515
 20
1667.036121568381
 30
0.0
 11
-5528.391945525514
 21
1667.036121568381
 31
0.0
  0
LINE
  5
7E16
330
19
100
AcDbEntity
  8
1
100
AcDbLine
 10
-5562.950905525514
 20
1682.104724568381
 30
0.0
 11
-5611.391945525515
 21
1681.036121568381
 31
0.0
  0
LINE
  5
7E17
330
19
100
AcDbEntity
  8
1
100
AcDbLine
 10
-5711.705300525515
 20
2024.830310568381
 30
0.0
 11
-5736.678566525515
 21
2015.741931568381
 31
0.0
  0
LINE
  5
7E18
330
19
100
AcDbEntity
  8
1
100
AcDbLine
 10
-5793.848976525516
 20
2012.526477568381
 30
0.0
 11
-5845.891945525515
 21
1982.47948056838
 31
0.0
  0
ARC
  5
7E19
330
19
100
AcDbEntity
  8
1
100
AcDbCircle
 10
-5843.391945525514
 20
1978.14940256838
 30
0.0
 40
5.0
100
AcDbArc
 50
120.0002820000001
 51
180.0
  0
LINE
  5
7E1A
330
19
100
AcDbEntity
  8
1
100
AcDbLine
 10
-5786.348976525515
 20
2014.536121568381
 30
0.0
 11
-5743.518166525515
 21
2014.536121568381
 31
0.0
  0
ARC
  5
7E1B
330
19
100
AcDbEntity
  8
1
100
AcDbCircle
 10
-5786.348976525515
 20
1999.536121568381
 30
0.0
 40
15.0
100
AcDbArc
 50
90.0
 51
120.0000459999997
  0
ARC
  5
7E1C
330
19
100
AcDbEntity
  8
1
100
AcDbCircle
 10
-5743.518166525515
 20
2034.536121568381
 30
0.0
 40
20.0
100
AcDbArc
 50
270.0
 51
289.9974980000002
  0
LINE
  5
7E1D
330
19
100
AcDbEntity
  8
1
100
AcDbLine
 10
-5648.391945525514
 20
2032.036121568381
 30
0.0
 11
-5528.391945525514
 21
2032.036121568381
 31
0.0
  0
LINE
  5
7E1E
330
19
100
AcDbEntity
  8
1
100
AcDbLine
 10
-5648.391945525514
 20
2032.036121568381
 30
0.0
 11
-5658.391945525515
 21
2023.782092568381
 31
0.0
  0
ARC
  5
7E1F
330
19
100
AcDbEntity
  8
1
100
AcDbCircle
 10
-5704.865700525516
 20
2006.036121568381
 30
0.0
 40
20.0
100
AcDbArc
 50
90.0
 51
109.9975049999999
  0
LINE
  5
7E20
330
19
100
AcDbEntity
  8
1
100
AcDbLine
 10
-5704.865700525516
 20
2026.036121568381
 30
0.0
 11
-5658.391945525515
 21
2026.036121568381
 31
0.0
  0
ARC
  5
7E21
330
19
100
AcDbEntity
  8
1
100
AcDbCircle
 10
-5528.391945525514
 20
2062.036121568381
 30
0.0
 40
30.0
100
AcDbArc
 50
234.3961330000003
 51
234.8099519999995
  0
ARC
  5
7E22
330
19
100
AcDbEntity
  8
1
100
AcDbCircle
 10
-5539.626931525516
 20
2040.31523456838
 30
0.0
 40
3.0
100
AcDbArc
 50
96.11517299999997
 51
174.8055730000005
  0
LINE
  5
7E23
330
19
100
AcDbEntity
  8
1
100
AcDbLine
 10
-5528.391945525514
 20
2044.536121568381
 30
0.0
 11
-5539.946511525515
 21
2043.29814556838
 31
0.0
  0
ARC
  5
7E24
330
19
100
AcDbEntity
  8
1
100
AcDbCircle
 10
-5549.350319525515
 20
2032.765918568381
 30
0.0
 40
6.0
100
AcDbArc
 50
354.8055730000005
 51
54.39626300000012
  0
LINE
  5
7E25
330
19
100
AcDbEntity
  8
1
100
AcDbLine
 10
-5542.614601525515
 20
2040.586841568381
 30
0.0
 11
-5543.391945525514
 21
2032.036121568381
 31
0.0
  0
ARC
  5
7E26
330
19
100
AcDbEntity
  8
1
100
AcDbCircle
 10
-5587.391945525514
 20
1935.036121568381
 30
0.0
 40
30.0
100
AcDbArc
 50
90.0
 51
180.0
  0
ARC
  5
7E27
330
19
100
AcDbEntity
  8
1
100
AcDbCircle
 10
-5590.391945525515
 20
1938.03612156838
 30
0.0
 40
20.0
100
AcDbArc
 50
90.0
 51
180.0
  0
LINE
  5
7E28
330
19
100
AcDbEntity
  8
1
100
AcDbLine
 10
-5141.891945525514
 20
1539.536121568363
 30
0.0
 11
-5012.391945525514
 21
1539.536121568393
 31
0.0
  0
LINE
  5
7E29
330
19
100
AcDbEntity
  8
1
100
AcDbLine
 10
-5030.201588474323
 20
1562.536121568381
 30
0.0
 11
-4984.208371477886
 21
1562.536121568381
 31
0.0
  0
LINE
  5
7E2A
330
19
100
AcDbEntity
  8
1
100
AcDbLine
 10
-5186.891945525514
 20
1817.036121568381
 30
0.0
 11
-5186.891945525514
 21
1865.036121568378
 31
0.0
  0
LINE
  5
7E2B
330
19
100
AcDbEntity
  8
1
100
AcDbLine
 10
-5286.891945525514
 20
1816.03612156838
 30
0.0
 11
-5286.891945525514
 21
1866.036121568381
 31
0.0
  0
LINE
  5
7E2C
330
19
100
AcDbEntity
  8
1
100
AcDbLine
 10
-5296.891945525515
 20
1904.03612156838
 30
0.0
 11
-5296.891945525515
 21
1841.036121568381
 31
0.0
  0
LINE
  5
7E2D
330
19
100
AcDbEntity
  8
1
100
AcDbLine
 10
-5373.391945525515
 20
2006.036121568381
 30
0.0
 11
-5373.391945525515
 21
1841.036121568381
 31
0.0
  0
LINE
  5
7E2E
330
19
100
AcDbEntity
  8
1
100
AcDbLine
 10
-5439.391945525514
 20
1935.036121568381
 30
0.0
 11
-5439.391945525514
 21
1773.33824556838
 31
0.0
  0
LINE
  5
7E2F
330
19
100
AcDbEntity
  8
1
100
AcDbLine
 10
-5446.391945525514
 20
1938.03612156838
 30
0.0
 11
-5446.391945525514
 21
1783.338245568381
 31
0.0
  0
LINE
  5
7E30
330
19
100
AcDbEntity
  8
1
100
AcDbLine
 10
-5281.891945525515
 20
1520.738932816153
 30
0.0
 11
-5281.891945525515
 21
2041.036121568381
 31
0.0
  0
LINE
  5
7E31
330
19
100
AcDbEntity
  8
1
100
AcDbLine
 10
-5141.891945525514
 20
1520.738932816153
 30
0.0
 11
-5141.891945525514
 21
2041.036121568381
 31
0.0
  0
LINE
  5
7E32
330
19
100
AcDbEntity
  8
1
100
AcDbLine
 10
-5267.891945525515
 20
1711.036121568381
 30
0.0
 11
-5327.891945525514
 21
1711.036121568381
 31
0.0
  0
LINE
  5
7E33
330
19
100
AcDbEntity
  8
1
100
AcDbLine
 10
-5318.336769525515
 20
1702.138904568381
 30
0.0
 11
-5341.510597525516
 21
1678.965076568381
 31
0.0
  0
LINE
  5
7E34
330
19
100
AcDbEntity
  8
1
100
AcDbLine
 10
-5316.123313406865
 20
1631.036121568381
 30
0.0
 11
-5340.580372553544
 21
1631.036121568381
 31
0.0
  0
LINE
  5
7E35
330
19
100
AcDbEntity
  8
1
100
AcDbLine
 10
-5333.891945525515
 20
1649.036121568381
 30
0.0
 11
-5333.891945525515
 21
1611.036121568381
 31
0.0
  0
LINE
  5
7E36
330
19
100
AcDbEntity
  8
1
100
AcDbLine
 10
-5367.891945525514
 20
1531.036121568382
 30
0.0
 11
-5367.891945525514
 21
1639.036121568381
 31
0.0
  0
LINE
  5
7E37
330
19
100
AcDbEntity
  8
1
100
AcDbLine
 10
-5387.891945525514
 20
1639.036121568381
 30
0.0
 11
-5387.891945525514
 21
1531.036121568382
 31
0.0
  0
LINE
  5
7E38
330
19
100
AcDbEntity
  8
1
100
AcDbLine
 10
-5377.891945525515
 20
1742.502315741766
 30
0.0
 11
-5377.891945525515
 21
1516.637617274343
 31
0.0
  0
LINE
  5
7E39
330
19
100
AcDbEntity
  8
1
100
AcDbLine
 10
-5327.891945525514
 20
1711.036121568382
 30
0.0
 11
-5327.891945525514
 21
1531.036121568381
 31
0.0
  0
LINE
  5
7E3A
330
19
100
AcDbEntity
  8
1
100
AcDbLine
 10
-5327.891945525514
 20
1611.036121568381
 30
0.0
 11
-5333.891945525515
 21
1611.036121568381
 31
0.0
  0
LINE
  5
7E3B
330
19
100
AcDbEntity
  8
1
100
AcDbLine
 10
-5333.891945525515
 20
1617.036121568381
 30
0.0
 11
-5367.891945525514
 21
1617.036121568381
 31
0.0
  0
LINE
  5
7E3C
330
19
100
AcDbEntity
  8
1
100
AcDbLine
 10
-5467.891945525515
 20
1661.036121568381
 30
0.0
 11
-5385.391945525515
 21
1661.036121568381
 31
0.0
  0
LINE
  5
7E3D
330
19
100
AcDbEntity
  8
1
100
AcDbLine
 10
-5388.391945525515
 20
1681.036121568381
 30
0.0
 11
-5445.391945525514
 21
1681.036121568381
 31
0.0
  0
ARC
  5
7E3E
330
19
100
AcDbEntity
  8
1
100
AcDbCircle
 10
-5472.891945525514
 20
1662.03612156838
 30
0.0
 40
5.0
100
AcDbArc
 50
0.0
 51
90.0
  0
LINE
  5
7E3F
330
19
100
AcDbEntity
  8
1
100
AcDbLine
 10
-5467.891945525515
 20
1662.03612156838
 30
0.0
 11
-5467.891945525515
 21
1661.036121568381
 31
0.0
  0
LINE
  5
7E40
330
19
100
AcDbEntity
  8
1
100
AcDbLine
 10
-5493.832985525515
 20
1682.104724568381
 30
0.0
 11
-5445.391945525514
 21
1681.036121568381
 31
0.0
  0
LINE
  5
7E41
330
19
100
AcDbEntity
  8
1
100
AcDbLine
 10
-5513.391945525515
 20
1702.099841568381
 30
0.0
 11
-5513.391945525515
 21
1734.11497856838
 31
0.0
  0
ARC
  5
7E42
330
19
100
AcDbEntity
  8
1
100
AcDbCircle
 10
-5493.391945525514
 20
1702.099841568381
 30
0.0
 40
20.0
100
AcDbArc
 50
180.0
 51
268.73642
  0
ARC
  5
7E43
330
19
100
AcDbEntity
  8
1
100
AcDbCircle
 10
-5466.391945525515
 20
1783.338245568381
 30
0.0
 40
20.0
100
AcDbArc
 50
270.0
 51
0.0
  0
ARC
  5
7E44
330
19
100
AcDbEntity
  8
1
100
AcDbCircle
 10
-5469.391945525515
 20
1773.33824556838
 30
0.0
 40
30.0
100
AcDbArc
 50
270.0
 51
0.0
  0
LINE
  5
7E45
330
19
100
AcDbEntity
  8
1
100
AcDbLine
 10
-5367.891945525514
 20
1708.536121568382
 30
0.0
 11
-5387.891945525514
 21
1708.536121568382
 31
0.0
  0
LINE
  5
7E46
330
19
100
AcDbEntity
  8
1
100
AcDbLine
 10
-5407.891945525514
 20
1685.138049568381
 30
0.0
 11
-5407.891945525514
 21
1657.207263568381
 31
0.0
  0
LINE
  5
7E47
330
19
100
AcDbEntity
  8
1
100
AcDbLine
 10
-5348.581642525515
 20
1676.036121568381
 30
0.0
 11
-5361.115413852284
 21
1676.036121568381
 31
0.0
  0
LINE
  5
7E48
330
19
100
AcDbEntity
  8
1
100
AcDbLine
 10
-5387.891945525514
 20
1682.775892068381
 30
0.0
 11
-5388.391945525515
 21
1681.036121568381
 31
0.0
  0
ARC
  5
7E49
330
19
100
AcDbEntity
  8
1
100
AcDbCircle
 10
-5388.391945525515
 20
1678.03612156838
 30
0.0
 40
3.0
100
AcDbArc
 50
80.40593177313942
 51
90.0
  0
ARC
  5
7E4A
330
19
100
AcDbEntity
  8
1
100
AcDbCircle
 10
-5348.581642525515
 20
1686.036121568381
 30
0.0
 40
10.0
100
AcDbArc
 50
270.0
 51
314.9999999999998
  0
LINE
  5
7E4B
330
19
100
AcDbEntity
  8
1
100
AcDbLine
 10
-5395.212453601203
 20
1661.036121568382
 30
0.0
 11
-5360.571437449825
 21
1661.036121568382
 31
0.0
  0
LINE
  5
7E4C
330
19
100
AcDbEntity
  8
1
100
AcDbLine
 10
-5392.891945525515
 20
1677.036121568382
 30
0.0
 11
-5362.891945525515
 21
1677.036121568382
 31
0.0
  0
ARC
  5
7E4D
330
19
100
AcDbEntity
  8
1
100
AcDbCircle
 10
-5377.891945525515
 20
1648.375867530537
 30
0.0
 40
28.66025403784414
100
AcDbArc
 50
72.41204622600595
 51
107.587953773994
  0
LINE
  5
7E4E
330
19
100
AcDbEntity
  8
1
100
AcDbLine
 10
-5386.552199563359
 20
1675.696375606226
 30
0.0
 11
-5386.552199563359
 21
1661.036121568382
 31
0.0
  0
LINE
  5
7E4F
330
19
100
AcDbEntity
  8
1
100
AcDbLine
 10
-5395.212453601203
 20
1675.696375606226
 30
0.0
 11
-5395.212453601203
 21
1661.036121568382
 31
0.0
  0
ARC
  5
7E50
330
19
100
AcDbEntity
  8
1
100
AcDbCircle
 10
-5390.882326582281
 20
1669.368653323113
 30
0.0
 40
7.667468245269114
100
AcDbArc
 50
55.6157525319557
 51
124.3842474680443
  0
LINE
  5
7E51
330
19
100
AcDbEntity
  8
1
100
AcDbLine
 10
-5392.891945525515
 20
1677.036121568382
 30
0.0
 11
-5395.212453601203
 21
1675.696375606226
 31
0.0
  0
LINE
  5
7E52
330
19
100
AcDbEntity
  8
1
100
AcDbLine
 10
-5360.571437449825
 20
1675.696375606226
 30
0.0
 11
-5360.571437449825
 21
1661.036121568382
 31
0.0
  0
LINE
  5
7E53
330
19
100
AcDbEntity
  8
1
100
AcDbLine
 10
-5369.231691487669
 20
1675.696375606226
 30
0.0
 11
-5369.231691487669
 21
1661.036121568382
 31
0.0
  0
LINE
  5
7E54
330
19
100
AcDbEntity
  8
1
100
AcDbLine
 10
-5377.891945525515
 20
1684.036073458255
 30
0.0
 11
-5377.891945525515
 21
1654.228412896225
 31
0.0
  0
ARC
  5
7E55
330
19
100
AcDbEntity
  8
1
100
AcDbCircle
 10
-5364.901564468748
 20
1669.368653323113
 30
0.0
 40
7.667468245269114
100
AcDbArc
 50
55.6157525319557
 51
124.3842474680443
  0
LINE
  5
7E56
330
19
100
AcDbEntity
  8
1
100
AcDbLine
 10
-5362.891945525515
 20
1677.036121568382
 30
0.0
 11
-5360.571437449825
 21
1675.696375606226
 31
0.0
  0
LINE
  5
7E57
330
19
100
AcDbEntity
  8
1
100
AcDbLine
 10
-5360.571437449825
 20
1655.036121568381
 30
0.0
 11
-5395.212453601203
 21
1655.036121568381
 31
0.0
  0
LINE
  5
7E58
330
19
100
AcDbEntity
  8
1
100
AcDbLine
 10
-5387.891945525514
 20
1708.536121568382
 30
0.0
 11
-5387.891945525514
 21
1677.036121568382
 31
0.0
  0
LINE
  5
7E59
330
19
100
AcDbEntity
  8
1
100
AcDbLine
 10
-5367.891945525514
 20
1677.036121568382
 30
0.0
 11
-5367.891945525514
 21
1708.536121568382
 31
0.0
  0
LINE
  5
7E5A
330
19
100
AcDbEntity
  8
1
100
AcDbLine
 10
-5373.391945525515
 20
1708.536121568382
 30
0.0
 11
-5373.391945525515
 21
1841.036121568381
 31
0.0
  0
LINE
  5
7E5B
330
19
100
AcDbEntity
  8
1
100
AcDbLine
 10
-5362.891945525515
 20
1639.036121568381
 30
0.0
 11
-5392.891945525515
 21
1639.036121568381
 31
0.0
  0
ARC
  5
7E5C
330
19
100
AcDbEntity
  8
1
100
AcDbCircle
 10
-5377.891945525515
 20
1667.696375606225
 30
0.0
 40
28.66025403784414
100
AcDbArc
 50
252.412046226006
 51
287.587953773994
  0
ARC
  5
7E5D
330
19
100
AcDbEntity
  8
1
100
AcDbCircle
 10
-5364.901564468748
 20
1646.703589813649
 30
0.0
 40
7.667468245269114
100
AcDbArc
 50
235.6157525319557
 51
304.3842474680443
  0
LINE
  5
7E5E
330
19
100
AcDbEntity
  8
1
100
AcDbLine
 10
-5362.891945525515
 20
1639.036121568381
 30
0.0
 11
-5360.571437449825
 21
1640.375867530536
 31
0.0
  0
ARC
  5
7E5F
330
19
100
AcDbEntity
  8
1
100
AcDbCircle
 10
-5390.882326582281
 20
1646.703589813649
 30
0.0
 40
7.667468245269114
100
AcDbArc
 50
235.6157525319557
 51
304.3842474680443
  0
LINE
  5
7E60
330
19
100
AcDbEntity
  8
1
100
AcDbLine
 10
-5392.891945525515
 20
1639.036121568381
 30
0.0
 11
-5395.212453601203
 21
1640.375867530536
 31
0.0
  0
LINE
  5
7E61
330
19
100
AcDbEntity
  8
1
100
AcDbLine
 10
-5369.231691487669
 20
1640.375867530536
 30
0.0
 11
-5369.231691487669
 21
1655.036121568381
 31
0.0
  0
LINE
  5
7E62
330
19
100
AcDbEntity
  8
1
100
AcDbLine
 10
-5360.571437449825
 20
1640.375867530536
 30
0.0
 11
-5360.571437449825
 21
1655.036121568381
 31
0.0
  0
LINE
  5
7E63
330
19
100
AcDbEntity
  8
1
100
AcDbLine
 10
-5395.212453601203
 20
1640.375867530536
 30
0.0
 11
-5395.212453601203
 21
1655.036121568381
 31
0.0
  0
LINE
  5
7E64
330
19
100
AcDbEntity
  8
1
100
AcDbLine
 10
-5386.552199563359
 20
1640.375867530536
 30
0.0
 11
-5386.552199563359
 21
1655.036121568381
 31
0.0
  0
LINE
  5
7E65
330
19
100
AcDbEntity
  8
1
100
AcDbLine
 10
-5377.891945525515
 20
1632.036169678508
 30
0.0
 11
-5377.891945525515
 21
1661.843830240538
 31
0.0
  0
ARC
  5
7E66
330
19
100
AcDbEntity
  8
1
100
AcDbCircle
 10
-5339.891945525515
 20
1649.036121568381
 30
0.0
 40
6.0
100
AcDbArc
 50
0.0
 51
90.0
  0
ARC
  5
7E67
330
19
100
AcDbEntity
  8
1
100
AcDbCircle
 10
-5339.891945525515
 20
1649.036121568381
 30
0.0
 40
12.0
100
AcDbArc
 50
0.0
 51
90.0
  0
LINE
  5
7E68
330
19
100
AcDbEntity
  8
1
100
AcDbLine
 10
-5147.891945525515
 20
1531.036121568381
 30
0.0
 11
-5267.891945525515
 21
1711.036121568381
 31
0.0
  0
LINE
  5
7E69
330
19
100
AcDbEntity
  8
1
100
AcDbLine
 10
-5321.891945525514
 20
1711.036121568382
 30
0.0
 11
-5321.891945525514
 21
1531.036121568381
 31
0.0
  0
LINE
  5
7E6A
330
19
100
AcDbEntity
  8
1
100
AcDbLine
 10
-5147.891945525515
 20
1531.036121568381
 30
0.0
 11
-5147.891945525515
 21
1495.036121568381
 31
0.0
  0
LINE
  5
7E6B
330
19
100
AcDbEntity
  8
1
100
AcDbLine
 10
-5176.891945525515
 20
1741.03612156838
 30
0.0
 11
-5256.891945525515
 21
1741.03612156838
 31
0.0
  0
LINE
  5
7E6C
330
19
100
AcDbEntity
  8
1
100
AcDbLine
 10
-5286.891945525514
 20
1817.036121568381
 30
0.0
 11
-5186.891945525514
 21
1817.036121568381
 31
0.0
  0
LINE
  5
7E6D
330
19
100
AcDbEntity
  8
1
100
AcDbLine
 10
-5286.891945525514
 20
1816.03612156838
 30
0.0
 11
-5296.891945525515
 21
1816.03612156838
 31
0.0
  0
LINE
  5
7E6E
330
19
100
AcDbEntity
  8
1
100
AcDbLine
 10
-5311.891945525514
 20
1776.036121568381
 30
0.0
 11
-5298.891945525515
 21
1776.036121568381
 31
0.0
  0
ARC
  5
7E6F
330
19
100
AcDbEntity
  8
1
100
AcDbCircle
 10
-5298.891945525515
 20
1778.036121568381
 30
0.0
 40
2.0
100
AcDbArc
 50
270.0
 51
0.0
  0
LINE
  5
7E70
330
19
100
AcDbEntity
  8
1
100
AcDbLine
 10
-5296.891945525515
 20
1778.036121568381
 30
0.0
 11
-5296.891945525515
 21
1841.036121568381
 31
0.0
  0
ARC
  5
7E71
330
19
100
AcDbEntity
  8
1
100
AcDbCircle
 10
-5325.407936525515
 20
1709.20994956838
 30
0.0
 40
10.000054
100
AcDbArc
 50
315.000488
 51
357.0002749999996
  0
LINE
  5
7E72
330
19
100
AcDbEntity
  8
1
100
AcDbLine
 10
-5311.891945525514
 20
1776.036121568381
 30
0.0
 11
-5315.421608525515
 21
1708.686633568381
 31
0.0
  0
LINE
  5
7E73
330
19
100
AcDbEntity
  8
1
100
AcDbLine
 10
-5318.336769525515
 20
1979.933337568381
 30
0.0
 11
-5341.510597525516
 21
2003.10716656838
 31
0.0
  0
ARC
  5
7E74
330
19
100
AcDbEntity
  8
1
100
AcDbCircle
 10
-5517.156960525515
 20
2040.31523456838
 30
0.0
 40
3.0
100
AcDbArc
 50
5.194429000000346
 51
83.88482700000002
  0
ARC
  5
7E75
330
19
100
AcDbEntity
  8
1
100
AcDbCircle
 10
-5507.433571525514
 20
2032.765918568381
 30
0.0
 40
6.0
100
AcDbArc
 50
125.6037369999999
 51
185.1944269999994
  0
LINE
  5
7E76
330
19
100
AcDbEntity
  8
1
100
AcDbLine
 10
-5514.169289525515
 20
2040.586841568381
 30
0.0
 11
-5513.391945525515
 21
2032.036121568381
 31
0.0
  0
ARC
  5
7E77
330
19
100
AcDbEntity
  8
1
100
AcDbCircle
 10
-5469.391945525515
 20
1935.036121568381
 30
0.0
 40
30.0
100
AcDbArc
 50
0.0
 51
90.0
  0
ARC
  5
7E78
330
19
100
AcDbEntity
  8
1
100
AcDbCircle
 10
-5466.391945525515
 20
1938.03612156838
 30
0.0
 40
20.0
100
AcDbArc
 50
0.0
 51
90.0
  0
LINE
  5
7E79
330
19
100
AcDbEntity
  8
1
100
AcDbLine
 10
-5391.430397525515
 20
2018.036121568381
 30
0.0
 11
-5408.391945525515
 21
2032.036121568381
 31
0.0
  0
LINE
  5
7E7A
330
19
100
AcDbEntity
  8
1
100
AcDbLine
 10
-5348.581642525515
 20
2006.036121568381
 30
0.0
 11
-5373.391945525515
 21
2006.036121568381
 31
0.0
  0
LINE
  5
7E7B
330
19
100
AcDbEntity
  8
1
100
AcDbLine
 10
-5391.430397525515
 20
2018.036121568381
 30
0.0
 11
-5383.391945525515
 21
1988.03612156838
 31
0.0
  0
LINE
  5
7E7C
330
19
100
AcDbEntity
  8
1
100
AcDbLine
 10
-5378.391945525514
 20
1988.03612156838
 30
0.0
 11
-5373.391945525515
 21
1988.03612156838
 31
0.0
  0
LINE
  5
7E7D
330
19
100
AcDbEntity
  8
1
100
AcDbLine
 10
-5383.391945525515
 20
1988.03612156838
 30
0.0
 11
-5378.391945525514
 21
1988.03612156838
 31
0.0
  0
LINE
  5
7E7E
330
19
100
AcDbEntity
  8
1
100
AcDbLine
 10
-5378.391945525514
 20
1988.03612156838
 30
0.0
 11
-5383.391945525515
 21
1988.03612156838
 31
0.0
  0
ARC
  5
7E7F
330
19
100
AcDbEntity
  8
1
100
AcDbCircle
 10
-5348.581642525515
 20
1996.036121568381
 30
0.0
 40
9.999967999999999
100
AcDbArc
 50
45.00000000000023
 51
90.0
  0
LINE
  5
7E80
330
19
100
AcDbEntity
  8
1
100
AcDbLine
 10
-5176.891945525515
 20
1941.036121568382
 30
0.0
 11
-5256.891945525515
 21
1941.036121568382
 31
0.0
  0
LINE
  5
7E81
330
19
100
AcDbEntity
  8
1
100
AcDbLine
 10
-5141.891945525514
 20
2041.036121568381
 30
0.0
 11
-5281.891945525515
 21
2041.036121568381
 31
0.0
  0
LINE
  5
7E82
330
19
100
AcDbEntity
  8
1
100
AcDbLine
 10
-5286.891945525514
 20
1865.03612156838
 30
0.0
 11
-5186.891945525514
 21
1865.036121568378
 31
0.0
  0
ARC
  5
7E83
330
19
100
AcDbEntity
  8
1
100
AcDbCircle
 10
-5325.407936525515
 20
1972.86229256838
 30
0.0
 40
10.000031
100
AcDbArc
 50
2.999738000000062
 51
44.99950399999958
  0
LINE
  5
7E84
330
19
100
AcDbEntity
  8
1
100
AcDbLine
 10
-5311.891945525514
 20
1906.03612156838
 30
0.0
 11
-5298.891945525515
 21
1906.03612156838
 31
0.0
  0
ARC
  5
7E85
330
19
100
AcDbEntity
  8
1
100
AcDbCircle
 10
-5298.891945525515
 20
1904.03612156838
 30
0.0
 40
2.0
100
AcDbArc
 50
0.0
 51
90.0
  0
LINE
  5
7E86
330
19
100
AcDbEntity
  8
1
100
AcDbLine
 10
-5311.891945525514
 20
1906.03612156838
 30
0.0
 11
-5315.421608525515
 21
1973.385608568381
 31
0.0
  0
LINE
  5
7E87
330
19
100
AcDbEntity
  8
1
100
AcDbLine
 10
-5286.891945525514
 20
1866.036121568381
 30
0.0
 11
-5296.891945525515
 21
1866.036121568381
 31
0.0
  0
LINE
  5
7E88
330
19
100
AcDbEntity
  8
1
100
AcDbLine
 10
-4997.391945525515
 20
1539.036121568381
 30
0.0
 11
-4960.891945525514
 21
1539.036121568381
 31
0.0
  0
LINE
  5
7E89
330
19
100
AcDbEntity
  8
1
100
AcDbLine
 10
-4957.891945525514
 20
1535.036121568381
 30
0.0
 11
-4957.891945525514
 21
1536.036121568381
 31
0.0
  0
ARC
  5
7E8A
330
19
100
AcDbEntity
  8
1
100
AcDbCircle
 10
-4960.891945525514
 20
1536.036121568381
 30
0.0
 40
3.0
100
AcDbArc
 50
0.0
 51
90.0
  0
LINE
  5
7E8B
330
19
100
AcDbEntity
  8
1
100
AcDbLine
 10
-5012.391945525514
 20
1585.036121568382
 30
0.0
 11
-5007.891945525514
 21
1585.03612156838
 31
0.0
  0
LINE
  5
7E8C
330
19
100
AcDbEntity
  8
1
100
AcDbLine
 10
-5007.891945525514
 20
1585.03612156838
 30
0.0
 11
-5006.891945525515
 21
1585.03612156838
 31
0.0
  0
ARC
  5
7E8D
330
19
100
AcDbEntity
  8
1
100
AcDbCircle
 10
-5006.891945525515
 20
1582.036121568381
 30
0.0
 40
3.0
100
AcDbArc
 50
0.0
 51
90.0
  0
LINE
  5
7E8E
330
19
100
AcDbEntity
  8
1
100
AcDbLine
 10
-5007.891945525514
 20
1535.036121568381
 30
0.0
 11
-5007.891945525514
 21
1585.03612156838
 31
0.0
  0
ARC
  5
7E8F
330
19
100
AcDbEntity
  8
1
100
AcDbCircle
 10
-4997.391945525515
 20
1545.536121568381
 30
0.0
 40
6.5
100
AcDbArc
 50
180.0
 51
270.0
  0
LINE
  5
7E90
330
19
100
AcDbEntity
  8
1
100
AcDbLine
 10
-4257.901477775333
 20
565.7778812116544
 30
0.0
 11
-4257.901477775333
 21
-114.9638784316191
 31
0.0
  0
LINE
  5
7E91
330
19
100
AcDbEntity
  8
1
100
AcDbLine
 10
-3880.327263051966
 20
213.713650552929
 30
0.0
 11
-3720.2456095894
 21
741.7149834166105
 31
0.0
  0
LINE
  5
7E92
330
19
100
AcDbEntity
  8
1
100
AcDbLine
 10
-3887.536431750785
 20
217.5081488273867
 30
0.0
 11
-3727.901477775333
 21
744.0361215683813
 31
0.0
  0
LINE
  5
7E9A
330
19
100
AcDbEntity
  8
1
100
AcDbLine
 10
-3727.901477775333
 20
744.0361215683813
 30
0.0
 11
-3720.2456095894
 21
741.7149834166105
 31
0.0
  0
LINE
  5
7E9B
330
19
100
AcDbEntity
  8
1
100
AcDbLine
 10
-3757.901477775333
 20
1831.03612156838
 30
0.0
 11
-3757.901477775333
 21
1948.05504156838
 31
0.0
  0
LINE
  5
7E9C
330
19
100
AcDbEntity
  8
1
100
AcDbLine
 10
-3747.901477775333
 20
1951.036121568381
 30
0.0
 11
-3747.901477775333
 21
1831.03612156838
 31
0.0
  0
ARC
  5
7E9D
330
19
100
AcDbEntity
  8
1
100
AcDbCircle
 10
-2889.530506775333
 20
1827.56737156838
 30
0.0
 40
1000.0
100
AcDbArc
 50
174.8437189999995
 51
184.2695310000008
  0
LINE
  5
7E9E
330
19
100
AcDbEntity
  8
1
100
AcDbLine
 10
-3770.316394775333
 20
1961.86082856838
 30
0.0
 11
-3889.187427775333
 21
1741.929797568381
 31
0.0
  0
LINE
  5
7E9F
330
19
100
AcDbEntity
  8
1
100
AcDbLine
 10
-3767.149402775333
 20
1960.149036568381
 30
0.0
 11
-3886.020435775334
 21
1740.218005568381
 31
0.0
  0
LINE
  5
7EA0
330
19
100
AcDbEntity
  8
1
100
AcDbLine
 10
-3737.312976775333
 20
2041.036121568381
 30
0.0
 11
-3737.312976775333
 21
1511.653823100474
 31
0.0
  0
LINE
  5
7EA1
330
19
100
AcDbEntity
  8
1
100
AcDbLine
 10
-3815.401477775333
 20
1671.036121568381
 30
0.0
 11
-3815.401477775333
 21
1591.036121568381
 31
0.0
  0
LINE
  5
7EA2
330
19
100
AcDbEntity
  8
1
100
AcDbLine
 10
-3830.401477775333
 20
1671.036121568381
 30
0.0
 11
-3830.401477775333
 21
1591.036121568381
 31
0.0
  0
LINE
  5
7EA3
330
19
100
AcDbEntity
  8
1
100
AcDbLine
 10
-3822.901477775333
 20
1574.267290620348
 30
0.0
 11
-3822.901477775333
 21
1687.804952516414
 31
0.0
  0
LINE
  5
7EA4
330
19
100
AcDbEntity
  8
1
100
AcDbLine
 10
-3792.901477775333
 20
1547.268527458481
 30
0.0
 11
-3792.901477775333
 21
1711.036121568381
 31
0.0
  0
LINE
  5
7EA5
330
19
100
AcDbEntity
  8
1
100
AcDbLine
 10
-3842.901477775333
 20
1528.775986359211
 30
0.0
 11
-3842.901477775333
 21
1711.036121568381
 31
0.0
  0
LINE
  5
7EA6
330
19
100
AcDbEntity
  8
1
100
AcDbLine
 10
-3798.901477775333
 20
1545.260733927034
 30
0.0
 11
-3798.901477775333
 21
1711.036121568381
 31
0.0
  0
ARC
  5
7EA7
330
19
100
AcDbEntity
  8
1
100
AcDbCircle
 10
-3822.901477775333
 20
1591.036121568381
 30
0.0
 40
7.5
100
AcDbArc
 50
180.0
 51
0.0
  0
LINE
  5
7EA8
330
19
100
AcDbEntity
  8
1
100
AcDbLine
 10
-3880.173328775332
 20
1751.036121568381
 30
0.0
 11
-3776.729297775334
 21
1751.036121568381
 31
0.0
  0
ARC
  5
7EA9
330
19
100
AcDbEntity
  8
1
100
AcDbCircle
 10
-3888.307666775335
 20
1741.454211568381
 30
0.0
 40
0.999915
100
AcDbArc
 50
151.6049800000002
 51
241.6078189999997
  0
ARC
  5
7EAA
330
19
100
AcDbEntity
  8
1
100
AcDbCircle
 10
-3886.900196775334
 20
1740.69346956838
 30
0.0
 40
0.999915
100
AcDbArc
 50
241.6049799999998
 51
331.6078190000001
  0
LINE
  5
7EAB
330
19
100
AcDbEntity
  8
1
100
AcDbLine
 10
-3887.375781775335
 20
1739.81370856838
 30
0.0
 11
-3888.783252775333
 21
1740.57457356838
 31
0.0
  0
LINE
  5
7EAC
330
19
100
AcDbEntity
  8
1
100
AcDbLine
 10
-3883.957080775333
 20
1751.60667756838
 30
0.0
 11
-3886.755420775333
 21
1753.119128568381
 31
0.0
  0
LINE
  5
7EAD
330
19
100
AcDbEntity
  8
1
100
AcDbLine
 10
-3827.901477775333
 20
1768.43053056838
 30
0.0
 11
-3827.901477775333
 21
1729.436511568381
 31
0.0
  0
LINE
  5
7EAE
330
19
100
AcDbEntity
  8
1
100
AcDbLine
 10
-3757.901477775333
 20
1831.03612156838
 30
0.0
 11
-3742.631092775333
 21
1831.03612156838
 31
0.0
  0
LINE
  5
7EAF
330
19
100
AcDbEntity
  8
1
100
AcDbLine
 10
-3719.901477775333
 20
1736.295154568381
 30
0.0
 11
-3713.517505775333
 21
1740.992908568381
 31
0.0
  0
ARC
  5
7EB0
330
19
100
AcDbEntity
  8
1
100
AcDbCircle
 10
-3776.729236775333
 20
1761.036121568381
 30
0.0
 40
9.999952
100
AcDbArc
 50
270.0
 51
352.8748929999996
  0
ARC
  5
7EB1
330
19
100
AcDbEntity
  8
1
100
AcDbCircle
 10
-3822.901477775333
 20
1671.036121568381
 30
0.0
 40
7.5
100
AcDbArc
 50
0.0
 51
180.0
  0
ARC
  5
7EB2
330
19
100
AcDbEntity
  8
1
100
AcDbCircle
 10
-3716.901477775333
 20
1678.03612156838
 30
0.0
 40
3.0
100
AcDbArc
 50
90.0
 51
180.0
  0
LINE
  5
7EB3
330
19
100
AcDbEntity
  8
1
100
AcDbLine
 10
-3719.901477775333
 20
1736.295154568381
 30
0.0
 11
-3719.901477775333
 21
1661.036121568381
 31
0.0
  0
LINE
  5
7EB4
330
19
100
AcDbEntity
  8
1
100
AcDbLine
 10
-3757.901477775333
 20
1831.03612156838
 30
0.0
 11
-3766.806507775333
 21
1759.795764568381
 31
0.0
  0
LINE
  5
7EB5
330
19
100
AcDbEntity
  8
1
100
AcDbLine
 10
-3792.901477775333
 20
1711.036121568381
 30
0.0
 11
-3842.901477775333
 21
1711.03612156838
 31
0.0
  0
LINE
  5
7EB6
330
19
100
AcDbEntity
  8
1
100
AcDbLine
 10
-3772.037586775334
 20
1958.67650156838
 30
0.0
 11
-3848.220691775334
 21
1953.761951568381
 31
0.0
  0
ARC
  5
7EB7
330
19
100
AcDbEntity
  8
1
100
AcDbCircle
 10
-3845.645740775334
 20
1913.84495856838
 30
0.0
 40
40.0
100
AcDbArc
 50
93.69090300000003
 51
174.8438009999996
  0
ARC
  5
7EB8
330
19
100
AcDbEntity
  8
1
100
AcDbCircle
 10
-3762.901355775333
 20
1948.05504156838
 30
0.0
 40
4.999896999999999
100
AcDbArc
 50
0.0
 51
61.60981000000003
  0
LINE
  5
7EB9
330
19
100
AcDbEntity
  8
1
100
AcDbLine
 10
-3768.870471775334
 20
1956.96483256838
 30
0.0
 11
-3760.524036775333
 21
1952.453601568381
 31
0.0
  0
ARC
  5
7EBA
330
19
100
AcDbEntity
  8
1
100
AcDbCircle
 10
-3768.029163775333
 20
1960.62449956838
 30
0.0
 40
1.000021999999999
100
AcDbArc
 50
331.6111449999996
 51
61.61113700000036
  0
ARC
  5
7EBB
330
19
100
AcDbEntity
  8
1
100
AcDbCircle
 10
-3769.436756775333
 20
1961.38536456838
 30
0.0
 40
0.999915
100
AcDbArc
 50
61.60498800000024
 51
151.6078130000004
  0
LINE
  5
7EBC
330
19
100
AcDbEntity
  8
1
100
AcDbLine
 10
-3768.961170775334
 20
1962.265002568381
 30
0.0
 11
-3767.553699775334
 21
1961.50426056838
 31
0.0
  0
LINE
  5
7EBD
330
19
100
AcDbEntity
  8
1
100
AcDbLine
 10
-3733.881580775333
 20
1891.036121568381
 30
0.0
 11
-3775.195545775334
 21
1891.036121568381
 31
0.0
  0
LINE
  5
7EBE
330
19
100
AcDbEntity
  8
1
100
AcDbLine
 10
-3758.887348775334
 20
1951.036121568381
 30
0.0
 11
-3706.646228775333
 21
1951.036121568381
 31
0.0
  0
LINE
  5
7EC7
330
19
100
AcDbEntity
  8
2
100
AcDbLine
 10
-3557.901477775333
 20
-334.9638784316191
 30
0.0
 11
-3557.901477775333
 21
2140.408730264595
 31
0.0
  0
LINE
  5
7EC8
330
19
100
AcDbEntity
  8
1
100
AcDbLine
 10
-2857.901477775333
 20
565.7778812116556
 30
0.0
 11
-2857.901477775333
 21
-114.9638784316191
 31
0.0
  0
LINE
  5
7ECA
330
19
100
AcDbEntity
  8
1
100
AcDbLine
 10
-4250.776487091985
 20
934.6565083596807
 30
0.0
 11
-3783.580766524185
 21
867.4839046946898
 31
0.0
  0
LINE
  5
7ECC
330
19
100
AcDbEntity
  8
1
100
AcDbLine
 10
-4251.224654699803
 20
931.4880388088345
 30
0.0
 11
-3784.013945342713
 21
864.3132800812907
 31
0.0
  0
LINE
  5
7ECF
330
19
100
AcDbEntity
  8
1
100
AcDbLine
 10
-3228.266523799881
 20
217.508148827387
 30
0.0
 11
-3387.901477775333
 21
744.0361215683813
 31
0.0
  0
LINE
  5
7ED0
330
19
100
AcDbEntity
  8
1
100
AcDbLine
 10
-3235.475692498701
 20
213.713650552929
 30
0.0
 11
-3395.557345961266
 21
741.7149834166105
 31
0.0
  0
CIRCLE
  5
7ED1
330
19
100
AcDbEntity
  8
1
100
AcDbCircle
 10
-3557.901477775333
 20
835.0361215683808
 30
0.0
 40
120.0
  0
LINE
  5
7ED2
330
19
100
AcDbEntity
  8
1
100
AcDbLine
 10
-3495.401477775333
 20
763.0361215683808
 30
0.0
 11
-3620.401477775333
 21
763.0361215683808
 31
0.0
  0
ARC
  5
7ED3
330
19
100
AcDbEntity
  8
1
100
AcDbCircle
 10
-3557.901477775333
 20
835.0361215683808
 30
0.0
 40
68.0
100
AcDbArc
 50
5.669259984028703
 51
174.3307400159713
  0
LINE
  5
7ED4
330
19
100
AcDbEntity
  8
1
100
AcDbLine
 10
-3702.901477775333
 20
754.0361215683808
 30
0.0
 11
-3412.901477775333
 21
754.0361215683808
 31
0.0
  0
LINE
  5
7ED5
330
19
100
AcDbEntity
  8
1
100
AcDbLine
 10
-3412.901477775333
 20
760.0361215683808
 30
0.0
 11
-3702.901477775333
 21
760.0361215683808
 31
0.0
  0
ARC
  5
7ED6
330
19
100
AcDbEntity
  8
1
100
AcDbCircle
 10
-3630.401477775333
 20
777.3472573161322
 30
0.0
 40
10.0
100
AcDbArc
 50
0.0
 51
93.81407483429038
  0
LINE
  5
7ED7
330
19
100
AcDbEntity
  8
1
100
AcDbLine
 10
-3629.298369121543
 20
804.1848615573092
 30
0.0
 11
-3625.568870275066
 21
841.7535609828584
 31
0.0
  0
LINE
  5
7ED8
330
19
100
AcDbEntity
  8
1
100
AcDbLine
 10
-3620.401477775333
 20
760.0361215683808
 30
0.0
 11
-3620.401477775333
 21
777.3472573161322
 31
0.0
  0
LINE
  5
7ED9
330
19
100
AcDbEntity
  8
1
100
AcDbLine
 10
-3690.401477775333
 20
783.3694549017141
 30
0.0
 11
-3690.401477775333
 21
788.0361215683808
 31
0.0
  0
ARC
  5
7EDA
330
19
100
AcDbEntity
  8
1
100
AcDbCircle
 10
-3690.401477775333
 20
778.3583561089232
 30
0.0
 40
5.0
100
AcDbArc
 50
93.81407483429038
 51
180.0
  0
LINE
  5
7EDB
330
19
100
AcDbEntity
  8
1
100
AcDbLine
 10
-3695.401477775333
 20
760.0361215683808
 30
0.0
 11
-3695.401477775333
 21
778.3583561089232
 31
0.0
  0
LINE
  5
7EDC
330
19
100
AcDbEntity
  8
1
100
AcDbLine
 10
-3640.744537139493
 20
788.0361215683808
 30
0.0
 11
-3690.401477775333
 21
788.0361215683808
 31
0.0
  0
ARC
  5
7EDD
330
19
100
AcDbEntity
  8
1
100
AcDbCircle
 10
-3649.200543386168
 20
806.1605790321557
 30
0.0
 40
20.0
100
AcDbArc
 50
273.8140748342904
 51
354.3307400159713
  0
LINE
  5
7EDE
330
19
100
AcDbEntity
  8
1
100
AcDbLine
 10
-3631.06666788057
 20
787.3251088946983
 30
0.0
 11
-3690.734072827952
 21
783.3472818982063
 31
0.0
  0
LINE
  5
7EDF
330
19
100
AcDbEntity
  8
1
100
AcDbLine
 10
-3663.901477775333
 20
748.382402581767
 30
0.0
 11
-3663.901477775333
 21
808.3824025817671
 31
0.0
  0
LINE
  5
7EE0
330
19
100
AcDbEntity
  8
1
100
AcDbLine
 10
-3702.901477775333
 20
760.0361215683808
 30
0.0
 11
-3702.901477775333
 21
754.0361215683808
 31
0.0
  0
LINE
  5
7EE1
330
19
100
AcDbEntity
  8
1
100
AcDbLine
 10
-3553.9534829026
 20
903.0361215683809
 30
0.0
 11
-3553.9534829026
 21
916.9655587924948
 31
0.0
  0
LINE
  5
7EE2
330
19
100
AcDbEntity
  8
1
100
AcDbLine
 10
-3561.849472648068
 20
916.9655587924948
 30
0.0
 11
-3561.849472648068
 21
903.0361215683809
 31
0.0
  0
LINE
  5
7EE3
330
19
100
AcDbEntity
  8
1
100
AcDbLine
 10
-3561.849472648068
 20
903.0361215683809
 30
0.0
 11
-3553.9534829026
 21
903.0361215683809
 31
0.0
  0
LINE
  5
7EE4
330
19
100
AcDbEntity
  8
1
100
AcDbLine
 10
-3553.9534829026
 20
916.9655587924948
 30
0.0
 11
-3561.849472648068
 21
916.9655587924948
 31
0.0
  0
POINT
  5
7EE5
330
19
100
AcDbEntity
  8
1
100
AcDbPoint
 10
-3557.901477775333
 20
835.0361215683808
 30
0.0
  0
POINT
  5
7EE6
330
19
100
AcDbEntity
  8
1
100
AcDbPoint
 10
-3557.901477775333
 20
835.0361215683808
 30
0.0
  0
POINT
  5
7EE7
330
19
100
AcDbEntity
  8
1
100
AcDbPoint
 10
-3557.901477775333
 20
835.0361215683808
 30
0.0
  0
CIRCLE
  5
7EE8
330
19
100
AcDbEntity
  8
1
100
AcDbCircle
 10
-3557.901477775333
 20
835.0361215683808
 30
0.0
 40
25.0
  0
CIRCLE
  5
7EE9
330
19
100
AcDbEntity
  8
1
100
AcDbCircle
 10
-3557.901477775333
 20
835.0361215683808
 30
0.0
 40
40.0
  0
LINE
  5
7EEA
330
19
100
AcDbEntity
  8
1
100
AcDbLine
 10
-3425.401477775333
 20
783.3694549017141
 30
0.0
 11
-3425.401477775333
 21
788.0361215683808
 31
0.0
  0
ARC
  5
7EEB
330
19
100
AcDbEntity
  8
1
100
AcDbCircle
 10
-3425.401477775333
 20
778.3583561089232
 30
0.0
 40
5.0
100
AcDbArc
 50
0.0
 51
86.18592516570963
  0
LINE
  5
7EEC
330
19
100
AcDbEntity
  8
1
100
AcDbLine
 10
-3420.401477775333
 20
760.0361215683808
 30
0.0
 11
-3420.401477775333
 21
778.3583561089232
 31
0.0
  0
LINE
  5
7EED
330
19
100
AcDbEntity
  8
1
100
AcDbLine
 10
-3412.901477775333
 20
754.0361215683808
 30
0.0
 11
-3412.901477775333
 21
760.0361215683808
 31
0.0
  0
LINE
  5
7EEE
330
19
100
AcDbEntity
  8
1
100
AcDbLine
 10
-3451.901477775333
 20
748.382402581767
 30
0.0
 11
-3451.901477775333
 21
808.3824025817671
 31
0.0
  0
ARC
  5
7EEF
330
19
100
AcDbEntity
  8
1
100
AcDbCircle
 10
-3485.401477775333
 20
777.3472573161322
 30
0.0
 40
10.0
100
AcDbArc
 50
86.18592516570963
 51
180.0
  0
LINE
  5
7EF0
330
19
100
AcDbEntity
  8
1
100
AcDbLine
 10
-3486.504586429124
 20
804.1848615573092
 30
0.0
 11
-3490.234085275601
 21
841.7535609828584
 31
0.0
  0
LINE
  5
7EF1
330
19
100
AcDbEntity
  8
1
100
AcDbLine
 10
-3495.401477775333
 20
760.0361215683808
 30
0.0
 11
-3495.401477775333
 21
777.3472573161322
 31
0.0
  0
ARC
  5
7EF2
330
19
100
AcDbEntity
  8
1
100
AcDbCircle
 10
-3466.602412164497
 20
806.1605790321557
 30
0.0
 40
20.0
100
AcDbArc
 50
185.6692599840286
 51
266.1859251657097
  0
LINE
  5
7EF3
330
19
100
AcDbEntity
  8
1
100
AcDbLine
 10
-3475.058418411173
 20
788.0361215683808
 30
0.0
 11
-3425.401477775333
 21
788.0361215683808
 31
0.0
  0
LINE
  5
7EF4
330
19
100
AcDbEntity
  8
1
100
AcDbLine
 10
-3484.736287670096
 20
787.3251088946983
 30
0.0
 11
-3425.068882722715
 21
783.3472818982063
 31
0.0
  0
LINE
  5
7EF5
330
19
100
AcDbEntity
  8
1
100
AcDbLine
 10
-3387.901477775333
 20
744.0361215683813
 30
0.0
 11
-3395.557345961266
 21
741.7149834166105
 31
0.0
  0
POINT
  5
7EF8
330
19
100
AcDbEntity
  8
1
100
AcDbPoint
 10
-2982.901477775333
 20
835.0361215683808
 30
0.0
  0
CIRCLE
  5
7EF9
330
19
100
AcDbEntity
  8
1
100
AcDbCircle
 10
-3557.901477775333
 20
1841.036121568381
 30
0.0
 40
100.0
  0
LINE
  5
7EFA
330
19
100
AcDbEntity
  8
1
100
AcDbLine
 10
-3378.489978775333
 20
2041.036121568381
 30
0.0
 11
-3378.489978775333
 21
1511.653823100474
 31
0.0
  0
LINE
  5
7EFB
330
19
100
AcDbEntity
  8
1
100
AcDbLine
 10
-3614.901477775333
 20
1665.036121568381
 30
0.0
 11
-3500.901477775333
 21
1665.036121568381
 31
0.0
  0
LINE
  5
7EFC
330
19
100
AcDbEntity
  8
1
100
AcDbLine
 10
-3697.401477775333
 20
1685.176868568381
 30
0.0
 11
-3697.401477775333
 21
1656.814075568381
 31
0.0
  0
LINE
  5
7EFD
330
19
100
AcDbEntity
  8
1
100
AcDbLine
 10
-3660.401477775333
 20
1666.184680568381
 30
0.0
 11
-3650.894763775334
 21
1681.107288568381
 31
0.0
  0
LINE
  5
7EFE
330
19
100
AcDbEntity
  8
1
100
AcDbLine
 10
-3660.401477775333
 20
1678.03612156838
 30
0.0
 11
-3660.401477775333
 21
1661.036121568381
 31
0.0
  0
LINE
  5
7EFF
330
19
100
AcDbEntity
  8
1
100
AcDbLine
 10
-3668.725390775333
 20
1681.036121568381
 30
0.0
 11
-3663.545642775333
 21
1689.166736568381
 31
0.0
  0
ARC
  5
7F00
330
19
100
AcDbEntity
  8
1
100
AcDbCircle
 10
-3663.401477775333
 20
1678.03612156838
 30
0.0
 40
3.0
100
AcDbArc
 50
0.0
 51
90.0
  0
LINE
  5
7F01
330
19
100
AcDbEntity
  8
1
100
AcDbLine
 10
-3285.401477775333
 20
1671.036121568381
 30
0.0
 11
-3285.401477775333
 21
1591.036121568381
 31
0.0
  0
LINE
  5
7F02
330
19
100
AcDbEntity
  8
1
100
AcDbLine
 10
-3300.401477775333
 20
1671.036121568381
 30
0.0
 11
-3300.401477775333
 21
1591.036121568381
 31
0.0
  0
LINE
  5
7F03
330
19
100
AcDbEntity
  8
1
100
AcDbLine
 10
-3292.901477775333
 20
1574.267290620348
 30
0.0
 11
-3292.901477775333
 21
1687.804952516414
 31
0.0
  0
LINE
  5
7F04
330
19
100
AcDbEntity
  8
1
100
AcDbLine
 10
-3322.901477775333
 20
1547.268527458481
 30
0.0
 11
-3322.901477775333
 21
1711.036121568381
 31
0.0
  0
LINE
  5
7F05
330
19
100
AcDbEntity
  8
1
100
AcDbLine
 10
-3316.901477775334
 20
1545.260733927034
 30
0.0
 11
-3316.901477775333
 21
1711.036121568381
 31
0.0
  0
LINE
  5
7F06
330
19
100
AcDbEntity
  8
1
100
AcDbLine
 10
-3272.901477775333
 20
1528.775986359211
 30
0.0
 11
-3272.901477775333
 21
1711.036121568381
 31
0.0
  0
ARC
  5
7F07
330
19
100
AcDbEntity
  8
1
100
AcDbCircle
 10
-3292.901477775333
 20
1591.036121568381
 30
0.0
 40
7.5
100
AcDbArc
 50
180.0
 51
0.0
  0
LINE
  5
7F08
330
19
100
AcDbEntity
  8
1
100
AcDbLine
 10
-3395.901477775332
 20
1736.295154568381
 30
0.0
 11
-3402.285388775334
 21
1740.992908568381
 31
0.0
  0
LINE
  5
7F09
330
19
100
AcDbEntity
  8
1
100
AcDbLine
 10
-3455.401477775333
 20
1661.036121568381
 30
0.0
 11
-3395.901477775332
 21
1661.036121568381
 31
0.0
  0
ARC
  5
7F0A
330
19
100
AcDbEntity
  8
1
100
AcDbCircle
 10
-3398.901477775333
 20
1678.03612156838
 30
0.0
 40
3.0
100
AcDbArc
 50
0.0
 51
90.0
  0
LINE
  5
7F0B
330
19
100
AcDbEntity
  8
1
100
AcDbLine
 10
-3455.401477775333
 20
1666.184680568381
 30
0.0
 11
-3464.908191775334
 21
1681.107288568381
 31
0.0
  0
LINE
  5
7F0C
330
19
100
AcDbEntity
  8
1
100
AcDbLine
 10
-3418.401477775333
 20
1685.176868568381
 30
0.0
 11
-3418.401477775333
 21
1656.814075568381
 31
0.0
  0
LINE
  5
7F0D
330
19
100
AcDbEntity
  8
1
100
AcDbLine
 10
-3455.401477775333
 20
1678.03612156838
 30
0.0
 11
-3455.401477775333
 21
1661.036121568381
 31
0.0
  0
LINE
  5
7F0E
330
19
100
AcDbEntity
  8
1
100
AcDbLine
 10
-3452.401477775333
 20
1681.036121568381
 30
0.0
 11
-3398.901477775333
 21
1681.036121568381
 31
0.0
  0
LINE
  5
7F0F
330
19
100
AcDbEntity
  8
1
100
AcDbLine
 10
-3447.077563775332
 20
1681.036121568381
 30
0.0
 11
-3452.257312775333
 21
1689.166736568381
 31
0.0
  0
ARC
  5
7F10
330
19
100
AcDbEntity
  8
1
100
AcDbCircle
 10
-3452.401477775333
 20
1678.03612156838
 30
0.0
 40
3.0
100
AcDbArc
 50
90.0
 51
180.0
  0
LINE
  5
7F11
330
19
100
AcDbEntity
  8
1
100
AcDbLine
 10
-3322.901477775333
 20
1711.036121568381
 30
0.0
 11
-3272.901477775333
 21
1711.03612156838
 31
0.0
  0
ARC
  5
7F12
330
19
100
AcDbEntity
  8
1
100
AcDbCircle
 10
-3292.901477775333
 20
1671.036121568381
 30
0.0
 40
7.5
100
AcDbArc
 50
0.0
 51
180.0
  0
LINE
  5
7F13
330
19
100
AcDbEntity
  8
1
100
AcDbLine
 10
-3395.901477775332
 20
1736.295154568381
 30
0.0
 11
-3395.901477775332
 21
1661.036121568381
 31
0.0
  0
LINE
  5
7F14
330
19
100
AcDbEntity
  8
1
100
AcDbLine
 10
-3551.651477775333
 20
2085.786121568381
 30
0.0
 11
-3551.651477775333
 21
2037.75694656838
 31
0.0
  0
LINE
  5
7F15
330
19
100
AcDbEntity
  8
1
100
AcDbLine
 10
-3564.151477775333
 20
2085.786121568381
 30
0.0
 11
-3564.151477775333
 21
2037.46873856838
 31
0.0
  0
ARC
  5
7F16
330
19
100
AcDbEntity
  8
1
100
AcDbCircle
 10
-3546.666507775333
 20
2040.31523456838
 30
0.0
 40
3.0
100
AcDbArc
 50
5.194403000000654
 51
83.88453700000003
  0
LINE
  5
7F17
330
19
100
AcDbEntity
  8
1
100
AcDbLine
 10
-3551.651477775333
 20
2043.86650456838
 30
0.0
 11
-3546.346911775334
 21
2043.298145568381
 31
0.0
  0
LINE
  5
7F18
330
19
100
AcDbEntity
  8
1
100
AcDbLine
 10
-3539.401477775333
 20
2032.036121568381
 30
0.0
 11
-3539.401477775333
 21
2025.108752568381
 31
0.0
  0
LINE
  5
7F19
330
19
100
AcDbEntity
  8
1
100
AcDbLine
 10
-3549.069384775334
 20
2025.825183568382
 30
0.0
 11
-3548.719043775333
 21
2028.973987568381
 31
0.0
  0
LINE
  5
7F1A
330
19
100
AcDbEntity
  8
1
100
AcDbLine
 10
-3542.538256775333
 20
2025.39708356838
 30
0.0
 11
-3542.474597775334
 21
2028.564685568381
 31
0.0
  0
ARC
  5
7F1B
330
19
100
AcDbEntity
  8
1
100
AcDbCircle
 10
-3545.737414775333
 20
2028.642200568381
 30
0.0
 40
2.999938
100
AcDbArc
 50
86.29045100000006
 51
173.6504060000006
  0
ARC
  5
7F1C
330
19
100
AcDbEntity
  8
1
100
AcDbCircle
 10
-3557.901477775333
 20
1841.036121568381
 30
0.0
 40
191.000031
100
AcDbArc
 50
86.209778
 51
86.29023700000006
  0
ARC
  5
7F1D
330
19
100
AcDbEntity
  8
1
100
AcDbCircle
 10
-3545.473986775333
 20
2028.624866568381
 30
0.0
 40
2.999992999999999
100
AcDbArc
 50
358.8505549999996
 51
86.21002199999999
  0
LINE
  5
7F1E
330
19
100
AcDbEntity
  8
1
100
AcDbLine
 10
-3543.678820775332
 20
2040.586841568381
 30
0.0
 11
-3542.901477775333
 21
2032.036121568381
 31
0.0
  0
ARC
  5
7F1F
330
19
100
AcDbEntity
  8
1
100
AcDbCircle
 10
-3569.136447775333
 20
2040.31523456838
 30
0.0
 40
3.0
100
AcDbArc
 50
96.11546299999998
 51
174.8056030000001
  0
LINE
  5
7F20
330
19
100
AcDbEntity
  8
1
100
AcDbLine
 10
-3564.151477775333
 20
2043.86650456838
 30
0.0
 11
-3569.456042775333
 21
2043.298145568381
 31
0.0
  0
LINE
  5
7F21
330
19
100
AcDbEntity
  8
1
100
AcDbLine
 10
-3576.401477775333
 20
2032.036121568381
 30
0.0
 11
-3576.401477775333
 21
2025.108752568381
 31
0.0
  0
LINE
  5
7F22
330
19
100
AcDbEntity
  8
1
100
AcDbLine
 10
-3566.733569775334
 20
2025.825183568382
 30
0.0
 11
-3567.083911775333
 21
2028.973987568381
 31
0.0
  0
LINE
  5
7F23
330
19
100
AcDbEntity
  8
1
100
AcDbLine
 10
-3573.264697775334
 20
2025.39708356838
 30
0.0
 11
-3573.328357775334
 21
2028.564685568381
 31
0.0
  0
ARC
  5
7F24
330
19
100
AcDbEntity
  8
1
100
AcDbCircle
 10
-3570.065539775333
 20
2028.642200568381
 30
0.0
 40
3.000032
100
AcDbArc
 50
6.349589000000267
 51
93.70954899999993
  0
ARC
  5
7F25
330
19
100
AcDbEntity
  8
1
100
AcDbCircle
 10
-3557.901477775333
 20
1841.036121568381
 30
0.0
 40
190.999954
100
AcDbArc
 50
93.70976299999997
 51
93.79022199999999
  0
ARC
  5
7F26
330
19
100
AcDbEntity
  8
1
100
AcDbCircle
 10
-3570.328967775333
 20
2028.624866568381
 30
0.0
 40
3.000090999999999
100
AcDbArc
 50
93.78996300000006
 51
181.1494450000004
  0
LINE
  5
7F27
330
19
100
AcDbEntity
  8
1
100
AcDbLine
 10
-3572.124133775333
 20
2040.586841568381
 30
0.0
 11
-3572.901477775333
 21
2032.036121568381
 31
0.0
  0
ARC
  5
7F28
330
19
100
AcDbEntity
  8
1
100
AcDbCircle
 10
-3567.151477775333
 20
2037.46873856838
 30
0.0
 40
3.0
100
AcDbArc
 50
270.0
 51
0.0
  0
LINE
  5
7F29
330
19
100
AcDbEntity
  8
1
100
AcDbLine
 10
-3576.401477775333
 20
2032.036121568381
 30
0.0
 11
-3539.401477775333
 21
2032.036121568381
 31
0.0
  0
ARC
  5
7F2A
330
19
100
AcDbEntity
  8
1
100
AcDbCircle
 10
-3548.651477775333
 20
2037.75694656838
 30
0.0
 40
3.0
100
AcDbArc
 50
180.0
 51
270.0
  0
ARC
  5
7F2B
330
19
100
AcDbEntity
  8
1
100
AcDbCircle
 10
-3557.901477775333
 20
2085.786121568381
 30
0.0
 40
6.25
100
AcDbArc
 50
0.0
 51
180.0
  0
LINE
  5
7F2C
330
19
100
AcDbEntity
  8
1
100
AcDbLine
 10
-4227.901477775334
 20
-181.9103400743916
 30
0.0
 11
-4227.901477775332
 21
-92.18930701132013
 31
0.0
  0
LINE
  5
7F2D
330
19
100
AcDbEntity
  8
1
100
AcDbLine
 10
-2887.901477775336
 20
-181.9103400743916
 30
0.0
 11
-2887.901477775333
 21
-92.18930701132013
 31
0.0
  0
LINE
  5
7F2E
330
19
100
AcDbEntity
  8
1
100
AcDbLine
 10
-6203.391945525514
 20
485.0361215683808
 30
0.0
 11
-6203.391945525517
 21
-114.9638784316191
 31
0.0
  0
LINE
  5
7F30
330
19
100
AcDbEntity
  8
1
100
AcDbLine
 10
-6197.391945525513
 20
265.0361215683808
 30
0.0
 11
-6197.391945525513
 21
-114.9638784316191
 31
0.0
  0
LINE
  5
7F32
330
19
100
AcDbEntity
  8
1
100
AcDbLine
 10
-6203.391945525514
 20
265.0361215683808
 30
0.0
 11
-6197.391945525515
 21
265.0361215683808
 31
0.0
  0
LINE
  5
7F34
330
19
100
AcDbEntity
  8
1
100
AcDbLine
 10
-5018.391945525515
 20
265.0361215683808
 30
0.0
 11
-5018.391945525515
 21
-114.9638784316191
 31
0.0
  0
LINE
  5
7F35
330
19
100
AcDbEntity
  8
1
100
AcDbLine
 10
-5012.391945525514
 20
485.0361215683808
 30
0.0
 11
-5012.391945525516
 21
-114.9638784316191
 31
0.0
  0
LINE
  5
7F37
330
19
100
AcDbEntity
  8
1
100
AcDbLine
 10
-5012.391945525514
 20
-114.9638784316191
 30
0.0
 11
-5082.391945525515
 21
-114.9638784316191
 31
0.0
  0
LINE
  5
7F39
330
19
100
AcDbEntity
  8
1
100
AcDbLine
 10
-5012.391945525514
 20
265.0361215683808
 30
0.0
 11
-5018.391945525515
 21
265.0361215683808
 31
0.0
  0
LINE
  5
7F3A
330
19
100
AcDbEntity
  8
1
100
AcDbLine
 10
-6057.891945525515
 20
-78.32650664445441
 30
0.0
 11
-6057.891945525515
 21
-180.1100930659413
 31
0.0
  0
LINE
  5
7F3B
330
19
100
AcDbEntity
  8
1
100
AcDbLine
 10
-5157.891945525514
 20
-78.32650664445441
 30
0.0
 11
-5157.891945525514
 21
-184.0245857374793
 31
0.0
  0
LINE
  5
7F3C
330
19
100
AcDbEntity
  8
1
100
AcDbLine
 10
-5967.391945525515
 20
186.2791497921614
 30
0.0
 11
-6197.391945525515
 21
186.2791497921614
 31
0.0
  0
LINE
  5
7F3D
330
19
100
AcDbEntity
  8
1
100
AcDbLine
 10
-5967.391945525514
 20
186.2791497921614
 30
0.0
 11
-6096.517738521142
 21
-49.96387843161915
 31
0.0
  0
LINE
  5
7F3E
330
19
100
AcDbEntity
  8
1
100
AcDbLine
 10
-5248.391945525515
 20
186.279149792161
 30
0.0
 11
-5119.266152529885
 21
-49.96387843161915
 31
0.0
  0
LINE
  5
7F3F
330
19
100
AcDbEntity
  8
1
100
AcDbLine
 10
-5248.391945525515
 20
186.279149792161
 30
0.0
 11
-5018.391945525515
 21
186.279149792161
 31
0.0
  0
LINE
  5
7F40
330
19
100
AcDbEntity
  8
1
100
AcDbLine
 10
-5667.891945525514
 20
1539.536121568381
 30
0.0
 11
-5387.891945525516
 21
1539.536121568381
 31
0.0
  0
LINE
  5
7F41
330
19
100
AcDbEntity
  8
1
100
AcDbLine
 10
-5367.891945525514
 20
1539.536121568381
 30
0.0
 11
-5327.891945525514
 21
1539.536121568382
 31
0.0
  0
LINE
  5
7F44
330
19
100
AcDbEntity
  8
1
100
AcDbLine
 10
-6257.891945525514
 20
1535.03612156838
 30
0.0
 11
-6207.891945525514
 21
1535.03612156838
 31
0.0
  0
LINE
  5
7F45
330
19
100
AcDbEntity
  8
1
100
AcDbLine
 10
-6257.891945525514
 20
135.0361215683808
 30
0.0
 11
-6207.891945525514
 21
135.0361215683808
 31
0.0
  0
LINE
  5
7F46
330
19
100
AcDbEntity
  8
1
100
AcDbLine
 10
-5007.891945525514
 20
135.036121568381
 30
0.0
 11
-4957.891945525514
 21
135.036121568381
 31
0.0
  0
LINE
  5
7F47
330
19
100
AcDbEntity
  8
1
100
AcDbLine
 10
-5007.891945525514
 20
1535.03612156838
 30
0.0
 11
-4957.891945525514
 21
1535.036121568381
 31
0.0
  0
LINE
  5
8006
330
19
100
AcDbEntity
  8
4
100
AcDbLine
 10
-3046.420439884863
 20
-817.2033734408104
 30
0.0
 11
-3046.420439884863
 21
-1217.203373440811
 31
0.0
  0
LINE
  5
8007
330
19
100
AcDbEntity
  8
4
100
AcDbLine
 10
-4446.420439884863
 20
-817.2033734408104
 30
0.0
 11
-4446.420439884864
 21
-1217.203373440811
 31
0.0
  0
LINE
  5
8008
330
19
100
AcDbEntity
  8
4
100
AcDbLine
 10
-5446.420439884864
 20
-817.2033734408104
 30
0.0
 11
-5446.420439884864
 21
-1217.203373440811
 31
0.0
  0
LINE
  5
800B
330
19
100
AcDbEntity
  8
4
100
AcDbLine
 10
-5446.420439884864
 20
-1217.20337344081
 30
0.0
 11
-3046.420439884863
 21
-1217.20337344081
 31
0.0
  0
LINE
  5
800C
330
19
100
AcDbEntity
  8
4
100
AcDbLine
 10
-5446.420439884864
 20
-1017.20337344081
 30
0.0
 11
-3046.420439884863
 21
-1017.20337344081
 31
0.0
  0
TEXT
  5
800D
330
19
100
AcDbEntity
  8
4
100
AcDbText
 10
-5369.41627819106
 20
-954.1173217075847
 30
0.0
 40
100.0
  1
機器名称
100
AcDbText
  0
TEXT
  5
800E
330
19
100
AcDbEntity
  8
4
100
AcDbText
 10
-5373.904227835268
 20
-1173.913059976788
 30
0.0
 40
100.0
  1
機器型番
100
AcDbText
  0
TEXT
  5
800F
330
19
100
AcDbEntity
  8
4
100
AcDbText
 10
-4391.062948909533
 20
-972.0598355256734
 30
0.0
 40
100.0
  1
ミツヤ軸流ファン
100
AcDbText
  0
TEXT
  5
8010
330
19
100
AcDbEntity
  8
4
100
AcDbText
 10
-4373.111448713902
 20
-1182.884204880924
 30
0.0
 40
100.0
  1
AP#1400-2
100
AcDbText
  0
TEXT
  5
8012
330
19
100
AcDbEntity
  8
4
100
AcDbText
 10
-5064.060572540896
 20
2949.654309224221
 30
0.0
 40
108.0
  1
床置防振ベット
100
AcDbText
  0
TEXT
  5
8013
330
19
100
AcDbEntity
  8
4
100
AcDbText
 10
-6114.085253225971
 20
3250.558578957786
 30
0.0
 40
144.0
  1
ベルト駆動式横型軸流ファン
100
AcDbText
  0
LINE
  5
8014
330
19
100
AcDbEntity
  8
4
100
AcDbLine
 10
-6246.420439884864
 20
3121.6141350888
 30
0.0
 11
-3046.420439884863
 21
3121.6141350888
 31
0.0
  0
LINE
  5
8015
330
19
100
AcDbEntity
  8
4
100
AcDbLine
 10
-6246.420439884864
 20
3521.6141350888
 30
0.0
 11
-3046.420439884863
 21
3521.6141350888
 31
0.0
  0
LINE
  5
8016
330
19
100
AcDbEntity
  8
4
100
AcDbLine
 10
-5446.420439884864
 20
-817.2033734408104
 30
0.0
 11
-3046.420439884863
 21
-817.2033734408104
 31
0.0
  0
LINE
  5
8017
330
19
100
AcDbEntity
  8
4
100
AcDbLine
 10
-6246.420439884864
 20
3521.6141350888
 30
0.0
 11
-6246.420439884864
 21
3121.6141350888
 31
0.0
  0
TEXT
  5
8018
330
19
100
AcDbEntity
  8
4
100
AcDbText
 10
-6105.46426210313
 20
2947.435581651877
 30
0.0
 40
108.0
  1
右回転後方吐出
100
AcDbText
  0
TEXT
  5
8019
330
19
100
AcDbEntity
  8
4
100
AcDbText
 10
-3808.481321386284
 20
3594.918789549807
 30
0.0
 40
112.0
  1
No.
100
AcDbText
  0
TEXT
  5
801A
330
19
100
AcDbEntity
  8
4
100
AcDbText
 10
-4123.828314684837
 20
2949.654309224221
 30
0.0
 40
108.0
  1
縮尺：1/20
100
AcDbText
  0
LINE
  5
801B
330
19
100
AcDbEntity
  8
4
100
AcDbLine
 10
-3046.420439884863
 20
3521.6141350888
 30
0.0
 11
-3046.420439884863
 21
3121.6141350888
 31
0.0
  0
LINE
  5
801C
330
19
100
AcDbEntity
  8
4
100
AcDbLine
 10
-2546.420439884863
 20
4082.796626559189
 30
0.0
 11
-2546.420439884863
 21
4082.796626559189
 31
0.0
  0
LINE
  5
801D
330
19
100
AcDbEntity
  8
4
100
AcDbLine
 10
-3865.185595165134
 20
3545.323792809992
 30
0.0
 11
-3865.185595165134
 21
3756.101149658694
 31
0.0
  0
LINE
  5
801E
330
19
100
AcDbEntity
  8
4
100
AcDbLine
 10
-3865.185595165134
 20
3756.101149658694
 30
0.0
 11
-3046.420439884863
 21
3756.101149658694
 31
0.0
  0
LINE
  5
801F
330
19
100
AcDbEntity
  8
4
100
AcDbLine
 10
-3046.420439884863
 20
3756.101149658694
 30
0.0
 11
-3046.420439884863
 21
3545.323792809992
 31
0.0
  0
LINE
  5
8020
330
19
100
AcDbEntity
  8
4
100
AcDbLine
 10
-3046.420439884863
 20
3545.323792809992
 30
0.0
 11
-3865.185595165134
 21
3545.323792809992
 31
0.0
  0
LINE
  5
8021
330
19
100
AcDbEntity
  8
4
100
AcDbLine
 10
-6746.420439884864
 20
-1817.203373440811
 30
0.0
 11
-6746.420439884864
 21
4082.796626559189
 31
0.0
  0
LINE
  5
8022
330
19
100
AcDbEntity
  8
4
100
AcDbLine
 10
-6746.420439884864
 20
4082.796626559189
 30
0.0
 11
-2546.420439884863
 21
4082.796626559189
 31
0.0
  0
LINE
  5
8023
330
19
100
AcDbEntity
  8
4
100
AcDbLine
 10
-2546.420439884863
 20
4082.796626559189
 30
0.0
 11
-2546.420439884863
 21
-1817.203373440811
 31
0.0
  0
LINE
  5
8024
330
19
100
AcDbEntity
  8
4
100
AcDbLine
 10
-2546.420439884863
 20
-1817.203373440811
 30
0.0
 11
-6746.420439884864
 21
-1817.203373440811
 31
0.0
  0
LINE
  5
802C
330
19
100
AcDbEntity
  8
1
100
AcDbLine
 10
-6203.391945525517
 20
-114.9638784316191
 30
0.0
 11
-5082.391945525515
 21
-114.9638784316191
 31
0.0
  0
LINE
  5
802E
330
19
100
AcDbEntity
  8
1
100
AcDbLine
 10
-6207.891945525514
 20
-159.9638784316191
 30
0.0
 11
-5607.891945525512
 21
-159.9638784316191
 31
0.0
  0
LINE
  5
8032
330
19
100
AcDbEntity
  8
1
100
AcDbLine
 10
-6207.891945525513
 20
-284.9638784316191
 30
0.0
 11
-5607.891945525512
 21
-284.9638784316191
 31
0.0
  0
LINE
  5
8038
330
19
100
AcDbEntity
  8
1
100
AcDbLine
 10
-4257.901477775333
 20
-284.9638784316192
 30
0.0
 11
-2857.901477775332
 21
-284.9638784316192
 31
0.0
  0
LINE
  5
8039
330
19
100
AcDbEntity
  8
1
100
AcDbLine
 10
-4257.901477775333
 20
-159.9638784316191
 30
0.0
 11
-2857.901477775333
 21
-159.9638784316191
 31
0.0
  0
LINE
  5
8581
330
19
100
AcDbEntity
  8
1
100
AcDbLine
 10
-3780.088133406419
 20
783.8786190934428
 30
0.0
 11
-4254.191541576661
 21
907.0093600083932
 31
0.0
  0
LINE
  5
8582
330
19
100
AcDbEntity
  8
1
100
AcDbLine
 10
-3772.105259225079
 20
913.1433556291856
 30
0.0
 11
-4102.660025907473
 21
1274.624706767044
 31
0.0
  0
LINE
  5
8583
330
19
100
AcDbEntity
  8
1
100
AcDbLine
 10
-4084.738204024284
 20
1295.951584397832
 30
0.0
 11
-3729.499725753563
 21
985.1628723185447
 31
0.0
  0
LINE
  5
8584
330
19
100
AcDbEntity
  8
1
100
AcDbLine
 10
-4086.839741205114
 20
1293.538371813554
 30
0.0
 11
-3731.589866009155
 21
982.7396888669952
 31
0.0
  0
LINE
  5
8585
330
19
100
AcDbEntity
  8
1
100
AcDbLine
 10
-3695.007636233279
 20
1017.206100744161
 30
0.0
 11
-3775.357335884219
 21
1500.402899950145
 31
0.0
  0
LINE
  5
8586
330
19
100
AcDbEntity
  8
1
100
AcDbLine
 10
-3748.711381294111
 20
1508.52820074909
 30
0.0
 11
-3620.050989207163
 21
1054.402113072954
 31
0.0
  0
LINE
  5
8587
330
19
100
AcDbEntity
  8
1
100
AcDbLine
 10
-3751.788208448304
 20
1507.648889562675
 30
0.0
 11
-3623.123688619124
 21
1053.50823240326
 31
0.0
  0
LINE
  5
8588
330
19
100
AcDbEntity
  8
1
100
AcDbLine
 10
-3573.67149589107
 20
1062.490087303492
 30
0.0
 11
-3377.890585689671
 21
1511.49460420462
 31
0.0
  0
LINE
  5
8589
330
19
100
AcDbEntity
  8
1
100
AcDbLine
 10
-3351.118051833793
 20
1503.796627845388
 30
0.0
 11
-3490.549161897232
 21
1052.860972184319
 31
0.0
  0
LINE
  5
858A
330
19
100
AcDbEntity
  8
1
100
AcDbLine
 10
-3354.177403406718
 20
1504.734935605445
 30
0.0
 11
-3493.612986763547
 21
1053.784812818013
 31
0.0
  0
LINE
  5
858B
330
19
100
AcDbEntity
  8
1
100
AcDbLine
 10
-3447.247019416655
 20
1034.38403564161
 30
0.0
 11
-3038.505945462756
 21
1304.320982834686
 31
0.0
  0
LINE
  5
858C
330
19
100
AcDbEntity
  8
1
100
AcDbLine
 10
-3020.24522770437
 20
1283.283549625286
 30
0.0
 11
-3382.779156323648
 21
981.0367124212008
 31
0.0
  0
LINE
  5
858D
330
19
100
AcDbEntity
  8
1
100
AcDbLine
 10
-3022.299976792595
 20
1285.73672301577
 30
0.0
 11
-3384.845536393124
 21
983.480188988797
 31
0.0
  0
LINE
  5
858E
330
19
100
AcDbEntity
  8
1
100
AcDbLine
 10
-3356.526184784865
 20
941.9566124623308
 30
0.0
 11
-2866.708877715187
 21
945.728441184945
 31
0.0
  0
LINE
  5
858F
330
19
100
AcDbEntity
  8
1
100
AcDbLine
 10
-2862.851958504031
 20
918.1394654284947
 30
0.0
 11
-3331.513920069824
 21
862.1040678542463
 31
0.0
  0
LINE
  5
8590
330
19
100
AcDbEntity
  8
1
100
AcDbLine
 10
-2863.23912210072
 20
921.3159663097686
 30
0.0
 11
-3331.916119496425
 21
865.2787709819666
 31
0.0
  0
CIRCLE
  5
883A
330
19
100
AcDbEntity
  8
1
100
AcDbCircle
 10
-3557.901477775333
 20
835.0361215683808
 30
0.0
 40
700.0
  0
CIRCLE
  5
883B
330
19
100
AcDbEntity
  8
1
100
AcDbCircle
 10
-3557.901477775333
 20
835.0361215683808
 30
0.0
 40
706.0
  0
CIRCLE
  5
883C
330
19
100
AcDbEntity
  8
1
100
AcDbCircle
 10
-3557.901477775333
 20
835.0361215683808
 30
0.0
 40
750.0
  0
LINE
  5
8842
330
19
100
AcDbEntity
  8
1
100
AcDbLine
 10
-6197.391945525513
 20
-108.9638784316191
 30
0.0
 11
-5018.391945525515
 21
-108.9638784316192
 31
0.0
  0
LINE
  5
8843
330
19
100
AcDbEntity
  8
1
100
AcDbLine
 10
-6197.391945525513
 20
-49.96387843161915
 30
0.0
 11
-5018.391945525515
 21
-49.96387843161915
 31
0.0
  0
LINE
  5
8845
330
19
100
AcDbEntity
  8
1
100
AcDbLine
 10
-6058.542352029579
 20
1531.03612156838
 30
0.0
 11
-5967.891945525515
 21
1085.036121568381
 31
0.0
  0
LINE
  5
8846
330
19
100
AcDbEntity
  8
1
100
AcDbLine
 10
-6097.241539021449
 20
1531.036121568381
 30
0.0
 11
-6187.891945525514
 21
1085.036121568381
 31
0.0
  0
LINE
  5
8847
330
19
100
AcDbEntity
  8
1
100
AcDbLine
 10
-6097.241539021449
 20
1531.036121568381
 30
0.0
 11
-6058.542352029582
 21
1531.03612156838
 31
0.0
  0
LINE
  5
8882
330
19
100
AcDbEntity
  8
1
100
AcDbLine
 10
-6207.891945525513
 20
-169.9638784316191
 30
0.0
 11
-5607.891945525512
 21
-169.9638784316191
 31
0.0
  0
LINE
  5
8883
330
19
100
AcDbEntity
  8
1
100
AcDbLine
 10
-6207.891945525513
 20
-274.9638784316191
 30
0.0
 11
-5607.891945525512
 21
-274.9638784316192
 31
0.0
  0
LINE
  5
8889
330
19
100
AcDbEntity
  8
1
100
AcDbLine
 10
-6207.891945525513
 20
-159.9638784316191
 30
0.0
 11
-6207.891945525513
 21
-284.9638784316191
 31
0.0
  0
LINE
  5
888A
330
19
100
AcDbEntity
  8
1
100
AcDbLine
 10
-5007.891945525514
 20
-284.9638784316162
 30
0.0
 11
-5607.891945525515
 21
-284.9638784316191
 31
0.0
  0
LINE
  5
888B
330
19
100
AcDbEntity
  8
1
100
AcDbLine
 10
-5007.891945525514
 20
-274.9638784316163
 30
0.0
 11
-5607.891945525515
 21
-274.9638784316192
 31
0.0
  0
LINE
  5
888C
330
19
100
AcDbEntity
  8
1
100
AcDbLine
 10
-5007.891945525514
 20
-159.9638784316163
 30
0.0
 11
-5607.891945525516
 21
-159.9638784316191
 31
0.0
  0
LINE
  5
888D
330
19
100
AcDbEntity
  8
1
100
AcDbLine
 10
-5007.891945525514
 20
-169.9638784316163
 30
0.0
 11
-5607.891945525515
 21
-169.9638784316191
 31
0.0
  0
LINE
  5
8891
330
19
100
AcDbEntity
  8
1
100
AcDbLine
 10
-5007.891945525514
 20
-159.9638784316163
 30
0.0
 11
-5007.891945525514
 21
-284.9638784316162
 31
0.0
  0
DIMENSION
  5
8897
330
19
100
AcDbEntity
  8
3
100
AcDbDimension
  2
*D2
 10
-5007.891945525515
 20
2332.25255934911
 30
0.0
 11
-5641.611994445455
 21
2332.25255934911
 31
0.0
 70
   160
 71
     5
 42
1200.0
  3
IGA
100
AcDbAlignedDimension
 13
-6207.891945525515
 23
1585.036121568381
 33
0.0
 14
-5007.891945525515
 24
1585.03612156838
 34
0.0
100
AcDbRotatedDimension
1001
ACAD
1000
DSTYLE
1002
{
1070
   287
1070
     3
1070
   287
1070
     3
1070
    40
1040
20.0
1070
   143
1040
0.039
1070
   172
1070
     1
1070
   271
1070
     0
1070
   279
1070
     0
1070
   288
1070
     1
1002
}
  0
DIMENSION
  5
88A4
330
19
100
AcDbEntity
  8
3
100
AcDbDimension
  2
*D3
 10
-6470.100250033993
 20
135.0361215683809
 30
0.0
 11
-6470.100250033993
 21
870.5726652411613
 31
0.0
 70
   160
 71
     5
 42
1400.0
  3
IGA
100
AcDbAlignedDimension
 13
-6257.891945525514
 23
1535.03612156838
 33
0.0
 14
-6257.891945525514
 24
135.0361215683808
 34
0.0
 50
90.0
100
AcDbRotatedDimension
1001
ACAD
1000
DSTYLE
1002
{
1070
   287
1070
     3
1070
   287
1070
     3
1070
     3
1000
\U+03C6<>
1070
    40
1040
20.0
1070
   143
1040
0.039
1070
   172
1070
     1
1070
   271
1070
     0
1070
   279
1070
     0
1070
   288
1070
     1
1002
}
  0
DIMENSION
  5
88BA
330
19
100
AcDbEntity
  8
3
100
AcDbDimension
  2
*D4
 10
-5007.891945525514
 20
-545.2994158720321
 30
0.0
 11
-5585.203622323589
 21
-545.2994158720321
 31
0.0
 70
   160
 71
     5
 42
1200.0
  3
IGA
100
AcDbAlignedDimension
 13
-6207.891945525513
 23
-284.9638784316191
 33
0.0
 14
-5007.891945525514
 24
-284.9638784316162
 34
0.0
100
AcDbRotatedDimension
1001
ACAD
1000
DSTYLE
1002
{
1070
   287
1070
     3
1070
   287
1070
     3
1070
    40
1040
20.0
1070
   143
1040
0.039
1070
   172
1070
     1
1070
   271
1070
     0
1070
   279
1070
     0
1070
   288
1070
     1
1002
}
  0
DIMENSION
  5
88C7
330
19
100
AcDbEntity
  8
3
100
AcDbDimension
  2
*D5
 10
-2807.901477775333
 20
2315.180388292302
 30
0.0
 11
-3601.211703309324
 21
2315.180388292302
 31
0.0
 70
   160
 71
     5
 42
1500.0
  3
IGA
100
AcDbAlignedDimension
 13
-4307.901477775333
 23
835.0361215683808
 33
0.0
 14
-2807.901477775333
 24
835.0361215683808
 34
0.0
100
AcDbRotatedDimension
1001
ACAD
1000
DSTYLE
1002
{
1070
   287
1070
     3
1070
   287
1070
     3
1070
    40
1040
20.0
1070
   143
1040
0.039
1070
   172
1070
     1
1070
   271
1070
     0
1070
   279
1070
     0
1070
   288
1070
     1
1002
}
  0
LINE
  5
88D4
330
19
100
AcDbEntity
  8
1
100
AcDbLine
 10
-4192.891945525512
 20
-274.9638784316191
 30
0.0
 11
-2922.911010025153
 21
-274.9638784316192
 31
0.0
  0
LINE
  5
88D5
330
19
100
AcDbEntity
  8
1
100
AcDbLine
 10
-4192.891945525513
 20
-169.9638784316191
 30
0.0
 11
-2922.911010025151
 21
-169.9638784316192
 31
0.0
  0
DIMENSION
  5
88D6
330
19
100
AcDbEntity
  8
3
100
AcDbDimension
  2
*D6
 10
-2857.901477775332
 20
-548.4435201474461
 30
0.0
 11
-3551.020686264671
 21
-548.4435201474461
 31
0.0
 70
   160
 71
     5
 42
1400.000000000001
  3
IGA
100
AcDbAlignedDimension
 13
-4257.901477775333
 23
-284.9638784316192
 33
0.0
 14
-2857.901477775332
 24
-284.9638784316192
 34
0.0
100
AcDbRotatedDimension
1001
ACAD
1000
DSTYLE
1002
{
1070
   287
1070
     3
1070
   287
1070
     3
1070
    40
1040
20.0
1070
   143
1040
0.039
1070
   172
1070
     1
1070
   271
1070
     0
1070
   279
1070
     0
1070
   288
1070
     1
1002
}
  0
DIMENSION
  5
88E3
330
19
100
AcDbEntity
  8
3
100
AcDbDimension
  2
*D7
 10
-4429.572376411553
 20
-114.9638784316191
 30
0.0
 11
-4429.572376411553
 21
348.089645729975
 31
0.0
 70
   160
 71
     5
 42
950.0
  3
IGA
100
AcDbAlignedDimension
 13
-4357.901477775333
 23
835.0361215683808
 33
0.0
 14
-4257.901477775332
 24
-114.9638784316191
 34
0.0
 50
90.0
100
AcDbRotatedDimension
1001
ACAD
1000
DSTYLE
1002
{
1070
   287
1070
     3
1070
   287
1070
     3
1070
    40
1040
20.0
1070
   143
1040
0.039
1070
   172
1070
     1
1070
   271
1070
     0
1070
   279
1070
     0
1070
   288
1070
     1
1002
}
  0
DIMENSION
  5
88F0
330
19
100
AcDbEntity
  8
3
100
AcDbDimension
  2
*D8
 10
-4429.572376411553
 20
-159.9638784316191
 30
0.0
 11
-4449.572376411554
 21
-114.9638784316191
 31
0.0
 70
   160
 71
     5
 42
44.99999999999995
  3
IGA
100
AcDbAlignedDimension
 13
-4257.901477775332
 23
-114.9638784316191
 33
0.0
 14
-4257.901477775333
 24
-159.9638784316191
 34
0.0
 50
90.0
100
AcDbRotatedDimension
1001
ACAD
1000
DSTYLE
1002
{
1070
   287
1070
     4
1070
   287
1070
     4
1070
    40
1040
20.0
1070
   143
1040
0.039
1070
   172
1070
     1
1070
   271
1070
     0
1070
   279
1070
     1
1070
   288
1070
     1
1070
   289
1070
     3
1002
}
  0
DIMENSION
  5
8918
330
19
100
AcDbEntity
  8
3
100
AcDbDimension
  2
*D9
 10
-4429.572376411553
 20
-284.9638784316192
 30
0.0
 11
-4429.572376411553
 21
-416.3924498601913
 31
0.0
 70
   160
 71
     5
 42
125.0
  3
IGA
100
AcDbAlignedDimension
 13
-4257.901477775333
 23
-159.9638784316191
 33
0.0
 14
-4257.901477775333
 24
-284.9638784316192
 34
0.0
 50
90.0
100
AcDbRotatedDimension
1001
ACAD
1000
DSTYLE
1002
{
1070
   287
1070
     3
1070
   287
1070
     3
1070
    40
1040
20.0
1070
   143
1040
0.039
1070
   172
1070
     1
1070
   271
1070
     0
1070
   279
1070
     0
1070
   288
1070
     1
1002
}
  0
DIMENSION
  5
8926
330
19
100
AcDbEntity
  8
3
100
AcDbDimension
  2
*D10
 10
-4696.299704917699
 20
-284.9638784316191
 30
0.0
 11
-4696.299704917699
 21
258.3299902065919
 31
0.0
 70
   160
 71
     5
 42
1120.0
  3
IGA
100
AcDbAlignedDimension
 13
-4367.901477775332
 23
835.0361215683808
 33
0.0
 14
-4257.901477775333
 24
-284.9638784316192
 34
0.0
 50
90.0
100
AcDbRotatedDimension
1001
ACAD
1000
DSTYLE
1002
{
1070
   287
1070
     3
1070
   287
1070
     3
1070
    40
1040
20.0
1070
   143
1040
0.039
1070
   172
1070
     1
1070
   271
1070
     0
1070
   279
1070
     0
1070
   288
1070
     1
1002
}
  0
DIMENSION
  5
8933
330
19
100
AcDbEntity
  8
3
100
AcDbDimension
  2
*D11
 10
-4691.986124580151
 20
835.0361215683808
 30
0.0
 11
-4691.986124580151
 21
1478.770834931383
 31
0.0
 70
   160
  1
(1600)
 71
     5
 42
1257.0
  3
IGA
100
AcDbAlignedDimension
 13
-3557.901477775333
 23
2092.036121568381
 33
0.0
 14
-4357.901477775333
 24
835.0361215683808
 34
0.0
 50
90.0
100
AcDbRotatedDimension
1001
ACAD
1000
DSTYLE
1002
{
1070
   287
1070
     3
1070
   287
1070
     3
1070
    40
1040
20.0
1070
   143
1040
0.039
1070
   172
1070
     1
1070
   271
1070
     0
1070
   279
1070
     0
1070
   288
1070
     1
1002
}
  0
LINE
  5
89DA
330
19
100
AcDbEntity
  8
1
100
AcDbLine
 10
-4192.891945525515
 20
-159.9638784316191
 30
0.0
 11
-4192.891945525512
 21
-284.9638784316191
 31
0.0
  0
LINE
  5
89DB
330
19
100
AcDbEntity
  8
1
100
AcDbLine
 10
-4198.891945525514
 20
-179.8754433977723
 30
0.0
 11
-4198.891945525514
 21
-265.0523134654656
 31
0.0
  0
LINE
  5
89DC
330
19
100
AcDbEntity
  8
1
100
AcDbLine
 10
-4206.194699583533
 20
-273.0218710501989
 30
0.0
 11
-4257.891945525514
 21
-277.5447940056338
 31
0.0
  0
LINE
  5
89DD
330
19
100
AcDbEntity
  8
1
100
AcDbLine
 10
-4257.891945525514
 20
-277.5447940056339
 30
0.0
 11
-4257.891945525514
 21
-284.9638784316191
 31
0.0
  0
ARC
  5
89DE
330
19
100
AcDbEntity
  8
1
100
AcDbCircle
 10
-4206.891945525512
 20
-265.0523134654672
 30
0.0
 40
8.0
100
AcDbArc
 50
274.9999999999878
 51
0.0000000000113991
  0
LINE
  5
89DF
330
19
100
AcDbEntity
  8
1
100
AcDbLine
 10
-4206.194699583533
 20
-171.9058858130393
 30
0.0
 11
-4257.891945525514
 21
-167.3829628576044
 31
0.0
  0
LINE
  5
89E0
330
19
100
AcDbEntity
  8
1
100
AcDbLine
 10
-4257.891945525514
 20
-159.9638784316191
 30
0.0
 11
-4257.891945525514
 21
-167.3829628576044
 31
0.0
  0
ARC
  5
89E1
330
19
100
AcDbEntity
  8
1
100
AcDbCircle
 10
-4206.891945525512
 20
-179.8754433977714
 30
0.0
 40
8.0
100
AcDbArc
 50
359.9999999999902
 51
85.00000000001238
  0
LINE
  5
89E2
330
19
100
AcDbEntity
  8
1
100
AcDbLine
 10
-2916.911010025151
 20
-179.8754433977723
 30
0.0
 11
-2916.911010025151
 21
-265.0523134654656
 31
0.0
  0
LINE
  5
89E3
330
19
100
AcDbEntity
  8
1
100
AcDbLine
 10
-2922.911010025151
 20
-159.9638784316191
 30
0.0
 11
-2922.911010025153
 21
-284.9638784316191
 31
0.0
  0
ARC
  5
89E4
330
19
100
AcDbEntity
  8
1
100
AcDbCircle
 10
-2908.911010025153
 20
-265.0523134654672
 30
0.0
 40
8.0
100
AcDbArc
 50
179.9999999999886
 51
265.0000000000122
  0
LINE
  5
89E5
330
19
100
AcDbEntity
  8
1
100
AcDbLine
 10
-2857.911010025151
 20
-277.5447940056339
 30
0.0
 11
-2857.911010025151
 21
-284.9638784316191
 31
0.0
  0
LINE
  5
89E6
330
19
100
AcDbEntity
  8
1
100
AcDbLine
 10
-2909.608255967132
 20
-273.0218710501989
 30
0.0
 11
-2857.911010025151
 21
-277.5447940056338
 31
0.0
  0
ARC
  5
89E7
330
19
100
AcDbEntity
  8
1
100
AcDbCircle
 10
-2908.911010025153
 20
-179.8754433977714
 30
0.0
 40
8.0
100
AcDbArc
 50
94.99999999998761
 51
180.0000000000098
  0
LINE
  5
89E8
330
19
100
AcDbEntity
  8
1
100
AcDbLine
 10
-2857.911010025151
 20
-159.9638784316191
 30
0.0
 11
-2857.911010025151
 21
-167.3829628576044
 31
0.0
  0
LINE
  5
89E9
330
19
100
AcDbEntity
  8
1
100
AcDbLine
 10
-2909.608255967132
 20
-171.9058858130393
 30
0.0
 11
-2857.911010025151
 21
-167.3829628576044
 31
0.0
  0
ENDSEC
  0
SECTION
  2
OBJECTS
  0
DICTIONARY
  5
C
330
0
100
AcDbDictionary
281
     1
  3
ACAD_CIP_PREVIOUS_PRODUCT_INFO
350
8C3C
  3
ACAD_COLOR
350
8C1F
  3
ACAD_DETAILVIEWSTYLE
350
8C38
  3
ACAD_GROUP
350
D
  3
ACAD_LAYOUT
350
80DF
  3
ACAD_MATERIAL
350
8BED
  3
ACAD_MLEADERSTYLE
350
8C34
  3
ACAD_MLINESTYLE
350
E
  3
ACAD_PLOTSETTINGS
350
80E0
  3
ACAD_PLOTSTYLENAME
350
80DD
  3
ACAD_SCALELIST
350
8C22
  3
ACAD_SECTIONVIEWSTYLE
350
8C36
  3
ACAD_TABLESTYLE
350
8C20
  3
ACAD_VISUALSTYLE
350
8C06
  3
ACDB_RECOMPOSE_DATA
350
8D81
  3
AcDbVariableDictionary
350
8BE4
  3
AcDsDecomposeData
350
8D88
  3
DWGPROPS
350
8D82
  0
DICTIONARY
  5
8D65
330
2
100
AcDbDictionary
280
     1
281
     1
  3
ACAD_LAYERSTATES
360
8D66
  0
DICTIONARY
  5
8D30
330
F
100
AcDbDictionary
280
     1
281
     1
  3
ADSK_XREC_LAYER_RECONCILED
360
8D31
  0
DICTIONARY
  5
8D32
330
31
100
AcDbDictionary
280
     1
281
     1
  3
ADSK_XREC_LAYER_RECONCILED
360
8D33
  0
DICTIONARY
  5
8D34
330
76D0
100
AcDbDictionary
280
     1
281
     1
  3
ADSK_XREC_LAYER_RECONCILED
360
8D35
  0
DICTIONARY
  5
8D36
330
76D1
100
AcDbDictionary
280
     1
281
     1
  3
ADSK_XREC_LAYER_RECONCILED
360
8D37
  0
DICTIONARY
  5
8D38
330
76D2
100
AcDbDictionary
280
     1
281
     1
  3
ADSK_XREC_LAYER_RECONCILED
360
8D39
  0
DICTIONARY
  5
8170
330
19
100
AcDbDictionary
280
     1
281
     1
  3
ACAD_LAYOUTSELFREF
360
8B7B
  0
DICTIONARY
  5
816E
330
16
100
AcDbDictionary
280
     1
281
     1
  3
ACAD_LAYOUTSELFREF
360
8B7A
  0
XRECORD
  5
8C3C
102
{ACAD_REACTORS
330
C
102
}
330
C
100
AcDbXrecord
280
     1
300
ACDLT
300
2015
300
INVLTS_F_S
  0
DICTIONARY
  5
8C1F
102
{ACAD_REACTORS
330
C
102
}
330
C
100
AcDbDictionary
281
     1
  0
DICTIONARY
  5
8C38
102
{ACAD_REACTORS
330
C
102
}
330
C
100
AcDbDictionary
281
     1
  3
Metric50
350
8C39
  0
DICTIONARY
  5
D
102
{ACAD_REACTORS
330
C
102
}
330
C
100
AcDbDictionary
281
     1
  0
DICTIONARY
  5
80DF
102
{ACAD_REACTORS
330
C
102
}
330
C
100
AcDbDictionary
281
     1
  3
Model
350
80E1
  3
ﾚｲｱｳﾄ1
350
80E2
  0
DICTIONARY
  5
8BED
102
{ACAD_REACTORS
330
C
102
}
330
C
100
AcDbDictionary
281
     1
  3
ByBlock
350
8BF6
  3
ByLayer
350
8BEE
  3
Global
350
8BFE
  0
DICTIONARY
  5
8C34
102
{ACAD_REACTORS
330
C
102
}
330
C
100
AcDbDictionary
281
     1
  3
Standard
350
8C35
  0
DICTIONARY
  5
E
102
{ACAD_REACTORS
330
C
102
}
330
C
100
AcDbDictionary
281
     1
  3
STANDARD
350
1C
  0
DICTIONARY
  5
80E0
102
{ACAD_REACTORS
330
C
102
}
330
C
100
AcDbDictionary
281
     1
  0
ACDBDICTIONARYWDFLT
  5
80DD
102
{ACAD_REACTORS
330
C
102
}
330
C
100
AcDbDictionary
281
     1
  3
Normal
350
80DE
100
AcDbDictionaryWithDefault
340
80DE
  0
DICTIONARY
  5
8C22
102
{ACAD_REACTORS
330
C
102
}
330
C
100
AcDbDictionary
281
     1
  3
A0
350
8C23
  3
A1
350
8C24
  3
A2
350
8C25
  3
A3
350
8C26
  3
A4
350
8C27
  3
A5
350
8C28
  3
A6
350
8C29
  3
A7
350
8C2A
  3
A8
350
8C2B
  3
A9
350
8C2C
  3
B0
350
8C2D
  3
B1
350
8C2E
  3
B2
350
8C2F
  3
B3
350
8C30
  3
B4
350
8C31
  3
B5
350
8C32
  3
B6
350
8C33
  0
DICTIONARY
  5
8C36
102
{ACAD_REACTORS
330
C
102
}
330
C
100
AcDbDictionary
281
     1
  3
Metric50
350
8C37
  0
DICTIONARY
  5
8C20
102
{ACAD_REACTORS
330
C
102
}
330
C
100
AcDbDictionary
281
     1
  3
Standard
350
8C21
  0
DICTIONARY
  5
8C06
102
{ACAD_REACTORS
330
C
102
}
330
C
100
AcDbDictionary
281
     1
  3
2dWireframe
350
8C0C
  3
Basic
350
8C0B
  3
Brighten
350
8C12
  3
ColorChange
350
8C16
  3
Conceptual
350
8C0F
  3
Dim
350
8C11
  3
EdgeColorOff
350
8C1E
  3
Facepattern
350
8C15
  3
Flat
350
8C07
  3
FlatWithEdges
350
8C08
  3
Gouraud
350
8C09
  3
GouraudWithEdges
350
8C0A
  3
Hidden
350
8C0E
  3
JitterOff
350
8C1C
  3
Linepattern
350
8C14
  3
OverhangOff
350
8C1D
  3
Realistic
350
8C10
  3
Shaded
350
8C1B
  3
Shaded with edges
350
8C1A
  3
Shades of Gray
350
8C17
  3
Sketchy
350
8C18
  3
Thicken
350
8C13
  3
Wireframe
350
8C0D
  3
X-Ray
350
8C19
  0
XRECORD
  5
8D81
102
{ACAD_REACTORS
330
C
102
}
330
C
100
AcDbXrecord
280
     1
 90
        1
330
88F0
330
8C21
  0
DICTIONARY
  5
8BE4
102
{ACAD_REACTORS
330
C
102
}
330
C
100
AcDbDictionary
281
     1
  3
CANNOSCALE
350
8D45
  3
CMLEADERSTYLE
350
8D41
  3
CTABLESTYLE
350
8D40
  3
CVIEWDETAILSTYLE
350
8D42
  3
CVIEWSECTIONSTYLE
350
8D43
  3
DIMASSOC
350
8BE5
  3
INDEXCTL
350
8D7D
  3
LAYEREVAL
350
8D47
  3
LAYERNOTIFY
350
8D48
  3
LIGHTINGUNITS
350
8D46
  3
MSLTSCALE
350
8D44
  3
SORTENTS
350
8D7C
  3
XCLIPFRAME
350
8D7E
  0
DICTIONARY
  5
8D88
102
{ACAD_REACTORS
330
C
102
}
330
C
100
AcDbDictionary
281
     1
  3
AcDsRecords
350
8D8A
  3
AcDsSchemas
350
8D89
1001
ACAD
1070
     2
  0
XRECORD
  5
8D82
102
{ACAD_REACTORS
330
C
102
}
330
C
100
AcDbXrecord
280
     1
  1
DWGPROPS COOKIE
  2

  3

  4

  6

  7

  8
yasukiyo.ogawa
  9

300
=
301
=
302
=
303
=
304
=
305
=
306
=
307
=
308
=
309
=
 40
0.0910143518518519
 41
2453249.427640046
 42
2457773.702626412
  1

 90
        0
  0
DICTIONARY
  5
8D66
102
{ACAD_REACTORS
330
8D65
102
}
330
8D65
100
AcDbDictionary
281
     1
  0
XRECORD
  5
8D31
102
{ACAD_REACTORS
330
8D30
102
}
330
8D30
100
AcDbXrecord
280
     1
290
     1
  0
XRECORD
  5
8D33
102
{ACAD_REACTORS
330
8D32
102
}
330
8D32
100
AcDbXrecord
280
     1
290
     1
  0
XRECORD
  5
8D35
102
{ACAD_REACTORS
330
8D34
102
}
330
8D34
100
AcDbXrecord
280
     1
290
     1
  0
XRECORD
  5
8D37
102
{ACAD_REACTORS
330
8D36
102
}
330
8D36
100
AcDbXrecord
280
     1
290
     1
  0
XRECORD
  5
8D39
102
{ACAD_REACTORS
330
8D38
102
}
330
8D38
100
AcDbXrecord
280
     1
290
     1
  0
XRECORD
  5
8B7B
102
{ACAD_REACTORS
330
8170
102
}
330
8170
100
AcDbXrecord
280
     1
340
19
  0
XRECORD
  5
8B7A
102
{ACAD_REACTORS
330
816E
102
}
330
816E
100
AcDbXrecord
280
     1
340
16
  0
ACDBDETAILVIEWSTYLE
  5
8C39
102
{ACAD_XDICTIONARY
360
8D3D
102
}
102
{ACAD_REACTORS
330
8C38
102
}
330
8C38
100
AcDbModelDocViewStyle
 70
     0
  3
Metric50
290
     0
100
AcDbDetailViewStyle
 70
     0
 71
     0
 90
        3
 71
     1
340
10
 40
5.0
340
0
 40
5.0
300

 40
0.0
280
     1
 71
     2
340
15
 90
       25
 71
     3
340
10
 40
5.0
 90
        0
 40
15.0
 90
        1
300
%<\AcVar ViewDetailId>% (%<\AcVar ViewScale \f "%sn">%)
 71
     4
340
15
 90
       25
340
15
 90
       25
280
     0
  0
LAYOUT
  5
80E1
102
{ACAD_XDICTIONARY
360
8D8B
102
}
102
{ACAD_REACTORS
330
80DF
102
}
330
80DF
100
AcDbPlotSettings
  1

  2
EPSON LP-9200B
  4

  6

 40
0.0
 41
0.0
 42
0.0
 43
0.0
 44
0.0
 45
0.0
 46
0.0
 47
0.0
 48
0.0
 49
0.0
140
0.0
141
0.0
142
1.0
143
1.0
 70
  1712
 72
     0
 73
     0
 74
     0
  7
GOD2000TABLE.ctb
 75
     0
147
1.0
148
0.0
149
0.0
100
AcDbLayout
  1
Model
 70
     1
 71
     0
 10
0.0
 20
0.0
 11
12.0
 21
9.0
 12
0.0
 22
0.0
 32
0.0
 14
0.0
 24
0.0
 34
0.0
 15
0.0
 25
0.0
 35
0.0
146
0.0
 13
0.0
 23
0.0
 33
0.0
 16
1.0
 26
0.0
 36
0.0
 17
0.0
 27
1.0
 37
0.0
 76
     0
330
19
331
8BEB
  0
LAYOUT
  5
80E2
102
{ACAD_XDICTIONARY
360
8D8D
102
}
102
{ACAD_REACTORS
330
80DF
102
}
330
80DF
100
AcDbPlotSettings
  1

  2
EPSON LP-9200B
  4

  6

 40
0.0
 41
0.0
 42
0.0
 43
0.0
 44
0.0
 45
0.0
 46
0.0
 47
0.0
 48
0.0
 49
0.0
140
0.0
141
0.0
142
1.0
143
1.0
 70
   688
 72
     0
 73
     0
 74
     5
  7
GOD2000TABLE.ctb
 75
    16
147
1.0
148
0.0
149
0.0
100
AcDbLayout
  1
ﾚｲｱｳﾄ1
 70
     1
 71
     1
 10
0.0
 20
0.0
 11
12.0
 21
9.0
 12
0.0
 22
0.0
 32
0.0
 14
1.000000000000000E+20
 24
1.000000000000000E+20
 34
1.000000000000000E+20
 15
-1.000000000000000E+20
 25
-1.000000000000000E+20
 35
-1.000000000000000E+20
146
0.0
 13
0.0
 23
0.0
 33
0.0
 16
1.0
 26
0.0
 36
0.0
 17
0.0
 27
1.0
 37
0.0
 76
     0
330
16
  0
MATERIAL
  5
8BF6
102
{ACAD_XDICTIONARY
360
8BF7
102
}
102
{ACAD_REACTORS
330
8BED
102
}
330
8BED
100
AcDbMaterial
  1
ByBlock
 72
     0
 43
0.0208333333333333
 43
0.0
 43
0.0
 43
0.0
 43
0.0
 43
0.0208333333333333
 43
0.0
 43
0.0
 43
0.0
 43
0.0
 43
1.0
 43
0.0
 43
0.0
 43
0.0
 43
0.0
 43
1.0
 77
     0
 47
0.0208333333333333
 47
0.0
 47
0.0
 47
0.0
 47
0.0
 47
0.0208333333333333
 47
0.0
 47
0.0
 47
0.0
 47
0.0
 47
1.0
 47
0.0
 47
0.0
 47
0.0
 47
0.0
 47
1.0
171
     0
 49
0.0208333333333333
 49
0.0
 49
0.0
 49
0.0
 49
0.0
 49
0.0208333333333333
 49
0.0
 49
0.0
 49
0.0
 49
0.0
 49
1.0
 49
0.0
 49
0.0
 49
0.0
 49
0.0
 49
1.0
175
     0
142
0.0208333333333333
142
0.0
142
0.0
142
0.0
142
0.0
142
0.0208333333333333
142
0.0
142
0.0
142
0.0
142
0.0
142
1.0
142
0.0
142
0.0
142
0.0
142
0.0
142
1.0
179
     0
144
0.0208333333333333
144
0.0
144
0.0
144
0.0
144
0.0
144
0.0208333333333333
144
0.0
144
0.0
144
0.0
144
0.0
144
1.0
144
0.0
144
0.0
144
0.0
144
0.0
144
1.0
147
0.0208333333333333
147
0.0
147
0.0
147
0.0
147
0.0
147
0.0208333333333333
147
0.0
147
0.0
147
0.0
147
0.0
147
1.0
147
0.0
147
0.0
147
0.0
147
0.0
147
1.0
  0
MATERIAL
  5
8BEE
102
{ACAD_XDICTIONARY
360
8BEF
102
}
102
{ACAD_REACTORS
330
8BED
102
}
330
8BED
100
AcDbMaterial
  1
ByLayer
 72
     0
 43
0.0208333333333333
 43
0.0
 43
0.0
 43
0.0
 43
0.0
 43
0.0208333333333333
 43
0.0
 43
0.0
 43
0.0
 43
0.0
 43
1.0
 43
0.0
 43
0.0
 43
0.0
 43
0.0
 43
1.0
 77
     0
 47
0.0208333333333333
 47
0.0
 47
0.0
 47
0.0
 47
0.0
 47
0.0208333333333333
 47
0.0
 47
0.0
 47
0.0
 47
0.0
 47
1.0
 47
0.0
 47
0.0
 47
0.0
 47
0.0
 47
1.0
171
     0
 49
0.0208333333333333
 49
0.0
 49
0.0
 49
0.0
 49
0.0
 49
0.0208333333333333
 49
0.0
 49
0.0
 49
0.0
 49
0.0
 49
1.0
 49
0.0
 49
0.0
 49
0.0
 49
0.0
 49
1.0
175
     0
142
0.0208333333333333
142
0.0
142
0.0
142
0.0
142
0.0
142
0.0208333333333333
142
0.0
142
0.0
142
0.0
142
0.0
142
1.0
142
0.0
142
0.0
142
0.0
142
0.0
142
1.0
179
     0
144
0.0208333333333333
144
0.0
144
0.0
144
0.0
144
0.0
144
0.0208333333333333
144
0.0
144
0.0
144
0.0
144
0.0
144
1.0
144
0.0
144
0.0
144
0.0
144
0.0
144
1.0
147
0.0208333333333333
147
0.0
147
0.0
147
0.0
147
0.0
147
0.0208333333333333
147
0.0
147
0.0
147
0.0
147
0.0
147
1.0
147
0.0
147
0.0
147
0.0
147
0.0
147
1.0
  0
MATERIAL
  5
8BFE
102
{ACAD_XDICTIONARY
360
8BFF
102
}
102
{ACAD_REACTORS
330
8BED
102
}
330
8BED
100
AcDbMaterial
  1
Global
 72
     0
 43
0.0208333333333333
 43
0.0
 43
0.0
 43
0.0
 43
0.0
 43
0.0208333333333333
 43
0.0
 43
0.0
 43
0.0
 43
0.0
 43
1.0
 43
0.0
 43
0.0
 43
0.0
 43
0.0
 43
1.0
 77
     0
 47
0.0208333333333333
 47
0.0
 47
0.0
 47
0.0
 47
0.0
 47
0.0208333333333333
 47
0.0
 47
0.0
 47
0.0
 47
0.0
 47
1.0
 47
0.0
 47
0.0
 47
0.0
 47
0.0
 47
1.0
171
     0
 49
0.0208333333333333
 49
0.0
 49
0.0
 49
0.0
 49
0.0
 49
0.0208333333333333
 49
0.0
 49
0.0
 49
0.0
 49
0.0
 49
1.0
 49
0.0
 49
0.0
 49
0.0
 49
0.0
 49
1.0
175
     0
142
0.0208333333333333
142
0.0
142
0.0
142
0.0
142
0.0
142
0.0208333333333333
142
0.0
142
0.0
142
0.0
142
0.0
142
1.0
142
0.0
142
0.0
142
0.0
142
0.0
142
1.0
179
     0
144
0.0208333333333333
144
0.0
144
0.0
144
0.0
144
0.0
144
0.0208333333333333
144
0.0
144
0.0
144
0.0
144
0.0
144
1.0
144
0.0
144
0.0
144
0.0
144
0.0
144
1.0
147
0.0208333333333333
147
0.0
147
0.0
147
0.0
147
0.0
147
0.0208333333333333
147
0.0
147
0.0
147
0.0
147
0.0
147
1.0
147
0.0
147
0.0
147
0.0
147
0.0
147
1.0
  0
MLEADERSTYLE
  5
8C35
102
{ACAD_XDICTIONARY
360
8DC4
102
}
102
{ACAD_REACTORS
330
8C34
102
}
330
8C34
100
AcDbMLeaderStyle
170
     2
171
     1
172
     0
 90
        2
 40
0.0
 41
0.0
173
     1
 91
-1056964608
340
13
 92
       -2
290
     1
 42
2.0
291
     1
 43
0.36
  3
Standard
 44
4.0
300

342
10
174
     1
178
     6
175
     1
176
     0
 93
-1056964608
 45
4.0
292
     0
297
     0
 46
4.0
 94
-1056964608
 47
1.0
 49
1.0
140
1.0
293
     1
141
0.0
294
     1
177
     0
142
1.0
295
     0
296
     0
143
0.125
1001
ACAD_MLEADERVER
1070
     2
  0
MLINESTYLE
  5
1C
102
{ACAD_REACTORS
330
E
102
}
330
E
100
AcDbMlineStyle
  2
STANDARD
 70
     0
  3

 62
     0
 51
90.0
 52
90.0
 71
     2
 49
0.5
 62
   256
  6
BYLAYER
 49
-0.5
 62
   256
  6
BYLAYER
  0
ACDBPLACEHOLDER
  5
80DE
102
{ACAD_REACTORS
330
80DD
102
}
330
80DD
  0
SCALE
  5
8C23
102
{ACAD_REACTORS
330
8C22
102
}
330
8C22
100
AcDbScale
 70
     0
300
1:1
140
1.0
141
1.0
290
     1
  0
SCALE
  5
8C24
102
{ACAD_REACTORS
330
8C22
102
}
330
8C22
100
AcDbScale
 70
     0
300
1:2
140
1.0
141
2.0
290
     0
  0
SCALE
  5
8C25
102
{ACAD_REACTORS
330
8C22
102
}
330
8C22
100
AcDbScale
 70
     0
300
1:4
140
1.0
141
4.0
290
     0
  0
SCALE
  5
8C26
102
{ACAD_REACTORS
330
8C22
102
}
330
8C22
100
AcDbScale
 70
     0
300
1:5
140
1.0
141
5.0
290
     0
  0
SCALE
  5
8C27
102
{ACAD_REACTORS
330
8C22
102
}
330
8C22
100
AcDbScale
 70
     0
300
1:8
140
1.0
141
8.0
290
     0
  0
SCALE
  5
8C28
102
{ACAD_REACTORS
330
8C22
102
}
330
8C22
100
AcDbScale
 70
     0
300
1:10
140
1.0
141
10.0
290
     0
  0
SCALE
  5
8C29
102
{ACAD_REACTORS
330
8C22
102
}
330
8C22
100
AcDbScale
 70
     0
300
1:16
140
1.0
141
16.0
290
     0
  0
SCALE
  5
8C2A
102
{ACAD_REACTORS
330
8C22
102
}
330
8C22
100
AcDbScale
 70
     0
300
1:20
140
1.0
141
20.0
290
     0
  0
SCALE
  5
8C2B
102
{ACAD_REACTORS
330
8C22
102
}
330
8C22
100
AcDbScale
 70
     0
300
1:30
140
1.0
141
30.0
290
     0
  0
SCALE
  5
8C2C
102
{ACAD_REACTORS
330
8C22
102
}
330
8C22
100
AcDbScale
 70
     0
300
1:40
140
1.0
141
40.0
290
     0
  0
SCALE
  5
8C2D
102
{ACAD_REACTORS
330
8C22
102
}
330
8C22
100
AcDbScale
 70
     0
300
1:50
140
1.0
141
50.0
290
     0
  0
SCALE
  5
8C2E
102
{ACAD_REACTORS
330
8C22
102
}
330
8C22
100
AcDbScale
 70
     0
300
1:100
140
1.0
141
100.0
290
     0
  0
SCALE
  5
8C2F
102
{ACAD_REACTORS
330
8C22
102
}
330
8C22
100
AcDbScale
 70
     0
300
2:1
140
2.0
141
1.0
290
     0
  0
SCALE
  5
8C30
102
{ACAD_REACTORS
330
8C22
102
}
330
8C22
100
AcDbScale
 70
     0
300
4:1
140
4.0
141
1.0
290
     0
  0
SCALE
  5
8C31
102
{ACAD_REACTORS
330
8C22
102
}
330
8C22
100
AcDbScale
 70
     0
300
8:1
140
8.0
141
1.0
290
     0
  0
SCALE
  5
8C32
102
{ACAD_REACTORS
330
8C22
102
}
330
8C22
100
AcDbScale
 70
     0
300
10:1
140
10.0
141
1.0
290
     0
  0
SCALE
  5
8C33
102
{ACAD_REACTORS
330
8C22
102
}
330
8C22
100
AcDbScale
 70
     0
300
100:1
140
100.0
141
1.0
290
     0
  0
ACDBSECTIONVIEWSTYLE
  5
8C37
102
{ACAD_XDICTIONARY
360
8D3B
102
}
102
{ACAD_REACTORS
330
8C36
102
}
330
8C36
100
AcDbModelDocViewStyle
 70
     0
  3
Metric50
290
     0
100
AcDbSectionViewStyle
 70
     0
 71
     0
 90
      102
 71
     1
340
10
 40
5.0
340
0
340
0
 40
5.0
300
I, O, Q, S, X, Z
 40
10.0
 90
        0
 40
2.5
 90
        0
 71
     2
340
15
 90
       25
340
15
 90
       50
 40
5.0
 40
2.5
 40
5.0
 71
     3
340
10
 40
5.0
 90
        0
 40
15.0
 90
        1
300
%<\AcVar ViewSectionStartId>%-%<\AcVar ViewSectionEndId>% (%<\AcVar ViewScale \f "%sn">%)
 71
     4
300
ANSI31
 40
1.0
 90
        0
290
     0
290
     0
 90
        6
 40
0.0
 40
1.570796326794896
 40
0.2617993877991494
 40
1.308996938995747
 40
-0.2617993877991494
 40
1.832595714594046
  0
TABLESTYLE
  5
8C21
102
{ACAD_XDICTIONARY
360
8D7F
102
}
102
{ACAD_REACTORS
330
8C20
102
}
330
8C20
100
AcDbTableStyle
  3
Standard
 70
     0
 71
     0
 40
1.5
 41
1.5
280
     0
281
     0
  7
STANDARD
140
4.5
170
     2
 62
     0
 63
     7
283
     0
274
    -2
284
     1
 64
     0
275
    -2
285
     1
 65
     0
276
    -2
286
     1
 66
     0
277
    -2
287
     1
 67
     0
278
    -2
288
     1
 68
     0
279
    -2
289
     1
 69
     0
  7
STANDARD
140
6.0
170
     5
 62
     0
 63
     7
283
     0
274
    -2
284
     1
 64
     0
275
    -2
285
     1
 65
     0
276
    -2
286
     1
 66
     0
277
    -2
287
     1
 67
     0
278
    -2
288
     1
 68
     0
279
    -2
289
     1
 69
     0
  7
STANDARD
140
4.5
170
     5
 62
     0
 63
     7
283
     0
274
    -2
284
     1
 64
     0
275
    -2
285
     1
 65
     0
276
    -2
286
     1
 66
     0
277
    -2
287
     1
 67
     0
278
    -2
288
     1
 68
     0
279
    -2
289
     1
 69
     0
  0
VISUALSTYLE
  5
8C0C
102
{ACAD_XDICTIONARY
360
8D9C
102
}
102
{ACAD_REACTORS
330
8C06
102
}
330
8C06
100
AcDbVisualStyle
  2
2dWireframe
 70
     4
 71
     0
 72
     2
 73
     0
 90
        0
 40
-0.6
 41
-30.0
 62
     5
 63
     7
 74
     1
 91
        4
 64
     7
 65
   257
 75
     1
175
     1
 42
1.0
 92
        0
 66
   257
 43
1.0
 76
     1
 77
     6
 78
     2
 67
     7
 79
     5
170
     0
171
     0
290
     0
174
     0
 93
        1
 44
0.0
173
     0
291
     0
 45
0.0
1001
ACAD
1000
AcDbSavedByObjectVersion
1070
     0
  0
VISUALSTYLE
  5
8C0B
102
{ACAD_XDICTIONARY
360
8D9A
102
}
102
{ACAD_REACTORS
330
8C06
102
}
330
8C06
100
AcDbVisualStyle
  2
Basic
 70
     7
 71
     1
 72
     0
 73
     1
 90
        0
 40
-0.6
 41
-30.0
 62
     5
 63
     7
 74
     0
 91
        4
 64
     7
 65
   257
 75
     1
175
     1
 42
1.0
 92
        8
 66
     7
 43
1.0
 76
     1
 77
     6
 78
     2
 67
     7
 79
     5
170
     0
171
     0
290
     0
174
     0
 93
        1
 44
0.0
173
     0
291
     1
 45
0.0
1001
ACAD
1000
AcDbSavedByObjectVersion
1070
     0
  0
VISUALSTYLE
  5
8C12
102
{ACAD_XDICTIONARY
360
8DA8
102
}
102
{ACAD_REACTORS
330
8C06
102
}
330
8C06
100
AcDbVisualStyle
  2
Brighten
 70
    12
 71
     2
 72
     2
 73
     0
 90
        0
 40
-0.6
 41
-30.0
 62
     5
 63
     7
 74
     1
 91
        4
 64
     7
 65
   257
 75
     1
175
     1
 42
1.0
 92
        8
 66
     7
 43
1.0
 76
     1
 77
     6
 78
     2
 67
     7
 79
     5
170
     0
171
     0
290
     0
174
     0
 93
        1
 44
50.0
173
     0
291
     1
 45
0.0
1001
ACAD
1000
AcDbSavedByObjectVersion
1070
     0
  0
VISUALSTYLE
  5
8C16
102
{ACAD_XDICTIONARY
360
8DB0
102
}
102
{ACAD_REACTORS
330
8C06
102
}
330
8C06
100
AcDbVisualStyle
  2
ColorChange
 70
    16
 71
     2
 72
     2
 73
     3
 90
        0
 40
-0.6
 41
-30.0
 62
     5
 63
     8
 74
     1
 91
        4
 64
     7
 65
   257
 75
     1
175
     1
 42
1.0
 92
        8
 66
     8
 43
1.0
 76
     1
 77
     6
 78
     2
 67
     7
 79
     5
170
     0
171
     0
290
     0
174
     0
 93
        1
 44
0.0
173
     0
291
     1
 45
0.0
1001
ACAD
1000
AcDbSavedByObjectVersion
1070
     0
  0
VISUALSTYLE
  5
8C0F
102
{ACAD_XDICTIONARY
360
8DA2
102
}
102
{ACAD_REACTORS
330
8C06
102
}
330
8C06
100
AcDbVisualStyle
  2
Conceptual
 70
     9
 71
     3
 72
     2
 73
     0
 90
        0
 40
-0.6
 41
-30.0
 62
     5
 63
     7
 74
     2
 91
        2
 64
     7
 65
   257
 75
     1
175
     1
 42
179.0
 92
        8
 66
     7
 43
1.0
 76
     1
 77
     6
 78
     2
 67
     7
 79
     3
170
     0
171
     0
290
     0
174
     0
 93
        1
 44
0.0
173
     0
291
     0
 45
0.0
1001
ACAD
1000
AcDbSavedByObjectVersion
1070
     0
  0
VISUALSTYLE
  5
8C11
102
{ACAD_XDICTIONARY
360
8DA6
102
}
102
{ACAD_REACTORS
330
8C06
102
}
330
8C06
100
AcDbVisualStyle
  2
Dim
 70
    11
 71
     2
 72
     2
 73
     0
 90
        0
 40
-0.6
 41
-30.0
 62
     5
 63
     7
 74
     1
 91
        4
 64
     7
 65
   257
 75
     1
175
     1
 42
1.0
 92
        8
 66
     7
 43
1.0
 76
     1
 77
     6
 78
     2
 67
     7
 79
     5
170
     0
171
     0
290
     0
174
     0
 93
        1
 44
-50.0
173
     0
291
     1
 45
0.0
1001
ACAD
1000
AcDbSavedByObjectVersion
1070
     0
  0
VISUALSTYLE
  5
8C1E
102
{ACAD_XDICTIONARY
360
8DC0
102
}
102
{ACAD_REACTORS
330
8C06
102
}
330
8C06
100
AcDbVisualStyle
  2
EdgeColorOff
 70
    22
 71
     2
 72
     2
 73
     0
 90
        0
 40
-0.6
 41
-30.0
 62
     5
 63
     7
 74
     1
 91
        4
 64
     7
 65
   257
 75
     1
175
     1
 42
1.0
 92
        8
 66
     7
 43
1.0
 76
     1
 77
     6
 78
     2
 67
     7
 79
     5
170
     0
171
     0
290
     0
174
     0
 93
        1
 44
0.0
173
     0
291
     1
 45
0.0
1001
ACAD
1000
AcDbSavedByObjectVersion
1070
     0
  0
VISUALSTYLE
  5
8C15
102
{ACAD_XDICTIONARY
360
8DAE
102
}
102
{ACAD_REACTORS
330
8C06
102
}
330
8C06
100
AcDbVisualStyle
  2
Facepattern
 70
    15
 71
     2
 72
     2
 73
     0
 90
        0
 40
-0.6
 41
-30.0
 62
     5
 63
     7
 74
     1
 91
        4
 64
     7
 65
   257
 75
     1
175
     1
 42
1.0
 92
        8
 66
     7
 43
1.0
 76
     1
 77
     6
 78
     2
 67
     7
 79
     5
170
     0
171
     0
290
     0
174
     0
 93
        1
 44
0.0
173
     0
291
     1
 45
0.0
1001
ACAD
1000
AcDbSavedByObjectVersion
1070
     0
  0
VISUALSTYLE
  5
8C07
102
{ACAD_XDICTIONARY
360
8D92
102
}
102
{ACAD_REACTORS
330
8C06
102
}
330
8C06
100
AcDbVisualStyle
  2
Flat
 70
     0
 71
     2
 72
     1
 73
     1
 90
        2
 40
-0.6
 41
30.0
 62
     5
 63
     7
 74
     0
 91
        0
 64
     7
 65
   257
 75
     1
175
     1
 42
1.0
 92
        8
 66
     7
 43
1.0
 76
     1
 77
     6
 78
     2
 67
     7
 79
     5
170
     0
171
     0
290
     0
174
     0
 93
       13
 44
0.0
173
     0
291
     1
 45
0.0
1001
ACAD
1000
AcDbSavedByObjectVersion
1070
     0
  0
VISUALSTYLE
  5
8C08
102
{ACAD_XDICTIONARY
360
8D94
102
}
102
{ACAD_REACTORS
330
8C06
102
}
330
8C06
100
AcDbVisualStyle
  2
FlatWithEdges
 70
     1
 71
     2
 72
     1
 73
     1
 90
        2
 40
-0.6
 41
30.0
 62
     5
 63
     7
 74
     1
 91
        0
 64
     7
 65
   257
 75
     1
175
     1
 42
1.0
 92
        0
 66
   257
 43
1.0
 76
     1
 77
     6
 78
     2
 67
     7
 79
     5
170
     0
171
     0
290
     0
174
     0
 93
       13
 44
0.0
173
     0
291
     1
 45
0.0
1001
ACAD
1000
AcDbSavedByObjectVersion
1070
     0
  0
VISUALSTYLE
  5
8C09
102
{ACAD_XDICTIONARY
360
8D96
102
}
102
{ACAD_REACTORS
330
8C06
102
}
330
8C06
100
AcDbVisualStyle
  2
Gouraud
 70
     2
 71
     2
 72
     2
 73
     1
 90
        2
 40
-0.6
 41
30.0
 62
     5
 63
     7
 74
     0
 91
        0
 64
     7
 65
   257
 75
     1
175
     1
 42
1.0
 92
        0
 66
     7
 43
1.0
 76
     1
 77
     6
 78
     2
 67
     7
 79
     5
170
     0
171
     0
290
     0
174
     0
 93
       13
 44
0.0
173
     0
291
     1
 45
0.0
1001
ACAD
1000
AcDbSavedByObjectVersion
1070
     0
  0
VISUALSTYLE
  5
8C0A
102
{ACAD_XDICTIONARY
360
8D98
102
}
102
{ACAD_REACTORS
330
8C06
102
}
330
8C06
100
AcDbVisualStyle
  2
GouraudWithEdges
 70
     3
 71
     2
 72
     2
 73
     1
 90
        2
 40
-0.6
 41
30.0
 62
     5
 63
     7
 74
     1
 91
        0
 64
     7
 65
   257
 75
     1
175
     1
 42
1.0
 92
        0
 66
   257
 43
1.0
 76
     1
 77
     6
 78
     2
 67
     7
 79
     5
170
     0
171
     0
290
     0
174
     0
 93
       13
 44
0.0
173
     0
291
     1
 45
0.0
1001
ACAD
1000
AcDbSavedByObjectVersion
1070
     0
  0
VISUALSTYLE
  5
8C0E
102
{ACAD_XDICTIONARY
360
8DA0
102
}
102
{ACAD_REACTORS
330
8C06
102
}
330
8C06
100
AcDbVisualStyle
  2
Hidden
 70
     6
 71
     1
 72
     2
 73
     2
 90
        0
 40
-0.6
 41
-30.0
 62
     5
 63
     7
 74
     2
 91
        2
 64
     7
 65
   257
 75
     2
175
     1
 42
40.0
 92
        0
 66
   257
 43
1.0
 76
     1
 77
     6
 78
     2
 67
     7
 79
     3
170
     0
171
     0
290
     0
174
     0
 93
        1
 44
0.0
173
     0
291
     0
 45
0.0
1001
ACAD
1000
AcDbSavedByObjectVersion
1070
     0
  0
VISUALSTYLE
  5
8C1C
102
{ACAD_XDICTIONARY
360
8DBC
102
}
102
{ACAD_REACTORS
330
8C06
102
}
330
8C06
100
AcDbVisualStyle
  2
JitterOff
 70
    20
 71
     2
 72
     2
 73
     0
 90
        0
 40
-0.6
 41
-30.0
 62
     5
 63
     7
 74
     1
 91
        4
 64
     7
 65
   257
 75
     1
175
     1
 42
1.0
 92
       10
 66
     7
 43
1.0
 76
     1
 77
     6
 78
     2
 67
     7
 79
     5
170
     0
171
     0
290
     0
174
     0
 93
        1
 44
0.0
173
     0
291
     1
 45
0.0
1001
ACAD
1000
AcDbSavedByObjectVersion
1070
     0
  0
VISUALSTYLE
  5
8C14
102
{ACAD_XDICTIONARY
360
8DAC
102
}
102
{ACAD_REACTORS
330
8C06
102
}
330
8C06
100
AcDbVisualStyle
  2
Linepattern
 70
    14
 71
     2
 72
     2
 73
     0
 90
        0
 40
-0.6
 41
-30.0
 62
     5
 63
     7
 74
     1
 91
        4
 64
     7
 65
   257
 75
     7
175
     7
 42
1.0
 92
        8
 66
     7
 43
1.0
 76
     1
 77
     6
 78
     2
 67
     7
 79
     5
170
     0
171
     0
290
     0
174
     0
 93
        1
 44
0.0
173
     0
291
     1
 45
0.0
1001
ACAD
1000
AcDbSavedByObjectVersion
1070
     0
  0
VISUALSTYLE
  5
8C1D
102
{ACAD_XDICTIONARY
360
8DBE
102
}
102
{ACAD_REACTORS
330
8C06
102
}
330
8C06
100
AcDbVisualStyle
  2
OverhangOff
 70
    21
 71
     2
 72
     2
 73
     0
 90
        0
 40
-0.6
 41
-30.0
 62
     5
 63
     7
 74
     1
 91
        4
 64
     7
 65
   257
 75
     1
175
     1
 42
1.0
 92
        9
 66
     7
 43
1.0
 76
     1
 77
     6
 78
     2
 67
     7
 79
     5
170
     0
171
     0
290
     0
174
     0
 93
        1
 44
0.0
173
     0
291
     1
 45
0.0
1001
ACAD
1000
AcDbSavedByObjectVersion
1070
     0
  0
VISUALSTYLE
  5
8C10
102
{ACAD_XDICTIONARY
360
8DA4
102
}
102
{ACAD_REACTORS
330
8C06
102
}
330
8C06
100
AcDbVisualStyle
  2
Realistic
 70
     8
 71
     2
 72
     3
 73
     0
 90
        2
 40
-0.6
 41
30.0
 62
     5
 63
     7
 74
     0
 91
        0
 64
     7
 65
   257
 75
     1
175
     1
 42
1.0
 92
        8
 66
   257
 43
1.0
 76
     1
 77
     6
 78
     2
 67
     7
 79
     3
170
     0
171
     0
290
     0
174
     0
 93
       13
 44
0.0
173
     0
291
     0
 45
0.0
1001
ACAD
1000
AcDbSavedByObjectVersion
1070
     0
  0
VISUALSTYLE
  5
8C1B
102
{ACAD_XDICTIONARY
360
8DBA
102
}
102
{ACAD_REACTORS
330
8C06
102
}
330
8C06
100
AcDbVisualStyle
  2
Shaded
 70
    27
 71
     2
 72
     2
 73
     1
 90
        2
 40
-0.6
 41
30.0
 62
     5
 63
     7
 74
     0
 91
        4
 64
     7
 65
   257
 75
     1
175
     1
 42
1.0
 92
        8
 66
   257
 43
1.0
 76
     1
 77
     6
 78
     2
 67
     8
 79
     3
170
     0
171
     0
290
     0
174
     0
 93
        5
 44
0.0
173
     0
291
     0
 45
0.0
1001
ACAD
1000
AcDbSavedByObjectVersion
1070
     0
  0
VISUALSTYLE
  5
8C1A
102
{ACAD_XDICTIONARY
360
8DB8
102
}
102
{ACAD_REACTORS
330
8C06
102
}
330
8C06
100
AcDbVisualStyle
  2
Shaded with edges
 70
    26
 71
     2
 72
     2
 73
     1
 90
        2
 40
-0.6
 41
30.0
 62
     5
 63
     7
 74
     1
 91
       10
 64
     7
 65
   257
 75
     2
175
     1
 42
1.0
 92
        8
 66
   257
 43
1.0
 76
     1
 77
     6
 78
     2
 67
     7
 79
     3
170
     0
171
     0
290
     0
174
     0
 93
        5
 44
0.0
173
     0
291
     0
 45
0.0
1001
ACAD
1000
AcDbSavedByObjectVersion
1070
     0
  0
VISUALSTYLE
  5
8C17
102
{ACAD_XDICTIONARY
360
8DB2
102
}
102
{ACAD_REACTORS
330
8C06
102
}
330
8C06
100
AcDbVisualStyle
  2
Shades of Gray
 70
    23
 71
     2
 72
     2
 73
     3
 90
        0
 40
-0.6
 41
-30.0
 62
     5
 63
     7
 74
     2
 91
        2
 64
     7
 65
     7
 75
     1
175
     1
 42
40.0
 92
        8
 66
     7
 43
1.0
 76
     1
 77
     6
 78
     2
 67
     7
 79
     3
170
     0
171
     0
290
     0
174
     0
 93
        1
 44
0.0
173
     0
291
     0
 45
0.0
1001
ACAD
1000
AcDbSavedByObjectVersion
1070
     0
  0
VISUALSTYLE
  5
8C18
102
{ACAD_XDICTIONARY
360
8DB4
102
}
102
{ACAD_REACTORS
330
8C06
102
}
330
8C06
100
AcDbVisualStyle
  2
Sketchy
 70
    24
 71
     1
 72
     2
 73
     2
 90
        0
 40
-0.6
 41
-30.0
 62
     5
 63
     7
 74
     2
 91
        2
 64
     7
 65
     7
 75
     1
175
     1
 42
40.0
 92
       11
 66
     7
 43
1.0
 76
     1
 77
     6
 78
     2
 67
     7
 79
     6
170
     0
171
     0
290
     0
174
     0
 93
        1
 44
0.0
173
     0
291
     0
 45
0.0
1001
ACAD
1000
AcDbSavedByObjectVersion
1070
     0
  0
VISUALSTYLE
  5
8C13
102
{ACAD_XDICTIONARY
360
8DAA
102
}
102
{ACAD_REACTORS
330
8C06
102
}
330
8C06
100
AcDbVisualStyle
  2
Thicken
 70
    13
 71
     2
 72
     2
 73
     0
 90
        0
 40
-0.6
 41
-30.0
 62
     5
 63
     7
 74
     1
 91
        4
 64
     7
 65
   257
 75
     1
175
     1
 42
1.0
 92
       12
 66
     7
 43
1.0
 76
     1
 77
     6
 78
     2
 67
     7
 79
     5
170
     0
171
     0
290
     0
174
     0
 93
        1
 44
0.0
173
     0
291
     1
 45
0.0
1001
ACAD
1000
AcDbSavedByObjectVersion
1070
     0
  0
VISUALSTYLE
  5
8C0D
102
{ACAD_XDICTIONARY
360
8D9E
102
}
102
{ACAD_REACTORS
330
8C06
102
}
330
8C06
100
AcDbVisualStyle
  2
Wireframe
 70
     5
 71
     0
 72
     2
 73
     0
 90
        0
 40
-0.6
 41
-30.0
 62
     5
 63
     7
 74
     1
 91
        4
 64
     7
 65
   257
 75
     1
175
     1
 42
1.0
 92
        0
 66
   257
 43
1.0
 76
     1
 77
     6
 78
     2
 67
     7
 79
     3
170
     0
171
     0
290
     0
174
     0
 93
        1
 44
0.0
173
     0
291
     0
 45
0.0
1001
ACAD
1000
AcDbSavedByObjectVersion
1070
     0
  0
VISUALSTYLE
  5
8C19
102
{ACAD_XDICTIONARY
360
8DB6
102
}
102
{ACAD_REACTORS
330
8C06
102
}
330
8C06
100
AcDbVisualStyle
  2
X-Ray
 70
    25
 71
     2
 72
     2
 73
     1
 90
        1
 40
0.5
 41
-30.0
 62
     5
 63
     7
 74
     1
 91
        0
 64
     7
 65
   257
 75
     1
175
     1
 42
1.0
 92
        8
 66
     7
 43
1.0
 76
     1
 77
     6
 78
     2
 67
     7
 79
     3
170
     0
171
     0
290
     0
174
     0
 93
       13
 44
0.0
173
     0
291
     0
 45
0.0
1001
ACAD
1000
AcDbSavedByObjectVersion
1070
     0
  0
DICTIONARYVAR
  5
8D45
102
{ACAD_REACTORS
330
8BE4
102
}
330
8BE4
100
DictionaryVariables
280
     0
  1
1:1
  0
DICTIONARYVAR
  5
8D41
102
{ACAD_REACTORS
330
8BE4
102
}
330
8BE4
100
DictionaryVariables
280
     0
  1
STANDARD
  0
DICTIONARYVAR
  5
8D40
102
{ACAD_REACTORS
330
8BE4
102
}
330
8BE4
100
DictionaryVariables
280
     0
  1
STANDARD
  0
DICTIONARYVAR
  5
8D42
102
{ACAD_REACTORS
330
8BE4
102
}
330
8BE4
100
DictionaryVariables
280
     0
  1
Metric50
  0
DICTIONARYVAR
  5
8D43
102
{ACAD_REACTORS
330
8BE4
102
}
330
8BE4
100
DictionaryVariables
280
     0
  1
Metric50
  0
DICTIONARYVAR
  5
8BE5
102
{ACAD_REACTORS
330
8BE4
102
}
330
8BE4
100
DictionaryVariables
280
     0
  1
1
  0
DICTIONARYVAR
  5
8D7D
102
{ACAD_REACTORS
330
8BE4
102
}
330
8BE4
100
DictionaryVariables
280
     0
  1
0
  0
DICTIONARYVAR
  5
8D47
102
{ACAD_REACTORS
330
8BE4
102
}
330
8BE4
100
DictionaryVariables
280
     0
  1
1
  0
DICTIONARYVAR
  5
8D48
102
{ACAD_REACTORS
330
8BE4
102
}
330
8BE4
100
DictionaryVariables
280
     0
  1
15
  0
DICTIONARYVAR
  5
8D46
102
{ACAD_REACTORS
330
8BE4
102
}
330
8BE4
100
DictionaryVariables
280
     0
  1
0
  0
DICTIONARYVAR
  5
8D44
102
{ACAD_REACTORS
330
8BE4
102
}
330
8BE4
100
DictionaryVariables
280
     0
  1
0
  0
DICTIONARYVAR
  5
8D7C
102
{ACAD_REACTORS
330
8BE4
102
}
330
8BE4
100
DictionaryVariables
280
     0
  1
127
  0
DICTIONARYVAR
  5
8D7E
102
{ACAD_REACTORS
330
8BE4
102
}
330
8BE4
100
DictionaryVariables
280
     0
  1
2
  0
DICTIONARY
  5
8D8A
102
{ACAD_REACTORS
330
8D88
102
}
330
8D88
100
AcDbDictionary
281
     1
  0
DICTIONARY
  5
8D89
102
{ACAD_REACTORS
330
8D88
102
}
330
8D88
100
AcDbDictionary
281
     1
  3
2130416216
350
8D83
  3
2130416224
350
8D84
  3
2130416232
350
8D85
  3
2130416240
350
8D86
  3
2130416248
350
8D87
  0
DICTIONARY
  5
8D3D
330
8C39
100
AcDbDictionary
280
     1
281
     1
  3
ACAD_XREC_ROUNDTRIP
360
8DC7
  0
DICTIONARY
  5
8D8B
330
80E1
100
AcDbDictionary
280
     1
281
     1
  3
ACAD_XREC_ROUNDTRIP
360
8D8C
  0
DICTIONARY
  5
8D8D
330
80E2
100
AcDbDictionary
280
     1
281
     1
  3
ACAD_XREC_ROUNDTRIP
360
8D8E
  0
DICTIONARY
  5
8BF7
330
8BF6
100
AcDbDictionary
280
     1
281
     1
  3
ACAD_XREC_ROUNDTRIP
360
8D90
  3
BUMPTILE
360
8BF9
  3
DIFFUSETILE
360
8BF8
  3
OPACITYTILE
360
8BFC
  3
REFLECTIONTILE
360
8BFB
  3
REFRACTIONTILE
360
8BFD
  3
SPECULARTILE
360
8BFA
  0
DICTIONARY
  5
8BEF
330
8BEE
100
AcDbDictionary
280
     1
281
     1
  3
ACAD_XREC_ROUNDTRIP
360
8D8F
  3
BUMPTILE
360
8BF1
  3
DIFFUSETILE
360
8BF0
  3
OPACITYTILE
360
8BF4
  3
REFLECTIONTILE
360
8BF3
  3
REFRACTIONTILE
360
8BF5
  3
SPECULARTILE
360
8BF2
  0
DICTIONARY
  5
8BFF
330
8BFE
100
AcDbDictionary
280
     1
281
     1
  3
ACAD_XREC_ROUNDTRIP
360
8D91
  3
BUMPTILE
360
8C01
  3
DIFFUSETILE
360
8C00
  3
OPACITYTILE
360
8C04
  3
REFLECTIONTILE
360
8C03
  3
REFRACTIONTILE
360
8C05
  3
SPECULARTILE
360
8C02
  0
DICTIONARY
  5
8DC4
330
8C35
100
AcDbDictionary
280
     1
281
     1
  3
ACAD_XREC_ROUNDTRIP
360
8DC5
  0
DICTIONARY
  5
8D3B
330
8C37
100
AcDbDictionary
280
     1
281
     1
  3
ACAD_XREC_ROUNDTRIP
360
8DC6
  0
DICTIONARY
  5
8D7F
330
8C21
100
AcDbDictionary
280
     1
281
     1
  3
ACAD_ROUNDTRIP_2008_TABLESTYLE_CELLSTYLEMAP
360
8D80
  3
ACAD_XREC_ROUNDTRIP
360
8DC2
  0
DICTIONARY
  5
8D9C
330
8C0C
100
AcDbDictionary
280
     1
281
     1
  3
ACAD_XREC_ROUNDTRIP
360
8D9D
  0
DICTIONARY
  5
8D9A
330
8C0B
100
AcDbDictionary
280
     1
281
     1
  3
ACAD_XREC_ROUNDTRIP
360
8D9B
  0
DICTIONARY
  5
8DA8
330
8C12
100
AcDbDictionary
280
     1
281
     1
  3
ACAD_XREC_ROUNDTRIP
360
8DA9
  0
DICTIONARY
  5
8DB0
330
8C16
100
AcDbDictionary
280
     1
281
     1
  3
ACAD_XREC_ROUNDTRIP
360
8DB1
  0
DICTIONARY
  5
8DA2
330
8C0F
100
AcDbDictionary
280
     1
281
     1
  3
ACAD_XREC_ROUNDTRIP
360
8DA3
  0
DICTIONARY
  5
8DA6
330
8C11
100
AcDbDictionary
280
     1
281
     1
  3
ACAD_XREC_ROUNDTRIP
360
8DA7
  0
DICTIONARY
  5
8DC0
330
8C1E
100
AcDbDictionary
280
     1
281
     1
  3
ACAD_XREC_ROUNDTRIP
360
8DC1
  0
DICTIONARY
  5
8DAE
330
8C15
100
AcDbDictionary
280
     1
281
     1
  3
ACAD_XREC_ROUNDTRIP
360
8DAF
  0
DICTIONARY
  5
8D92
330
8C07
100
AcDbDictionary
280
     1
281
     1
  3
ACAD_XREC_ROUNDTRIP
360
8D93
  0
DICTIONARY
  5
8D94
330
8C08
100
AcDbDictionary
280
     1
281
     1
  3
ACAD_XREC_ROUNDTRIP
360
8D95
  0
DICTIONARY
  5
8D96
330
8C09
100
AcDbDictionary
280
     1
281
     1
  3
ACAD_XREC_ROUNDTRIP
360
8D97
  0
DICTIONARY
  5
8D98
330
8C0A
100
AcDbDictionary
280
     1
281
     1
  3
ACAD_XREC_ROUNDTRIP
360
8D99
  0
DICTIONARY
  5
8DA0
330
8C0E
100
AcDbDictionary
280
     1
281
     1
  3
ACAD_XREC_ROUNDTRIP
360
8DA1
  0
DICTIONARY
  5
8DBC
330
8C1C
100
AcDbDictionary
280
     1
281
     1
  3
ACAD_XREC_ROUNDTRIP
360
8DBD
  0
DICTIONARY
  5
8DAC
330
8C14
100
AcDbDictionary
280
     1
281
     1
  3
ACAD_XREC_ROUNDTRIP
360
8DAD
  0
DICTIONARY
  5
8DBE
330
8C1D
100
AcDbDictionary
280
     1
281
     1
  3
ACAD_XREC_ROUNDTRIP
360
8DBF
  0
DICTIONARY
  5
8DA4
330
8C10
100
AcDbDictionary
280
     1
281
     1
  3
ACAD_XREC_ROUNDTRIP
360
8DA5
  0
DICTIONARY
  5
8DBA
330
8C1B
100
AcDbDictionary
280
     1
281
     1
  3
ACAD_XREC_ROUNDTRIP
360
8DBB
  0
DICTIONARY
  5
8DB8
330
8C1A
100
AcDbDictionary
280
     1
281
     1
  3
ACAD_XREC_ROUNDTRIP
360
8DB9
  0
DICTIONARY
  5
8DB2
330
8C17
100
AcDbDictionary
280
     1
281
     1
  3
ACAD_XREC_ROUNDTRIP
360
8DB3
  0
DICTIONARY
  5
8DB4
330
8C18
100
AcDbDictionary
280
     1
281
     1
  3
ACAD_XREC_ROUNDTRIP
360
8DB5
  0
DICTIONARY
  5
8DAA
330
8C13
100
AcDbDictionary
280
     1
281
     1
  3
ACAD_XREC_ROUNDTRIP
360
8DAB
  0
DICTIONARY
  5
8D9E
330
8C0D
100
AcDbDictionary
280
     1
281
     1
  3
ACAD_XREC_ROUNDTRIP
360
8D9F
  0
DICTIONARY
  5
8DB6
330
8C19
100
AcDbDictionary
280
     1
281
     1
  3
ACAD_XREC_ROUNDTRIP
360
8DB7
  0
XRECORD
  5
8D83
102
{ACAD_REACTORS
330
8D89
102
}
330
8D89
100
AcDbXrecord
280
     1
  1
AcDb_Thumbnail_Schema
102
{ATTRRECORD
341
8D84
  2
AcDbDs::TreatedAsObjectData
280
     1
291
     1
102
ATTRRECORD}
102
{ATTRRECORD
341
8D85
  2
AcDbDs::Legacy
280
     1
291
     1
102
ATTRRECORD}
  2
AcDbDs::ID
280
    10
 91
        8
102
{ATTRRECORD
341
8D86
  2
AcDs:Indexable
280
     1
291
     1
102
ATTRRECORD}
102
{ATTRRECORD
341
8D87
  2
AcDbDs::HandleAttribute
280
     7
282
     1
102
ATTRRECORD}
  2
Thumbnail_Data
280
    15
 91
        0
  0
XRECORD
  5
8D84
102
{ACAD_REACTORS
330
8D89
102
}
330
8D89
100
AcDbXrecord
280
     1
  1
AcDbDs::TreatedAsObjectDataSchema
  2
AcDbDs::TreatedAsObjectData
280
     1
 91
        0
  0
XRECORD
  5
8D85
102
{ACAD_REACTORS
330
8D89
102
}
330
8D89
100
AcDbXrecord
280
     1
  1
AcDbDs::LegacySchema
  2
AcDbDs::Legacy
280
     1
 91
        0
  0
XRECORD
  5
8D86
102
{ACAD_REACTORS
330
8D89
102
}
330
8D89
100
AcDbXrecord
280
     1
  1
AcDbDs::IndexedPropertySchema
  2
AcDs:Indexable
280
     1
 91
        0
  0
XRECORD
  5
8D87
102
{ACAD_REACTORS
330
8D89
102
}
330
8D89
100
AcDbXrecord
280
     1
  1
AcDbDs::HandleAttributeSchema
  2
AcDbDs::HandleAttribute
280
     7
 91
        1
284
     1
  0
XRECORD
  5
8DC7
102
{ACAD_REACTORS
330
8D3D
102
}
330
8D3D
100
AcDbXrecord
280
     1
102
DISPLAYNAME
  1
Metric50
102
FLAGS
 90
        0
  0
XRECORD
  5
8D8C
102
{ACAD_REACTORS
330
8D8B
102
}
330
8D8B
100
AcDbXrecord
280
     1
102
SHADEPLOT
 70
     0
102
SHADEPLOTRESLEVEL
 70
     2
102
SHADEPLOTCUSTOMDPI
 70
   300
  0
XRECORD
  5
8D8E
102
{ACAD_REACTORS
330
8D8D
102
}
330
8D8D
100
AcDbXrecord
280
     1
102
SHADEPLOT
 70
     0
102
SHADEPLOTRESLEVEL
 70
     2
102
SHADEPLOTCUSTOMDPI
 70
   300
  0
XRECORD
  5
8D90
102
{ACAD_REACTORS
330
8BF7
102
}
330
8BF7
100
AcDbXrecord
280
     1
102
MATERIAL
148
0.0
149
0.0
149
0.0
 93
        0
 94
      127
282
     0
 72
     0
 77
     0
171
     0
175
     0
179
     0
273
     0
  0
XRECORD
  5
8BF9
102
{ACAD_REACTORS
330
8BF7
102
}
330
8BF7
100
AcDbXrecord
280
     1
270
     1
271
     1
  0
XRECORD
  5
8BF8
102
{ACAD_REACTORS
330
8BF7
102
}
330
8BF7
100
AcDbXrecord
280
     1
270
     1
271
     1
  0
XRECORD
  5
8BFC
102
{ACAD_REACTORS
330
8BF7
102
}
330
8BF7
100
AcDbXrecord
280
     1
270
     1
271
     1
  0
XRECORD
  5
8BFB
102
{ACAD_REACTORS
330
8BF7
102
}
330
8BF7
100
AcDbXrecord
280
     1
270
     1
271
     1
  0
XRECORD
  5
8BFD
102
{ACAD_REACTORS
330
8BF7
102
}
330
8BF7
100
AcDbXrecord
280
     1
270
     1
271
     1
  0
XRECORD
  5
8BFA
102
{ACAD_REACTORS
330
8BF7
102
}
330
8BF7
100
AcDbXrecord
280
     1
270
     1
271
     1
  0
XRECORD
  5
8D8F
102
{ACAD_REACTORS
330
8BEF
102
}
330
8BEF
100
AcDbXrecord
280
     1
102
MATERIAL
148
0.0
149
0.0
149
0.0
 93
        0
 94
      127
282
     0
 72
     0
 77
     0
171
     0
175
     0
179
     0
273
     0
  0
XRECORD
  5
8BF1
102
{ACAD_REACTORS
330
8BEF
102
}
330
8BEF
100
AcDbXrecord
280
     1
270
     1
271
     1
  0
XRECORD
  5
8BF0
102
{ACAD_REACTORS
330
8BEF
102
}
330
8BEF
100
AcDbXrecord
280
     1
270
     1
271
     1
  0
XRECORD
  5
8BF4
102
{ACAD_REACTORS
330
8BEF
102
}
330
8BEF
100
AcDbXrecord
280
     1
270
     1
271
     1
  0
XRECORD
  5
8BF3
102
{ACAD_REACTORS
330
8BEF
102
}
330
8BEF
100
AcDbXrecord
280
     1
270
     1
271
     1
  0
XRECORD
  5
8BF5
102
{ACAD_REACTORS
330
8BEF
102
}
330
8BEF
100
AcDbXrecord
280
     1
270
     1
271
     1
  0
XRECORD
  5
8BF2
102
{ACAD_REACTORS
330
8BEF
102
}
330
8BEF
100
AcDbXrecord
280
     1
270
     1
271
     1
  0
XRECORD
  5
8D91
102
{ACAD_REACTORS
330
8BFF
102
}
330
8BFF
100
AcDbXrecord
280
     1
102
MATERIAL
148
0.0
149
0.0
149
0.0
 93
        0
 94
      127
282
     0
 72
     0
 77
     0
171
     0
175
     0
179
     0
273
     0
  0
XRECORD
  5
8C01
102
{ACAD_REACTORS
330
8BFF
102
}
330
8BFF
100
AcDbXrecord
280
     1
270
     1
271
     1
  0
XRECORD
  5
8C00
102
{ACAD_REACTORS
330
8BFF
102
}
330
8BFF
100
AcDbXrecord
280
     1
270
     1
271
     1
  0
XRECORD
  5
8C04
102
{ACAD_REACTORS
330
8BFF
102
}
330
8BFF
100
AcDbXrecord
280
     1
270
     1
271
     1
  0
XRECORD
  5
8C03
102
{ACAD_REACTORS
330
8BFF
102
}
330
8BFF
100
AcDbXrecord
280
     1
270
     1
271
     1
  0
XRECORD
  5
8C05
102
{ACAD_REACTORS
330
8BFF
102
}
330
8BFF
100
AcDbXrecord
280
     1
270
     1
271
     1
  0
XRECORD
  5
8C02
102
{ACAD_REACTORS
330
8BFF
102
}
330
8BFF
100
AcDbXrecord
280
     1
270
     1
271
     1
  0
XRECORD
  5
8DC5
102
{ACAD_REACTORS
330
8DC4
102
}
330
8DC4
100
AcDbXrecord
280
     1
102
ACAD_ROUNDTRIP_2012_MLEADER_STYLE
298
     1
  0
XRECORD
  5
8DC6
102
{ACAD_REACTORS
330
8D3B
102
}
330
8D3B
100
AcDbXrecord
280
     1
102
DISPLAYNAME
  1
Metric50
102
FLAGS
 90
        0
  0
CELLSTYLEMAP
  5
8D80
102
{ACAD_REACTORS
330
8D7F
102
}
330
8D7F
100
AcDbCellStyleMap
 90
        3
300
CELLSTYLE
  1
TABLEFORMAT_BEGIN
 90
        5
170
     1
 91
        0
 92
    32768
 62
   257
 93
        1
300
CONTENTFORMAT
  1
CONTENTFORMAT_BEGIN
 90
        0
 91
        0
 92
      512
 93
        0
300

 40
0.0
140
1.0
 94
        5
 62
     0
340
10
144
6.0
309
CONTENTFORMAT_END
171
     1
301
MARGIN
  1
CELLMARGIN_BEGIN
 40
1.5
 40
1.5
 40
1.5
 40
1.5
 40
4.5
 40
4.5
309
CELLMARGIN_END
 94
        6
 95
        1
302
GRIDFORMAT
  1
GRIDFORMAT_BEGIN
 90
        0
 91
        1
 62
     0
 92
       -2
340
0
 93
        0
 40
1.125
309
GRIDFORMAT_END
 95
        2
302
GRIDFORMAT
  1
GRIDFORMAT_BEGIN
 90
        0
 91
        1
 62
     0
 92
       -2
340
0
 93
        0
 40
1.125
309
GRIDFORMAT_END
 95
        4
302
GRIDFORMAT
  1
GRIDFORMAT_BEGIN
 90
        0
 91
        1
 62
     0
 92
       -2
340
0
 93
        0
 40
1.125
309
GRIDFORMAT_END
 95
        8
302
GRIDFORMAT
  1
GRIDFORMAT_BEGIN
 90
        0
 91
        1
 62
     0
 92
       -2
340
0
 93
        0
 40
1.125
309
GRIDFORMAT_END
 95
       16
302
GRIDFORMAT
  1
GRIDFORMAT_BEGIN
 90
        0
 91
        1
 62
     0
 92
       -2
340
0
 93
        0
 40
1.125
309
GRIDFORMAT_END
 95
       32
302
GRIDFORMAT
  1
GRIDFORMAT_BEGIN
 90
        0
 91
        1
 62
     0
 92
       -2
340
0
 93
        0
 40
1.125
309
GRIDFORMAT_END
309
TABLEFORMAT_END
  1
CELLSTYLE_BEGIN
 90
        1
 91
        1
300
_TITLE
309
CELLSTYLE_END
300
CELLSTYLE
  1
TABLEFORMAT_BEGIN
 90
        5
170
     1
 91
        0
 92
        0
 62
   257
 93
        1
300
CONTENTFORMAT
  1
CONTENTFORMAT_BEGIN
 90
        0
 91
        0
 92
      512
 93
        0
300

 40
0.0
140
1.0
 94
        5
 62
     0
340
10
144
4.5
309
CONTENTFORMAT_END
171
     1
301
MARGIN
  1
CELLMARGIN_BEGIN
 40
1.5
 40
1.5
 40
1.5
 40
1.5
 40
4.5
 40
4.5
309
CELLMARGIN_END
 94
        6
 95
        1
302
GRIDFORMAT
  1
GRIDFORMAT_BEGIN
 90
        0
 91
        1
 62
     0
 92
       -2
340
0
 93
        0
 40
1.125
309
GRIDFORMAT_END
 95
        2
302
GRIDFORMAT
  1
GRIDFORMAT_BEGIN
 90
        0
 91
        1
 62
     0
 92
       -2
340
0
 93
        0
 40
1.125
309
GRIDFORMAT_END
 95
        4
302
GRIDFORMAT
  1
GRIDFORMAT_BEGIN
 90
        0
 91
        1
 62
     0
 92
       -2
340
0
 93
        0
 40
1.125
309
GRIDFORMAT_END
 95
        8
302
GRIDFORMAT
  1
GRIDFORMAT_BEGIN
 90
        0
 91
        1
 62
     0
 92
       -2
340
0
 93
        0
 40
1.125
309
GRIDFORMAT_END
 95
       16
302
GRIDFORMAT
  1
GRIDFORMAT_BEGIN
 90
        0
 91
        1
 62
     0
 92
       -2
340
0
 93
        0
 40
1.125
309
GRIDFORMAT_END
 95
       32
302
GRIDFORMAT
  1
GRIDFORMAT_BEGIN
 90
        0
 91
        1
 62
     0
 92
       -2
340
0
 93
        0
 40
1.125
309
GRIDFORMAT_END
309
TABLEFORMAT_END
  1
CELLSTYLE_BEGIN
 90
        2
 91
        1
300
_HEADER
309
CELLSTYLE_END
300
CELLSTYLE
  1
TABLEFORMAT_BEGIN
 90
        5
170
     1
 91
        0
 92
        0
 62
   257
 93
        1
300
CONTENTFORMAT
  1
CONTENTFORMAT_BEGIN
 90
        0
 91
        0
 92
      512
 93
        0
300

 40
0.0
140
1.0
 94
        2
 62
     0
340
10
144
4.5
309
CONTENTFORMAT_END
171
     1
301
MARGIN
  1
CELLMARGIN_BEGIN
 40
1.5
 40
1.5
 40
1.5
 40
1.5
 40
4.5
 40
4.5
309
CELLMARGIN_END
 94
        6
 95
        1
302
GRIDFORMAT
  1
GRIDFORMAT_BEGIN
 90
        0
 91
        1
 62
     0
 92
       -2
340
0
 93
        0
 40
1.125
309
GRIDFORMAT_END
 95
        2
302
GRIDFORMAT
  1
GRIDFORMAT_BEGIN
 90
        0
 91
        1
 62
     0
 92
       -2
340
0
 93
        0
 40
1.125
309
GRIDFORMAT_END
 95
        4
302
GRIDFORMAT
  1
GRIDFORMAT_BEGIN
 90
        0
 91
        1
 62
     0
 92
       -2
340
0
 93
        0
 40
1.125
309
GRIDFORMAT_END
 95
        8
302
GRIDFORMAT
  1
GRIDFORMAT_BEGIN
 90
        0
 91
        1
 62
     0
 92
       -2
340
0
 93
        0
 40
1.125
309
GRIDFORMAT_END
 95
       16
302
GRIDFORMAT
  1
GRIDFORMAT_BEGIN
 90
        0
 91
        1
 62
     0
 92
       -2
340
0
 93
        0
 40
1.125
309
GRIDFORMAT_END
 95
       32
302
GRIDFORMAT
  1
GRIDFORMAT_BEGIN
 90
        0
 91
        1
 62
     0
 92
       -2
340
0
 93
        0
 40
1.125
309
GRIDFORMAT_END
309
TABLEFORMAT_END
  1
CELLSTYLE_BEGIN
 90
        3
 91
        2
300
_DATA
309
CELLSTYLE_END
  0
XRECORD
  5
8DC2
102
{ACAD_REACTORS
330
8D7F
102
}
330
8D7F
100
AcDbXrecord
280
     1
102
ACAD_ROUNDTRIP_PRE2007_TABLESTYLE
 90
      512
 91
        0
  1

 92
      512
 93
        0
  2

 94
      512
 95
        0
  3

  0
XRECORD
  5
8D9D
102
{ACAD_REACTORS
330
8D9C
102
}
330
8D9C
100
AcDbXrecord
280
     1
102
RTVSPost2010Prop28
280
     1
102
RTVSPost2010PropOp28
 70
     1
102
RTVSPost2010Prop29
280
     1
102
RTVSPost2010PropOp29
 70
     1
102
RTVSPost2010Prop30
280
     0
102
RTVSPost2010PropOp30
 70
     1
102
RTVSPost2010Prop31
280
     0
102
RTVSPost2010PropOp31
 70
     1
102
RTVSPost2010Prop32
280
     0
102
RTVSPost2010PropOp32
 70
     1
102
RTVSPost2010Prop33
280
     0
102
RTVSPost2010PropOp33
 70
     1
102
RTVSPost2010Prop34
280
     0
102
RTVSPost2010PropOp34
 70
     1
102
RTVSPost2010Prop35
280
     0
102
RTVSPost2010PropOp35
 70
     1
102
RTVSPost2010Prop36
280
     0
102
RTVSPost2010PropOp36
 70
     1
102
RTVSPost2010Prop37
 90
       50
102
RTVSPost2010PropOp37
 70
     1
102
RTVSPost2010Prop38
140
0.0
102
RTVSPost2010PropOp38
 70
     1
102
RTVSPost2010Prop39
140
1.0
102
RTVSPost2010PropOp39
 70
     1
102
RTVSPost2010Prop40
 90
        0
102
RTVSPost2010PropOp40
 70
     1
102
RTVSPost2010Prop41ColorIndex
 90
       18
102
RTVSPost2010Prop41ColorRGB
 90
        0
102
RTVSPost2010PropOp41
 70
     1
102
RTVSPost2010Prop42
 90
       50
102
RTVSPost2010PropOp42
 70
     1
102
RTVSPost2010Prop43
 90
        3
102
RTVSPost2010PropOp43
 70
     1
102
RTVSPost2010Prop44ColorIndex
 90
        5
102
RTVSPost2010Prop44ColorRGB
 90
      255
102
RTVSPost2010PropOp44
 70
     1
102
RTVSPost2010Prop45
280
     0
102
RTVSPost2010PropOp45
 70
     1
102
RTVSPost2010Prop46
 90
       50
102
RTVSPost2010PropOp46
 70
     1
102
RTVSPost2010Prop47
 90
       50
102
RTVSPost2010PropOp47
 70
     1
102
RTVSPost2010Prop48
 90
       50
102
RTVSPost2010PropOp48
 70
     1
102
RTVSPost2010Prop49
280
     0
102
RTVSPost2010PropOp49
 70
     1
102
RTVSPost2010Prop50
 90
       50
102
RTVSPost2010PropOp50
 70
     1
102
RTVSPost2010Prop51ColorIndex
 90
      256
102
RTVSPost2010Prop51ColorRGB
 90
-16777216
102
RTVSPost2010PropOp51
 70
     0
102
RTVSPost2010Prop52
140
1.0
102
RTVSPost2010PropOp52
 70
     0
102
RTVSPost2010Prop53
 90
        2
102
RTVSPost2010PropOp53
 70
     1
102
RTVSPost2010Prop54
  1
strokes_ogs.tif
102
RTVSPost2010PropOp54
 70
     1
102
RTVSPost2010Prop55
280
     0
102
RTVSPost2010PropOp55
 70
     1
102
RTVSPost2010Prop56
140
1.0
102
RTVSPost2010PropOp56
 70
     1
102
RTVSPost2010Prop57
140
1.0
102
RTVSPost2010PropOp57
 70
     1
102
RTVSPropertyOp0
 70
     1
102
RTVSPropertyOp1
 70
     1
102
RTVSPropertyOp2
 70
     1
102
RTVSPropertyOp3
 70
     1
102
RTVSPropertyOp4
 70
     1
102
RTVSPropertyOp5
 70
     1
102
RTVSPropertyOp6
 70
     1
102
RTVSPropertyOp7
 70
     1
102
RTVSPropertyOp8
 70
     1
102
RTVSPropertyOp9
 70
     1
102
RTVSPropertyOp10
 70
     1
102
RTVSPropertyOp11
 70
     1
102
RTVSPropertyOp12
 70
     1
102
RTVSPropertyOp13
 70
     1
102
RTVSPropertyOp14
 70
     1
102
RTVSPropertyOp15
 70
     1
102
RTVSPropertyOp16
 70
     1
102
RTVSPropertyOp17
 70
     1
102
RTVSPropertyOp18
 70
     1
102
RTVSPropertyOp19
 70
     1
102
RTVSPropertyOp20
 70
     1
102
RTVSPropertyOp21
 70
     1
102
RTVSPropertyOp22
 70
     1
102
RTVSPropertyOp23
 70
     1
102
RTVSPropertyOp24
 70
     1
102
RTVSPropertyOp25
 70
     1
102
RTVSPropertyOp26
 70
     1
102
RTVSPropertyOp27
 70
     1
102
RTVSPropertyOp28
 70
     1
102
RTVSPropertyOp29
 70
     1
102
RTVSPropertyOp30
 70
     1
102
RTVSPropertyOp31
 70
     1
102
RTVSPropertyOp32
 70
     1
102
RTVSPropertyOp33
 70
     1
102
RTVSPropertyOp34
 70
     1
102
RTVSPropertyOp35
 70
     1
102
RTVSPropertyOp36
 70
     1
102
RTVSPropertyOp37
 70
     1
102
RTVSPropertyOp38
 70
     1
102
RTVSPropertyOp39
 70
     1
102
RTVSPropertyOp40
 70
     1
102
RTVSPropertyOp41
 70
     1
102
RTVSPropertyOp42
 70
     1
102
RTVSPropertyOp43
 70
     1
102
RTVSPropertyOp44
 70
     1
102
RTVSPropertyOp45
 70
     1
102
RTVSPropertyOp46
 70
     1
102
RTVSPropertyOp47
 70
     1
102
RTVSPropertyOp48
 70
     1
102
RTVSPropertyOp49
 70
     1
102
RTVSPropertyOp50
 70
     1
102
RTVSPropertyOp51
 70
     0
102
RTVSPropertyOp52
 70
     0
102
RTVSPropertyOp53
 70
     1
102
RTVSPropertyOp54
 70
     1
102
RTVSPropertyOp55
 70
     1
102
RTVSPropertyOp56
 70
     1
102
RTVSPropertyOp57
 70
     1
102
RTVSPropertyOp58
 70
     1
102
RTVSPropertyOp59
 70
     1
102
RTVSPropertyOp60
 70
     1
102
RTVSPropertyOp61
 70
     1
102
RTVSPropertyOp62
 70
     1
  0
XRECORD
  5
8D9B
102
{ACAD_REACTORS
330
8D9A
102
}
330
8D9A
100
AcDbXrecord
280
     1
102
RTVSPost2010Prop28
280
     0
102
RTVSPost2010PropOp28
 70
     1
102
RTVSPost2010Prop29
280
     1
102
RTVSPost2010PropOp29
 70
     1
102
RTVSPost2010Prop30
280
     1
102
RTVSPost2010PropOp30
 70
     1
102
RTVSPost2010Prop31
280
     0
102
RTVSPost2010PropOp31
 70
     1
102
RTVSPost2010Prop32
280
     0
102
RTVSPost2010PropOp32
 70
     1
102
RTVSPost2010Prop33
280
     0
102
RTVSPost2010PropOp33
 70
     1
102
RTVSPost2010Prop34
280
     0
102
RTVSPost2010PropOp34
 70
     1
102
RTVSPost2010Prop35
280
     0
102
RTVSPost2010PropOp35
 70
     1
102
RTVSPost2010Prop36
280
     0
102
RTVSPost2010PropOp36
 70
     1
102
RTVSPost2010Prop37
 90
       50
102
RTVSPost2010PropOp37
 70
     1
102
RTVSPost2010Prop38
140
0.0
102
RTVSPost2010PropOp38
 70
     1
102
RTVSPost2010Prop39
140
1.0
102
RTVSPost2010PropOp39
 70
     1
102
RTVSPost2010Prop40
 90
        0
102
RTVSPost2010PropOp40
 70
     1
102
RTVSPost2010Prop41ColorIndex
 90
       18
102
RTVSPost2010Prop41ColorRGB
 90
        0
102
RTVSPost2010PropOp41
 70
     1
102
RTVSPost2010Prop42
 90
       50
102
RTVSPost2010PropOp42
 70
     1
102
RTVSPost2010Prop43
 90
        3
102
RTVSPost2010PropOp43
 70
     1
102
RTVSPost2010Prop44ColorIndex
 90
        5
102
RTVSPost2010Prop44ColorRGB
 90
      255
102
RTVSPost2010PropOp44
 70
     1
102
RTVSPost2010Prop45
280
     0
102
RTVSPost2010PropOp45
 70
     1
102
RTVSPost2010Prop46
 90
       50
102
RTVSPost2010PropOp46
 70
     1
102
RTVSPost2010Prop47
 90
       50
102
RTVSPost2010PropOp47
 70
     1
102
RTVSPost2010Prop48
 90
       50
102
RTVSPost2010PropOp48
 70
     1
102
RTVSPost2010Prop49
280
     0
102
RTVSPost2010PropOp49
 70
     1
102
RTVSPost2010Prop50
 90
       50
102
RTVSPost2010PropOp50
 70
     1
102
RTVSPost2010Prop51ColorIndex
 90
      256
102
RTVSPost2010Prop51ColorRGB
 90
-16777216
102
RTVSPost2010PropOp51
 70
     0
102
RTVSPost2010Prop52
140
1.0
102
RTVSPost2010PropOp52
 70
     0
102
RTVSPost2010Prop53
 90
        2
102
RTVSPost2010PropOp53
 70
     1
102
RTVSPost2010Prop54
  1
strokes_ogs.tif
102
RTVSPost2010PropOp54
 70
     1
102
RTVSPost2010Prop55
280
     0
102
RTVSPost2010PropOp55
 70
     1
102
RTVSPost2010Prop56
140
1.0
102
RTVSPost2010PropOp56
 70
     1
102
RTVSPost2010Prop57
140
1.0
102
RTVSPost2010PropOp57
 70
     1
102
RTVSPropertyOp0
 70
     1
102
RTVSPropertyOp1
 70
     1
102
RTVSPropertyOp2
 70
     1
102
RTVSPropertyOp3
 70
     1
102
RTVSPropertyOp4
 70
     1
102
RTVSPropertyOp5
 70
     1
102
RTVSPropertyOp6
 70
     1
102
RTVSPropertyOp7
 70
     1
102
RTVSPropertyOp8
 70
     1
102
RTVSPropertyOp9
 70
     1
102
RTVSPropertyOp10
 70
     1
102
RTVSPropertyOp11
 70
     1
102
RTVSPropertyOp12
 70
     1
102
RTVSPropertyOp13
 70
     1
102
RTVSPropertyOp14
 70
     1
102
RTVSPropertyOp15
 70
     1
102
RTVSPropertyOp16
 70
     1
102
RTVSPropertyOp17
 70
     1
102
RTVSPropertyOp18
 70
     1
102
RTVSPropertyOp19
 70
     1
102
RTVSPropertyOp20
 70
     1
102
RTVSPropertyOp21
 70
     1
102
RTVSPropertyOp22
 70
     1
102
RTVSPropertyOp23
 70
     1
102
RTVSPropertyOp24
 70
     1
102
RTVSPropertyOp25
 70
     1
102
RTVSPropertyOp26
 70
     1
102
RTVSPropertyOp27
 70
     1
102
RTVSPropertyOp28
 70
     1
102
RTVSPropertyOp29
 70
     1
102
RTVSPropertyOp30
 70
     1
102
RTVSPropertyOp31
 70
     1
102
RTVSPropertyOp32
 70
     1
102
RTVSPropertyOp33
 70
     1
102
RTVSPropertyOp34
 70
     1
102
RTVSPropertyOp35
 70
     1
102
RTVSPropertyOp36
 70
     1
102
RTVSPropertyOp37
 70
     1
102
RTVSPropertyOp38
 70
     1
102
RTVSPropertyOp39
 70
     1
102
RTVSPropertyOp40
 70
     1
102
RTVSPropertyOp41
 70
     1
102
RTVSPropertyOp42
 70
     1
102
RTVSPropertyOp43
 70
     1
102
RTVSPropertyOp44
 70
     1
102
RTVSPropertyOp45
 70
     1
102
RTVSPropertyOp46
 70
     1
102
RTVSPropertyOp47
 70
     1
102
RTVSPropertyOp48
 70
     1
102
RTVSPropertyOp49
 70
     1
102
RTVSPropertyOp50
 70
     1
102
RTVSPropertyOp51
 70
     0
102
RTVSPropertyOp52
 70
     0
102
RTVSPropertyOp53
 70
     1
102
RTVSPropertyOp54
 70
     1
102
RTVSPropertyOp55
 70
     1
102
RTVSPropertyOp56
 70
     1
102
RTVSPropertyOp57
 70
     1
102
RTVSPropertyOp58
 70
     1
102
RTVSPropertyOp59
 70
     1
102
RTVSPropertyOp60
 70
     1
102
RTVSPropertyOp61
 70
     1
102
RTVSPropertyOp62
 70
     1
  0
XRECORD
  5
8DA9
102
{ACAD_REACTORS
330
8DA8
102
}
330
8DA8
100
AcDbXrecord
280
     1
102
RTVSPost2010Prop28
280
     0
102
RTVSPost2010PropOp28
 70
     1
102
RTVSPost2010Prop29
280
     1
102
RTVSPost2010PropOp29
 70
     1
102
RTVSPost2010Prop30
280
     1
102
RTVSPost2010PropOp30
 70
     1
102
RTVSPost2010Prop31
280
     0
102
RTVSPost2010PropOp31
 70
     1
102
RTVSPost2010Prop32
280
     0
102
RTVSPost2010PropOp32
 70
     1
102
RTVSPost2010Prop33
280
     0
102
RTVSPost2010PropOp33
 70
     1
102
RTVSPost2010Prop34
280
     0
102
RTVSPost2010PropOp34
 70
     1
102
RTVSPost2010Prop35
280
     0
102
RTVSPost2010PropOp35
 70
     1
102
RTVSPost2010Prop36
280
     0
102
RTVSPost2010PropOp36
 70
     1
102
RTVSPost2010Prop37
 90
       50
102
RTVSPost2010PropOp37
 70
     1
102
RTVSPost2010Prop38
140
0.0
102
RTVSPost2010PropOp38
 70
     1
102
RTVSPost2010Prop39
140
1.0
102
RTVSPost2010PropOp39
 70
     1
102
RTVSPost2010Prop40
 90
        0
102
RTVSPost2010PropOp40
 70
     1
102
RTVSPost2010Prop41ColorIndex
 90
       18
102
RTVSPost2010Prop41ColorRGB
 90
        0
102
RTVSPost2010PropOp41
 70
     1
102
RTVSPost2010Prop42
 90
       50
102
RTVSPost2010PropOp42
 70
     1
102
RTVSPost2010Prop43
 90
        3
102
RTVSPost2010PropOp43
 70
     1
102
RTVSPost2010Prop44ColorIndex
 90
        5
102
RTVSPost2010Prop44ColorRGB
 90
      255
102
RTVSPost2010PropOp44
 70
     1
102
RTVSPost2010Prop45
280
     0
102
RTVSPost2010PropOp45
 70
     1
102
RTVSPost2010Prop46
 90
       50
102
RTVSPost2010PropOp46
 70
     1
102
RTVSPost2010Prop47
 90
       50
102
RTVSPost2010PropOp47
 70
     1
102
RTVSPost2010Prop48
 90
       50
102
RTVSPost2010PropOp48
 70
     1
102
RTVSPost2010Prop49
280
     0
102
RTVSPost2010PropOp49
 70
     1
102
RTVSPost2010Prop50
 90
       50
102
RTVSPost2010PropOp50
 70
     1
102
RTVSPost2010Prop51ColorIndex
 90
      256
102
RTVSPost2010Prop51ColorRGB
 90
-16777216
102
RTVSPost2010PropOp51
 70
     0
102
RTVSPost2010Prop52
140
1.0
102
RTVSPost2010PropOp52
 70
     0
102
RTVSPost2010Prop53
 90
        2
102
RTVSPost2010PropOp53
 70
     1
102
RTVSPost2010Prop54
  1
strokes_ogs.tif
102
RTVSPost2010PropOp54
 70
     1
102
RTVSPost2010Prop55
280
     0
102
RTVSPost2010PropOp55
 70
     1
102
RTVSPost2010Prop56
140
1.0
102
RTVSPost2010PropOp56
 70
     1
102
RTVSPost2010Prop57
140
1.0
102
RTVSPost2010PropOp57
 70
     1
102
RTVSPropertyOp0
 70
     1
102
RTVSPropertyOp1
 70
     1
102
RTVSPropertyOp2
 70
     1
102
RTVSPropertyOp3
 70
     1
102
RTVSPropertyOp4
 70
     1
102
RTVSPropertyOp5
 70
     1
102
RTVSPropertyOp6
 70
     1
102
RTVSPropertyOp7
 70
     1
102
RTVSPropertyOp8
 70
     1
102
RTVSPropertyOp9
 70
     1
102
RTVSPropertyOp10
 70
     1
102
RTVSPropertyOp11
 70
     1
102
RTVSPropertyOp12
 70
     1
102
RTVSPropertyOp13
 70
     1
102
RTVSPropertyOp14
 70
     1
102
RTVSPropertyOp15
 70
     1
102
RTVSPropertyOp16
 70
     1
102
RTVSPropertyOp17
 70
     1
102
RTVSPropertyOp18
 70
     1
102
RTVSPropertyOp19
 70
     1
102
RTVSPropertyOp20
 70
     1
102
RTVSPropertyOp21
 70
     1
102
RTVSPropertyOp22
 70
     1
102
RTVSPropertyOp23
 70
     1
102
RTVSPropertyOp24
 70
     1
102
RTVSPropertyOp25
 70
     1
102
RTVSPropertyOp26
 70
     1
102
RTVSPropertyOp27
 70
     1
102
RTVSPropertyOp28
 70
     1
102
RTVSPropertyOp29
 70
     1
102
RTVSPropertyOp30
 70
     1
102
RTVSPropertyOp31
 70
     1
102
RTVSPropertyOp32
 70
     1
102
RTVSPropertyOp33
 70
     1
102
RTVSPropertyOp34
 70
     1
102
RTVSPropertyOp35
 70
     1
102
RTVSPropertyOp36
 70
     1
102
RTVSPropertyOp37
 70
     1
102
RTVSPropertyOp38
 70
     1
102
RTVSPropertyOp39
 70
     1
102
RTVSPropertyOp40
 70
     1
102
RTVSPropertyOp41
 70
     1
102
RTVSPropertyOp42
 70
     1
102
RTVSPropertyOp43
 70
     1
102
RTVSPropertyOp44
 70
     1
102
RTVSPropertyOp45
 70
     1
102
RTVSPropertyOp46
 70
     1
102
RTVSPropertyOp47
 70
     1
102
RTVSPropertyOp48
 70
     1
102
RTVSPropertyOp49
 70
     1
102
RTVSPropertyOp50
 70
     1
102
RTVSPropertyOp51
 70
     0
102
RTVSPropertyOp52
 70
     0
102
RTVSPropertyOp53
 70
     1
102
RTVSPropertyOp54
 70
     1
102
RTVSPropertyOp55
 70
     1
102
RTVSPropertyOp56
 70
     1
102
RTVSPropertyOp57
 70
     1
102
RTVSPropertyOp58
 70
     1
102
RTVSPropertyOp59
 70
     1
102
RTVSPropertyOp60
 70
     1
102
RTVSPropertyOp61
 70
     1
102
RTVSPropertyOp62
 70
     1
  0
XRECORD
  5
8DB1
102
{ACAD_REACTORS
330
8DB0
102
}
330
8DB0
100
AcDbXrecord
280
     1
102
RTVSPost2010Prop28
280
     0
102
RTVSPost2010PropOp28
 70
     1
102
RTVSPost2010Prop29
280
     1
102
RTVSPost2010PropOp29
 70
     1
102
RTVSPost2010Prop30
280
     1
102
RTVSPost2010PropOp30
 70
     1
102
RTVSPost2010Prop31
280
     0
102
RTVSPost2010PropOp31
 70
     1
102
RTVSPost2010Prop32
280
     0
102
RTVSPost2010PropOp32
 70
     1
102
RTVSPost2010Prop33
280
     0
102
RTVSPost2010PropOp33
 70
     1
102
RTVSPost2010Prop34
280
     0
102
RTVSPost2010PropOp34
 70
     1
102
RTVSPost2010Prop35
280
     0
102
RTVSPost2010PropOp35
 70
     1
102
RTVSPost2010Prop36
280
     0
102
RTVSPost2010PropOp36
 70
     1
102
RTVSPost2010Prop37
 90
       50
102
RTVSPost2010PropOp37
 70
     1
102
RTVSPost2010Prop38
140
0.0
102
RTVSPost2010PropOp38
 70
     1
102
RTVSPost2010Prop39
140
1.0
102
RTVSPost2010PropOp39
 70
     1
102
RTVSPost2010Prop40
 90
        0
102
RTVSPost2010PropOp40
 70
     1
102
RTVSPost2010Prop41ColorIndex
 90
       18
102
RTVSPost2010Prop41ColorRGB
 90
        0
102
RTVSPost2010PropOp41
 70
     1
102
RTVSPost2010Prop42
 90
       50
102
RTVSPost2010PropOp42
 70
     1
102
RTVSPost2010Prop43
 90
        3
102
RTVSPost2010PropOp43
 70
     1
102
RTVSPost2010Prop44ColorIndex
 90
        5
102
RTVSPost2010Prop44ColorRGB
 90
      255
102
RTVSPost2010PropOp44
 70
     1
102
RTVSPost2010Prop45
280
     0
102
RTVSPost2010PropOp45
 70
     1
102
RTVSPost2010Prop46
 90
       50
102
RTVSPost2010PropOp46
 70
     1
102
RTVSPost2010Prop47
 90
       50
102
RTVSPost2010PropOp47
 70
     1
102
RTVSPost2010Prop48
 90
       50
102
RTVSPost2010PropOp48
 70
     1
102
RTVSPost2010Prop49
280
     0
102
RTVSPost2010PropOp49
 70
     1
102
RTVSPost2010Prop50
 90
       50
102
RTVSPost2010PropOp50
 70
     1
102
RTVSPost2010Prop51ColorIndex
 90
      256
102
RTVSPost2010Prop51ColorRGB
 90
-16777216
102
RTVSPost2010PropOp51
 70
     0
102
RTVSPost2010Prop52
140
1.0
102
RTVSPost2010PropOp52
 70
     0
102
RTVSPost2010Prop53
 90
        2
102
RTVSPost2010PropOp53
 70
     1
102
RTVSPost2010Prop54
  1
strokes_ogs.tif
102
RTVSPost2010PropOp54
 70
     1
102
RTVSPost2010Prop55
280
     0
102
RTVSPost2010PropOp55
 70
     1
102
RTVSPost2010Prop56
140
1.0
102
RTVSPost2010PropOp56
 70
     1
102
RTVSPost2010Prop57
140
1.0
102
RTVSPost2010PropOp57
 70
     1
102
RTVSPropertyOp0
 70
     1
102
RTVSPropertyOp1
 70
     1
102
RTVSPropertyOp2
 70
     1
102
RTVSPropertyOp3
 70
     1
102
RTVSPropertyOp4
 70
     1
102
RTVSPropertyOp5
 70
     1
102
RTVSPropertyOp6
 70
     1
102
RTVSPropertyOp7
 70
     1
102
RTVSPropertyOp8
 70
     1
102
RTVSPropertyOp9
 70
     1
102
RTVSPropertyOp10
 70
     1
102
RTVSPropertyOp11
 70
     1
102
RTVSPropertyOp12
 70
     1
102
RTVSPropertyOp13
 70
     1
102
RTVSPropertyOp14
 70
     1
102
RTVSPropertyOp15
 70
     1
102
RTVSPropertyOp16
 70
     1
102
RTVSPropertyOp17
 70
     1
102
RTVSPropertyOp18
 70
     1
102
RTVSPropertyOp19
 70
     1
102
RTVSPropertyOp20
 70
     1
102
RTVSPropertyOp21
 70
     1
102
RTVSPropertyOp22
 70
     1
102
RTVSPropertyOp23
 70
     1
102
RTVSPropertyOp24
 70
     1
102
RTVSPropertyOp25
 70
     1
102
RTVSPropertyOp26
 70
     1
102
RTVSPropertyOp27
 70
     1
102
RTVSPropertyOp28
 70
     1
102
RTVSPropertyOp29
 70
     1
102
RTVSPropertyOp30
 70
     1
102
RTVSPropertyOp31
 70
     1
102
RTVSPropertyOp32
 70
     1
102
RTVSPropertyOp33
 70
     1
102
RTVSPropertyOp34
 70
     1
102
RTVSPropertyOp35
 70
     1
102
RTVSPropertyOp36
 70
     1
102
RTVSPropertyOp37
 70
     1
102
RTVSPropertyOp38
 70
     1
102
RTVSPropertyOp39
 70
     1
102
RTVSPropertyOp40
 70
     1
102
RTVSPropertyOp41
 70
     1
102
RTVSPropertyOp42
 70
     1
102
RTVSPropertyOp43
 70
     1
102
RTVSPropertyOp44
 70
     1
102
RTVSPropertyOp45
 70
     1
102
RTVSPropertyOp46
 70
     1
102
RTVSPropertyOp47
 70
     1
102
RTVSPropertyOp48
 70
     1
102
RTVSPropertyOp49
 70
     1
102
RTVSPropertyOp50
 70
     1
102
RTVSPropertyOp51
 70
     0
102
RTVSPropertyOp52
 70
     0
102
RTVSPropertyOp53
 70
     1
102
RTVSPropertyOp54
 70
     1
102
RTVSPropertyOp55
 70
     1
102
RTVSPropertyOp56
 70
     1
102
RTVSPropertyOp57
 70
     1
102
RTVSPropertyOp58
 70
     1
102
RTVSPropertyOp59
 70
     1
102
RTVSPropertyOp60
 70
     1
102
RTVSPropertyOp61
 70
     1
102
RTVSPropertyOp62
 70
     1
  0
XRECORD
  5
8DA3
102
{ACAD_REACTORS
330
8DA2
102
}
330
8DA2
100
AcDbXrecord
280
     1
102
RTVSPost2010Prop28
280
     0
102
RTVSPost2010PropOp28
 70
     1
102
RTVSPost2010Prop29
280
     1
102
RTVSPost2010PropOp29
 70
     1
102
RTVSPost2010Prop30
280
     1
102
RTVSPost2010PropOp30
 70
     1
102
RTVSPost2010Prop31
280
     0
102
RTVSPost2010PropOp31
 70
     1
102
RTVSPost2010Prop32
280
     0
102
RTVSPost2010PropOp32
 70
     1
102
RTVSPost2010Prop33
280
     0
102
RTVSPost2010PropOp33
 70
     1
102
RTVSPost2010Prop34
280
     0
102
RTVSPost2010PropOp34
 70
     1
102
RTVSPost2010Prop35
280
     0
102
RTVSPost2010PropOp35
 70
     1
102
RTVSPost2010Prop36
280
     0
102
RTVSPost2010PropOp36
 70
     1
102
RTVSPost2010Prop37
 90
       50
102
RTVSPost2010PropOp37
 70
     1
102
RTVSPost2010Prop38
140
0.0
102
RTVSPost2010PropOp38
 70
     1
102
RTVSPost2010Prop39
140
1.0
102
RTVSPost2010PropOp39
 70
     1
102
RTVSPost2010Prop40
 90
        0
102
RTVSPost2010PropOp40
 70
     1
102
RTVSPost2010Prop41ColorIndex
 90
       18
102
RTVSPost2010Prop41ColorRGB
 90
        0
102
RTVSPost2010PropOp41
 70
     1
102
RTVSPost2010Prop42
 90
       50
102
RTVSPost2010PropOp42
 70
     1
102
RTVSPost2010Prop43
 90
        3
102
RTVSPost2010PropOp43
 70
     1
102
RTVSPost2010Prop44ColorIndex
 90
        5
102
RTVSPost2010Prop44ColorRGB
 90
      255
102
RTVSPost2010PropOp44
 70
     1
102
RTVSPost2010Prop45
280
     0
102
RTVSPost2010PropOp45
 70
     1
102
RTVSPost2010Prop46
 90
       50
102
RTVSPost2010PropOp46
 70
     1
102
RTVSPost2010Prop47
 90
       50
102
RTVSPost2010PropOp47
 70
     1
102
RTVSPost2010Prop48
 90
       50
102
RTVSPost2010PropOp48
 70
     1
102
RTVSPost2010Prop49
280
     0
102
RTVSPost2010PropOp49
 70
     1
102
RTVSPost2010Prop50
 90
       50
102
RTVSPost2010PropOp50
 70
     1
102
RTVSPost2010Prop51ColorIndex
 90
      256
102
RTVSPost2010Prop51ColorRGB
 90
-16777216
102
RTVSPost2010PropOp51
 70
     0
102
RTVSPost2010Prop52
140
1.0
102
RTVSPost2010PropOp52
 70
     0
102
RTVSPost2010Prop53
 90
        2
102
RTVSPost2010PropOp53
 70
     1
102
RTVSPost2010Prop54
  1
strokes_ogs.tif
102
RTVSPost2010PropOp54
 70
     1
102
RTVSPost2010Prop55
280
     0
102
RTVSPost2010PropOp55
 70
     1
102
RTVSPost2010Prop56
140
1.0
102
RTVSPost2010PropOp56
 70
     1
102
RTVSPost2010Prop57
140
1.0
102
RTVSPost2010PropOp57
 70
     1
102
RTVSPropertyOp0
 70
     1
102
RTVSPropertyOp1
 70
     1
102
RTVSPropertyOp2
 70
     1
102
RTVSPropertyOp3
 70
     1
102
RTVSPropertyOp4
 70
     1
102
RTVSPropertyOp5
 70
     1
102
RTVSPropertyOp6
 70
     1
102
RTVSPropertyOp7
 70
     1
102
RTVSPropertyOp8
 70
     1
102
RTVSPropertyOp9
 70
     1
102
RTVSPropertyOp10
 70
     1
102
RTVSPropertyOp11
 70
     1
102
RTVSPropertyOp12
 70
     1
102
RTVSPropertyOp13
 70
     1
102
RTVSPropertyOp14
 70
     1
102
RTVSPropertyOp15
 70
     1
102
RTVSPropertyOp16
 70
     1
102
RTVSPropertyOp17
 70
     1
102
RTVSPropertyOp18
 70
     1
102
RTVSPropertyOp19
 70
     1
102
RTVSPropertyOp20
 70
     1
102
RTVSPropertyOp21
 70
     1
102
RTVSPropertyOp22
 70
     1
102
RTVSPropertyOp23
 70
     1
102
RTVSPropertyOp24
 70
     1
102
RTVSPropertyOp25
 70
     1
102
RTVSPropertyOp26
 70
     1
102
RTVSPropertyOp27
 70
     1
102
RTVSPropertyOp28
 70
     1
102
RTVSPropertyOp29
 70
     1
102
RTVSPropertyOp30
 70
     1
102
RTVSPropertyOp31
 70
     1
102
RTVSPropertyOp32
 70
     1
102
RTVSPropertyOp33
 70
     1
102
RTVSPropertyOp34
 70
     1
102
RTVSPropertyOp35
 70
     1
102
RTVSPropertyOp36
 70
     1
102
RTVSPropertyOp37
 70
     1
102
RTVSPropertyOp38
 70
     1
102
RTVSPropertyOp39
 70
     1
102
RTVSPropertyOp40
 70
     1
102
RTVSPropertyOp41
 70
     1
102
RTVSPropertyOp42
 70
     1
102
RTVSPropertyOp43
 70
     1
102
RTVSPropertyOp44
 70
     1
102
RTVSPropertyOp45
 70
     1
102
RTVSPropertyOp46
 70
     1
102
RTVSPropertyOp47
 70
     1
102
RTVSPropertyOp48
 70
     1
102
RTVSPropertyOp49
 70
     1
102
RTVSPropertyOp50
 70
     1
102
RTVSPropertyOp51
 70
     0
102
RTVSPropertyOp52
 70
     0
102
RTVSPropertyOp53
 70
     1
102
RTVSPropertyOp54
 70
     1
102
RTVSPropertyOp55
 70
     1
102
RTVSPropertyOp56
 70
     1
102
RTVSPropertyOp57
 70
     1
102
RTVSPropertyOp58
 70
     1
102
RTVSPropertyOp59
 70
     1
102
RTVSPropertyOp60
 70
     1
102
RTVSPropertyOp61
 70
     1
102
RTVSPropertyOp62
 70
     1
  0
XRECORD
  5
8DA7
102
{ACAD_REACTORS
330
8DA6
102
}
330
8DA6
100
AcDbXrecord
280
     1
102
RTVSPost2010Prop28
280
     0
102
RTVSPost2010PropOp28
 70
     1
102
RTVSPost2010Prop29
280
     1
102
RTVSPost2010PropOp29
 70
     1
102
RTVSPost2010Prop30
280
     1
102
RTVSPost2010PropOp30
 70
     1
102
RTVSPost2010Prop31
280
     0
102
RTVSPost2010PropOp31
 70
     1
102
RTVSPost2010Prop32
280
     0
102
RTVSPost2010PropOp32
 70
     1
102
RTVSPost2010Prop33
280
     0
102
RTVSPost2010PropOp33
 70
     1
102
RTVSPost2010Prop34
280
     0
102
RTVSPost2010PropOp34
 70
     1
102
RTVSPost2010Prop35
280
     0
102
RTVSPost2010PropOp35
 70
     1
102
RTVSPost2010Prop36
280
     0
102
RTVSPost2010PropOp36
 70
     1
102
RTVSPost2010Prop37
 90
       50
102
RTVSPost2010PropOp37
 70
     1
102
RTVSPost2010Prop38
140
0.0
102
RTVSPost2010PropOp38
 70
     1
102
RTVSPost2010Prop39
140
1.0
102
RTVSPost2010PropOp39
 70
     1
102
RTVSPost2010Prop40
 90
        0
102
RTVSPost2010PropOp40
 70
     1
102
RTVSPost2010Prop41ColorIndex
 90
       18
102
RTVSPost2010Prop41ColorRGB
 90
        0
102
RTVSPost2010PropOp41
 70
     1
102
RTVSPost2010Prop42
 90
       50
102
RTVSPost2010PropOp42
 70
     1
102
RTVSPost2010Prop43
 90
        3
102
RTVSPost2010PropOp43
 70
     1
102
RTVSPost2010Prop44ColorIndex
 90
        5
102
RTVSPost2010Prop44ColorRGB
 90
      255
102
RTVSPost2010PropOp44
 70
     1
102
RTVSPost2010Prop45
280
     0
102
RTVSPost2010PropOp45
 70
     1
102
RTVSPost2010Prop46
 90
       50
102
RTVSPost2010PropOp46
 70
     1
102
RTVSPost2010Prop47
 90
       50
102
RTVSPost2010PropOp47
 70
     1
102
RTVSPost2010Prop48
 90
       50
102
RTVSPost2010PropOp48
 70
     1
102
RTVSPost2010Prop49
280
     0
102
RTVSPost2010PropOp49
 70
     1
102
RTVSPost2010Prop50
 90
       50
102
RTVSPost2010PropOp50
 70
     1
102
RTVSPost2010Prop51ColorIndex
 90
      256
102
RTVSPost2010Prop51ColorRGB
 90
-16777216
102
RTVSPost2010PropOp51
 70
     0
102
RTVSPost2010Prop52
140
1.0
102
RTVSPost2010PropOp52
 70
     0
102
RTVSPost2010Prop53
 90
        2
102
RTVSPost2010PropOp53
 70
     1
102
RTVSPost2010Prop54
  1
strokes_ogs.tif
102
RTVSPost2010PropOp54
 70
     1
102
RTVSPost2010Prop55
280
     0
102
RTVSPost2010PropOp55
 70
     1
102
RTVSPost2010Prop56
140
1.0
102
RTVSPost2010PropOp56
 70
     1
102
RTVSPost2010Prop57
140
1.0
102
RTVSPost2010PropOp57
 70
     1
102
RTVSPropertyOp0
 70
     1
102
RTVSPropertyOp1
 70
     1
102
RTVSPropertyOp2
 70
     1
102
RTVSPropertyOp3
 70
     1
102
RTVSPropertyOp4
 70
     1
102
RTVSPropertyOp5
 70
     1
102
RTVSPropertyOp6
 70
     1
102
RTVSPropertyOp7
 70
     1
102
RTVSPropertyOp8
 70
     1
102
RTVSPropertyOp9
 70
     1
102
RTVSPropertyOp10
 70
     1
102
RTVSPropertyOp11
 70
     1
102
RTVSPropertyOp12
 70
     1
102
RTVSPropertyOp13
 70
     1
102
RTVSPropertyOp14
 70
     1
102
RTVSPropertyOp15
 70
     1
102
RTVSPropertyOp16
 70
     1
102
RTVSPropertyOp17
 70
     1
102
RTVSPropertyOp18
 70
     1
102
RTVSPropertyOp19
 70
     1
102
RTVSPropertyOp20
 70
     1
102
RTVSPropertyOp21
 70
     1
102
RTVSPropertyOp22
 70
     1
102
RTVSPropertyOp23
 70
     1
102
RTVSPropertyOp24
 70
     1
102
RTVSPropertyOp25
 70
     1
102
RTVSPropertyOp26
 70
     1
102
RTVSPropertyOp27
 70
     1
102
RTVSPropertyOp28
 70
     1
102
RTVSPropertyOp29
 70
     1
102
RTVSPropertyOp30
 70
     1
102
RTVSPropertyOp31
 70
     1
102
RTVSPropertyOp32
 70
     1
102
RTVSPropertyOp33
 70
     1
102
RTVSPropertyOp34
 70
     1
102
RTVSPropertyOp35
 70
     1
102
RTVSPropertyOp36
 70
     1
102
RTVSPropertyOp37
 70
     1
102
RTVSPropertyOp38
 70
     1
102
RTVSPropertyOp39
 70
     1
102
RTVSPropertyOp40
 70
     1
102
RTVSPropertyOp41
 70
     1
102
RTVSPropertyOp42
 70
     1
102
RTVSPropertyOp43
 70
     1
102
RTVSPropertyOp44
 70
     1
102
RTVSPropertyOp45
 70
     1
102
RTVSPropertyOp46
 70
     1
102
RTVSPropertyOp47
 70
     1
102
RTVSPropertyOp48
 70
     1
102
RTVSPropertyOp49
 70
     1
102
RTVSPropertyOp50
 70
     1
102
RTVSPropertyOp51
 70
     0
102
RTVSPropertyOp52
 70
     0
102
RTVSPropertyOp53
 70
     1
102
RTVSPropertyOp54
 70
     1
102
RTVSPropertyOp55
 70
     1
102
RTVSPropertyOp56
 70
     1
102
RTVSPropertyOp57
 70
     1
102
RTVSPropertyOp58
 70
     1
102
RTVSPropertyOp59
 70
     1
102
RTVSPropertyOp60
 70
     1
102
RTVSPropertyOp61
 70
     1
102
RTVSPropertyOp62
 70
     1
  0
XRECORD
  5
8DC1
102
{ACAD_REACTORS
330
8DC0
102
}
330
8DC0
100
AcDbXrecord
280
     1
102
RTVSPost2010Prop28
280
     0
102
RTVSPost2010PropOp28
 70
     0
102
RTVSPost2010Prop29
280
     1
102
RTVSPost2010PropOp29
 70
     0
102
RTVSPost2010Prop30
280
     1
102
RTVSPost2010PropOp30
 70
     0
102
RTVSPost2010Prop31
280
     0
102
RTVSPost2010PropOp31
 70
     0
102
RTVSPost2010Prop32
280
     0
102
RTVSPost2010PropOp32
 70
     0
102
RTVSPost2010Prop33
280
     0
102
RTVSPost2010PropOp33
 70
     0
102
RTVSPost2010Prop34
280
     0
102
RTVSPost2010PropOp34
 70
     0
102
RTVSPost2010Prop35
280
     0
102
RTVSPost2010PropOp35
 70
     0
102
RTVSPost2010Prop36
280
     0
102
RTVSPost2010PropOp36
 70
     0
102
RTVSPost2010Prop37
 90
       50
102
RTVSPost2010PropOp37
 70
     0
102
RTVSPost2010Prop38
140
0.0
102
RTVSPost2010PropOp38
 70
     0
102
RTVSPost2010Prop39
140
1.0
102
RTVSPost2010PropOp39
 70
     0
102
RTVSPost2010Prop40
 90
        0
102
RTVSPost2010PropOp40
 70
     0
102
RTVSPost2010Prop41ColorIndex
 90
       18
102
RTVSPost2010Prop41ColorRGB
 90
        0
102
RTVSPost2010PropOp41
 70
     0
102
RTVSPost2010Prop42
 90
       50
102
RTVSPost2010PropOp42
 70
     0
102
RTVSPost2010Prop43
 90
        3
102
RTVSPost2010PropOp43
 70
     0
102
RTVSPost2010Prop44ColorIndex
 90
        5
102
RTVSPost2010Prop44ColorRGB
 90
      255
102
RTVSPost2010PropOp44
 70
     0
102
RTVSPost2010Prop45
280
     0
102
RTVSPost2010PropOp45
 70
     0
102
RTVSPost2010Prop46
 90
       50
102
RTVSPost2010PropOp46
 70
     0
102
RTVSPost2010Prop47
 90
       50
102
RTVSPost2010PropOp47
 70
     0
102
RTVSPost2010Prop48
 90
       50
102
RTVSPost2010PropOp48
 70
     0
102
RTVSPost2010Prop49
280
     0
102
RTVSPost2010PropOp49
 70
     0
102
RTVSPost2010Prop50
 90
       50
102
RTVSPost2010PropOp50
 70
     0
102
RTVSPost2010Prop51ColorIndex
 90
      256
102
RTVSPost2010Prop51ColorRGB
 90
-16777216
102
RTVSPost2010PropOp51
 70
     0
102
RTVSPost2010Prop52
140
1.0
102
RTVSPost2010PropOp52
 70
     0
102
RTVSPost2010Prop53
 90
        2
102
RTVSPost2010PropOp53
 70
     0
102
RTVSPost2010Prop54
  1
strokes_ogs.tif
102
RTVSPost2010PropOp54
 70
     0
102
RTVSPost2010Prop55
280
     0
102
RTVSPost2010PropOp55
 70
     0
102
RTVSPost2010Prop56
140
1.0
102
RTVSPost2010PropOp56
 70
     0
102
RTVSPost2010Prop57
140
1.0
102
RTVSPost2010PropOp57
 70
     0
102
RTVSPropertyOp0
 70
     0
102
RTVSPropertyOp1
 70
     0
102
RTVSPropertyOp2
 70
     0
102
RTVSPropertyOp3
 70
     0
102
RTVSPropertyOp4
 70
     0
102
RTVSPropertyOp5
 70
     0
102
RTVSPropertyOp6
 70
     0
102
RTVSPropertyOp7
 70
     0
102
RTVSPropertyOp8
 70
     0
102
RTVSPropertyOp9
 70
     0
102
RTVSPropertyOp10
 70
     0
102
RTVSPropertyOp11
 70
     0
102
RTVSPropertyOp12
 70
     0
102
RTVSPropertyOp13
 70
     0
102
RTVSPropertyOp14
 70
     2
102
RTVSPropertyOp15
 70
     0
102
RTVSPropertyOp16
 70
     0
102
RTVSPropertyOp17
 70
     0
102
RTVSPropertyOp18
 70
     0
102
RTVSPropertyOp19
 70
     0
102
RTVSPropertyOp20
 70
     0
102
RTVSPropertyOp21
 70
     0
102
RTVSPropertyOp22
 70
     0
102
RTVSPropertyOp23
 70
     0
102
RTVSPropertyOp24
 70
     0
102
RTVSPropertyOp25
 70
     0
102
RTVSPropertyOp26
 70
     0
102
RTVSPropertyOp27
 70
     0
102
RTVSPropertyOp28
 70
     0
102
RTVSPropertyOp29
 70
     0
102
RTVSPropertyOp30
 70
     0
102
RTVSPropertyOp31
 70
     0
102
RTVSPropertyOp32
 70
     0
102
RTVSPropertyOp33
 70
     0
102
RTVSPropertyOp34
 70
     0
102
RTVSPropertyOp35
 70
     0
102
RTVSPropertyOp36
 70
     0
102
RTVSPropertyOp37
 70
     0
102
RTVSPropertyOp38
 70
     0
102
RTVSPropertyOp39
 70
     0
102
RTVSPropertyOp40
 70
     0
102
RTVSPropertyOp41
 70
     0
102
RTVSPropertyOp42
 70
     0
102
RTVSPropertyOp43
 70
     0
102
RTVSPropertyOp44
 70
     0
102
RTVSPropertyOp45
 70
     0
102
RTVSPropertyOp46
 70
     0
102
RTVSPropertyOp47
 70
     0
102
RTVSPropertyOp48
 70
     0
102
RTVSPropertyOp49
 70
     0
102
RTVSPropertyOp50
 70
     0
102
RTVSPropertyOp51
 70
     0
102
RTVSPropertyOp52
 70
     0
102
RTVSPropertyOp53
 70
     0
102
RTVSPropertyOp54
 70
     0
102
RTVSPropertyOp55
 70
     0
102
RTVSPropertyOp56
 70
     0
102
RTVSPropertyOp57
 70
     0
102
RTVSPropertyOp58
 70
     1
102
RTVSPropertyOp59
 70
     1
102
RTVSPropertyOp60
 70
     1
102
RTVSPropertyOp61
 70
     1
102
RTVSPropertyOp62
 70
     1
  0
XRECORD
  5
8DAF
102
{ACAD_REACTORS
330
8DAE
102
}
330
8DAE
100
AcDbXrecord
280
     1
102
RTVSPost2010Prop28
280
     0
102
RTVSPost2010PropOp28
 70
     1
102
RTVSPost2010Prop29
280
     1
102
RTVSPost2010PropOp29
 70
     1
102
RTVSPost2010Prop30
280
     1
102
RTVSPost2010PropOp30
 70
     1
102
RTVSPost2010Prop31
280
     0
102
RTVSPost2010PropOp31
 70
     1
102
RTVSPost2010Prop32
280
     0
102
RTVSPost2010PropOp32
 70
     1
102
RTVSPost2010Prop33
280
     0
102
RTVSPost2010PropOp33
 70
     1
102
RTVSPost2010Prop34
280
     0
102
RTVSPost2010PropOp34
 70
     1
102
RTVSPost2010Prop35
280
     0
102
RTVSPost2010PropOp35
 70
     1
102
RTVSPost2010Prop36
280
     0
102
RTVSPost2010PropOp36
 70
     1
102
RTVSPost2010Prop37
 90
       50
102
RTVSPost2010PropOp37
 70
     1
102
RTVSPost2010Prop38
140
0.0
102
RTVSPost2010PropOp38
 70
     1
102
RTVSPost2010Prop39
140
1.0
102
RTVSPost2010PropOp39
 70
     1
102
RTVSPost2010Prop40
 90
        0
102
RTVSPost2010PropOp40
 70
     1
102
RTVSPost2010Prop41ColorIndex
 90
       18
102
RTVSPost2010Prop41ColorRGB
 90
        0
102
RTVSPost2010PropOp41
 70
     1
102
RTVSPost2010Prop42
 90
       50
102
RTVSPost2010PropOp42
 70
     1
102
RTVSPost2010Prop43
 90
        3
102
RTVSPost2010PropOp43
 70
     1
102
RTVSPost2010Prop44ColorIndex
 90
        5
102
RTVSPost2010Prop44ColorRGB
 90
      255
102
RTVSPost2010PropOp44
 70
     1
102
RTVSPost2010Prop45
280
     0
102
RTVSPost2010PropOp45
 70
     1
102
RTVSPost2010Prop46
 90
       50
102
RTVSPost2010PropOp46
 70
     1
102
RTVSPost2010Prop47
 90
       50
102
RTVSPost2010PropOp47
 70
     1
102
RTVSPost2010Prop48
 90
       50
102
RTVSPost2010PropOp48
 70
     1
102
RTVSPost2010Prop49
280
     0
102
RTVSPost2010PropOp49
 70
     1
102
RTVSPost2010Prop50
 90
       50
102
RTVSPost2010PropOp50
 70
     1
102
RTVSPost2010Prop51ColorIndex
 90
      256
102
RTVSPost2010Prop51ColorRGB
 90
-16777216
102
RTVSPost2010PropOp51
 70
     0
102
RTVSPost2010Prop52
140
1.0
102
RTVSPost2010PropOp52
 70
     0
102
RTVSPost2010Prop53
 90
        2
102
RTVSPost2010PropOp53
 70
     1
102
RTVSPost2010Prop54
  1
strokes_ogs.tif
102
RTVSPost2010PropOp54
 70
     1
102
RTVSPost2010Prop55
280
     0
102
RTVSPost2010PropOp55
 70
     1
102
RTVSPost2010Prop56
140
1.0
102
RTVSPost2010PropOp56
 70
     1
102
RTVSPost2010Prop57
140
1.0
102
RTVSPost2010PropOp57
 70
     1
102
RTVSPropertyOp0
 70
     1
102
RTVSPropertyOp1
 70
     1
102
RTVSPropertyOp2
 70
     1
102
RTVSPropertyOp3
 70
     1
102
RTVSPropertyOp4
 70
     1
102
RTVSPropertyOp5
 70
     1
102
RTVSPropertyOp6
 70
     1
102
RTVSPropertyOp7
 70
     1
102
RTVSPropertyOp8
 70
     1
102
RTVSPropertyOp9
 70
     1
102
RTVSPropertyOp10
 70
     1
102
RTVSPropertyOp11
 70
     1
102
RTVSPropertyOp12
 70
     1
102
RTVSPropertyOp13
 70
     1
102
RTVSPropertyOp14
 70
     1
102
RTVSPropertyOp15
 70
     1
102
RTVSPropertyOp16
 70
     1
102
RTVSPropertyOp17
 70
     1
102
RTVSPropertyOp18
 70
     1
102
RTVSPropertyOp19
 70
     1
102
RTVSPropertyOp20
 70
     1
102
RTVSPropertyOp21
 70
     1
102
RTVSPropertyOp22
 70
     1
102
RTVSPropertyOp23
 70
     1
102
RTVSPropertyOp24
 70
     1
102
RTVSPropertyOp25
 70
     1
102
RTVSPropertyOp26
 70
     1
102
RTVSPropertyOp27
 70
     1
102
RTVSPropertyOp28
 70
     1
102
RTVSPropertyOp29
 70
     1
102
RTVSPropertyOp30
 70
     1
102
RTVSPropertyOp31
 70
     1
102
RTVSPropertyOp32
 70
     1
102
RTVSPropertyOp33
 70
     1
102
RTVSPropertyOp34
 70
     1
102
RTVSPropertyOp35
 70
     1
102
RTVSPropertyOp36
 70
     1
102
RTVSPropertyOp37
 70
     1
102
RTVSPropertyOp38
 70
     1
102
RTVSPropertyOp39
 70
     1
102
RTVSPropertyOp40
 70
     1
102
RTVSPropertyOp41
 70
     1
102
RTVSPropertyOp42
 70
     1
102
RTVSPropertyOp43
 70
     1
102
RTVSPropertyOp44
 70
     1
102
RTVSPropertyOp45
 70
     1
102
RTVSPropertyOp46
 70
     1
102
RTVSPropertyOp47
 70
     1
102
RTVSPropertyOp48
 70
     1
102
RTVSPropertyOp49
 70
     1
102
RTVSPropertyOp50
 70
     1
102
RTVSPropertyOp51
 70
     0
102
RTVSPropertyOp52
 70
     0
102
RTVSPropertyOp53
 70
     1
102
RTVSPropertyOp54
 70
     1
102
RTVSPropertyOp55
 70
     1
102
RTVSPropertyOp56
 70
     1
102
RTVSPropertyOp57
 70
     1
102
RTVSPropertyOp58
 70
     1
102
RTVSPropertyOp59
 70
     1
102
RTVSPropertyOp60
 70
     1
102
RTVSPropertyOp61
 70
     1
102
RTVSPropertyOp62
 70
     1
  0
XRECORD
  5
8D93
102
{ACAD_REACTORS
330
8D92
102
}
330
8D92
100
AcDbXrecord
280
     1
102
RTVSPost2010Prop28
280
     0
102
RTVSPost2010PropOp28
 70
     1
102
RTVSPost2010Prop29
280
     1
102
RTVSPost2010PropOp29
 70
     1
102
RTVSPost2010Prop30
280
     1
102
RTVSPost2010PropOp30
 70
     1
102
RTVSPost2010Prop31
280
     0
102
RTVSPost2010PropOp31
 70
     1
102
RTVSPost2010Prop32
280
     0
102
RTVSPost2010PropOp32
 70
     1
102
RTVSPost2010Prop33
280
     0
102
RTVSPost2010PropOp33
 70
     1
102
RTVSPost2010Prop34
280
     0
102
RTVSPost2010PropOp34
 70
     1
102
RTVSPost2010Prop35
280
     0
102
RTVSPost2010PropOp35
 70
     1
102
RTVSPost2010Prop36
280
     0
102
RTVSPost2010PropOp36
 70
     1
102
RTVSPost2010Prop37
 90
       50
102
RTVSPost2010PropOp37
 70
     1
102
RTVSPost2010Prop38
140
0.0
102
RTVSPost2010PropOp38
 70
     1
102
RTVSPost2010Prop39
140
1.0
102
RTVSPost2010PropOp39
 70
     1
102
RTVSPost2010Prop40
 90
        0
102
RTVSPost2010PropOp40
 70
     1
102
RTVSPost2010Prop41ColorIndex
 90
       18
102
RTVSPost2010Prop41ColorRGB
 90
        0
102
RTVSPost2010PropOp41
 70
     1
102
RTVSPost2010Prop42
 90
       50
102
RTVSPost2010PropOp42
 70
     1
102
RTVSPost2010Prop43
 90
        3
102
RTVSPost2010PropOp43
 70
     1
102
RTVSPost2010Prop44ColorIndex
 90
        5
102
RTVSPost2010Prop44ColorRGB
 90
      255
102
RTVSPost2010PropOp44
 70
     1
102
RTVSPost2010Prop45
280
     0
102
RTVSPost2010PropOp45
 70
     1
102
RTVSPost2010Prop46
 90
       50
102
RTVSPost2010PropOp46
 70
     1
102
RTVSPost2010Prop47
 90
       50
102
RTVSPost2010PropOp47
 70
     1
102
RTVSPost2010Prop48
 90
       50
102
RTVSPost2010PropOp48
 70
     1
102
RTVSPost2010Prop49
280
     0
102
RTVSPost2010PropOp49
 70
     1
102
RTVSPost2010Prop50
 90
       50
102
RTVSPost2010PropOp50
 70
     1
102
RTVSPost2010Prop51ColorIndex
 90
      256
102
RTVSPost2010Prop51ColorRGB
 90
-16777216
102
RTVSPost2010PropOp51
 70
     0
102
RTVSPost2010Prop52
140
1.0
102
RTVSPost2010PropOp52
 70
     0
102
RTVSPost2010Prop53
 90
        2
102
RTVSPost2010PropOp53
 70
     1
102
RTVSPost2010Prop54
  1
strokes_ogs.tif
102
RTVSPost2010PropOp54
 70
     1
102
RTVSPost2010Prop55
280
     0
102
RTVSPost2010PropOp55
 70
     1
102
RTVSPost2010Prop56
140
1.0
102
RTVSPost2010PropOp56
 70
     1
102
RTVSPost2010Prop57
140
1.0
102
RTVSPost2010PropOp57
 70
     1
102
RTVSPropertyOp0
 70
     1
102
RTVSPropertyOp1
 70
     1
102
RTVSPropertyOp2
 70
     1
102
RTVSPropertyOp3
 70
     1
102
RTVSPropertyOp4
 70
     1
102
RTVSPropertyOp5
 70
     1
102
RTVSPropertyOp6
 70
     1
102
RTVSPropertyOp7
 70
     1
102
RTVSPropertyOp8
 70
     1
102
RTVSPropertyOp9
 70
     1
102
RTVSPropertyOp10
 70
     1
102
RTVSPropertyOp11
 70
     1
102
RTVSPropertyOp12
 70
     1
102
RTVSPropertyOp13
 70
     1
102
RTVSPropertyOp14
 70
     1
102
RTVSPropertyOp15
 70
     1
102
RTVSPropertyOp16
 70
     1
102
RTVSPropertyOp17
 70
     1
102
RTVSPropertyOp18
 70
     1
102
RTVSPropertyOp19
 70
     1
102
RTVSPropertyOp20
 70
     1
102
RTVSPropertyOp21
 70
     1
102
RTVSPropertyOp22
 70
     1
102
RTVSPropertyOp23
 70
     1
102
RTVSPropertyOp24
 70
     1
102
RTVSPropertyOp25
 70
     1
102
RTVSPropertyOp26
 70
     1
102
RTVSPropertyOp27
 70
     1
102
RTVSPropertyOp28
 70
     1
102
RTVSPropertyOp29
 70
     1
102
RTVSPropertyOp30
 70
     1
102
RTVSPropertyOp31
 70
     1
102
RTVSPropertyOp32
 70
     1
102
RTVSPropertyOp33
 70
     1
102
RTVSPropertyOp34
 70
     1
102
RTVSPropertyOp35
 70
     1
102
RTVSPropertyOp36
 70
     1
102
RTVSPropertyOp37
 70
     1
102
RTVSPropertyOp38
 70
     1
102
RTVSPropertyOp39
 70
     1
102
RTVSPropertyOp40
 70
     1
102
RTVSPropertyOp41
 70
     1
102
RTVSPropertyOp42
 70
     1
102
RTVSPropertyOp43
 70
     1
102
RTVSPropertyOp44
 70
     1
102
RTVSPropertyOp45
 70
     1
102
RTVSPropertyOp46
 70
     1
102
RTVSPropertyOp47
 70
     1
102
RTVSPropertyOp48
 70
     1
102
RTVSPropertyOp49
 70
     1
102
RTVSPropertyOp50
 70
     1
102
RTVSPropertyOp51
 70
     0
102
RTVSPropertyOp52
 70
     0
102
RTVSPropertyOp53
 70
     1
102
RTVSPropertyOp54
 70
     1
102
RTVSPropertyOp55
 70
     1
102
RTVSPropertyOp56
 70
     1
102
RTVSPropertyOp57
 70
     1
102
RTVSPropertyOp58
 70
     1
102
RTVSPropertyOp59
 70
     1
102
RTVSPropertyOp60
 70
     1
102
RTVSPropertyOp61
 70
     1
102
RTVSPropertyOp62
 70
     1
  0
XRECORD
  5
8D95
102
{ACAD_REACTORS
330
8D94
102
}
330
8D94
100
AcDbXrecord
280
     1
102
RTVSPost2010Prop28
280
     0
102
RTVSPost2010PropOp28
 70
     1
102
RTVSPost2010Prop29
280
     1
102
RTVSPost2010PropOp29
 70
     1
102
RTVSPost2010Prop30
280
     1
102
RTVSPost2010PropOp30
 70
     1
102
RTVSPost2010Prop31
280
     0
102
RTVSPost2010PropOp31
 70
     1
102
RTVSPost2010Prop32
280
     0
102
RTVSPost2010PropOp32
 70
     1
102
RTVSPost2010Prop33
280
     0
102
RTVSPost2010PropOp33
 70
     1
102
RTVSPost2010Prop34
280
     0
102
RTVSPost2010PropOp34
 70
     1
102
RTVSPost2010Prop35
280
     0
102
RTVSPost2010PropOp35
 70
     1
102
RTVSPost2010Prop36
280
     0
102
RTVSPost2010PropOp36
 70
     1
102
RTVSPost2010Prop37
 90
       50
102
RTVSPost2010PropOp37
 70
     1
102
RTVSPost2010Prop38
140
0.0
102
RTVSPost2010PropOp38
 70
     1
102
RTVSPost2010Prop39
140
1.0
102
RTVSPost2010PropOp39
 70
     1
102
RTVSPost2010Prop40
 90
        0
102
RTVSPost2010PropOp40
 70
     1
102
RTVSPost2010Prop41ColorIndex
 90
       18
102
RTVSPost2010Prop41ColorRGB
 90
        0
102
RTVSPost2010PropOp41
 70
     1
102
RTVSPost2010Prop42
 90
       50
102
RTVSPost2010PropOp42
 70
     1
102
RTVSPost2010Prop43
 90
        3
102
RTVSPost2010PropOp43
 70
     1
102
RTVSPost2010Prop44ColorIndex
 90
        5
102
RTVSPost2010Prop44ColorRGB
 90
      255
102
RTVSPost2010PropOp44
 70
     1
102
RTVSPost2010Prop45
280
     0
102
RTVSPost2010PropOp45
 70
     1
102
RTVSPost2010Prop46
 90
       50
102
RTVSPost2010PropOp46
 70
     1
102
RTVSPost2010Prop47
 90
       50
102
RTVSPost2010PropOp47
 70
     1
102
RTVSPost2010Prop48
 90
       50
102
RTVSPost2010PropOp48
 70
     1
102
RTVSPost2010Prop49
280
     0
102
RTVSPost2010PropOp49
 70
     1
102
RTVSPost2010Prop50
 90
       50
102
RTVSPost2010PropOp50
 70
     1
102
RTVSPost2010Prop51ColorIndex
 90
      256
102
RTVSPost2010Prop51ColorRGB
 90
-16777216
102
RTVSPost2010PropOp51
 70
     0
102
RTVSPost2010Prop52
140
1.0
102
RTVSPost2010PropOp52
 70
     0
102
RTVSPost2010Prop53
 90
        2
102
RTVSPost2010PropOp53
 70
     1
102
RTVSPost2010Prop54
  1
strokes_ogs.tif
102
RTVSPost2010PropOp54
 70
     1
102
RTVSPost2010Prop55
280
     0
102
RTVSPost2010PropOp55
 70
     1
102
RTVSPost2010Prop56
140
1.0
102
RTVSPost2010PropOp56
 70
     1
102
RTVSPost2010Prop57
140
1.0
102
RTVSPost2010PropOp57
 70
     1
102
RTVSPropertyOp0
 70
     1
102
RTVSPropertyOp1
 70
     1
102
RTVSPropertyOp2
 70
     1
102
RTVSPropertyOp3
 70
     1
102
RTVSPropertyOp4
 70
     1
102
RTVSPropertyOp5
 70
     1
102
RTVSPropertyOp6
 70
     1
102
RTVSPropertyOp7
 70
     1
102
RTVSPropertyOp8
 70
     1
102
RTVSPropertyOp9
 70
     1
102
RTVSPropertyOp10
 70
     1
102
RTVSPropertyOp11
 70
     1
102
RTVSPropertyOp12
 70
     1
102
RTVSPropertyOp13
 70
     1
102
RTVSPropertyOp14
 70
     1
102
RTVSPropertyOp15
 70
     1
102
RTVSPropertyOp16
 70
     1
102
RTVSPropertyOp17
 70
     1
102
RTVSPropertyOp18
 70
     1
102
RTVSPropertyOp19
 70
     1
102
RTVSPropertyOp20
 70
     1
102
RTVSPropertyOp21
 70
     1
102
RTVSPropertyOp22
 70
     1
102
RTVSPropertyOp23
 70
     1
102
RTVSPropertyOp24
 70
     1
102
RTVSPropertyOp25
 70
     1
102
RTVSPropertyOp26
 70
     1
102
RTVSPropertyOp27
 70
     1
102
RTVSPropertyOp28
 70
     1
102
RTVSPropertyOp29
 70
     1
102
RTVSPropertyOp30
 70
     1
102
RTVSPropertyOp31
 70
     1
102
RTVSPropertyOp32
 70
     1
102
RTVSPropertyOp33
 70
     1
102
RTVSPropertyOp34
 70
     1
102
RTVSPropertyOp35
 70
     1
102
RTVSPropertyOp36
 70
     1
102
RTVSPropertyOp37
 70
     1
102
RTVSPropertyOp38
 70
     1
102
RTVSPropertyOp39
 70
     1
102
RTVSPropertyOp40
 70
     1
102
RTVSPropertyOp41
 70
     1
102
RTVSPropertyOp42
 70
     1
102
RTVSPropertyOp43
 70
     1
102
RTVSPropertyOp44
 70
     1
102
RTVSPropertyOp45
 70
     1
102
RTVSPropertyOp46
 70
     1
102
RTVSPropertyOp47
 70
     1
102
RTVSPropertyOp48
 70
     1
102
RTVSPropertyOp49
 70
     1
102
RTVSPropertyOp50
 70
     1
102
RTVSPropertyOp51
 70
     0
102
RTVSPropertyOp52
 70
     0
102
RTVSPropertyOp53
 70
     1
102
RTVSPropertyOp54
 70
     1
102
RTVSPropertyOp55
 70
     1
102
RTVSPropertyOp56
 70
     1
102
RTVSPropertyOp57
 70
     1
102
RTVSPropertyOp58
 70
     1
102
RTVSPropertyOp59
 70
     1
102
RTVSPropertyOp60
 70
     1
102
RTVSPropertyOp61
 70
     1
102
RTVSPropertyOp62
 70
     1
  0
XRECORD
  5
8D97
102
{ACAD_REACTORS
330
8D96
102
}
330
8D96
100
AcDbXrecord
280
     1
102
RTVSPost2010Prop28
280
     0
102
RTVSPost2010PropOp28
 70
     1
102
RTVSPost2010Prop29
280
     1
102
RTVSPost2010PropOp29
 70
     1
102
RTVSPost2010Prop30
280
     1
102
RTVSPost2010PropOp30
 70
     1
102
RTVSPost2010Prop31
280
     0
102
RTVSPost2010PropOp31
 70
     1
102
RTVSPost2010Prop32
280
     0
102
RTVSPost2010PropOp32
 70
     1
102
RTVSPost2010Prop33
280
     0
102
RTVSPost2010PropOp33
 70
     1
102
RTVSPost2010Prop34
280
     0
102
RTVSPost2010PropOp34
 70
     1
102
RTVSPost2010Prop35
280
     0
102
RTVSPost2010PropOp35
 70
     1
102
RTVSPost2010Prop36
280
     0
102
RTVSPost2010PropOp36
 70
     1
102
RTVSPost2010Prop37
 90
       50
102
RTVSPost2010PropOp37
 70
     1
102
RTVSPost2010Prop38
140
0.0
102
RTVSPost2010PropOp38
 70
     1
102
RTVSPost2010Prop39
140
1.0
102
RTVSPost2010PropOp39
 70
     1
102
RTVSPost2010Prop40
 90
        0
102
RTVSPost2010PropOp40
 70
     1
102
RTVSPost2010Prop41ColorIndex
 90
       18
102
RTVSPost2010Prop41ColorRGB
 90
        0
102
RTVSPost2010PropOp41
 70
     1
102
RTVSPost2010Prop42
 90
       50
102
RTVSPost2010PropOp42
 70
     1
102
RTVSPost2010Prop43
 90
        3
102
RTVSPost2010PropOp43
 70
     1
102
RTVSPost2010Prop44ColorIndex
 90
        5
102
RTVSPost2010Prop44ColorRGB
 90
      255
102
RTVSPost2010PropOp44
 70
     1
102
RTVSPost2010Prop45
280
     0
102
RTVSPost2010PropOp45
 70
     1
102
RTVSPost2010Prop46
 90
       50
102
RTVSPost2010PropOp46
 70
     1
102
RTVSPost2010Prop47
 90
       50
102
RTVSPost2010PropOp47
 70
     1
102
RTVSPost2010Prop48
 90
       50
102
RTVSPost2010PropOp48
 70
     1
102
RTVSPost2010Prop49
280
     0
102
RTVSPost2010PropOp49
 70
     1
102
RTVSPost2010Prop50
 90
       50
102
RTVSPost2010PropOp50
 70
     1
102
RTVSPost2010Prop51ColorIndex
 90
      256
102
RTVSPost2010Prop51ColorRGB
 90
-16777216
102
RTVSPost2010PropOp51
 70
     0
102
RTVSPost2010Prop52
140
1.0
102
RTVSPost2010PropOp52
 70
     0
102
RTVSPost2010Prop53
 90
        2
102
RTVSPost2010PropOp53
 70
     1
102
RTVSPost2010Prop54
  1
strokes_ogs.tif
102
RTVSPost2010PropOp54
 70
     1
102
RTVSPost2010Prop55
280
     0
102
RTVSPost2010PropOp55
 70
     1
102
RTVSPost2010Prop56
140
1.0
102
RTVSPost2010PropOp56
 70
     1
102
RTVSPost2010Prop57
140
1.0
102
RTVSPost2010PropOp57
 70
     1
102
RTVSPropertyOp0
 70
     1
102
RTVSPropertyOp1
 70
     1
102
RTVSPropertyOp2
 70
     1
102
RTVSPropertyOp3
 70
     1
102
RTVSPropertyOp4
 70
     1
102
RTVSPropertyOp5
 70
     1
102
RTVSPropertyOp6
 70
     1
102
RTVSPropertyOp7
 70
     1
102
RTVSPropertyOp8
 70
     1
102
RTVSPropertyOp9
 70
     1
102
RTVSPropertyOp10
 70
     1
102
RTVSPropertyOp11
 70
     1
102
RTVSPropertyOp12
 70
     1
102
RTVSPropertyOp13
 70
     1
102
RTVSPropertyOp14
 70
     1
102
RTVSPropertyOp15
 70
     1
102
RTVSPropertyOp16
 70
     1
102
RTVSPropertyOp17
 70
     1
102
RTVSPropertyOp18
 70
     1
102
RTVSPropertyOp19
 70
     1
102
RTVSPropertyOp20
 70
     1
102
RTVSPropertyOp21
 70
     1
102
RTVSPropertyOp22
 70
     1
102
RTVSPropertyOp23
 70
     1
102
RTVSPropertyOp24
 70
     1
102
RTVSPropertyOp25
 70
     1
102
RTVSPropertyOp26
 70
     1
102
RTVSPropertyOp27
 70
     1
102
RTVSPropertyOp28
 70
     1
102
RTVSPropertyOp29
 70
     1
102
RTVSPropertyOp30
 70
     1
102
RTVSPropertyOp31
 70
     1
102
RTVSPropertyOp32
 70
     1
102
RTVSPropertyOp33
 70
     1
102
RTVSPropertyOp34
 70
     1
102
RTVSPropertyOp35
 70
     1
102
RTVSPropertyOp36
 70
     1
102
RTVSPropertyOp37
 70
     1
102
RTVSPropertyOp38
 70
     1
102
RTVSPropertyOp39
 70
     1
102
RTVSPropertyOp40
 70
     1
102
RTVSPropertyOp41
 70
     1
102
RTVSPropertyOp42
 70
     1
102
RTVSPropertyOp43
 70
     1
102
RTVSPropertyOp44
 70
     1
102
RTVSPropertyOp45
 70
     1
102
RTVSPropertyOp46
 70
     1
102
RTVSPropertyOp47
 70
     1
102
RTVSPropertyOp48
 70
     1
102
RTVSPropertyOp49
 70
     1
102
RTVSPropertyOp50
 70
     1
102
RTVSPropertyOp51
 70
     0
102
RTVSPropertyOp52
 70
     0
102
RTVSPropertyOp53
 70
     1
102
RTVSPropertyOp54
 70
     1
102
RTVSPropertyOp55
 70
     1
102
RTVSPropertyOp56
 70
     1
102
RTVSPropertyOp57
 70
     1
102
RTVSPropertyOp58
 70
     1
102
RTVSPropertyOp59
 70
     1
102
RTVSPropertyOp60
 70
     1
102
RTVSPropertyOp61
 70
     1
102
RTVSPropertyOp62
 70
     1
  0
XRECORD
  5
8D99
102
{ACAD_REACTORS
330
8D98
102
}
330
8D98
100
AcDbXrecord
280
     1
102
RTVSPost2010Prop28
280
     0
102
RTVSPost2010PropOp28
 70
     1
102
RTVSPost2010Prop29
280
     1
102
RTVSPost2010PropOp29
 70
     1
102
RTVSPost2010Prop30
280
     1
102
RTVSPost2010PropOp30
 70
     1
102
RTVSPost2010Prop31
280
     0
102
RTVSPost2010PropOp31
 70
     1
102
RTVSPost2010Prop32
280
     0
102
RTVSPost2010PropOp32
 70
     1
102
RTVSPost2010Prop33
280
     0
102
RTVSPost2010PropOp33
 70
     1
102
RTVSPost2010Prop34
280
     0
102
RTVSPost2010PropOp34
 70
     1
102
RTVSPost2010Prop35
280
     0
102
RTVSPost2010PropOp35
 70
     1
102
RTVSPost2010Prop36
280
     0
102
RTVSPost2010PropOp36
 70
     1
102
RTVSPost2010Prop37
 90
       50
102
RTVSPost2010PropOp37
 70
     1
102
RTVSPost2010Prop38
140
0.0
102
RTVSPost2010PropOp38
 70
     1
102
RTVSPost2010Prop39
140
1.0
102
RTVSPost2010PropOp39
 70
     1
102
RTVSPost2010Prop40
 90
        0
102
RTVSPost2010PropOp40
 70
     1
102
RTVSPost2010Prop41ColorIndex
 90
       18
102
RTVSPost2010Prop41ColorRGB
 90
        0
102
RTVSPost2010PropOp41
 70
     1
102
RTVSPost2010Prop42
 90
       50
102
RTVSPost2010PropOp42
 70
     1
102
RTVSPost2010Prop43
 90
        3
102
RTVSPost2010PropOp43
 70
     1
102
RTVSPost2010Prop44ColorIndex
 90
        5
102
RTVSPost2010Prop44ColorRGB
 90
      255
102
RTVSPost2010PropOp44
 70
     1
102
RTVSPost2010Prop45
280
     0
102
RTVSPost2010PropOp45
 70
     1
102
RTVSPost2010Prop46
 90
       50
102
RTVSPost2010PropOp46
 70
     1
102
RTVSPost2010Prop47
 90
       50
102
RTVSPost2010PropOp47
 70
     1
102
RTVSPost2010Prop48
 90
       50
102
RTVSPost2010PropOp48
 70
     1
102
RTVSPost2010Prop49
280
     0
102
RTVSPost2010PropOp49
 70
     1
102
RTVSPost2010Prop50
 90
       50
102
RTVSPost2010PropOp50
 70
     1
102
RTVSPost2010Prop51ColorIndex
 90
      256
102
RTVSPost2010Prop51ColorRGB
 90
-16777216
102
RTVSPost2010PropOp51
 70
     0
102
RTVSPost2010Prop52
140
1.0
102
RTVSPost2010PropOp52
 70
     0
102
RTVSPost2010Prop53
 90
        2
102
RTVSPost2010PropOp53
 70
     1
102
RTVSPost2010Prop54
  1
strokes_ogs.tif
102
RTVSPost2010PropOp54
 70
     1
102
RTVSPost2010Prop55
280
     0
102
RTVSPost2010PropOp55
 70
     1
102
RTVSPost2010Prop56
140
1.0
102
RTVSPost2010PropOp56
 70
     1
102
RTVSPost2010Prop57
140
1.0
102
RTVSPost2010PropOp57
 70
     1
102
RTVSPropertyOp0
 70
     1
102
RTVSPropertyOp1
 70
     1
102
RTVSPropertyOp2
 70
     1
102
RTVSPropertyOp3
 70
     1
102
RTVSPropertyOp4
 70
     1
102
RTVSPropertyOp5
 70
     1
102
RTVSPropertyOp6
 70
     1
102
RTVSPropertyOp7
 70
     1
102
RTVSPropertyOp8
 70
     1
102
RTVSPropertyOp9
 70
     1
102
RTVSPropertyOp10
 70
     1
102
RTVSPropertyOp11
 70
     1
102
RTVSPropertyOp12
 70
     1
102
RTVSPropertyOp13
 70
     1
102
RTVSPropertyOp14
 70
     1
102
RTVSPropertyOp15
 70
     1
102
RTVSPropertyOp16
 70
     1
102
RTVSPropertyOp17
 70
     1
102
RTVSPropertyOp18
 70
     1
102
RTVSPropertyOp19
 70
     1
102
RTVSPropertyOp20
 70
     1
102
RTVSPropertyOp21
 70
     1
102
RTVSPropertyOp22
 70
     1
102
RTVSPropertyOp23
 70
     1
102
RTVSPropertyOp24
 70
     1
102
RTVSPropertyOp25
 70
     1
102
RTVSPropertyOp26
 70
     1
102
RTVSPropertyOp27
 70
     1
102
RTVSPropertyOp28
 70
     1
102
RTVSPropertyOp29
 70
     1
102
RTVSPropertyOp30
 70
     1
102
RTVSPropertyOp31
 70
     1
102
RTVSPropertyOp32
 70
     1
102
RTVSPropertyOp33
 70
     1
102
RTVSPropertyOp34
 70
     1
102
RTVSPropertyOp35
 70
     1
102
RTVSPropertyOp36
 70
     1
102
RTVSPropertyOp37
 70
     1
102
RTVSPropertyOp38
 70
     1
102
RTVSPropertyOp39
 70
     1
102
RTVSPropertyOp40
 70
     1
102
RTVSPropertyOp41
 70
     1
102
RTVSPropertyOp42
 70
     1
102
RTVSPropertyOp43
 70
     1
102
RTVSPropertyOp44
 70
     1
102
RTVSPropertyOp45
 70
     1
102
RTVSPropertyOp46
 70
     1
102
RTVSPropertyOp47
 70
     1
102
RTVSPropertyOp48
 70
     1
102
RTVSPropertyOp49
 70
     1
102
RTVSPropertyOp50
 70
     1
102
RTVSPropertyOp51
 70
     0
102
RTVSPropertyOp52
 70
     0
102
RTVSPropertyOp53
 70
     1
102
RTVSPropertyOp54
 70
     1
102
RTVSPropertyOp55
 70
     1
102
RTVSPropertyOp56
 70
     1
102
RTVSPropertyOp57
 70
     1
102
RTVSPropertyOp58
 70
     1
102
RTVSPropertyOp59
 70
     1
102
RTVSPropertyOp60
 70
     1
102
RTVSPropertyOp61
 70
     1
102
RTVSPropertyOp62
 70
     1
  0
XRECORD
  5
8DA1
102
{ACAD_REACTORS
330
8DA0
102
}
330
8DA0
100
AcDbXrecord
280
     1
102
RTVSPost2010Prop28
280
     0
102
RTVSPost2010PropOp28
 70
     1
102
RTVSPost2010Prop29
280
     1
102
RTVSPost2010PropOp29
 70
     1
102
RTVSPost2010Prop30
280
     1
102
RTVSPost2010PropOp30
 70
     1
102
RTVSPost2010Prop31
280
     0
102
RTVSPost2010PropOp31
 70
     1
102
RTVSPost2010Prop32
280
     0
102
RTVSPost2010PropOp32
 70
     1
102
RTVSPost2010Prop33
280
     0
102
RTVSPost2010PropOp33
 70
     1
102
RTVSPost2010Prop34
280
     0
102
RTVSPost2010PropOp34
 70
     1
102
RTVSPost2010Prop35
280
     0
102
RTVSPost2010PropOp35
 70
     1
102
RTVSPost2010Prop36
280
     0
102
RTVSPost2010PropOp36
 70
     1
102
RTVSPost2010Prop37
 90
       50
102
RTVSPost2010PropOp37
 70
     1
102
RTVSPost2010Prop38
140
0.0
102
RTVSPost2010PropOp38
 70
     1
102
RTVSPost2010Prop39
140
1.0
102
RTVSPost2010PropOp39
 70
     1
102
RTVSPost2010Prop40
 90
        0
102
RTVSPost2010PropOp40
 70
     1
102
RTVSPost2010Prop41ColorIndex
 90
       18
102
RTVSPost2010Prop41ColorRGB
 90
        0
102
RTVSPost2010PropOp41
 70
     1
102
RTVSPost2010Prop42
 90
       50
102
RTVSPost2010PropOp42
 70
     1
102
RTVSPost2010Prop43
 90
        3
102
RTVSPost2010PropOp43
 70
     1
102
RTVSPost2010Prop44ColorIndex
 90
        5
102
RTVSPost2010Prop44ColorRGB
 90
      255
102
RTVSPost2010PropOp44
 70
     1
102
RTVSPost2010Prop45
280
     0
102
RTVSPost2010PropOp45
 70
     1
102
RTVSPost2010Prop46
 90
       50
102
RTVSPost2010PropOp46
 70
     1
102
RTVSPost2010Prop47
 90
       50
102
RTVSPost2010PropOp47
 70
     1
102
RTVSPost2010Prop48
 90
       50
102
RTVSPost2010PropOp48
 70
     1
102
RTVSPost2010Prop49
280
     0
102
RTVSPost2010PropOp49
 70
     1
102
RTVSPost2010Prop50
 90
       50
102
RTVSPost2010PropOp50
 70
     1
102
RTVSPost2010Prop51ColorIndex
 90
      256
102
RTVSPost2010Prop51ColorRGB
 90
-16777216
102
RTVSPost2010PropOp51
 70
     0
102
RTVSPost2010Prop52
140
1.0
102
RTVSPost2010PropOp52
 70
     0
102
RTVSPost2010Prop53
 90
        2
102
RTVSPost2010PropOp53
 70
     1
102
RTVSPost2010Prop54
  1
strokes_ogs.tif
102
RTVSPost2010PropOp54
 70
     1
102
RTVSPost2010Prop55
280
     0
102
RTVSPost2010PropOp55
 70
     1
102
RTVSPost2010Prop56
140
1.0
102
RTVSPost2010PropOp56
 70
     1
102
RTVSPost2010Prop57
140
1.0
102
RTVSPost2010PropOp57
 70
     1
102
RTVSPropertyOp0
 70
     1
102
RTVSPropertyOp1
 70
     1
102
RTVSPropertyOp2
 70
     1
102
RTVSPropertyOp3
 70
     1
102
RTVSPropertyOp4
 70
     1
102
RTVSPropertyOp5
 70
     1
102
RTVSPropertyOp6
 70
     1
102
RTVSPropertyOp7
 70
     1
102
RTVSPropertyOp8
 70
     1
102
RTVSPropertyOp9
 70
     1
102
RTVSPropertyOp10
 70
     1
102
RTVSPropertyOp11
 70
     1
102
RTVSPropertyOp12
 70
     1
102
RTVSPropertyOp13
 70
     1
102
RTVSPropertyOp14
 70
     1
102
RTVSPropertyOp15
 70
     1
102
RTVSPropertyOp16
 70
     1
102
RTVSPropertyOp17
 70
     1
102
RTVSPropertyOp18
 70
     1
102
RTVSPropertyOp19
 70
     1
102
RTVSPropertyOp20
 70
     1
102
RTVSPropertyOp21
 70
     1
102
RTVSPropertyOp22
 70
     1
102
RTVSPropertyOp23
 70
     1
102
RTVSPropertyOp24
 70
     1
102
RTVSPropertyOp25
 70
     1
102
RTVSPropertyOp26
 70
     1
102
RTVSPropertyOp27
 70
     1
102
RTVSPropertyOp28
 70
     1
102
RTVSPropertyOp29
 70
     1
102
RTVSPropertyOp30
 70
     1
102
RTVSPropertyOp31
 70
     1
102
RTVSPropertyOp32
 70
     1
102
RTVSPropertyOp33
 70
     1
102
RTVSPropertyOp34
 70
     1
102
RTVSPropertyOp35
 70
     1
102
RTVSPropertyOp36
 70
     1
102
RTVSPropertyOp37
 70
     1
102
RTVSPropertyOp38
 70
     1
102
RTVSPropertyOp39
 70
     1
102
RTVSPropertyOp40
 70
     1
102
RTVSPropertyOp41
 70
     1
102
RTVSPropertyOp42
 70
     1
102
RTVSPropertyOp43
 70
     1
102
RTVSPropertyOp44
 70
     1
102
RTVSPropertyOp45
 70
     1
102
RTVSPropertyOp46
 70
     1
102
RTVSPropertyOp47
 70
     1
102
RTVSPropertyOp48
 70
     1
102
RTVSPropertyOp49
 70
     1
102
RTVSPropertyOp50
 70
     1
102
RTVSPropertyOp51
 70
     0
102
RTVSPropertyOp52
 70
     0
102
RTVSPropertyOp53
 70
     1
102
RTVSPropertyOp54
 70
     1
102
RTVSPropertyOp55
 70
     1
102
RTVSPropertyOp56
 70
     1
102
RTVSPropertyOp57
 70
     1
102
RTVSPropertyOp58
 70
     1
102
RTVSPropertyOp59
 70
     1
102
RTVSPropertyOp60
 70
     1
102
RTVSPropertyOp61
 70
     1
102
RTVSPropertyOp62
 70
     1
  0
XRECORD
  5
8DBD
102
{ACAD_REACTORS
330
8DBC
102
}
330
8DBC
100
AcDbXrecord
280
     1
102
RTVSPost2010Prop28
280
     0
102
RTVSPost2010PropOp28
 70
     0
102
RTVSPost2010Prop29
280
     1
102
RTVSPost2010PropOp29
 70
     0
102
RTVSPost2010Prop30
280
     1
102
RTVSPost2010PropOp30
 70
     0
102
RTVSPost2010Prop31
280
     0
102
RTVSPost2010PropOp31
 70
     0
102
RTVSPost2010Prop32
280
     0
102
RTVSPost2010PropOp32
 70
     0
102
RTVSPost2010Prop33
280
     0
102
RTVSPost2010PropOp33
 70
     0
102
RTVSPost2010Prop34
280
     0
102
RTVSPost2010PropOp34
 70
     0
102
RTVSPost2010Prop35
280
     0
102
RTVSPost2010PropOp35
 70
     0
102
RTVSPost2010Prop36
280
     0
102
RTVSPost2010PropOp36
 70
     0
102
RTVSPost2010Prop37
 90
       50
102
RTVSPost2010PropOp37
 70
     0
102
RTVSPost2010Prop38
140
0.0
102
RTVSPost2010PropOp38
 70
     0
102
RTVSPost2010Prop39
140
1.0
102
RTVSPost2010PropOp39
 70
     0
102
RTVSPost2010Prop40
 90
        0
102
RTVSPost2010PropOp40
 70
     0
102
RTVSPost2010Prop41ColorIndex
 90
       18
102
RTVSPost2010Prop41ColorRGB
 90
        0
102
RTVSPost2010PropOp41
 70
     0
102
RTVSPost2010Prop42
 90
       50
102
RTVSPost2010PropOp42
 70
     0
102
RTVSPost2010Prop43
 90
        3
102
RTVSPost2010PropOp43
 70
     0
102
RTVSPost2010Prop44ColorIndex
 90
        5
102
RTVSPost2010Prop44ColorRGB
 90
      255
102
RTVSPost2010PropOp44
 70
     0
102
RTVSPost2010Prop45
280
     0
102
RTVSPost2010PropOp45
 70
     0
102
RTVSPost2010Prop46
 90
       50
102
RTVSPost2010PropOp46
 70
     0
102
RTVSPost2010Prop47
 90
       50
102
RTVSPost2010PropOp47
 70
     0
102
RTVSPost2010Prop48
 90
       50
102
RTVSPost2010PropOp48
 70
     0
102
RTVSPost2010Prop49
280
     0
102
RTVSPost2010PropOp49
 70
     0
102
RTVSPost2010Prop50
 90
       50
102
RTVSPost2010PropOp50
 70
     0
102
RTVSPost2010Prop51ColorIndex
 90
      256
102
RTVSPost2010Prop51ColorRGB
 90
-16777216
102
RTVSPost2010PropOp51
 70
     0
102
RTVSPost2010Prop52
140
1.0
102
RTVSPost2010PropOp52
 70
     0
102
RTVSPost2010Prop53
 90
        2
102
RTVSPost2010PropOp53
 70
     0
102
RTVSPost2010Prop54
  1
strokes_ogs.tif
102
RTVSPost2010PropOp54
 70
     0
102
RTVSPost2010Prop55
280
     0
102
RTVSPost2010PropOp55
 70
     0
102
RTVSPost2010Prop56
140
1.0
102
RTVSPost2010PropOp56
 70
     0
102
RTVSPost2010Prop57
140
1.0
102
RTVSPost2010PropOp57
 70
     0
102
RTVSPropertyOp0
 70
     0
102
RTVSPropertyOp1
 70
     0
102
RTVSPropertyOp2
 70
     0
102
RTVSPropertyOp3
 70
     0
102
RTVSPropertyOp4
 70
     0
102
RTVSPropertyOp5
 70
     0
102
RTVSPropertyOp6
 70
     0
102
RTVSPropertyOp7
 70
     0
102
RTVSPropertyOp8
 70
     0
102
RTVSPropertyOp9
 70
     0
102
RTVSPropertyOp10
 70
     0
102
RTVSPropertyOp11
 70
     0
102
RTVSPropertyOp12
 70
     0
102
RTVSPropertyOp13
 70
     0
102
RTVSPropertyOp14
 70
     2
102
RTVSPropertyOp15
 70
     0
102
RTVSPropertyOp16
 70
     0
102
RTVSPropertyOp17
 70
     0
102
RTVSPropertyOp18
 70
     0
102
RTVSPropertyOp19
 70
     0
102
RTVSPropertyOp20
 70
     0
102
RTVSPropertyOp21
 70
     0
102
RTVSPropertyOp22
 70
     0
102
RTVSPropertyOp23
 70
     0
102
RTVSPropertyOp24
 70
     0
102
RTVSPropertyOp25
 70
     0
102
RTVSPropertyOp26
 70
     0
102
RTVSPropertyOp27
 70
     0
102
RTVSPropertyOp28
 70
     0
102
RTVSPropertyOp29
 70
     0
102
RTVSPropertyOp30
 70
     0
102
RTVSPropertyOp31
 70
     0
102
RTVSPropertyOp32
 70
     0
102
RTVSPropertyOp33
 70
     0
102
RTVSPropertyOp34
 70
     0
102
RTVSPropertyOp35
 70
     0
102
RTVSPropertyOp36
 70
     0
102
RTVSPropertyOp37
 70
     0
102
RTVSPropertyOp38
 70
     0
102
RTVSPropertyOp39
 70
     0
102
RTVSPropertyOp40
 70
     0
102
RTVSPropertyOp41
 70
     0
102
RTVSPropertyOp42
 70
     0
102
RTVSPropertyOp43
 70
     0
102
RTVSPropertyOp44
 70
     0
102
RTVSPropertyOp45
 70
     0
102
RTVSPropertyOp46
 70
     0
102
RTVSPropertyOp47
 70
     0
102
RTVSPropertyOp48
 70
     0
102
RTVSPropertyOp49
 70
     0
102
RTVSPropertyOp50
 70
     0
102
RTVSPropertyOp51
 70
     0
102
RTVSPropertyOp52
 70
     0
102
RTVSPropertyOp53
 70
     0
102
RTVSPropertyOp54
 70
     0
102
RTVSPropertyOp55
 70
     0
102
RTVSPropertyOp56
 70
     0
102
RTVSPropertyOp57
 70
     0
102
RTVSPropertyOp58
 70
     1
102
RTVSPropertyOp59
 70
     1
102
RTVSPropertyOp60
 70
     1
102
RTVSPropertyOp61
 70
     1
102
RTVSPropertyOp62
 70
     1
  0
XRECORD
  5
8DAD
102
{ACAD_REACTORS
330
8DAC
102
}
330
8DAC
100
AcDbXrecord
280
     1
102
RTVSPost2010Prop28
280
     0
102
RTVSPost2010PropOp28
 70
     1
102
RTVSPost2010Prop29
280
     1
102
RTVSPost2010PropOp29
 70
     1
102
RTVSPost2010Prop30
280
     1
102
RTVSPost2010PropOp30
 70
     1
102
RTVSPost2010Prop31
280
     0
102
RTVSPost2010PropOp31
 70
     1
102
RTVSPost2010Prop32
280
     0
102
RTVSPost2010PropOp32
 70
     1
102
RTVSPost2010Prop33
280
     0
102
RTVSPost2010PropOp33
 70
     1
102
RTVSPost2010Prop34
280
     0
102
RTVSPost2010PropOp34
 70
     1
102
RTVSPost2010Prop35
280
     0
102
RTVSPost2010PropOp35
 70
     1
102
RTVSPost2010Prop36
280
     0
102
RTVSPost2010PropOp36
 70
     1
102
RTVSPost2010Prop37
 90
       50
102
RTVSPost2010PropOp37
 70
     1
102
RTVSPost2010Prop38
140
0.0
102
RTVSPost2010PropOp38
 70
     1
102
RTVSPost2010Prop39
140
1.0
102
RTVSPost2010PropOp39
 70
     1
102
RTVSPost2010Prop40
 90
        0
102
RTVSPost2010PropOp40
 70
     1
102
RTVSPost2010Prop41ColorIndex
 90
       18
102
RTVSPost2010Prop41ColorRGB
 90
        0
102
RTVSPost2010PropOp41
 70
     1
102
RTVSPost2010Prop42
 90
       50
102
RTVSPost2010PropOp42
 70
     1
102
RTVSPost2010Prop43
 90
        3
102
RTVSPost2010PropOp43
 70
     1
102
RTVSPost2010Prop44ColorIndex
 90
        5
102
RTVSPost2010Prop44ColorRGB
 90
      255
102
RTVSPost2010PropOp44
 70
     1
102
RTVSPost2010Prop45
280
     0
102
RTVSPost2010PropOp45
 70
     1
102
RTVSPost2010Prop46
 90
       50
102
RTVSPost2010PropOp46
 70
     1
102
RTVSPost2010Prop47
 90
       50
102
RTVSPost2010PropOp47
 70
     1
102
RTVSPost2010Prop48
 90
       50
102
RTVSPost2010PropOp48
 70
     1
102
RTVSPost2010Prop49
280
     0
102
RTVSPost2010PropOp49
 70
     1
102
RTVSPost2010Prop50
 90
       50
102
RTVSPost2010PropOp50
 70
     1
102
RTVSPost2010Prop51ColorIndex
 90
      256
102
RTVSPost2010Prop51ColorRGB
 90
-16777216
102
RTVSPost2010PropOp51
 70
     0
102
RTVSPost2010Prop52
140
1.0
102
RTVSPost2010PropOp52
 70
     0
102
RTVSPost2010Prop53
 90
        2
102
RTVSPost2010PropOp53
 70
     1
102
RTVSPost2010Prop54
  1
strokes_ogs.tif
102
RTVSPost2010PropOp54
 70
     1
102
RTVSPost2010Prop55
280
     0
102
RTVSPost2010PropOp55
 70
     1
102
RTVSPost2010Prop56
140
1.0
102
RTVSPost2010PropOp56
 70
     1
102
RTVSPost2010Prop57
140
1.0
102
RTVSPost2010PropOp57
 70
     1
102
RTVSPropertyOp0
 70
     1
102
RTVSPropertyOp1
 70
     1
102
RTVSPropertyOp2
 70
     1
102
RTVSPropertyOp3
 70
     1
102
RTVSPropertyOp4
 70
     1
102
RTVSPropertyOp5
 70
     1
102
RTVSPropertyOp6
 70
     1
102
RTVSPropertyOp7
 70
     1
102
RTVSPropertyOp8
 70
     1
102
RTVSPropertyOp9
 70
     1
102
RTVSPropertyOp10
 70
     1
102
RTVSPropertyOp11
 70
     1
102
RTVSPropertyOp12
 70
     1
102
RTVSPropertyOp13
 70
     1
102
RTVSPropertyOp14
 70
     1
102
RTVSPropertyOp15
 70
     1
102
RTVSPropertyOp16
 70
     1
102
RTVSPropertyOp17
 70
     1
102
RTVSPropertyOp18
 70
     1
102
RTVSPropertyOp19
 70
     1
102
RTVSPropertyOp20
 70
     1
102
RTVSPropertyOp21
 70
     1
102
RTVSPropertyOp22
 70
     1
102
RTVSPropertyOp23
 70
     1
102
RTVSPropertyOp24
 70
     1
102
RTVSPropertyOp25
 70
     1
102
RTVSPropertyOp26
 70
     1
102
RTVSPropertyOp27
 70
     1
102
RTVSPropertyOp28
 70
     1
102
RTVSPropertyOp29
 70
     1
102
RTVSPropertyOp30
 70
     1
102
RTVSPropertyOp31
 70
     1
102
RTVSPropertyOp32
 70
     1
102
RTVSPropertyOp33
 70
     1
102
RTVSPropertyOp34
 70
     1
102
RTVSPropertyOp35
 70
     1
102
RTVSPropertyOp36
 70
     1
102
RTVSPropertyOp37
 70
     1
102
RTVSPropertyOp38
 70
     1
102
RTVSPropertyOp39
 70
     1
102
RTVSPropertyOp40
 70
     1
102
RTVSPropertyOp41
 70
     1
102
RTVSPropertyOp42
 70
     1
102
RTVSPropertyOp43
 70
     1
102
RTVSPropertyOp44
 70
     1
102
RTVSPropertyOp45
 70
     1
102
RTVSPropertyOp46
 70
     1
102
RTVSPropertyOp47
 70
     1
102
RTVSPropertyOp48
 70
     1
102
RTVSPropertyOp49
 70
     1
102
RTVSPropertyOp50
 70
     1
102
RTVSPropertyOp51
 70
     0
102
RTVSPropertyOp52
 70
     0
102
RTVSPropertyOp53
 70
     1
102
RTVSPropertyOp54
 70
     1
102
RTVSPropertyOp55
 70
     1
102
RTVSPropertyOp56
 70
     1
102
RTVSPropertyOp57
 70
     1
102
RTVSPropertyOp58
 70
     1
102
RTVSPropertyOp59
 70
     1
102
RTVSPropertyOp60
 70
     1
102
RTVSPropertyOp61
 70
     1
102
RTVSPropertyOp62
 70
     1
  0
XRECORD
  5
8DBF
102
{ACAD_REACTORS
330
8DBE
102
}
330
8DBE
100
AcDbXrecord
280
     1
102
RTVSPost2010Prop28
280
     0
102
RTVSPost2010PropOp28
 70
     0
102
RTVSPost2010Prop29
280
     1
102
RTVSPost2010PropOp29
 70
     0
102
RTVSPost2010Prop30
280
     1
102
RTVSPost2010PropOp30
 70
     0
102
RTVSPost2010Prop31
280
     0
102
RTVSPost2010PropOp31
 70
     0
102
RTVSPost2010Prop32
280
     0
102
RTVSPost2010PropOp32
 70
     0
102
RTVSPost2010Prop33
280
     0
102
RTVSPost2010PropOp33
 70
     0
102
RTVSPost2010Prop34
280
     0
102
RTVSPost2010PropOp34
 70
     0
102
RTVSPost2010Prop35
280
     0
102
RTVSPost2010PropOp35
 70
     0
102
RTVSPost2010Prop36
280
     0
102
RTVSPost2010PropOp36
 70
     0
102
RTVSPost2010Prop37
 90
       50
102
RTVSPost2010PropOp37
 70
     0
102
RTVSPost2010Prop38
140
0.0
102
RTVSPost2010PropOp38
 70
     0
102
RTVSPost2010Prop39
140
1.0
102
RTVSPost2010PropOp39
 70
     0
102
RTVSPost2010Prop40
 90
        0
102
RTVSPost2010PropOp40
 70
     0
102
RTVSPost2010Prop41ColorIndex
 90
       18
102
RTVSPost2010Prop41ColorRGB
 90
        0
102
RTVSPost2010PropOp41
 70
     0
102
RTVSPost2010Prop42
 90
       50
102
RTVSPost2010PropOp42
 70
     0
102
RTVSPost2010Prop43
 90
        3
102
RTVSPost2010PropOp43
 70
     0
102
RTVSPost2010Prop44ColorIndex
 90
        5
102
RTVSPost2010Prop44ColorRGB
 90
      255
102
RTVSPost2010PropOp44
 70
     0
102
RTVSPost2010Prop45
280
     0
102
RTVSPost2010PropOp45
 70
     0
102
RTVSPost2010Prop46
 90
       50
102
RTVSPost2010PropOp46
 70
     0
102
RTVSPost2010Prop47
 90
       50
102
RTVSPost2010PropOp47
 70
     0
102
RTVSPost2010Prop48
 90
       50
102
RTVSPost2010PropOp48
 70
     0
102
RTVSPost2010Prop49
280
     0
102
RTVSPost2010PropOp49
 70
     0
102
RTVSPost2010Prop50
 90
       50
102
RTVSPost2010PropOp50
 70
     0
102
RTVSPost2010Prop51ColorIndex
 90
      256
102
RTVSPost2010Prop51ColorRGB
 90
-16777216
102
RTVSPost2010PropOp51
 70
     0
102
RTVSPost2010Prop52
140
1.0
102
RTVSPost2010PropOp52
 70
     0
102
RTVSPost2010Prop53
 90
        2
102
RTVSPost2010PropOp53
 70
     0
102
RTVSPost2010Prop54
  1
strokes_ogs.tif
102
RTVSPost2010PropOp54
 70
     0
102
RTVSPost2010Prop55
280
     0
102
RTVSPost2010PropOp55
 70
     0
102
RTVSPost2010Prop56
140
1.0
102
RTVSPost2010PropOp56
 70
     0
102
RTVSPost2010Prop57
140
1.0
102
RTVSPost2010PropOp57
 70
     0
102
RTVSPropertyOp0
 70
     0
102
RTVSPropertyOp1
 70
     0
102
RTVSPropertyOp2
 70
     0
102
RTVSPropertyOp3
 70
     0
102
RTVSPropertyOp4
 70
     0
102
RTVSPropertyOp5
 70
     0
102
RTVSPropertyOp6
 70
     0
102
RTVSPropertyOp7
 70
     0
102
RTVSPropertyOp8
 70
     0
102
RTVSPropertyOp9
 70
     0
102
RTVSPropertyOp10
 70
     0
102
RTVSPropertyOp11
 70
     0
102
RTVSPropertyOp12
 70
     0
102
RTVSPropertyOp13
 70
     0
102
RTVSPropertyOp14
 70
     2
102
RTVSPropertyOp15
 70
     0
102
RTVSPropertyOp16
 70
     0
102
RTVSPropertyOp17
 70
     0
102
RTVSPropertyOp18
 70
     0
102
RTVSPropertyOp19
 70
     0
102
RTVSPropertyOp20
 70
     0
102
RTVSPropertyOp21
 70
     0
102
RTVSPropertyOp22
 70
     0
102
RTVSPropertyOp23
 70
     0
102
RTVSPropertyOp24
 70
     0
102
RTVSPropertyOp25
 70
     0
102
RTVSPropertyOp26
 70
     0
102
RTVSPropertyOp27
 70
     0
102
RTVSPropertyOp28
 70
     0
102
RTVSPropertyOp29
 70
     0
102
RTVSPropertyOp30
 70
     0
102
RTVSPropertyOp31
 70
     0
102
RTVSPropertyOp32
 70
     0
102
RTVSPropertyOp33
 70
     0
102
RTVSPropertyOp34
 70
     0
102
RTVSPropertyOp35
 70
     0
102
RTVSPropertyOp36
 70
     0
102
RTVSPropertyOp37
 70
     0
102
RTVSPropertyOp38
 70
     0
102
RTVSPropertyOp39
 70
     0
102
RTVSPropertyOp40
 70
     0
102
RTVSPropertyOp41
 70
     0
102
RTVSPropertyOp42
 70
     0
102
RTVSPropertyOp43
 70
     0
102
RTVSPropertyOp44
 70
     0
102
RTVSPropertyOp45
 70
     0
102
RTVSPropertyOp46
 70
     0
102
RTVSPropertyOp47
 70
     0
102
RTVSPropertyOp48
 70
     0
102
RTVSPropertyOp49
 70
     0
102
RTVSPropertyOp50
 70
     0
102
RTVSPropertyOp51
 70
     0
102
RTVSPropertyOp52
 70
     0
102
RTVSPropertyOp53
 70
     0
102
RTVSPropertyOp54
 70
     0
102
RTVSPropertyOp55
 70
     0
102
RTVSPropertyOp56
 70
     0
102
RTVSPropertyOp57
 70
     0
102
RTVSPropertyOp58
 70
     1
102
RTVSPropertyOp59
 70
     1
102
RTVSPropertyOp60
 70
     1
102
RTVSPropertyOp61
 70
     1
102
RTVSPropertyOp62
 70
     1
  0
XRECORD
  5
8DA5
102
{ACAD_REACTORS
330
8DA4
102
}
330
8DA4
100
AcDbXrecord
280
     1
102
RTVSPost2010Prop28
280
     0
102
RTVSPost2010PropOp28
 70
     1
102
RTVSPost2010Prop29
280
     1
102
RTVSPost2010PropOp29
 70
     1
102
RTVSPost2010Prop30
280
     1
102
RTVSPost2010PropOp30
 70
     1
102
RTVSPost2010Prop31
280
     0
102
RTVSPost2010PropOp31
 70
     1
102
RTVSPost2010Prop32
280
     0
102
RTVSPost2010PropOp32
 70
     1
102
RTVSPost2010Prop33
280
     0
102
RTVSPost2010PropOp33
 70
     1
102
RTVSPost2010Prop34
280
     0
102
RTVSPost2010PropOp34
 70
     1
102
RTVSPost2010Prop35
280
     0
102
RTVSPost2010PropOp35
 70
     1
102
RTVSPost2010Prop36
280
     0
102
RTVSPost2010PropOp36
 70
     1
102
RTVSPost2010Prop37
 90
       50
102
RTVSPost2010PropOp37
 70
     1
102
RTVSPost2010Prop38
140
0.0
102
RTVSPost2010PropOp38
 70
     1
102
RTVSPost2010Prop39
140
1.0
102
RTVSPost2010PropOp39
 70
     1
102
RTVSPost2010Prop40
 90
        0
102
RTVSPost2010PropOp40
 70
     1
102
RTVSPost2010Prop41ColorIndex
 90
       18
102
RTVSPost2010Prop41ColorRGB
 90
        0
102
RTVSPost2010PropOp41
 70
     1
102
RTVSPost2010Prop42
 90
       50
102
RTVSPost2010PropOp42
 70
     1
102
RTVSPost2010Prop43
 90
        3
102
RTVSPost2010PropOp43
 70
     1
102
RTVSPost2010Prop44ColorIndex
 90
        5
102
RTVSPost2010Prop44ColorRGB
 90
      255
102
RTVSPost2010PropOp44
 70
     1
102
RTVSPost2010Prop45
280
     0
102
RTVSPost2010PropOp45
 70
     1
102
RTVSPost2010Prop46
 90
       50
102
RTVSPost2010PropOp46
 70
     1
102
RTVSPost2010Prop47
 90
       50
102
RTVSPost2010PropOp47
 70
     1
102
RTVSPost2010Prop48
 90
       50
102
RTVSPost2010PropOp48
 70
     1
102
RTVSPost2010Prop49
280
     0
102
RTVSPost2010PropOp49
 70
     1
102
RTVSPost2010Prop50
 90
       50
102
RTVSPost2010PropOp50
 70
     1
102
RTVSPost2010Prop51ColorIndex
 90
      256
102
RTVSPost2010Prop51ColorRGB
 90
-16777216
102
RTVSPost2010PropOp51
 70
     0
102
RTVSPost2010Prop52
140
1.0
102
RTVSPost2010PropOp52
 70
     0
102
RTVSPost2010Prop53
 90
        2
102
RTVSPost2010PropOp53
 70
     1
102
RTVSPost2010Prop54
  1
strokes_ogs.tif
102
RTVSPost2010PropOp54
 70
     1
102
RTVSPost2010Prop55
280
     0
102
RTVSPost2010PropOp55
 70
     1
102
RTVSPost2010Prop56
140
1.0
102
RTVSPost2010PropOp56
 70
     1
102
RTVSPost2010Prop57
140
1.0
102
RTVSPost2010PropOp57
 70
     1
102
RTVSPropertyOp0
 70
     1
102
RTVSPropertyOp1
 70
     1
102
RTVSPropertyOp2
 70
     1
102
RTVSPropertyOp3
 70
     1
102
RTVSPropertyOp4
 70
     1
102
RTVSPropertyOp5
 70
     1
102
RTVSPropertyOp6
 70
     1
102
RTVSPropertyOp7
 70
     1
102
RTVSPropertyOp8
 70
     1
102
RTVSPropertyOp9
 70
     1
102
RTVSPropertyOp10
 70
     1
102
RTVSPropertyOp11
 70
     1
102
RTVSPropertyOp12
 70
     1
102
RTVSPropertyOp13
 70
     1
102
RTVSPropertyOp14
 70
     1
102
RTVSPropertyOp15
 70
     1
102
RTVSPropertyOp16
 70
     1
102
RTVSPropertyOp17
 70
     1
102
RTVSPropertyOp18
 70
     1
102
RTVSPropertyOp19
 70
     1
102
RTVSPropertyOp20
 70
     1
102
RTVSPropertyOp21
 70
     1
102
RTVSPropertyOp22
 70
     1
102
RTVSPropertyOp23
 70
     1
102
RTVSPropertyOp24
 70
     1
102
RTVSPropertyOp25
 70
     1
102
RTVSPropertyOp26
 70
     1
102
RTVSPropertyOp27
 70
     1
102
RTVSPropertyOp28
 70
     1
102
RTVSPropertyOp29
 70
     1
102
RTVSPropertyOp30
 70
     1
102
RTVSPropertyOp31
 70
     1
102
RTVSPropertyOp32
 70
     1
102
RTVSPropertyOp33
 70
     1
102
RTVSPropertyOp34
 70
     1
102
RTVSPropertyOp35
 70
     1
102
RTVSPropertyOp36
 70
     1
102
RTVSPropertyOp37
 70
     1
102
RTVSPropertyOp38
 70
     1
102
RTVSPropertyOp39
 70
     1
102
RTVSPropertyOp40
 70
     1
102
RTVSPropertyOp41
 70
     1
102
RTVSPropertyOp42
 70
     1
102
RTVSPropertyOp43
 70
     1
102
RTVSPropertyOp44
 70
     1
102
RTVSPropertyOp45
 70
     1
102
RTVSPropertyOp46
 70
     1
102
RTVSPropertyOp47
 70
     1
102
RTVSPropertyOp48
 70
     1
102
RTVSPropertyOp49
 70
     1
102
RTVSPropertyOp50
 70
     1
102
RTVSPropertyOp51
 70
     0
102
RTVSPropertyOp52
 70
     0
102
RTVSPropertyOp53
 70
     1
102
RTVSPropertyOp54
 70
     1
102
RTVSPropertyOp55
 70
     1
102
RTVSPropertyOp56
 70
     1
102
RTVSPropertyOp57
 70
     1
102
RTVSPropertyOp58
 70
     1
102
RTVSPropertyOp59
 70
     1
102
RTVSPropertyOp60
 70
     1
102
RTVSPropertyOp61
 70
     1
102
RTVSPropertyOp62
 70
     1
  0
XRECORD
  5
8DBB
102
{ACAD_REACTORS
330
8DBA
102
}
330
8DBA
100
AcDbXrecord
280
     1
102
RTVSPost2010Prop28
280
     0
102
RTVSPost2010PropOp28
 70
     1
102
RTVSPost2010Prop29
280
     1
102
RTVSPost2010PropOp29
 70
     1
102
RTVSPost2010Prop30
280
     1
102
RTVSPost2010PropOp30
 70
     1
102
RTVSPost2010Prop31
280
     0
102
RTVSPost2010PropOp31
 70
     1
102
RTVSPost2010Prop32
280
     0
102
RTVSPost2010PropOp32
 70
     1
102
RTVSPost2010Prop33
280
     0
102
RTVSPost2010PropOp33
 70
     1
102
RTVSPost2010Prop34
280
     0
102
RTVSPost2010PropOp34
 70
     1
102
RTVSPost2010Prop35
280
     0
102
RTVSPost2010PropOp35
 70
     1
102
RTVSPost2010Prop36
280
     0
102
RTVSPost2010PropOp36
 70
     1
102
RTVSPost2010Prop37
 90
       50
102
RTVSPost2010PropOp37
 70
     1
102
RTVSPost2010Prop38
140
0.0
102
RTVSPost2010PropOp38
 70
     1
102
RTVSPost2010Prop39
140
1.0
102
RTVSPost2010PropOp39
 70
     1
102
RTVSPost2010Prop40
 90
        0
102
RTVSPost2010PropOp40
 70
     1
102
RTVSPost2010Prop41ColorIndex
 90
       18
102
RTVSPost2010Prop41ColorRGB
 90
        0
102
RTVSPost2010PropOp41
 70
     1
102
RTVSPost2010Prop42
 90
       50
102
RTVSPost2010PropOp42
 70
     1
102
RTVSPost2010Prop43
 90
        3
102
RTVSPost2010PropOp43
 70
     1
102
RTVSPost2010Prop44ColorIndex
 90
        5
102
RTVSPost2010Prop44ColorRGB
 90
      255
102
RTVSPost2010PropOp44
 70
     1
102
RTVSPost2010Prop45
280
     0
102
RTVSPost2010PropOp45
 70
     1
102
RTVSPost2010Prop46
 90
       50
102
RTVSPost2010PropOp46
 70
     1
102
RTVSPost2010Prop47
 90
       50
102
RTVSPost2010PropOp47
 70
     1
102
RTVSPost2010Prop48
 90
       50
102
RTVSPost2010PropOp48
 70
     1
102
RTVSPost2010Prop49
280
     0
102
RTVSPost2010PropOp49
 70
     1
102
RTVSPost2010Prop50
 90
       50
102
RTVSPost2010PropOp50
 70
     1
102
RTVSPost2010Prop51ColorIndex
 90
      256
102
RTVSPost2010Prop51ColorRGB
 90
-16777216
102
RTVSPost2010PropOp51
 70
     0
102
RTVSPost2010Prop52
140
1.0
102
RTVSPost2010PropOp52
 70
     0
102
RTVSPost2010Prop53
 90
        2
102
RTVSPost2010PropOp53
 70
     1
102
RTVSPost2010Prop54
  1
strokes_ogs.tif
102
RTVSPost2010PropOp54
 70
     1
102
RTVSPost2010Prop55
280
     0
102
RTVSPost2010PropOp55
 70
     1
102
RTVSPost2010Prop56
140
1.0
102
RTVSPost2010PropOp56
 70
     1
102
RTVSPost2010Prop57
140
1.0
102
RTVSPost2010PropOp57
 70
     1
102
RTVSPropertyOp0
 70
     1
102
RTVSPropertyOp1
 70
     1
102
RTVSPropertyOp2
 70
     1
102
RTVSPropertyOp3
 70
     1
102
RTVSPropertyOp4
 70
     1
102
RTVSPropertyOp5
 70
     1
102
RTVSPropertyOp6
 70
     1
102
RTVSPropertyOp7
 70
     1
102
RTVSPropertyOp8
 70
     1
102
RTVSPropertyOp9
 70
     1
102
RTVSPropertyOp10
 70
     1
102
RTVSPropertyOp11
 70
     1
102
RTVSPropertyOp12
 70
     1
102
RTVSPropertyOp13
 70
     1
102
RTVSPropertyOp14
 70
     1
102
RTVSPropertyOp15
 70
     1
102
RTVSPropertyOp16
 70
     1
102
RTVSPropertyOp17
 70
     1
102
RTVSPropertyOp18
 70
     1
102
RTVSPropertyOp19
 70
     1
102
RTVSPropertyOp20
 70
     1
102
RTVSPropertyOp21
 70
     1
102
RTVSPropertyOp22
 70
     1
102
RTVSPropertyOp23
 70
     1
102
RTVSPropertyOp24
 70
     1
102
RTVSPropertyOp25
 70
     1
102
RTVSPropertyOp26
 70
     1
102
RTVSPropertyOp27
 70
     1
102
RTVSPropertyOp28
 70
     1
102
RTVSPropertyOp29
 70
     1
102
RTVSPropertyOp30
 70
     1
102
RTVSPropertyOp31
 70
     1
102
RTVSPropertyOp32
 70
     1
102
RTVSPropertyOp33
 70
     1
102
RTVSPropertyOp34
 70
     1
102
RTVSPropertyOp35
 70
     1
102
RTVSPropertyOp36
 70
     1
102
RTVSPropertyOp37
 70
     1
102
RTVSPropertyOp38
 70
     1
102
RTVSPropertyOp39
 70
     1
102
RTVSPropertyOp40
 70
     1
102
RTVSPropertyOp41
 70
     1
102
RTVSPropertyOp42
 70
     1
102
RTVSPropertyOp43
 70
     1
102
RTVSPropertyOp44
 70
     1
102
RTVSPropertyOp45
 70
     1
102
RTVSPropertyOp46
 70
     1
102
RTVSPropertyOp47
 70
     1
102
RTVSPropertyOp48
 70
     1
102
RTVSPropertyOp49
 70
     1
102
RTVSPropertyOp50
 70
     1
102
RTVSPropertyOp51
 70
     0
102
RTVSPropertyOp52
 70
     0
102
RTVSPropertyOp53
 70
     1
102
RTVSPropertyOp54
 70
     1
102
RTVSPropertyOp55
 70
     1
102
RTVSPropertyOp56
 70
     1
102
RTVSPropertyOp57
 70
     1
102
RTVSPropertyOp58
 70
     1
102
RTVSPropertyOp59
 70
     1
102
RTVSPropertyOp60
 70
     1
102
RTVSPropertyOp61
 70
     1
102
RTVSPropertyOp62
 70
     1
  0
XRECORD
  5
8DB9
102
{ACAD_REACTORS
330
8DB8
102
}
330
8DB8
100
AcDbXrecord
280
     1
102
RTVSPost2010Prop28
280
     0
102
RTVSPost2010PropOp28
 70
     1
102
RTVSPost2010Prop29
280
     1
102
RTVSPost2010PropOp29
 70
     1
102
RTVSPost2010Prop30
280
     1
102
RTVSPost2010PropOp30
 70
     1
102
RTVSPost2010Prop31
280
     0
102
RTVSPost2010PropOp31
 70
     1
102
RTVSPost2010Prop32
280
     0
102
RTVSPost2010PropOp32
 70
     1
102
RTVSPost2010Prop33
280
     0
102
RTVSPost2010PropOp33
 70
     1
102
RTVSPost2010Prop34
280
     0
102
RTVSPost2010PropOp34
 70
     1
102
RTVSPost2010Prop35
280
     0
102
RTVSPost2010PropOp35
 70
     1
102
RTVSPost2010Prop36
280
     0
102
RTVSPost2010PropOp36
 70
     1
102
RTVSPost2010Prop37
 90
       50
102
RTVSPost2010PropOp37
 70
     1
102
RTVSPost2010Prop38
140
0.0
102
RTVSPost2010PropOp38
 70
     1
102
RTVSPost2010Prop39
140
1.0
102
RTVSPost2010PropOp39
 70
     1
102
RTVSPost2010Prop40
 90
        0
102
RTVSPost2010PropOp40
 70
     1
102
RTVSPost2010Prop41ColorIndex
 90
       18
102
RTVSPost2010Prop41ColorRGB
 90
        0
102
RTVSPost2010PropOp41
 70
     1
102
RTVSPost2010Prop42
 90
       50
102
RTVSPost2010PropOp42
 70
     1
102
RTVSPost2010Prop43
 90
        3
102
RTVSPost2010PropOp43
 70
     1
102
RTVSPost2010Prop44ColorIndex
 90
        5
102
RTVSPost2010Prop44ColorRGB
 90
      255
102
RTVSPost2010PropOp44
 70
     1
102
RTVSPost2010Prop45
280
     0
102
RTVSPost2010PropOp45
 70
     1
102
RTVSPost2010Prop46
 90
       50
102
RTVSPost2010PropOp46
 70
     1
102
RTVSPost2010Prop47
 90
       50
102
RTVSPost2010PropOp47
 70
     1
102
RTVSPost2010Prop48
 90
       50
102
RTVSPost2010PropOp48
 70
     1
102
RTVSPost2010Prop49
280
     0
102
RTVSPost2010PropOp49
 70
     1
102
RTVSPost2010Prop50
 90
       50
102
RTVSPost2010PropOp50
 70
     1
102
RTVSPost2010Prop51ColorIndex
 90
      256
102
RTVSPost2010Prop51ColorRGB
 90
-16777216
102
RTVSPost2010PropOp51
 70
     0
102
RTVSPost2010Prop52
140
1.0
102
RTVSPost2010PropOp52
 70
     0
102
RTVSPost2010Prop53
 90
        2
102
RTVSPost2010PropOp53
 70
     1
102
RTVSPost2010Prop54
  1
strokes_ogs.tif
102
RTVSPost2010PropOp54
 70
     1
102
RTVSPost2010Prop55
280
     0
102
RTVSPost2010PropOp55
 70
     1
102
RTVSPost2010Prop56
140
1.0
102
RTVSPost2010PropOp56
 70
     1
102
RTVSPost2010Prop57
140
1.0
102
RTVSPost2010PropOp57
 70
     1
102
RTVSPropertyOp0
 70
     1
102
RTVSPropertyOp1
 70
     1
102
RTVSPropertyOp2
 70
     1
102
RTVSPropertyOp3
 70
     1
102
RTVSPropertyOp4
 70
     1
102
RTVSPropertyOp5
 70
     1
102
RTVSPropertyOp6
 70
     1
102
RTVSPropertyOp7
 70
     1
102
RTVSPropertyOp8
 70
     1
102
RTVSPropertyOp9
 70
     1
102
RTVSPropertyOp10
 70
     1
102
RTVSPropertyOp11
 70
     1
102
RTVSPropertyOp12
 70
     1
102
RTVSPropertyOp13
 70
     1
102
RTVSPropertyOp14
 70
     1
102
RTVSPropertyOp15
 70
     1
102
RTVSPropertyOp16
 70
     1
102
RTVSPropertyOp17
 70
     1
102
RTVSPropertyOp18
 70
     1
102
RTVSPropertyOp19
 70
     1
102
RTVSPropertyOp20
 70
     1
102
RTVSPropertyOp21
 70
     1
102
RTVSPropertyOp22
 70
     1
102
RTVSPropertyOp23
 70
     1
102
RTVSPropertyOp24
 70
     1
102
RTVSPropertyOp25
 70
     1
102
RTVSPropertyOp26
 70
     1
102
RTVSPropertyOp27
 70
     1
102
RTVSPropertyOp28
 70
     1
102
RTVSPropertyOp29
 70
     1
102
RTVSPropertyOp30
 70
     1
102
RTVSPropertyOp31
 70
     1
102
RTVSPropertyOp32
 70
     1
102
RTVSPropertyOp33
 70
     1
102
RTVSPropertyOp34
 70
     1
102
RTVSPropertyOp35
 70
     1
102
RTVSPropertyOp36
 70
     1
102
RTVSPropertyOp37
 70
     1
102
RTVSPropertyOp38
 70
     1
102
RTVSPropertyOp39
 70
     1
102
RTVSPropertyOp40
 70
     1
102
RTVSPropertyOp41
 70
     1
102
RTVSPropertyOp42
 70
     1
102
RTVSPropertyOp43
 70
     1
102
RTVSPropertyOp44
 70
     1
102
RTVSPropertyOp45
 70
     1
102
RTVSPropertyOp46
 70
     1
102
RTVSPropertyOp47
 70
     1
102
RTVSPropertyOp48
 70
     1
102
RTVSPropertyOp49
 70
     1
102
RTVSPropertyOp50
 70
     1
102
RTVSPropertyOp51
 70
     0
102
RTVSPropertyOp52
 70
     0
102
RTVSPropertyOp53
 70
     1
102
RTVSPropertyOp54
 70
     1
102
RTVSPropertyOp55
 70
     1
102
RTVSPropertyOp56
 70
     1
102
RTVSPropertyOp57
 70
     1
102
RTVSPropertyOp58
 70
     1
102
RTVSPropertyOp59
 70
     1
102
RTVSPropertyOp60
 70
     1
102
RTVSPropertyOp61
 70
     1
102
RTVSPropertyOp62
 70
     1
  0
XRECORD
  5
8DB3
102
{ACAD_REACTORS
330
8DB2
102
}
330
8DB2
100
AcDbXrecord
280
     1
102
RTVSPost2010Prop28
280
     0
102
RTVSPost2010PropOp28
 70
     1
102
RTVSPost2010Prop29
280
     1
102
RTVSPost2010PropOp29
 70
     1
102
RTVSPost2010Prop30
280
     1
102
RTVSPost2010PropOp30
 70
     1
102
RTVSPost2010Prop31
280
     0
102
RTVSPost2010PropOp31
 70
     1
102
RTVSPost2010Prop32
280
     0
102
RTVSPost2010PropOp32
 70
     1
102
RTVSPost2010Prop33
280
     0
102
RTVSPost2010PropOp33
 70
     1
102
RTVSPost2010Prop34
280
     0
102
RTVSPost2010PropOp34
 70
     1
102
RTVSPost2010Prop35
280
     0
102
RTVSPost2010PropOp35
 70
     1
102
RTVSPost2010Prop36
280
     0
102
RTVSPost2010PropOp36
 70
     1
102
RTVSPost2010Prop37
 90
       50
102
RTVSPost2010PropOp37
 70
     1
102
RTVSPost2010Prop38
140
0.0
102
RTVSPost2010PropOp38
 70
     1
102
RTVSPost2010Prop39
140
1.0
102
RTVSPost2010PropOp39
 70
     1
102
RTVSPost2010Prop40
 90
        0
102
RTVSPost2010PropOp40
 70
     1
102
RTVSPost2010Prop41ColorIndex
 90
       18
102
RTVSPost2010Prop41ColorRGB
 90
        0
102
RTVSPost2010PropOp41
 70
     1
102
RTVSPost2010Prop42
 90
       50
102
RTVSPost2010PropOp42
 70
     1
102
RTVSPost2010Prop43
 90
        3
102
RTVSPost2010PropOp43
 70
     1
102
RTVSPost2010Prop44ColorIndex
 90
        5
102
RTVSPost2010Prop44ColorRGB
 90
      255
102
RTVSPost2010PropOp44
 70
     1
102
RTVSPost2010Prop45
280
     0
102
RTVSPost2010PropOp45
 70
     1
102
RTVSPost2010Prop46
 90
       50
102
RTVSPost2010PropOp46
 70
     1
102
RTVSPost2010Prop47
 90
       50
102
RTVSPost2010PropOp47
 70
     1
102
RTVSPost2010Prop48
 90
       50
102
RTVSPost2010PropOp48
 70
     1
102
RTVSPost2010Prop49
280
     0
102
RTVSPost2010PropOp49
 70
     1
102
RTVSPost2010Prop50
 90
       50
102
RTVSPost2010PropOp50
 70
     1
102
RTVSPost2010Prop51ColorIndex
 90
      256
102
RTVSPost2010Prop51ColorRGB
 90
-16777216
102
RTVSPost2010PropOp51
 70
     0
102
RTVSPost2010Prop52
140
1.0
102
RTVSPost2010PropOp52
 70
     0
102
RTVSPost2010Prop53
 90
        2
102
RTVSPost2010PropOp53
 70
     1
102
RTVSPost2010Prop54
  1
strokes_ogs.tif
102
RTVSPost2010PropOp54
 70
     1
102
RTVSPost2010Prop55
280
     0
102
RTVSPost2010PropOp55
 70
     1
102
RTVSPost2010Prop56
140
1.0
102
RTVSPost2010PropOp56
 70
     1
102
RTVSPost2010Prop57
140
1.0
102
RTVSPost2010PropOp57
 70
     1
102
RTVSPropertyOp0
 70
     1
102
RTVSPropertyOp1
 70
     1
102
RTVSPropertyOp2
 70
     1
102
RTVSPropertyOp3
 70
     1
102
RTVSPropertyOp4
 70
     1
102
RTVSPropertyOp5
 70
     1
102
RTVSPropertyOp6
 70
     1
102
RTVSPropertyOp7
 70
     1
102
RTVSPropertyOp8
 70
     1
102
RTVSPropertyOp9
 70
     1
102
RTVSPropertyOp10
 70
     1
102
RTVSPropertyOp11
 70
     1
102
RTVSPropertyOp12
 70
     1
102
RTVSPropertyOp13
 70
     1
102
RTVSPropertyOp14
 70
     1
102
RTVSPropertyOp15
 70
     1
102
RTVSPropertyOp16
 70
     1
102
RTVSPropertyOp17
 70
     1
102
RTVSPropertyOp18
 70
     1
102
RTVSPropertyOp19
 70
     1
102
RTVSPropertyOp20
 70
     1
102
RTVSPropertyOp21
 70
     1
102
RTVSPropertyOp22
 70
     1
102
RTVSPropertyOp23
 70
     1
102
RTVSPropertyOp24
 70
     1
102
RTVSPropertyOp25
 70
     1
102
RTVSPropertyOp26
 70
     1
102
RTVSPropertyOp27
 70
     1
102
RTVSPropertyOp28
 70
     1
102
RTVSPropertyOp29
 70
     1
102
RTVSPropertyOp30
 70
     1
102
RTVSPropertyOp31
 70
     1
102
RTVSPropertyOp32
 70
     1
102
RTVSPropertyOp33
 70
     1
102
RTVSPropertyOp34
 70
     1
102
RTVSPropertyOp35
 70
     1
102
RTVSPropertyOp36
 70
     1
102
RTVSPropertyOp37
 70
     1
102
RTVSPropertyOp38
 70
     1
102
RTVSPropertyOp39
 70
     1
102
RTVSPropertyOp40
 70
     1
102
RTVSPropertyOp41
 70
     1
102
RTVSPropertyOp42
 70
     1
102
RTVSPropertyOp43
 70
     1
102
RTVSPropertyOp44
 70
     1
102
RTVSPropertyOp45
 70
     1
102
RTVSPropertyOp46
 70
     1
102
RTVSPropertyOp47
 70
     1
102
RTVSPropertyOp48
 70
     1
102
RTVSPropertyOp49
 70
     1
102
RTVSPropertyOp50
 70
     1
102
RTVSPropertyOp51
 70
     0
102
RTVSPropertyOp52
 70
     0
102
RTVSPropertyOp53
 70
     1
102
RTVSPropertyOp54
 70
     1
102
RTVSPropertyOp55
 70
     1
102
RTVSPropertyOp56
 70
     1
102
RTVSPropertyOp57
 70
     1
102
RTVSPropertyOp58
 70
     1
102
RTVSPropertyOp59
 70
     1
102
RTVSPropertyOp60
 70
     1
102
RTVSPropertyOp61
 70
     1
102
RTVSPropertyOp62
 70
     1
  0
XRECORD
  5
8DB5
102
{ACAD_REACTORS
330
8DB4
102
}
330
8DB4
100
AcDbXrecord
280
     1
102
RTVSPost2010Prop28
280
     0
102
RTVSPost2010PropOp28
 70
     1
102
RTVSPost2010Prop29
280
     1
102
RTVSPost2010PropOp29
 70
     1
102
RTVSPost2010Prop30
280
     1
102
RTVSPost2010PropOp30
 70
     1
102
RTVSPost2010Prop31
280
     0
102
RTVSPost2010PropOp31
 70
     1
102
RTVSPost2010Prop32
280
     0
102
RTVSPost2010PropOp32
 70
     1
102
RTVSPost2010Prop33
280
     0
102
RTVSPost2010PropOp33
 70
     1
102
RTVSPost2010Prop34
280
     0
102
RTVSPost2010PropOp34
 70
     1
102
RTVSPost2010Prop35
280
     0
102
RTVSPost2010PropOp35
 70
     1
102
RTVSPost2010Prop36
280
     0
102
RTVSPost2010PropOp36
 70
     1
102
RTVSPost2010Prop37
 90
       50
102
RTVSPost2010PropOp37
 70
     1
102
RTVSPost2010Prop38
140
0.0
102
RTVSPost2010PropOp38
 70
     1
102
RTVSPost2010Prop39
140
1.0
102
RTVSPost2010PropOp39
 70
     1
102
RTVSPost2010Prop40
 90
        0
102
RTVSPost2010PropOp40
 70
     1
102
RTVSPost2010Prop41ColorIndex
 90
       18
102
RTVSPost2010Prop41ColorRGB
 90
        0
102
RTVSPost2010PropOp41
 70
     1
102
RTVSPost2010Prop42
 90
       50
102
RTVSPost2010PropOp42
 70
     1
102
RTVSPost2010Prop43
 90
        3
102
RTVSPost2010PropOp43
 70
     1
102
RTVSPost2010Prop44ColorIndex
 90
        5
102
RTVSPost2010Prop44ColorRGB
 90
      255
102
RTVSPost2010PropOp44
 70
     1
102
RTVSPost2010Prop45
280
     0
102
RTVSPost2010PropOp45
 70
     1
102
RTVSPost2010Prop46
 90
       50
102
RTVSPost2010PropOp46
 70
     1
102
RTVSPost2010Prop47
 90
       50
102
RTVSPost2010PropOp47
 70
     1
102
RTVSPost2010Prop48
 90
       50
102
RTVSPost2010PropOp48
 70
     1
102
RTVSPost2010Prop49
280
     0
102
RTVSPost2010PropOp49
 70
     1
102
RTVSPost2010Prop50
 90
       50
102
RTVSPost2010PropOp50
 70
     1
102
RTVSPost2010Prop51ColorIndex
 90
      256
102
RTVSPost2010Prop51ColorRGB
 90
-16777216
102
RTVSPost2010PropOp51
 70
     0
102
RTVSPost2010Prop52
140
1.0
102
RTVSPost2010PropOp52
 70
     0
102
RTVSPost2010Prop53
 90
        2
102
RTVSPost2010PropOp53
 70
     1
102
RTVSPost2010Prop54
  1
strokes_ogs.tif
102
RTVSPost2010PropOp54
 70
     1
102
RTVSPost2010Prop55
280
     0
102
RTVSPost2010PropOp55
 70
     1
102
RTVSPost2010Prop56
140
1.0
102
RTVSPost2010PropOp56
 70
     1
102
RTVSPost2010Prop57
140
1.0
102
RTVSPost2010PropOp57
 70
     1
102
RTVSPropertyOp0
 70
     1
102
RTVSPropertyOp1
 70
     1
102
RTVSPropertyOp2
 70
     1
102
RTVSPropertyOp3
 70
     1
102
RTVSPropertyOp4
 70
     1
102
RTVSPropertyOp5
 70
     1
102
RTVSPropertyOp6
 70
     1
102
RTVSPropertyOp7
 70
     1
102
RTVSPropertyOp8
 70
     1
102
RTVSPropertyOp9
 70
     1
102
RTVSPropertyOp10
 70
     1
102
RTVSPropertyOp11
 70
     1
102
RTVSPropertyOp12
 70
     1
102
RTVSPropertyOp13
 70
     1
102
RTVSPropertyOp14
 70
     1
102
RTVSPropertyOp15
 70
     1
102
RTVSPropertyOp16
 70
     1
102
RTVSPropertyOp17
 70
     1
102
RTVSPropertyOp18
 70
     1
102
RTVSPropertyOp19
 70
     1
102
RTVSPropertyOp20
 70
     1
102
RTVSPropertyOp21
 70
     1
102
RTVSPropertyOp22
 70
     1
102
RTVSPropertyOp23
 70
     1
102
RTVSPropertyOp24
 70
     1
102
RTVSPropertyOp25
 70
     1
102
RTVSPropertyOp26
 70
     1
102
RTVSPropertyOp27
 70
     1
102
RTVSPropertyOp28
 70
     1
102
RTVSPropertyOp29
 70
     1
102
RTVSPropertyOp30
 70
     1
102
RTVSPropertyOp31
 70
     1
102
RTVSPropertyOp32
 70
     1
102
RTVSPropertyOp33
 70
     1
102
RTVSPropertyOp34
 70
     1
102
RTVSPropertyOp35
 70
     1
102
RTVSPropertyOp36
 70
     1
102
RTVSPropertyOp37
 70
     1
102
RTVSPropertyOp38
 70
     1
102
RTVSPropertyOp39
 70
     1
102
RTVSPropertyOp40
 70
     1
102
RTVSPropertyOp41
 70
     1
102
RTVSPropertyOp42
 70
     1
102
RTVSPropertyOp43
 70
     1
102
RTVSPropertyOp44
 70
     1
102
RTVSPropertyOp45
 70
     1
102
RTVSPropertyOp46
 70
     1
102
RTVSPropertyOp47
 70
     1
102
RTVSPropertyOp48
 70
     1
102
RTVSPropertyOp49
 70
     1
102
RTVSPropertyOp50
 70
     1
102
RTVSPropertyOp51
 70
     0
102
RTVSPropertyOp52
 70
     0
102
RTVSPropertyOp53
 70
     1
102
RTVSPropertyOp54
 70
     1
102
RTVSPropertyOp55
 70
     1
102
RTVSPropertyOp56
 70
     1
102
RTVSPropertyOp57
 70
     1
102
RTVSPropertyOp58
 70
     1
102
RTVSPropertyOp59
 70
     1
102
RTVSPropertyOp60
 70
     1
102
RTVSPropertyOp61
 70
     1
102
RTVSPropertyOp62
 70
     1
  0
XRECORD
  5
8DAB
102
{ACAD_REACTORS
330
8DAA
102
}
330
8DAA
100
AcDbXrecord
280
     1
102
RTVSPost2010Prop28
280
     0
102
RTVSPost2010PropOp28
 70
     1
102
RTVSPost2010Prop29
280
     1
102
RTVSPost2010PropOp29
 70
     1
102
RTVSPost2010Prop30
280
     1
102
RTVSPost2010PropOp30
 70
     1
102
RTVSPost2010Prop31
280
     0
102
RTVSPost2010PropOp31
 70
     1
102
RTVSPost2010Prop32
280
     0
102
RTVSPost2010PropOp32
 70
     1
102
RTVSPost2010Prop33
280
     0
102
RTVSPost2010PropOp33
 70
     1
102
RTVSPost2010Prop34
280
     0
102
RTVSPost2010PropOp34
 70
     1
102
RTVSPost2010Prop35
280
     0
102
RTVSPost2010PropOp35
 70
     1
102
RTVSPost2010Prop36
280
     0
102
RTVSPost2010PropOp36
 70
     1
102
RTVSPost2010Prop37
 90
       50
102
RTVSPost2010PropOp37
 70
     1
102
RTVSPost2010Prop38
140
0.0
102
RTVSPost2010PropOp38
 70
     1
102
RTVSPost2010Prop39
140
1.0
102
RTVSPost2010PropOp39
 70
     1
102
RTVSPost2010Prop40
 90
        0
102
RTVSPost2010PropOp40
 70
     1
102
RTVSPost2010Prop41ColorIndex
 90
       18
102
RTVSPost2010Prop41ColorRGB
 90
        0
102
RTVSPost2010PropOp41
 70
     1
102
RTVSPost2010Prop42
 90
       50
102
RTVSPost2010PropOp42
 70
     1
102
RTVSPost2010Prop43
 90
        3
102
RTVSPost2010PropOp43
 70
     1
102
RTVSPost2010Prop44ColorIndex
 90
        5
102
RTVSPost2010Prop44ColorRGB
 90
      255
102
RTVSPost2010PropOp44
 70
     1
102
RTVSPost2010Prop45
280
     0
102
RTVSPost2010PropOp45
 70
     1
102
RTVSPost2010Prop46
 90
       50
102
RTVSPost2010PropOp46
 70
     1
102
RTVSPost2010Prop47
 90
       50
102
RTVSPost2010PropOp47
 70
     1
102
RTVSPost2010Prop48
 90
       50
102
RTVSPost2010PropOp48
 70
     1
102
RTVSPost2010Prop49
280
     0
102
RTVSPost2010PropOp49
 70
     1
102
RTVSPost2010Prop50
 90
       50
102
RTVSPost2010PropOp50
 70
     1
102
RTVSPost2010Prop51ColorIndex
 90
      256
102
RTVSPost2010Prop51ColorRGB
 90
-16777216
102
RTVSPost2010PropOp51
 70
     0
102
RTVSPost2010Prop52
140
1.0
102
RTVSPost2010PropOp52
 70
     0
102
RTVSPost2010Prop53
 90
        2
102
RTVSPost2010PropOp53
 70
     1
102
RTVSPost2010Prop54
  1
strokes_ogs.tif
102
RTVSPost2010PropOp54
 70
     1
102
RTVSPost2010Prop55
280
     0
102
RTVSPost2010PropOp55
 70
     1
102
RTVSPost2010Prop56
140
1.0
102
RTVSPost2010PropOp56
 70
     1
102
RTVSPost2010Prop57
140
1.0
102
RTVSPost2010PropOp57
 70
     1
102
RTVSPropertyOp0
 70
     1
102
RTVSPropertyOp1
 70
     1
102
RTVSPropertyOp2
 70
     1
102
RTVSPropertyOp3
 70
     1
102
RTVSPropertyOp4
 70
     1
102
RTVSPropertyOp5
 70
     1
102
RTVSPropertyOp6
 70
     1
102
RTVSPropertyOp7
 70
     1
102
RTVSPropertyOp8
 70
     1
102
RTVSPropertyOp9
 70
     1
102
RTVSPropertyOp10
 70
     1
102
RTVSPropertyOp11
 70
     1
102
RTVSPropertyOp12
 70
     1
102
RTVSPropertyOp13
 70
     1
102
RTVSPropertyOp14
 70
     1
102
RTVSPropertyOp15
 70
     1
102
RTVSPropertyOp16
 70
     1
102
RTVSPropertyOp17
 70
     1
102
RTVSPropertyOp18
 70
     1
102
RTVSPropertyOp19
 70
     1
102
RTVSPropertyOp20
 70
     1
102
RTVSPropertyOp21
 70
     1
102
RTVSPropertyOp22
 70
     1
102
RTVSPropertyOp23
 70
     1
102
RTVSPropertyOp24
 70
     1
102
RTVSPropertyOp25
 70
     1
102
RTVSPropertyOp26
 70
     1
102
RTVSPropertyOp27
 70
     1
102
RTVSPropertyOp28
 70
     1
102
RTVSPropertyOp29
 70
     1
102
RTVSPropertyOp30
 70
     1
102
RTVSPropertyOp31
 70
     1
102
RTVSPropertyOp32
 70
     1
102
RTVSPropertyOp33
 70
     1
102
RTVSPropertyOp34
 70
     1
102
RTVSPropertyOp35
 70
     1
102
RTVSPropertyOp36
 70
     1
102
RTVSPropertyOp37
 70
     1
102
RTVSPropertyOp38
 70
     1
102
RTVSPropertyOp39
 70
     1
102
RTVSPropertyOp40
 70
     1
102
RTVSPropertyOp41
 70
     1
102
RTVSPropertyOp42
 70
     1
102
RTVSPropertyOp43
 70
     1
102
RTVSPropertyOp44
 70
     1
102
RTVSPropertyOp45
 70
     1
102
RTVSPropertyOp46
 70
     1
102
RTVSPropertyOp47
 70
     1
102
RTVSPropertyOp48
 70
     1
102
RTVSPropertyOp49
 70
     1
102
RTVSPropertyOp50
 70
     1
102
RTVSPropertyOp51
 70
     0
102
RTVSPropertyOp52
 70
     0
102
RTVSPropertyOp53
 70
     1
102
RTVSPropertyOp54
 70
     1
102
RTVSPropertyOp55
 70
     1
102
RTVSPropertyOp56
 70
     1
102
RTVSPropertyOp57
 70
     1
102
RTVSPropertyOp58
 70
     1
102
RTVSPropertyOp59
 70
     1
102
RTVSPropertyOp60
 70
     1
102
RTVSPropertyOp61
 70
     1
102
RTVSPropertyOp62
 70
     1
  0
XRECORD
  5
8D9F
102
{ACAD_REACTORS
330
8D9E
102
}
330
8D9E
100
AcDbXrecord
280
     1
102
RTVSPost2010Prop28
280
     0
102
RTVSPost2010PropOp28
 70
     1
102
RTVSPost2010Prop29
280
     1
102
RTVSPost2010PropOp29
 70
     1
102
RTVSPost2010Prop30
280
     1
102
RTVSPost2010PropOp30
 70
     1
102
RTVSPost2010Prop31
280
     0
102
RTVSPost2010PropOp31
 70
     1
102
RTVSPost2010Prop32
280
     0
102
RTVSPost2010PropOp32
 70
     1
102
RTVSPost2010Prop33
280
     0
102
RTVSPost2010PropOp33
 70
     1
102
RTVSPost2010Prop34
280
     0
102
RTVSPost2010PropOp34
 70
     1
102
RTVSPost2010Prop35
280
     0
102
RTVSPost2010PropOp35
 70
     1
102
RTVSPost2010Prop36
280
     0
102
RTVSPost2010PropOp36
 70
     1
102
RTVSPost2010Prop37
 90
       50
102
RTVSPost2010PropOp37
 70
     1
102
RTVSPost2010Prop38
140
0.0
102
RTVSPost2010PropOp38
 70
     1
102
RTVSPost2010Prop39
140
1.0
102
RTVSPost2010PropOp39
 70
     1
102
RTVSPost2010Prop40
 90
        0
102
RTVSPost2010PropOp40
 70
     1
102
RTVSPost2010Prop41ColorIndex
 90
       18
102
RTVSPost2010Prop41ColorRGB
 90
        0
102
RTVSPost2010PropOp41
 70
     1
102
RTVSPost2010Prop42
 90
       50
102
RTVSPost2010PropOp42
 70
     1
102
RTVSPost2010Prop43
 90
        3
102
RTVSPost2010PropOp43
 70
     1
102
RTVSPost2010Prop44ColorIndex
 90
        5
102
RTVSPost2010Prop44ColorRGB
 90
      255
102
RTVSPost2010PropOp44
 70
     1
102
RTVSPost2010Prop45
280
     0
102
RTVSPost2010PropOp45
 70
     1
102
RTVSPost2010Prop46
 90
       50
102
RTVSPost2010PropOp46
 70
     1
102
RTVSPost2010Prop47
 90
       50
102
RTVSPost2010PropOp47
 70
     1
102
RTVSPost2010Prop48
 90
       50
102
RTVSPost2010PropOp48
 70
     1
102
RTVSPost2010Prop49
280
     0
102
RTVSPost2010PropOp49
 70
     1
102
RTVSPost2010Prop50
 90
       50
102
RTVSPost2010PropOp50
 70
     1
102
RTVSPost2010Prop51ColorIndex
 90
      256
102
RTVSPost2010Prop51ColorRGB
 90
-16777216
102
RTVSPost2010PropOp51
 70
     0
102
RTVSPost2010Prop52
140
1.0
102
RTVSPost2010PropOp52
 70
     0
102
RTVSPost2010Prop53
 90
        2
102
RTVSPost2010PropOp53
 70
     1
102
RTVSPost2010Prop54
  1
strokes_ogs.tif
102
RTVSPost2010PropOp54
 70
     1
102
RTVSPost2010Prop55
280
     0
102
RTVSPost2010PropOp55
 70
     1
102
RTVSPost2010Prop56
140
1.0
102
RTVSPost2010PropOp56
 70
     1
102
RTVSPost2010Prop57
140
1.0
102
RTVSPost2010PropOp57
 70
     1
102
RTVSPropertyOp0
 70
     1
102
RTVSPropertyOp1
 70
     1
102
RTVSPropertyOp2
 70
     1
102
RTVSPropertyOp3
 70
     1
102
RTVSPropertyOp4
 70
     1
102
RTVSPropertyOp5
 70
     1
102
RTVSPropertyOp6
 70
     1
102
RTVSPropertyOp7
 70
     1
102
RTVSPropertyOp8
 70
     1
102
RTVSPropertyOp9
 70
     1
102
RTVSPropertyOp10
 70
     1
102
RTVSPropertyOp11
 70
     1
102
RTVSPropertyOp12
 70
     1
102
RTVSPropertyOp13
 70
     1
102
RTVSPropertyOp14
 70
     1
102
RTVSPropertyOp15
 70
     1
102
RTVSPropertyOp16
 70
     1
102
RTVSPropertyOp17
 70
     1
102
RTVSPropertyOp18
 70
     1
102
RTVSPropertyOp19
 70
     1
102
RTVSPropertyOp20
 70
     1
102
RTVSPropertyOp21
 70
     1
102
RTVSPropertyOp22
 70
     1
102
RTVSPropertyOp23
 70
     1
102
RTVSPropertyOp24
 70
     1
102
RTVSPropertyOp25
 70
     1
102
RTVSPropertyOp26
 70
     1
102
RTVSPropertyOp27
 70
     1
102
RTVSPropertyOp28
 70
     1
102
RTVSPropertyOp29
 70
     1
102
RTVSPropertyOp30
 70
     1
102
RTVSPropertyOp31
 70
     1
102
RTVSPropertyOp32
 70
     1
102
RTVSPropertyOp33
 70
     1
102
RTVSPropertyOp34
 70
     1
102
RTVSPropertyOp35
 70
     1
102
RTVSPropertyOp36
 70
     1
102
RTVSPropertyOp37
 70
     1
102
RTVSPropertyOp38
 70
     1
102
RTVSPropertyOp39
 70
     1
102
RTVSPropertyOp40
 70
     1
102
RTVSPropertyOp41
 70
     1
102
RTVSPropertyOp42
 70
     1
102
RTVSPropertyOp43
 70
     1
102
RTVSPropertyOp44
 70
     1
102
RTVSPropertyOp45
 70
     1
102
RTVSPropertyOp46
 70
     1
102
RTVSPropertyOp47
 70
     1
102
RTVSPropertyOp48
 70
     1
102
RTVSPropertyOp49
 70
     1
102
RTVSPropertyOp50
 70
     1
102
RTVSPropertyOp51
 70
     0
102
RTVSPropertyOp52
 70
     0
102
RTVSPropertyOp53
 70
     1
102
RTVSPropertyOp54
 70
     1
102
RTVSPropertyOp55
 70
     1
102
RTVSPropertyOp56
 70
     1
102
RTVSPropertyOp57
 70
     1
102
RTVSPropertyOp58
 70
     1
102
RTVSPropertyOp59
 70
     1
102
RTVSPropertyOp60
 70
     1
102
RTVSPropertyOp61
 70
     1
102
RTVSPropertyOp62
 70
     1
  0
XRECORD
  5
8DB7
102
{ACAD_REACTORS
330
8DB6
102
}
330
8DB6
100
AcDbXrecord
280
     1
102
RTVSPost2010Prop28
280
     0
102
RTVSPost2010PropOp28
 70
     1
102
RTVSPost2010Prop29
280
     1
102
RTVSPost2010PropOp29
 70
     1
102
RTVSPost2010Prop30
280
     1
102
RTVSPost2010PropOp30
 70
     1
102
RTVSPost2010Prop31
280
     0
102
RTVSPost2010PropOp31
 70
     1
102
RTVSPost2010Prop32
280
     0
102
RTVSPost2010PropOp32
 70
     1
102
RTVSPost2010Prop33
280
     0
102
RTVSPost2010PropOp33
 70
     1
102
RTVSPost2010Prop34
280
     0
102
RTVSPost2010PropOp34
 70
     1
102
RTVSPost2010Prop35
280
     0
102
RTVSPost2010PropOp35
 70
     1
102
RTVSPost2010Prop36
280
     0
102
RTVSPost2010PropOp36
 70
     1
102
RTVSPost2010Prop37
 90
       50
102
RTVSPost2010PropOp37
 70
     1
102
RTVSPost2010Prop38
140
0.0
102
RTVSPost2010PropOp38
 70
     1
102
RTVSPost2010Prop39
140
1.0
102
RTVSPost2010PropOp39
 70
     1
102
RTVSPost2010Prop40
 90
        0
102
RTVSPost2010PropOp40
 70
     1
102
RTVSPost2010Prop41ColorIndex
 90
       18
102
RTVSPost2010Prop41ColorRGB
 90
        0
102
RTVSPost2010PropOp41
 70
     1
102
RTVSPost2010Prop42
 90
       50
102
RTVSPost2010PropOp42
 70
     1
102
RTVSPost2010Prop43
 90
        3
102
RTVSPost2010PropOp43
 70
     1
102
RTVSPost2010Prop44ColorIndex
 90
        5
102
RTVSPost2010Prop44ColorRGB
 90
      255
102
RTVSPost2010PropOp44
 70
     1
102
RTVSPost2010Prop45
280
     0
102
RTVSPost2010PropOp45
 70
     1
102
RTVSPost2010Prop46
 90
       50
102
RTVSPost2010PropOp46
 70
     1
102
RTVSPost2010Prop47
 90
       50
102
RTVSPost2010PropOp47
 70
     1
102
RTVSPost2010Prop48
 90
       50
102
RTVSPost2010PropOp48
 70
     1
102
RTVSPost2010Prop49
280
     0
102
RTVSPost2010PropOp49
 70
     1
102
RTVSPost2010Prop50
 90
       50
102
RTVSPost2010PropOp50
 70
     1
102
RTVSPost2010Prop51ColorIndex
 90
      256
102
RTVSPost2010Prop51ColorRGB
 90
-16777216
102
RTVSPost2010PropOp51
 70
     0
102
RTVSPost2010Prop52
140
1.0
102
RTVSPost2010PropOp52
 70
     0
102
RTVSPost2010Prop53
 90
        2
102
RTVSPost2010PropOp53
 70
     1
102
RTVSPost2010Prop54
  1
strokes_ogs.tif
102
RTVSPost2010PropOp54
 70
     1
102
RTVSPost2010Prop55
280
     0
102
RTVSPost2010PropOp55
 70
     1
102
RTVSPost2010Prop56
140
1.0
102
RTVSPost2010PropOp56
 70
     1
102
RTVSPost2010Prop57
140
1.0
102
RTVSPost2010PropOp57
 70
     1
102
RTVSPropertyOp0
 70
     1
102
RTVSPropertyOp1
 70
     1
102
RTVSPropertyOp2
 70
     1
102
RTVSPropertyOp3
 70
     1
102
RTVSPropertyOp4
 70
     1
102
RTVSPropertyOp5
 70
     1
102
RTVSPropertyOp6
 70
     1
102
RTVSPropertyOp7
 70
     1
102
RTVSPropertyOp8
 70
     1
102
RTVSPropertyOp9
 70
     1
102
RTVSPropertyOp10
 70
     1
102
RTVSPropertyOp11
 70
     1
102
RTVSPropertyOp12
 70
     1
102
RTVSPropertyOp13
 70
     1
102
RTVSPropertyOp14
 70
     1
102
RTVSPropertyOp15
 70
     1
102
RTVSPropertyOp16
 70
     1
102
RTVSPropertyOp17
 70
     1
102
RTVSPropertyOp18
 70
     1
102
RTVSPropertyOp19
 70
     1
102
RTVSPropertyOp20
 70
     1
102
RTVSPropertyOp21
 70
     1
102
RTVSPropertyOp22
 70
     1
102
RTVSPropertyOp23
 70
     1
102
RTVSPropertyOp24
 70
     1
102
RTVSPropertyOp25
 70
     1
102
RTVSPropertyOp26
 70
     1
102
RTVSPropertyOp27
 70
     1
102
RTVSPropertyOp28
 70
     1
102
RTVSPropertyOp29
 70
     1
102
RTVSPropertyOp30
 70
     1
102
RTVSPropertyOp31
 70
     1
102
RTVSPropertyOp32
 70
     1
102
RTVSPropertyOp33
 70
     1
102
RTVSPropertyOp34
 70
     1
102
RTVSPropertyOp35
 70
     1
102
RTVSPropertyOp36
 70
     1
102
RTVSPropertyOp37
 70
     1
102
RTVSPropertyOp38
 70
     1
102
RTVSPropertyOp39
 70
     1
102
RTVSPropertyOp40
 70
     1
102
RTVSPropertyOp41
 70
     1
102
RTVSPropertyOp42
 70
     1
102
RTVSPropertyOp43
 70
     1
102
RTVSPropertyOp44
 70
     1
102
RTVSPropertyOp45
 70
     1
102
RTVSPropertyOp46
 70
     1
102
RTVSPropertyOp47
 70
     1
102
RTVSPropertyOp48
 70
     1
102
RTVSPropertyOp49
 70
     1
102
RTVSPropertyOp50
 70
     1
102
RTVSPropertyOp51
 70
     0
102
RTVSPropertyOp52
 70
     0
102
RTVSPropertyOp53
 70
     1
102
RTVSPropertyOp54
 70
     1
102
RTVSPropertyOp55
 70
     1
102
RTVSPropertyOp56
 70
     1
102
RTVSPropertyOp57
 70
     1
102
RTVSPropertyOp58
 70
     1
102
RTVSPropertyOp59
 70
     1
102
RTVSPropertyOp60
 70
     1
102
RTVSPropertyOp61
 70
     1
102
RTVSPropertyOp62
 70
     1
  0
ENDSEC
  0
EOF
