  0
SECTION
  2
HEADER
  9
$ACADVER
  1
AC1009
  9
$INSBASE
 10
0.0
 20
0.0
 30
0.0
  9
$EXTMIN
 10
-6746.4204398848642
 20
-1817.2033734408101
 30
0.0
  9
$EXTMAX
 10
-2546.4204398848628
 20
4082.796626559189
 30
0.0
  9
$LIMMIN
 10
0.0
 20
0.0
  9
$LIMMAX
 10
297.0
 20
210.0
  9
$ORTHOMODE
 70
     0
  9
$REGENMODE
 70
     1
  9
$FILLMODE
 70
     0
  9
$QTEXTMODE
 70
     0
  9
$MIRRTEXT
 70
     1
  9
$DRAGMODE
 70
     2
  9
$LTSCALE
 40
100.0
  9
$OSMODE
 70
    37
  9
$ATTMODE
 70
     1
  9
$TEXTSIZE
 40
180.0
  9
$TRACEWID
 40
0.05
  9
$TEXTSTYLE
  7
STANDARD
  9
$CLAYER
  8
3
  9
$CELTYPE
  6
BYLAYER
  9
$CECOLOR
 62
   256
  9
$DIMSCALE
 40
20.0
  9
$DIMASZ
 40
2.0
  9
$DIMEXO
 40
0.5
  9
$DIMDLI
 40
10.0
  9
$DIMRND
 40
0.0
  9
$DIMDLE
 40
0.0
  9
$DIMEXE
 40
1.0
  9
$DIMTP
 40
1.0
  9
$DIMTM
 40
1.0
  9
$DIMTXT
 40
3.0
  9
$DIMCEN
 40
0.0
  9
$DIMTSZ
 40
0.0
  9
$DIMTOL
 70
     0
  9
$DIMLIM
 70
     0
  9
$DIMTIH
 70
     0
  9
$DIMTOH
 70
     0
  9
$DIMSE1
 70
     0
  9
$DIMSE2
 70
     0
  9
$DIMTAD
 70
     1
  9
$DIMZIN
 70
     8
  9
$DIMBLK
  1

  9
$DIMASO
 70
     1
  9
$DIMSHO
 70
     1
  9
$DIMPOST
  1

  9
$DIMAPOST
  1

  9
$DIMALT
 70
     0
  9
$DIMALTD
 70
     2
  9
$DIMALTF
 40
0.039
  9
$DIMLFAC
 40
1.0
  9
$DIMTOFL
 70
     1
  9
$DIMTVP
 40
0.0
  9
$DIMTIX
 70
     0
  9
$DIMSOXD
 70
     0
  9
$DIMSAH
 70
     1
  9
$DIMBLK1
  1
OPEN
  9
$DIMBLK2
  1
OPEN
  9
$DIMSTYLE
  2
IGA
  9
$DIMCLRD
 70
     0
  9
$DIMCLRE
 70
     0
  9
$DIMCLRT
 70
     0
  9
$DIMTFAC
 40
10.0
  9
$DIMGAP
 40
1.0
  9
$LUNITS
 70
     2
  9
$LUPREC
 70
     3
  9
$SKETCHINC
 40
0.1
  9
$FILLETRAD
 40
50.0
  9
$AUNITS
 70
     0
  9
$AUPREC
 70
     0
  9
$MENU
  1
acad
  9
$ELEVATION
 40
0.0
  9
$PELEVATION
 40
0.0
  9
$THICKNESS
 40
0.0
  9
$LIMCHECK
 70
     0
  9
$BLIPMODE
 70
     0
  9
$CHAMFERA
 40
0.5
  9
$CHAMFERB
 40
0.5
  9
$SKPOLY
 70
     0
  9
$TDCREATE
 40
2453249.427640046
  9
$TDUPDATE
 40
2454953.6299732281
  9
$TDINDWG
 40
0.0710514468
  9
$TDUSRTIMER
 40
0.0710514468
  9
$USRTIMER
 70
     1
  9
$ANGBASE
 50
0.0
  9
$ANGDIR
 70
     0
  9
$PDMODE
 70
     0
  9
$PDSIZE
 40
0.0
  9
$PLINEWID
 40
0.0
  9
$COORDS
 70
     1
  9
$SPLFRAME
 70
     0
  9
$SPLINETYPE
 70
     6
  9
$SPLINESEGS
 70
     8
  9
$ATTDIA
 70
     0
  9
$ATTREQ
 70
     1
  9
$HANDLING
 70
 10241
  9
$HANDSEED
  5
8912
  9
$SURFTAB1
 70
     6
  9
$SURFTAB2
 70
     6
  9
$SURFTYPE
 70
     6
  9
$SURFU
 70
     6
  9
$SURFV
 70
     6
  9
$UCSNAME
  2

  9
$UCSORG
 10
0.0
 20
0.0
 30
0.0
  9
$UCSXDIR
 10
1.0
 20
0.0
 30
0.0
  9
$UCSYDIR
 10
0.0
 20
1.0
 30
0.0
  9
$PUCSNAME
  2

  9
$PUCSORG
 10
0.0
 20
0.0
 30
0.0
  9
$PUCSXDIR
 10
1.0
 20
0.0
 30
0.0
  9
$PUCSYDIR
 10
0.0
 20
1.0
 30
0.0
  9
$USERI1
 70
     0
  9
$USERI2
 70
     0
  9
$USERI3
 70
     0
  9
$USERI4
 70
     0
  9
$USERI5
 70
     0
  9
$USERR1
 40
0.0
  9
$USERR2
 40
0.0
  9
$USERR3
 40
0.0
  9
$USERR4
 40
0.0
  9
$USERR5
 40
0.0
  9
$WORLDVIEW
 70
     1
  9
$SHADEDGE
 70
     3
  9
$SHADEDIF
 70
    70
  9
$TILEMODE
 70
     1
  9
$MAXACTVP
 70
    16
  9
$PLIMCHECK
 70
     0
  9
$PEXTMIN
 10
1.0000000000000000E+020
 20
1.0000000000000000E+020
 30
1.0000000000000000E+020
  9
$PEXTMAX
 10
-1.0000000000000000E+020
 20
-1.0000000000000000E+020
 30
-1.0000000000000000E+020
  9
$PLIMMIN
 10
0.0
 20
0.0
  9
$PLIMMAX
 10
12.0
 20
9.0
  9
$UNITMODE
 70
     0
  9
$VISRETAIN
 70
     0
  9
$PLINEGEN
 70
     0
  9
$PSLTSCALE
 70
     1
  0
ENDSEC
  0
SECTION
  2
TABLES
  0
TABLE
  2
VPORT
 70
     2
  0
VPORT
  2
*ACTIVE
 70
     0
 10
0.0
 20
0.0
 11
1.0
 21
1.0
 12
-2855.5247831103729
 22
-1094.324317619592
 13
0.0
 23
0.0
 14
10.0
 24
10.0
 15
10.0
 25
10.0
 16
0.0
 26
0.0
 36
1.0
 17
0.0
 27
0.0
 37
0.0
 40
1670.953818754326
 41
3.1666666666666661
 42
50.0
 43
0.0
 44
0.0
 50
0.0
 51
0.0
 71
     0
 72
   100
 73
     1
 74
     0
 75
     0
 76
     0
 77
     0
 78
     0
  0
ENDTAB
  0
TABLE
  2
LTYPE
 70
     2
  0
LTYPE
  2
CONTINUOUS
 70
     0
  3
Solid line
 72
    65
 73
     0
 40
0.0
  0
LTYPE
  2
CENTER
 70
     0
  3
____ _ ____ _ ____ _ ____ _ ____ _ ____ _ ____ 
 72
    65
 73
     4
 40
2.0
 49
1.25
 49
-0.25
 49
0.25
 49
-0.25
  0
ENDTAB
  0
TABLE
  2
LAYER
 70
     6
  0
LAYER
  2
0
 70
     0
 62
     7
  6
CONTINUOUS
  0
LAYER
  2
3
 70
     0
 62
     2
  6
CONTINUOUS
  0
LAYER
  2
2
 70
     0
 62
     3
  6
CENTER
  0
LAYER
  2
1
 70
     0
 62
     4
  6
CONTINUOUS
  0
LAYER
  2
4
 70
     0
 62
     7
  6
CONTINUOUS
  0
LAYER
  2
DEFPOINTS
 70
     0
 62
     7
  6
CONTINUOUS
  0
ENDTAB
  0
TABLE
  2
STYLE
 70
     1
  0
STYLE
  2
STANDARD
 70
     0
 40
0.0
 41
1.0
 50
0.0
 71
     0
 42
180.0
  3
simplex.shx
  4
extfont.shx
  0
ENDTAB
  0
TABLE
  2
VIEW
 70
     0
  0
ENDTAB
  0
TABLE
  2
UCS
 70
     0
  0
ENDTAB
  0
TABLE
  2
APPID
 70
     1
  0
APPID
  2
ACAD
 70
     0
  0
ENDTAB
  0
TABLE
  2
DIMSTYLE
 70
     3
  0
DIMSTYLE
  2
IGA
 70
     0
  3

  4

  5

  6
OPEN
  7
OPEN
 40
2.0
 41
2.0
 42
0.5
 43
10.0
 44
1.0
 45
0.0
 46
0.0
 47
1.0
 48
1.0
140
3.0
141
0.0
142
0.0
143
0.03937
144
1.0
145
0.0
146
10.0
147
1.0
 71
     0
 72
     0
 73
     0
 74
     0
 75
     0
 76
     0
 77
     1
 78
     8
170
     0
171
     2
172
     0
173
     1
174
     0
175
     0
176
     0
177
     0
178
     0
  0
DIMSTYLE
  2
MATSU
 70
     0
  3

  4

  5

  6
OPEN
  7
OPEN
 40
12.0
 41
2.0
 42
1.0
 43
10.0
 44
1.0
 45
0.0
 46
0.0
 47
0.0
 48
0.0
140
3.0
141
0.0
142
0.0
143
0.03937
144
1.0
145
0.0
146
1.0
147
0.5
 71
     0
 72
     0
 73
     0
 74
     0
 75
     0
 76
     0
 77
     1
 78
     8
170
     0
171
     2
172
     1
173
     1
174
     0
175
     0
176
   256
177
   256
178
   256
  0
DIMSTYLE
  2
STANDARD
 70
     0
  3

  4

  5

  6

  7

 40
1.0
 41
0.18
 42
0.0625
 43
0.38
 44
0.18
 45
0.0
 46
0.0
 47
0.0
 48
0.0
140
0.18
141
0.09
142
0.0
143
25.399999999999999
144
1.0
145
0.0
146
1.0
147
0.09
 71
     0
 72
     0
 73
     1
 74
     1
 75
     0
 76
     0
 77
     0
 78
     0
170
     0
171
     2
172
     0
173
     0
174
     0
175
     0
176
     0
177
     0
178
     0
  0
ENDTAB
  0
ENDSEC
  0
SECTION
  2
BLOCKS
  0
BLOCK
  8
0
  2
$MODEL_SPACE
 70
     0
 10
0.0
 20
0.0
 30
0.0
  3
$MODEL_SPACE
  1

  0
ENDBLK
  5
1B
  8
0
  0
BLOCK
 67
     1
  8
0
  2
$PAPER_SPACE
 70
     0
 10
0.0
 20
0.0
 30
0.0
  3
$PAPER_SPACE
  1

  0
ENDBLK
  5
18
 67
     1
  8
0
  0
BLOCK
  8
0
  2
_OPEN
 70
     0
 10
0.0
 20
0.0
 30
0.0
  3
_OPEN
  1

  0
LINE
  5
79FD
  8
0
  6
BYBLOCK
 62
     0
 10
-1.0
 20
0.1666666666666666
 30
0.0
 11
0.0
 21
0.0
 31
0.0
  0
LINE
  5
79FE
  8
0
  6
BYBLOCK
 62
     0
 10
0.0
 20
0.0
 30
0.0
 11
-1.0
 21
-0.1666666666666666
 31
0.0
  0
LINE
  5
79FF
  8
0
  6
BYBLOCK
 62
     0
 10
0.0
 20
0.0
 30
0.0
 11
-1.0
 21
0.0
 31
0.0
  0
ENDBLK
  5
7A01
  8
0
  0
BLOCK
  8
0
  2
_DOT
 70
     0
 10
0.0
 20
0.0
 30
0.0
  3
_DOT
  1

  0
POLYLINE
  5
8078
  8
0
  6
BYBLOCK
 62
     0
 66
     1
 10
0.0
 20
0.0
 30
0.0
 70
     1
 40
0.5
 41
0.5
  0
VERTEX
  5
88A4
  8
0
  6
BYBLOCK
 62
     0
 10
-0.25
 20
0.0
 30
0.0
 42
1.0
  0
VERTEX
  5
88A5
  8
0
  6
BYBLOCK
 62
     0
 10
0.25
 20
0.0
 30
0.0
 42
1.0
  0
SEQEND
  5
88A6
  8
0
  6
BYBLOCK
 62
     0
  0
LINE
  5
807C
  8
0
  6
BYBLOCK
 62
     0
 10
-0.5
 20
0.0
 30
0.0
 11
-1.0
 21
0.0
 31
0.0
  0
ENDBLK
  5
807D
  8
0
  0
BLOCK
  8
0
  2
*D2
 70
     1
 10
0.0
 20
0.0
 30
0.0
  3
*D2
  1

  0
LINE
  5
88A7
  8
3
 62
     0
 10
-6157.8919455255163
 20
-79.96387843161915
 30
0.0
 11
-6157.8919455255163
 21
-303.8104560496576
 31
0.0
  0
LINE
  5
88A8
  8
3
 62
     0
 10
-4957.8919455255127
 20
-79.96387843161915
 30
0.0
 11
-4957.8919455255127
 21
-303.8104560496576
 31
0.0
  0
LINE
  5
88A9
  8
3
 62
     0
 10
-6117.8919455255163
 20
-283.8104560496576
 30
0.0
 11
-4997.8919455255127
 21
-283.8104560496576
 31
0.0
  0
INSERT
  5
88AA
  8
3
 62
     0
  2
_OPEN
 10
-6157.8919455255163
 20
-283.8104560496576
 30
0.0
 41
40.0
 42
40.0
 43
40.0
 50
180.0
  0
INSERT
  5
88AB
  8
3
 62
     0
  2
_OPEN
 10
-4957.8919455255127
 20
-283.8104560496576
 30
0.0
 41
40.0
 42
40.0
 43
40.0
  0
TEXT
  8
3
  40
60
  5
8908
  62
0
  72
0
  71
0
 10
-5669.00
 20
-340.010
 30
0.000000
  1
1200
  0
POINT
  5
88AD
  8
DEFPOINTS
 62
     0
 10
-6157.8919455255163
 20
-69.96387843161915
 30
0.0
  0
POINT
  5
88AE
  8
DEFPOINTS
 62
     0
 10
-4957.8919455255127
 20
-69.96387843161915
 30
0.0
  0
POINT
  5
88AF
  8
DEFPOINTS
 62
     0
 10
-4957.8919455255127
 20
-283.8104560496576
 30
0.0
  0
ENDBLK
  5
8609
  8
0
  0
BLOCK
  8
0
  2
*D3
 70
     1
 10
0.0
 20
0.0
 30
0.0
  3
*D3
  1

  0
LINE
  5
88B0
  8
3
 62
     0
 10
-6167.8919455255136
 20
1350.0361215683799
 30
0.0
 11
-6425.8572390551381
 21
1350.0361215683799
 31
0.0
  0
LINE
  5
88B1
  8
3
 62
     0
 10
-6167.8919455255136
 20
230.03612156838079
 30
0.0
 11
-6425.8572390551381
 21
230.03612156838091
 31
0.0
  0
LINE
  5
88B2
  8
3
 62
     0
 10
-6405.8572390551371
 20
1310.0361215683799
 30
0.0
 11
-6405.8572390551371
 21
270.03612156838091
 31
0.0
  0
INSERT
  5
88B3
  8
3
 62
     0
  2
_OPEN
 10
-6405.8572390551371
 20
1350.0361215683799
 30
0.0
 41
40.0
 42
40.0
 43
40.0
 50
90.0
  0
INSERT
  5
88B4
  8
3
 62
     0
  2
_OPEN
 10
-6405.8572390551371
 20
230.03612156838091
 30
0.0
 41
40.0
 42
40.0
 43
40.0
 50
270.0
  0
TEXT
  8
3
  40
60
  5
8909
  62
0
  72
0
  71
0
 10
-6575.86
 20
713.982
 30
0.000000
  1
φ1120
  0
POINT
  5
88B6
  8
DEFPOINTS
 62
     0
 10
-6157.8919455255136
 20
1350.0361215683799
 30
0.0
  0
POINT
  5
88B7
  8
DEFPOINTS
 62
     0
 10
-6157.8919455255136
 20
230.03612156838079
 30
0.0
  0
POINT
  5
88B8
  8
DEFPOINTS
 62
     0
 10
-6405.8572390551371
 20
230.03612156838091
 30
0.0
  0
ENDBLK
  5
8616
  8
0
  0
BLOCK
  8
0
  2
*D4
 70
     1
 10
0.0
 20
0.0
 30
0.0
  3
*D4
  1

  0
LINE
  5
88B9
  8
3
 62
     0
 10
-4167.9014777753328
 20
800.03612156838085
 30
0.0
 11
-4167.9014777753328
 21
2090.6578207756529
 31
0.0
  0
LINE
  5
88BA
  8
3
 62
     0
 10
-2947.9014777753318
 20
800.03612156838085
 30
0.0
 11
-2947.9014777753318
 21
2090.6578207756529
 31
0.0
  0
LINE
  5
88BB
  8
3
 62
     0
 10
-4127.9014777753318
 20
2070.6578207756529
 30
0.0
 11
-2987.9014777753318
 21
2070.6578207756529
 31
0.0
  0
INSERT
  5
88BC
  8
3
 62
     0
  2
_OPEN
 10
-4167.9014777753328
 20
2070.6578207756529
 30
0.0
 41
40.0
 42
40.0
 43
40.0
 50
180.0
  0
INSERT
  5
88BD
  8
3
 62
     0
  2
_OPEN
 10
-2947.9014777753318
 20
2070.6578207756529
 30
0.0
 41
40.0
 42
40.0
 43
40.0
  0
TEXT
  8
3
  40
60
  5
890A
  62
0
  72
0
  71
0
 10
-3683.69
 20
2014.46
 30
0.000000
  1
1220
  0
POINT
  5
88BF
  8
DEFPOINTS
 62
     0
 10
-4167.9014777753328
 20
790.03612156838085
 30
0.0
  0
POINT
  5
88C0
  8
DEFPOINTS
 62
     0
 10
-2947.9014777753318
 20
790.03612156838085
 30
0.0
  0
POINT
  5
88C1
  8
DEFPOINTS
 62
     0
 10
-2947.9014777753318
 20
2070.6578207756529
 30
0.0
  0
ENDBLK
  5
862D
  8
0
  0
BLOCK
  8
0
  2
*D5
 70
     1
 10
0.0
 20
0.0
 30
0.0
  3
*D5
  1

  0
LINE
  5
88C2
  8
3
 62
     0
 10
-6107.8919455255154
 20
1410.0361215683799
 30
0.0
 11
-6107.8919455255154
 21
2143.9474688599471
 31
0.0
  0
LINE
  5
88C3
  8
3
 62
     0
 10
-5007.8919455255154
 20
1410.0361215683799
 30
0.0
 11
-5007.8919455255154
 21
2143.9474688599471
 31
0.0
  0
LINE
  5
88C4
  8
3
 62
     0
 10
-6067.8919455255154
 20
2123.9474688599471
 30
0.0
 11
-5047.8919455255154
 21
2123.9474688599471
 31
0.0
  0
INSERT
  5
88C5
  8
3
 62
     0
  2
_OPEN
 10
-6107.8919455255154
 20
2123.9474688599471
 30
0.0
 41
40.0
 42
40.0
 43
40.0
 50
180.0
  0
INSERT
  5
88C6
  8
3
 62
     0
  2
_OPEN
 10
-5007.8919455255154
 20
2123.9474688599471
 30
0.0
 41
40.0
 42
40.0
 43
40.0
  0
TEXT
  8
3
  40
60
  5
890B
  62
0
  72
0
  71
0
 10
-5664.05
 20
2067.75
 30
0.000000
  1
1100
  0
POINT
  5
88C8
  8
DEFPOINTS
 62
     0
 10
-6107.8919455255154
 20
1400.0361215683811
 30
0.0
  0
POINT
  5
88C9
  8
DEFPOINTS
 62
     0
 10
-5007.8919455255154
 20
1400.0361215683811
 30
0.0
  0
POINT
  5
88CA
  8
DEFPOINTS
 62
     0
 10
-5007.8919455255154
 20
2123.9474688599471
 30
0.0
  0
ENDBLK
  5
863A
  8
0
  0
BLOCK
  8
0
  2
*D6
 70
     1
 10
0.0
 20
0.0
 30
0.0
  3
*D6
  1

  0
LINE
  5
88CB
  8
3
 62
     0
 10
-4117.9014777753318
 20
-79.96387843161915
 30
0.0
 11
-4117.9014777753318
 21
-316.09120272710601
 31
0.0
  0
LINE
  5
88CC
  8
3
 62
     0
 10
-2997.9014777753318
 20
-79.96387843161915
 30
0.0
 11
-2997.9014777753318
 21
-316.09120272710601
 31
0.0
  0
LINE
  5
88CD
  8
3
 62
     0
 10
-4077.9014777753318
 20
-296.09120272710601
 30
0.0
 11
-3037.9014777753318
 21
-296.09120272710601
 31
0.0
  0
INSERT
  5
88CE
  8
3
 62
     0
  2
_OPEN
 10
-4117.9014777753318
 20
-296.09120272710601
 30
0.0
 41
40.0
 42
40.0
 43
40.0
 50
180.0
  0
INSERT
  5
88CF
  8
3
 62
     0
  2
_OPEN
 10
-2997.9014777753318
 20
-296.09120272710601
 30
0.0
 41
40.0
 42
40.0
 43
40.0
  0
TEXT
  8
3
  40
60
  5
890C
  62
0
  72
0
  71
0
 10
-3656.25
 20
-352.291
 30
0.000000
  1
1120
  0
POINT
  5
88D1
  8
DEFPOINTS
 62
     0
 10
-4117.9014777753318
 20
-69.96387843161915
 30
0.0
  0
POINT
  5
88D2
  8
DEFPOINTS
 62
     0
 10
-2997.9014777753318
 20
-69.96387843161915
 30
0.0
  0
POINT
  5
88D3
  8
DEFPOINTS
 62
     0
 10
-2997.9014777753318
 20
-296.09120272710601
 30
0.0
  0
ENDBLK
  5
8647
  8
0
  0
BLOCK
  8
0
  2
*D7
 70
     1
 10
0.0
 20
0.0
 30
0.0
  3
*D7
  1

  0
LINE
  5
88D4
  8
3
 62
     0
 10
-4257.3696492348381
 20
790.03612156838085
 30
0.0
 11
-4331.0628862655731
 21
790.03612156838085
 31
0.0
  0
LINE
  5
88D5
  8
3
 62
     0
 10
-4067.9014777753332
 20
90.036121568380864
 30
0.0
 11
-4331.0628862655731
 21
90.036121568380935
 31
0.0
  0
LINE
  5
88D6
  8
3
 62
     0
 10
-4311.0628862655722
 20
750.03612156838085
 30
0.0
 11
-4311.0628862655722
 21
130.03612156838091
 31
0.0
  0
INSERT
  5
88D7
  8
3
 62
     0
  2
_OPEN
 10
-4311.0628862655722
 20
790.03612156838085
 30
0.0
 41
40.0
 42
40.0
 43
40.0
 50
90.0
  0
INSERT
  5
88D8
  8
3
 62
     0
  2
_OPEN
 10
-4311.0628862655722
 20
90.036121568380935
 30
0.0
 41
40.0
 42
40.0
 43
40.0
 50
270.0
  0
TEXT
  8
3
  40
60
  5
890D
  62
0
  72
0
  71
0
 10
-4481.06
 20
329.969
 30
0.000000
  1
700
  0
POINT
  5
88DA
  8
DEFPOINTS
 62
     0
 10
-4247.3696492348372
 20
790.03612156838085
 30
0.0
  0
POINT
  5
88DB
  8
DEFPOINTS
 62
     0
 10
-4057.9014777753341
 20
90.036121568380864
 30
0.0
  0
POINT
  5
88DC
  8
DEFPOINTS
 62
     0
 10
-4311.0628862655722
 20
90.036121568380935
 30
0.0
  0
ENDBLK
  5
8655
  8
0
  0
BLOCK
  8
0
  2
*D8
 70
     1
 10
0.0
 20
0.0
 30
0.0
  3
*D8
  1

  0
LINE
  5
88DD
  8
3
 62
     0
 10
-4127.9014777753318
 20
-19.96387843161914
 30
0.0
 11
-4331.0629142706493
 21
-19.963878431619079
 31
0.0
  0
LINE
  5
88DE
  8
3
 62
     0
 10
-4127.9014777753318
 20
-69.96387843161915
 30
0.0
 11
-4331.0629142706493
 21
-69.963878431619079
 31
0.0
  0
LINE
  5
88DF
  8
3
 62
     0
 10
-4311.0629142706493
 20
20.036121568380899
 30
0.0
 11
-4311.0629142706493
 21
60.036121568380914
 31
0.0
  0
LINE
  5
88E0
  8
3
 62
     0
 10
-4311.0629142706493
 20
-109.96387843161909
 30
0.0
 11
-4311.0629142706493
 21
-287.1067355744762
 31
0.0
  0
LINE
  5
88E1
  8
3
 62
     0
 10
-4311.0629142706493
 20
-19.96387843161909
 30
0.0
 11
-4311.0629142706493
 21
-69.963878431619094
 31
0.0
  0
INSERT
  5
88E2
  8
3
 62
     0
  2
_DOT
 10
-4311.0629142706493
 20
-19.96387843161909
 30
0.0
 41
40.0
 42
40.0
 43
40.0
 50
270.0
  0
INSERT
  5
88E3
  8
3
 62
     0
  2
_OPEN
 10
-4311.0629142706493
 20
-69.963878431619094
 30
0.0
 41
40.0
 42
40.0
 43
40.0
 50
90.0
  0
TEXT
  8
3
  40
60
  5
890E
  62
0
  72
0
  71
0
 10
-4481.06
 20
-324.735
 30
0.000000
  1
50
  0
POINT
  5
88E5
  8
DEFPOINTS
 62
     0
 10
-4117.9014777753318
 20
-19.96387843161915
 30
0.0
  0
POINT
  5
88E6
  8
DEFPOINTS
 62
     0
 10
-4117.9014777753318
 20
-69.96387843161915
 30
0.0
  0
POINT
  5
88E7
  8
DEFPOINTS
 62
     0
 10
-4311.0629142706493
 20
-69.963878431619094
 30
0.0
  0
ENDBLK
  5
8673
  8
0
  0
BLOCK
  8
0
  2
*D9
 70
     1
 10
0.0
 20
0.0
 30
0.0
  3
*D9
  1

  0
LINE
  5
88E8
  8
3
 62
     0
 10
-4257.3696492348381
 20
790.03612156838085
 30
0.0
 11
-4593.4050451760922
 21
790.03612156838085
 31
0.0
  0
LINE
  5
88E9
  8
3
 62
     0
 10
-3567.9014777753332
 20
1892.0361215683811
 30
0.0
 11
-4593.4050451760922
 21
1892.0361215683811
 31
0.0
  0
LINE
  5
88EA
  8
3
 62
     0
 10
-4573.4050451760922
 20
830.03612156838085
 30
0.0
 11
-4573.4050451760922
 21
1852.0361215683811
 31
0.0
  0
INSERT
  5
88EB
  8
3
 62
     0
  2
_OPEN
 10
-4573.4050451760922
 20
790.03612156838085
 30
0.0
 41
40.0
 42
40.0
 43
40.0
 50
270.0
  0
INSERT
  5
88EC
  8
3
 62
     0
  2
_OPEN
 10
-4573.4050451760922
 20
1892.0361215683811
 30
0.0
 41
40.0
 42
40.0
 43
40.0
 50
90.0
  0
TEXT
  8
3
  40
60
  5
890F
  62
0
  72
0
  71
0
 10
-4743.41
 20
1247.79
 30
0.000000
  1
MAX.1250
  0
POINT
  5
88EE
  8
DEFPOINTS
 62
     0
 10
-4247.3696492348372
 20
790.03612156838085
 30
0.0
  0
POINT
  5
88EF
  8
DEFPOINTS
 62
     0
 10
-3557.9014777753332
 20
1892.0361215683811
 30
0.0
  0
POINT
  5
88F0
  8
DEFPOINTS
 62
     0
 10
-4573.4050451760922
 20
1892.0361215683811
 30
0.0
  0
ENDBLK
  5
86E8
  8
0
  0
BLOCK
  8
0
  2
*D10
 70
     1
 10
0.0
 20
0.0
 30
0.0
  3
*D10
  1

  0
LINE
  5
88F1
  8
3
 62
     0
 10
-4067.9014777753332
 20
90.036121568380864
 30
0.0
 11
-4331.0629142706493
 21
90.036121568380935
 31
0.0
  0
LINE
  5
88F2
  8
3
 62
     0
 10
-4127.9014777753318
 20
-19.96387843161914
 30
0.0
 11
-4331.0629142706493
 21
-19.963878431619079
 31
0.0
  0
LINE
  5
88F3
  8
3
 62
     0
 10
-4311.0629142706493
 20
130.03612156838091
 30
0.0
 11
-4311.0629142706493
 21
170.03612156838091
 31
0.0
  0
LINE
  5
88F4
  8
3
 62
     0
 10
-4311.0629142706493
 20
-59.963878431619086
 30
0.0
 11
-4311.0629142706493
 21
-99.963878431619122
 31
0.0
  0
LINE
  5
88F5
  8
3
 62
     0
 10
-4311.0629142706493
 20
35.036121568380914
 30
0.0
 11
-4432.5981336158138
 21
102.5177031776536
 31
0.0
  0
LINE
  5
88F6
  8
3
 62
     0
 10
-4432.5981336158138
 20
102.5177031776536
 30
0.0
 11
-4432.5981336158138
 21
273.94627460622502
 31
0.0
  0
TEXT
  8
3
  40
60
  5
8910
  62
0
  72
0
  71
0
 10
-4602.60
 20
82.0320
 30
0.000000
  1
110
  0
LINE
  5
88F8
  8
3
 62
     0
 10
-4311.0629142706493
 20
90.036121568380935
 30
0.0
 11
-4311.0629142706493
 21
-19.96387843161909
 31
0.0
  0
LINE
  5
88F9
  8
3
 62
     0
 10
-4311.0629142706493
 20
90.036121568380935
 30
0.0
 11
-4311.0629142706493
 21
-19.96387843161909
 31
0.0
  0
INSERT
  5
88FA
  8
3
 62
     0
  2
_OPEN
 10
-4311.0629142706493
 20
90.036121568380935
 30
0.0
 41
40.0
 42
40.0
 43
40.0
 50
270.0
  0
INSERT
  5
88FB
  8
3
 62
     0
  2
_DOT
 10
-4311.0629142706493
 20
-19.96387843161909
 30
0.0
 41
40.0
 42
40.0
 43
40.0
 50
90.0
  0
POINT
  5
88FC
  8
DEFPOINTS
 62
     0
 10
-4057.9014777753341
 20
90.036121568380864
 30
0.0
  0
POINT
  5
88FD
  8
DEFPOINTS
 62
     0
 10
-4117.9014777753318
 20
-19.96387843161915
 30
0.0
  0
POINT
  5
88FE
  8
DEFPOINTS
 62
     0
 10
-4311.0629142706493
 20
-19.96387843161909
 30
0.0
  0
ENDBLK
  5
87AC
  8
0
  0
BLOCK
  8
0
  2
*D11
 70
     1
 10
0.0
 20
0.0
 30
0.0
  3
*D11
  1

  0
LINE
  5
88FF
  8
3
 62
     0
 10
-4257.3696492348381
 20
790.03612156838085
 30
0.0
 11
-4590.9615463907221
 21
790.03612156838085
 31
0.0
  0
LINE
  5
8900
  8
3
 62
     0
 10
-4127.9014777753318
 20
-69.96387843161915
 30
0.0
 11
-4590.9615463907221
 21
-69.963878431619008
 31
0.0
  0
LINE
  5
8901
  8
3
 62
     0
 10
-4570.9615463907212
 20
750.03612156838096
 30
0.0
 11
-4570.9615463907212
 21
-29.963878431619008
 31
0.0
  0
INSERT
  5
8902
  8
3
 62
     0
  2
_OPEN
 10
-4570.9615463907212
 20
790.03612156838085
 30
0.0
 41
40.0
 42
40.0
 43
40.0
 50
90.0
  0
INSERT
  5
8903
  8
3
 62
     0
  2
_OPEN
 10
-4570.9615463907212
 20
-69.963878431619023
 30
0.0
 41
40.0
 42
40.0
 43
40.0
 50
270.0
  0
TEXT
  8
3
  40
60
  5
8911
  62
0
  72
0
  71
0
 10
-4740.96
 20
258.426
 30
0.000000
  1
860
  0
POINT
  5
8905
  8
DEFPOINTS
 62
     0
 10
-4247.3696492348372
 20
790.03612156838085
 30
0.0
  0
POINT
  5
8906
  8
DEFPOINTS
 62
     0
 10
-4117.9014777753318
 20
-69.96387843161915
 30
0.0
  0
POINT
  5
8907
  8
DEFPOINTS
 62
     0
 10
-4570.9615463907212
 20
-69.963878431619023
 30
0.0
  0
ENDBLK
  5
87F9
  8
0
  0
ENDSEC
  0
SECTION
  2
ENTITIES
  0
LINE
  5
7D76
  8
1
 10
-3660.4014777753318
 20
1461.0361215683811
 30
0.0
 11
-3719.9014777753318
 21
1461.0361215683811
 31
0.0
  0
LINE
  5
7D77
  8
1
 10
-3663.4014777753318
 20
1481.0361215683799
 30
0.0
 11
-3716.9014777753318
 21
1481.0361215683799
 31
0.0
  0
LINE
  5
7D78
  8
2
 10
-3362.4490547753339
 20
1641.0361215683799
 30
0.0
 11
-3753.3539007753329
 21
1641.0361215683799
 31
0.0
  0
LINE
  5
7D79
  8
1
 10
-3378.4899787753329
 20
1841.0361215683799
 30
0.0
 11
-3737.3129767753321
 21
1841.0361215683799
 31
0.0
  0
LINE
  5
7D7A
  8
1
 10
-3747.9014777753318
 20
1461.0361215683811
 30
0.0
 11
-3367.9014777753332
 21
1461.0361215683811
 31
0.0
  0
ARC
  5
7D7B
  8
1
 10
-3557.9014777753332
 20
1641.0361215683799
 30
0.0
 40
185.0
 50
287.94525099999993
 51
252.05474899999999
  0
LINE
  5
7D81
  8
1
 10
-3747.9014777753318
 20
1411.0361215683811
 30
0.0
 11
-3367.9014777753332
 21
1411.0361215683811
 31
0.0
  0
LINE
  5
7D82
  8
1
 10
-4057.9014777753341
 20
90.036121568380864
 30
0.0
 11
-3057.9014777753332
 21
90.036121568380864
 31
0.0
  0
LINE
  5
7D86
  8
2
 10
-4247.3696492348372
 20
790.03612156838085
 30
0.0
 11
-2854.1988597185391
 21
790.03612156838085
 31
0.0
  0
LINE
  5
7D89
  8
1
 10
-5126.8919455255136
 20
670.03612156838085
 30
0.0
 11
-5126.8919455255136
 21
1741.0361215683811
 31
0.0
  0
LINE
  5
7D8A
  8
1
 10
-5206.8919455255154
 20
670.03612156838085
 30
0.0
 11
-5206.8919455255154
 21
1741.0361215683811
 31
0.0
  0
LINE
  5
7D8B
  8
1
 10
-5012.3919455255136
 20
1400.036121568382
 30
0.0
 11
-5012.3919455255136
 21
304.03612156838079
 31
0.0
  0
LINE
  5
7D8C
  8
1
 10
-6103.3919455255154
 20
1400.036121568382
 30
0.0
 11
-6103.3919455255154
 21
304.03612156838079
 31
0.0
  0
LINE
  5
7D8D
  8
1
 10
-6107.8919455255154
 20
1400.0361215683811
 30
0.0
 11
-6107.8919455255154
 21
230.03612156838079
 31
0.0
  0
LINE
  5
7D8E
  8
1
 10
-5007.8919455255154
 20
1400.0361215683811
 30
0.0
 11
-5007.8919455255136
 21
230.03612156838091
 31
0.0
  0
LINE
  5
7D8F
  8
1
 10
-4957.8919455255136
 20
1351.0361215683799
 30
0.0
 11
-4957.8919455255154
 21
230.03612156838091
 31
0.0
  0
LINE
  5
7D90
  8
1
 10
-6157.8919455255136
 20
1351.0361215683799
 30
0.0
 11
-6157.8919455255154
 21
230.03612156838079
 31
0.0
  0
LINE
  5
7D91
  8
1
 10
-5003.8919455255154
 20
183.03612156838079
 30
0.0
 11
-5003.8919455255154
 21
1397.0361215683811
 31
0.0
  0
LINE
  5
7D92
  8
1
 10
-6111.8919455255127
 20
183.03612156838079
 30
0.0
 11
-6111.8919455255127
 21
1397.0361215683811
 31
0.0
  0
LINE
  5
7D94
  8
2
 10
-6207.8919455255136
 20
790.03612156838085
 30
0.0
 11
-4921.0544090327039
 21
790.03612156838085
 31
0.0
  0
LINE
  5
7D95
  8
1
 10
-6107.8919455255154
 20
230.03612156838079
 30
0.0
 11
-6157.8919455255136
 21
230.03612156838079
 31
0.0
  0
LINE
  5
7D96
  8
1
 10
-6118.3919455255136
 20
226.03612156838079
 30
0.0
 11
-6154.8919455255136
 21
226.03612156838079
 31
0.0
  0
LINE
  5
7D97
  8
1
 10
-6125.0829308473731
 20
202.53612156838079
 30
0.0
 11
-6086.7552450241847
 21
202.53612156838079
 31
0.0
  0
LINE
  5
7D98
  8
1
 10
-6157.8919455255136
 20
230.03612156838079
 30
0.0
 11
-6157.8919455255136
 21
229.03612156838079
 31
0.0
  0
ARC
  5
7D99
  8
1
 10
-6154.8919455255136
 20
229.03612156838079
 30
0.0
 40
3.0
 50
180.0
 51
270.0
  0
LINE
  5
7D9A
  8
1
 10
-6017.8919455255154
 20
1025.0361215683799
 30
0.0
 11
-6017.8919455255154
 21
555.03612156838085
 31
0.0
  0
LINE
  5
7D9B
  8
1
 10
-6032.8919455255136
 20
1025.0361215683799
 30
0.0
 11
-6032.8919455255136
 21
555.03612156838085
 31
0.0
  0
LINE
  5
7D9C
  8
1
 10
-5917.8919455255136
 20
1040.0361215683799
 30
0.0
 11
-5917.8919455255136
 21
540.03612156838085
 31
0.0
  0
LINE
  5
7D9D
  8
1
 10
-6087.8919455255136
 20
1040.0361215683799
 30
0.0
 11
-6087.8919455255136
 21
540.03612156838085
 31
0.0
  0
LINE
  5
7D9E
  8
1
 10
-6087.8919455255136
 20
555.03612156838085
 30
0.0
 11
-5917.8919455255136
 21
555.03612156838085
 31
0.0
  0
LINE
  5
7D9F
  8
1
 10
-6087.8919455255136
 20
540.03612156838085
 30
0.0
 11
-5917.8919455255136
 21
540.03612156838085
 31
0.0
  0
LINE
  5
7DA0
  8
1
 10
-5980.087067476733
 20
234.03612156838091
 30
0.0
 11
-5917.8919455255136
 21
540.03612156838085
 31
0.0
  0
LINE
  5
7DA1
  8
1
 10
-6025.6968235742952
 20
234.03612156838079
 30
0.0
 11
-6087.8919455255136
 21
540.03612156838085
 31
0.0
  0
LINE
  5
7DA2
  8
1
 10
-6025.6968235742952
 20
234.03612156838079
 30
0.0
 11
-5980.087067476732
 21
234.03612156838099
 31
0.0
  0
ARC
  5
7DA3
  8
1
 10
-6118.3919455255136
 20
219.53612156838079
 30
0.0
 40
6.5
 50
0.0
 51
90.0
  0
LINE
  5
7DA4
  8
1
 10
-6103.3919455255154
 20
180.03612156838079
 30
0.0
 11
-6107.8919455255154
 21
180.03612156838079
 31
0.0
  0
LINE
  5
7DA5
  8
1
 10
-6107.8919455255154
 20
180.03612156838079
 30
0.0
 11
-6108.8919455255127
 21
180.03612156838079
 31
0.0
  0
ARC
  5
7DA6
  8
1
 10
-6108.8919455255127
 20
183.03612156838079
 30
0.0
 40
3.0
 50
180.00000000000031
 51
270.0
  0
LINE
  5
7DA7
  8
1
 10
-6107.8919455255154
 20
230.03612156838079
 30
0.0
 11
-6107.8919455255154
 21
180.03612156838079
 31
0.0
  0
LINE
  5
7DA8
  8
1
 10
-6087.8919455255136
 20
1025.0361215683799
 30
0.0
 11
-5917.8919455255136
 21
1025.0361215683799
 31
0.0
  0
LINE
  5
7DA9
  8
1
 10
-6087.8919455255136
 20
1040.0361215683799
 30
0.0
 11
-5917.8919455255136
 21
1040.0361215683799
 31
0.0
  0
LINE
  5
7DAA
  8
1
 10
-6052.8919455255154
 20
850.03612156838085
 30
0.0
 11
-5952.8919455255136
 21
850.03612156838085
 31
0.0
  0
LINE
  5
7DAB
  8
1
 10
-6052.8919455255154
 20
730.03612156838085
 30
0.0
 11
-5952.8919455255136
 21
730.03612156838085
 31
0.0
  0
LINE
  5
7DAC
  8
1
 10
-6052.8919455255154
 20
850.03612156838085
 30
0.0
 11
-6052.8919455255154
 21
730.03612156838085
 31
0.0
  0
LINE
  5
7DAD
  8
1
 10
-5952.8919455255136
 20
850.03612156838085
 30
0.0
 11
-5952.8919455255136
 21
730.03612156838085
 31
0.0
  0
LINE
  5
7DAE
  8
1
 10
-5030.2015884743232
 20
202.53612156838079
 30
0.0
 11
-4984.2083714778864
 21
202.53612156838079
 31
0.0
  0
LINE
  5
7DAF
  8
1
 10
-5126.8919455255136
 20
670.03612156838085
 30
0.0
 11
-5206.8919455255154
 21
670.03612156838085
 31
0.0
  0
LINE
  5
7DB0
  8
1
 10
-5126.8919455255136
 20
910.03612156838085
 30
0.0
 11
-5206.8919455255154
 21
910.03612156838085
 31
0.0
  0
LINE
  5
7DB1
  8
1
 10
-4997.3919455255154
 20
226.03612156838079
 30
0.0
 11
-4960.8919455255136
 21
226.03612156838079
 31
0.0
  0
LINE
  5
7DB2
  8
1
 10
-4957.8919455255136
 20
230.03612156838079
 30
0.0
 11
-4957.8919455255136
 21
229.03612156838079
 31
0.0
  0
ARC
  5
7DB3
  8
1
 10
-4960.8919455255136
 20
229.03612156838079
 30
0.0
 40
3.0
 50
270.0
 51
0.0
  0
LINE
  5
7DB4
  8
1
 10
-4957.8919455255136
 20
230.03612156838079
 30
0.0
 11
-4957.8919455255136
 21
229.03612156838079
 31
0.0
  0
LINE
  5
7DB5
  8
1
 10
-5012.3919455255136
 20
180.03612156838079
 30
0.0
 11
-5007.8919455255136
 21
180.03612156838079
 31
0.0
  0
LINE
  5
7DB6
  8
1
 10
-5007.8919455255136
 20
180.03612156838079
 30
0.0
 11
-5006.8919455255154
 21
180.03612156838079
 31
0.0
  0
ARC
  5
7DB7
  8
1
 10
-5006.8919455255154
 20
183.03612156838079
 30
0.0
 40
3.0
 50
270.0
 51
359.9999999999996
  0
LINE
  5
7DB8
  8
1
 10
-5007.8919455255136
 20
180.03612156838079
 30
0.0
 11
-5006.8919455255154
 21
180.03612156838079
 31
0.0
  0
LINE
  5
7DB9
  8
1
 10
-5007.8919455255136
 20
230.03612156838079
 30
0.0
 11
-5007.8919455255136
 21
180.03612156838079
 31
0.0
  0
LINE
  5
7DBA
  8
1
 10
-5007.8919455255136
 20
230.03612156838079
 30
0.0
 11
-5007.8919455255136
 21
180.03612156838079
 31
0.0
  0
LINE
  5
7DBB
  8
1
 10
-5007.8919455255136
 20
230.03612156838079
 30
0.0
 11
-4957.8919455255136
 21
230.03612156838079
 31
0.0
  0
ARC
  5
7DBC
  8
1
 10
-4997.3919455255154
 20
219.53612156838079
 30
0.0
 40
6.5
 50
90.0
 51
180.0
  0
CIRCLE
  5
7DBD
  8
1
 10
-5478.3919455255154
 20
1862.0361215683799
 30
0.0
 40
17.5
  0
LINE
  5
7DBE
  8
1
 10
-5478.3919455255154
 20
1844.5361215683799
 30
0.0
 11
-5466.8373805255151
 21
1843.2981455683801
 31
0.0
  0
LINE
  5
7DBF
  8
1
 10
-5466.8373805255151
 20
1843.2981455683801
 30
0.0
 11
-5489.9465115255152
 21
1843.2981455683801
 31
0.0
  0
LINE
  5
7DC0
  8
1
 10
-5519.8602685255164
 20
1862.0361215683799
 30
0.0
 11
-5438.5098655255151
 21
1862.0361215683799
 31
0.0
  0
ARC
  5
7DC1
  8
1
 10
-5478.3919455255154
 20
1862.0361215683799
 30
0.0
 40
29.999988999999999
 50
305.60385099999991
 51
234.39613299999999
  0
LINE
  5
7DC2
  8
1
 10
-5419.3919455255136
 20
1765.0361215683799
 30
0.0
 11
-5537.3919455255154
 21
1765.0361215683799
 31
0.0
  0
LINE
  5
7DC3
  8
1
 10
-5540.3919455255154
 20
1758.0361215683799
 30
0.0
 11
-5416.3919455255136
 21
1758.0361215683799
 31
0.0
  0
LINE
  5
7DC4
  8
2
 10
-5538.7122585255147
 20
1691.0361215683799
 30
0.0
 11
-5414.7048115255138
 21
1691.0361215683799
 31
0.0
  0
LINE
  5
7DC5
  8
1
 10
-5422.8919455255136
 20
1467.0361215683799
 30
0.0
 11
-5478.3919455255154
 21
1467.0361215683799
 31
0.0
  0
LINE
  5
7DC6
  8
1
 10
-5537.3919455255154
 20
1543.33824556838
 30
0.0
 11
-5419.3919455255136
 21
1543.33824556838
 31
0.0
  0
LINE
  5
7DC7
  8
1
 10
-5416.3919455255136
 20
1563.33824556838
 30
0.0
 11
-5540.3919455255154
 21
1563.33824556838
 31
0.0
  0
LINE
  5
7DC8
  8
2
 10
-5811.8010035255156
 20
1641.0361215683799
 30
0.0
 11
-5117.1021505255158
 21
1641.0361215683799
 31
0.0
  0
LINE
  5
7DC9
  8
1
 10
-5358.3919455255136
 20
1832.0361215683799
 30
0.0
 11
-5478.3919455255154
 21
1832.0361215683799
 31
0.0
  0
LINE
  5
7DCA
  8
1
 10
-5289.8919455255136
 20
1455.0361215683799
 30
0.0
 11
-5665.8919455255154
 21
1455.0361215683799
 31
0.0
  0
LINE
  5
7DCB
  8
1
 10
-5289.8919455255136
 20
1461.0361215683811
 30
0.0
 11
-5665.8919455255154
 21
1461.0361215683811
 31
0.0
  0
LINE
  5
7DCC
  8
1
 10
-6103.3919455255154
 20
1354.536121568382
 30
0.0
 11
-5587.8919455255136
 21
1354.5361215683811
 31
0.0
  0
LINE
  5
7DCD
  8
1
 10
-5047.8919455255136
 20
1295.0361215683799
 30
0.0
 11
-6042.8919455255136
 21
1295.0361215683799
 31
0.0
  0
LINE
  5
7DCE
  8
1
 10
-5047.8919455255154
 20
1331.0361215683811
 30
0.0
 11
-6042.8919455255154
 21
1331.036121568382
 31
0.0
  0
LINE
  5
7DCF
  8
1
 10
-5337.8919455255136
 20
1417.0361215683799
 30
0.0
 11
-5617.8919455255136
 21
1417.0361215683799
 31
0.0
  0
LINE
  5
7DD0
  8
1
 10
-6118.3919455255136
 20
1354.0361215683799
 30
0.0
 11
-6154.8919455255136
 21
1354.0361215683799
 31
0.0
  0
LINE
  5
7DD1
  8
1
 10
-6125.0829308473731
 20
1377.5361215683811
 30
0.0
 11
-6086.7552450241847
 21
1377.5361215683811
 31
0.0
  0
LINE
  5
7DD2
  8
1
 10
-6157.8919455255136
 20
1350.0361215683799
 30
0.0
 11
-6157.8919455255136
 21
1351.0361215683799
 31
0.0
  0
ARC
  5
7DD3
  8
1
 10
-6154.8919455255136
 20
1351.0361215683799
 30
0.0
 40
3.0
 50
90.0
 51
180.0
  0
LINE
  5
7DD4
  8
1
 10
-5567.3919455255136
 20
1735.0361215683799
 30
0.0
 11
-5567.3919455255136
 21
1573.33824556838
 31
0.0
  0
LINE
  5
7DD5
  8
1
 10
-5560.3919455255136
 20
1738.0361215683799
 30
0.0
 11
-5560.3919455255136
 21
1583.33824556838
 31
0.0
  0
LINE
  5
7DD6
  8
1
 10
-5658.3919455255154
 20
1825.7227665683799
 30
0.0
 11
-5658.3919455255154
 21
1465.0361215683799
 31
0.0
  0
LINE
  5
7DD7
  8
1
 10
-5608.3919455255136
 20
1481.0361215683799
 30
0.0
 11
-5608.3919455255136
 21
1826.0361215683799
 31
0.0
  0
LINE
  5
7DD8
  8
1
 10
-5798.3919455255154
 20
1778.1494025683801
 30
0.0
 11
-5798.3919455255154
 21
1503.9228395683799
 31
0.0
  0
LINE
  5
7DD9
  8
1
 10
-5738.2919705255163
 20
1814.4088625683801
 30
0.0
 11
-5738.2919705255163
 21
1467.6624635683811
 31
0.0
  0
LINE
  5
7DDA
  8
1
 10
-5689.991921525515
 20
1467.5361215683811
 30
0.0
 11
-5689.991921525515
 21
1814.8494755683801
 31
0.0
  0
LINE
  5
7DDB
  8
2
 10
-5478.3919455255154
 20
1899.5342905683799
 30
0.0
 11
-5478.3919455255154
 21
1448.79088156838
 31
0.0
  0
LINE
  5
7DDC
  8
1
 10
-5683.1224145255146
 20
1465.0361215683799
 30
0.0
 11
-5645.2124536012034
 21
1465.0361215683799
 31
0.0
  0
LINE
  5
7DDE
  8
1
 10
-6042.8919455255136
 20
1331.0361215683811
 30
0.0
 11
-6042.8919455255136
 21
1295.0361215683799
 31
0.0
  0
LINE
  5
7DDF
  8
1
 10
-6103.3919455255154
 20
1400.0361215683811
 30
0.0
 11
-6107.8919455255154
 21
1400.0361215683811
 31
0.0
  0
LINE
  5
7DE0
  8
1
 10
-6107.8919455255154
 20
1400.0361215683811
 30
0.0
 11
-6108.8919455255127
 21
1400.0361215683811
 31
0.0
  0
ARC
  5
7DE1
  8
1
 10
-6108.8919455255127
 20
1397.0361215683811
 30
0.0
 40
3.0
 50
90.0
 51
179.9999999999996
  0
ARC
  5
7DE2
  8
1
 10
-6118.3919455255136
 20
1360.5361215683799
 30
0.0
 40
6.5
 50
270.0
 51
0.0
  0
LINE
  5
7DE3
  8
1
 10
-6107.8919455255154
 20
1350.0361215683799
 30
0.0
 11
-6107.8919455255154
 21
1400.0361215683811
 31
0.0
  0
LINE
  5
7DE4
  8
1
 10
-5743.8489765255163
 20
1469.5457645683809
 30
0.0
 11
-5795.8919455255136
 21
1499.59276156838
 31
0.0
  0
ARC
  5
7DE5
  8
1
 10
-5793.3919455255136
 20
1503.9228395683799
 30
0.0
 40
5.0
 50
180.0
 51
239.99972500000001
  0
LINE
  5
7DE6
  8
1
 10
-5736.3489765255163
 20
1467.5361215683811
 30
0.0
 11
-5689.991921525515
 21
1467.5361215683811
 31
0.0
  0
ARC
  5
7DE7
  8
1
 10
-5736.3489765255163
 20
1482.5361215683799
 30
0.0
 40
15.0
 50
239.999954
 51
270.0
  0
LINE
  5
7DE8
  8
1
 10
-5683.1224145255146
 20
1465.0361215683799
 30
0.0
 11
-5689.991921525515
 21
1467.5361215683811
 31
0.0
  0
LINE
  5
7DE9
  8
1
 10
-5671.8919455255154
 20
1449.0361215683799
 30
0.0
 11
-5671.8919455255154
 21
1411.0361215683811
 31
0.0
  0
LINE
  5
7DEA
  8
1
 10
-5677.8919455255154
 20
1449.0361215683799
 30
0.0
 11
-5677.8919455255154
 21
1411.0361215683811
 31
0.0
  0
LINE
  5
7DEB
  8
1
 10
-5617.8919455255136
 20
1331.0361215683811
 30
0.0
 11
-5617.8919455255136
 21
1439.0361215683799
 31
0.0
  0
LINE
  5
7DEC
  8
1
 10
-5637.8919455255136
 20
1439.0361215683799
 30
0.0
 11
-5637.8919455255136
 21
1331.0361215683811
 31
0.0
  0
LINE
  5
7DED
  8
2
 10
-5627.8919455255154
 20
1542.5023157417661
 30
0.0
 11
-5627.8919455255154
 21
1316.637617274343
 31
0.0
  0
LINE
  5
7DEE
  8
1
 10
-5671.8919455255154
 20
1411.0361215683811
 30
0.0
 11
-5677.8919455255154
 21
1411.0361215683811
 31
0.0
  0
LINE
  5
7DEF
  8
1
 10
-5637.8919455255136
 20
1417.0361215683799
 30
0.0
 11
-5671.8919455255154
 21
1417.0361215683799
 31
0.0
  0
LINE
  5
7DF0
  8
1
 10
-5618.3919455255136
 20
1481.0361215683799
 30
0.0
 11
-5561.3919455255136
 21
1481.0361215683799
 31
0.0
  0
LINE
  5
7DF1
  8
1
 10
-5538.8919455255154
 20
1461.0361215683811
 30
0.0
 11
-5621.3919455255136
 21
1461.0361215683811
 31
0.0
  0
LINE
  5
7DF2
  8
1
 10
-5598.8919455255136
 20
1485.1380495683809
 30
0.0
 11
-5598.8919455255136
 21
1457.2072635683801
 31
0.0
  0
ARC
  5
7DF3
  8
1
 10
-5603.780495525516
 20
1484.0361215683799
 30
0.0
 40
3.0
 50
270.0
 51
0.0
  0
LINE
  5
7DF4
  8
1
 10
-5617.8919455255136
 20
1508.5361215683811
 30
0.0
 11
-5637.8919455255136
 21
1508.5361215683811
 31
0.0
  0
LINE
  5
7DF5
  8
1
 10
-5612.8919455255154
 20
1477.0361215683799
 30
0.0
 11
-5610.5714374498248
 21
1475.696375606225
 31
0.0
  0
ARC
  5
7DF6
  8
1
 10
-5614.9015644687479
 20
1469.3686533231121
 30
0.0
 40
7.6674682452691139
 50
55.615752531956161
 51
124.3842474680438
  0
LINE
  5
7DF7
  8
1
 10
-5642.8919455255154
 20
1477.0361215683799
 30
0.0
 11
-5645.2124536012034
 21
1475.696375606225
 31
0.0
  0
ARC
  5
7DF8
  8
1
 10
-5640.8823265822812
 20
1469.3686533231121
 30
0.0
 40
7.6674682452691139
 50
55.615752531956161
 51
124.3842474680438
  0
ARC
  5
7DF9
  8
1
 10
-5627.8919455255154
 20
1448.375867530536
 30
0.0
 40
28.66025403784414
 50
72.412046226006169
 51
107.5879537739938
  0
LINE
  5
7DFA
  8
1
 10
-5610.5714374498248
 20
1455.0361215683799
 30
0.0
 11
-5645.2124536012043
 21
1455.0361215683799
 31
0.0
  0
LINE
  5
7DFB
  8
1
 10
-5645.2124536012034
 20
1461.0361215683811
 30
0.0
 11
-5610.5714374498248
 21
1461.0361215683811
 31
0.0
  0
LINE
  5
7DFC
  8
1
 10
-5645.2124536012034
 20
1475.696375606225
 30
0.0
 11
-5645.2124536012034
 21
1461.0361215683811
 31
0.0
  0
LINE
  5
7DFD
  8
1
 10
-5636.552199563359
 20
1475.696375606225
 30
0.0
 11
-5636.552199563359
 21
1461.0361215683811
 31
0.0
  0
LINE
  5
7DFE
  8
1
 10
-5619.2316914876692
 20
1475.696375606225
 30
0.0
 11
-5619.2316914876692
 21
1461.0361215683811
 31
0.0
  0
LINE
  5
7DFF
  8
1
 10
-5610.5714374498248
 20
1475.696375606225
 30
0.0
 11
-5610.5714374498248
 21
1461.0361215683811
 31
0.0
  0
LINE
  5
7E00
  8
1
 10
-5642.8919455255154
 20
1477.0361215683799
 30
0.0
 11
-5612.8919455255154
 21
1477.0361215683799
 31
0.0
  0
LINE
  5
7E01
  8
1
 10
-5617.8919455255136
 20
1477.0361215683799
 30
0.0
 11
-5617.8919455255136
 21
1508.5361215683811
 31
0.0
  0
LINE
  5
7E02
  8
1
 10
-5637.8919455255136
 20
1508.5361215683811
 30
0.0
 11
-5637.8919455255136
 21
1477.0361215683799
 31
0.0
  0
ARC
  5
7E03
  8
1
 10
-5627.8919455255154
 20
1467.696375606225
 30
0.0
 40
28.66025403784414
 50
252.41204622600611
 51
287.58795377399377
  0
LINE
  5
7E04
  8
1
 10
-5612.8919455255154
 20
1439.0361215683799
 30
0.0
 11
-5642.8919455255154
 21
1439.0361215683799
 31
0.0
  0
LINE
  5
7E05
  8
1
 10
-5642.8919455255154
 20
1439.0361215683799
 30
0.0
 11
-5645.2124536012034
 21
1440.375867530536
 31
0.0
  0
ARC
  5
7E06
  8
1
 10
-5640.8823265822812
 20
1446.7035898136489
 30
0.0
 40
7.6674682452691139
 50
235.6157525319561
 51
304.38424746804378
  0
LINE
  5
7E07
  8
1
 10
-5612.8919455255154
 20
1439.0361215683799
 30
0.0
 11
-5610.5714374498248
 21
1440.375867530536
 31
0.0
  0
ARC
  5
7E08
  8
1
 10
-5614.9015644687479
 20
1446.7035898136489
 30
0.0
 40
7.6674682452691139
 50
235.6157525319561
 51
304.38424746804378
  0
ARC
  5
7E09
  8
1
 10
-5665.8919455255154
 20
1449.0361215683799
 30
0.0
 40
12.0
 50
90.0
 51
180.0
  0
ARC
  5
7E0A
  8
1
 10
-5665.8919455255154
 20
1449.0361215683799
 30
0.0
 40
6.0
 50
90.0
 51
180.0
  0
LINE
  5
7E0B
  8
1
 10
-5636.552199563359
 20
1440.375867530536
 30
0.0
 11
-5636.552199563359
 21
1455.0361215683799
 31
0.0
  0
LINE
  5
7E0C
  8
1
 10
-5645.2124536012034
 20
1440.375867530536
 30
0.0
 11
-5645.2124536012034
 21
1455.0361215683799
 31
0.0
  0
LINE
  5
7E0D
  8
1
 10
-5610.5714374498248
 20
1440.375867530536
 30
0.0
 11
-5610.5714374498248
 21
1455.0361215683799
 31
0.0
  0
LINE
  5
7E0E
  8
1
 10
-5619.2316914876692
 20
1440.375867530536
 30
0.0
 11
-5619.2316914876692
 21
1455.0361215683799
 31
0.0
  0
LINE
  5
7E0F
  8
1
 10
-5493.3919455255136
 20
1502.099841568381
 30
0.0
 11
-5493.3919455255136
 21
1534.1149785683799
 31
0.0
  0
ARC
  5
7E10
  8
1
 10
-5513.3919455255154
 20
1502.099841568381
 30
0.0
 40
19.999980999999998
 50
271.26357999999999
 51
0.0
  0
ARC
  5
7E11
  8
1
 10
-5533.8919455255136
 20
1462.0361215683811
 30
0.0
 40
5.0
 50
90.0
 51
180.0
  0
LINE
  5
7E12
  8
1
 10
-5538.8919455255154
 20
1462.0361215683811
 30
0.0
 11
-5538.8919455255154
 21
1461.0361215683811
 31
0.0
  0
ARC
  5
7E13
  8
1
 10
-5540.3919455255154
 20
1583.33824556838
 30
0.0
 40
20.0
 50
180.0
 51
270.0
  0
ARC
  5
7E14
  8
1
 10
-5537.3919455255154
 20
1573.33824556838
 30
0.0
 40
30.0
 50
180.0
 51
270.0
  0
LINE
  5
7E15
  8
1
 10
-5533.8919455255136
 20
1467.0361215683799
 30
0.0
 11
-5478.3919455255154
 21
1467.0361215683799
 31
0.0
  0
LINE
  5
7E16
  8
1
 10
-5512.9509055255148
 20
1482.1047245683801
 30
0.0
 11
-5561.3919455255136
 21
1481.0361215683799
 31
0.0
  0
LINE
  5
7E17
  8
1
 10
-5661.7053005255148
 20
1824.830310568381
 30
0.0
 11
-5686.6785665255147
 21
1815.741931568381
 31
0.0
  0
LINE
  5
7E18
  8
1
 10
-5743.8489765255163
 20
1812.5264775683811
 30
0.0
 11
-5795.8919455255136
 21
1782.47948056838
 31
0.0
  0
ARC
  5
7E19
  8
1
 10
-5793.3919455255136
 20
1778.1494025683801
 30
0.0
 40
5.0
 50
120.000282
 51
180.0
  0
LINE
  5
7E1A
  8
1
 10
-5736.3489765255163
 20
1814.5361215683799
 30
0.0
 11
-5693.518166525515
 21
1814.5361215683799
 31
0.0
  0
ARC
  5
7E1B
  8
1
 10
-5736.3489765255163
 20
1799.5361215683799
 30
0.0
 40
15.0
 50
90.0
 51
120.000046
  0
ARC
  5
7E1C
  8
1
 10
-5693.518166525515
 20
1834.5361215683799
 30
0.0
 40
20.0
 50
270.0
 51
289.99749800000001
  0
LINE
  5
7E1D
  8
1
 10
-5598.3919455255154
 20
1832.0361215683799
 30
0.0
 11
-5478.3919455255154
 21
1832.0361215683799
 31
0.0
  0
LINE
  5
7E1E
  8
1
 10
-5598.3919455255154
 20
1832.0361215683799
 30
0.0
 11
-5608.3919455255136
 21
1823.78209256838
 31
0.0
  0
ARC
  5
7E1F
  8
1
 10
-5654.8657005255154
 20
1806.0361215683799
 30
0.0
 40
20.0
 50
90.0
 51
109.997505
  0
LINE
  5
7E20
  8
1
 10
-5654.8657005255154
 20
1826.0361215683799
 30
0.0
 11
-5608.3919455255136
 21
1826.0361215683799
 31
0.0
  0
ARC
  5
7E21
  8
1
 10
-5478.3919455255154
 20
1862.0361215683799
 30
0.0
 40
30.0
 50
234.39613299999999
 51
234.80995200000001
  0
ARC
  5
7E22
  8
1
 10
-5489.6269315255158
 20
1840.31523456838
 30
0.0
 40
3.0
 50
96.115172999999999
 51
174.80557300000001
  0
LINE
  5
7E23
  8
1
 10
-5478.3919455255154
 20
1844.5361215683799
 30
0.0
 11
-5489.9465115255152
 21
1843.2981455683801
 31
0.0
  0
ARC
  5
7E24
  8
1
 10
-5499.3503195255153
 20
1832.7659185683799
 30
0.0
 40
6.0
 50
354.80557299999992
 51
54.396262999999998
  0
LINE
  5
7E25
  8
1
 10
-5492.6146015255163
 20
1840.586841568381
 30
0.0
 11
-5493.3919455255136
 21
1832.0361215683799
 31
0.0
  0
ARC
  5
7E26
  8
1
 10
-5537.3919455255154
 20
1735.0361215683799
 30
0.0
 40
30.0
 50
90.0
 51
180.0
  0
ARC
  5
7E27
  8
1
 10
-5540.3919455255154
 20
1738.0361215683799
 30
0.0
 40
20.0
 50
90.0
 51
180.0
  0
LINE
  5
7E28
  8
1
 10
-5091.8919455255154
 20
1354.536121568374
 30
0.0
 11
-5012.3919455255136
 21
1354.5361215683929
 31
0.0
  0
LINE
  5
7E29
  8
1
 10
-5030.2015884743232
 20
1377.5361215683811
 30
0.0
 11
-4984.2083714778864
 21
1377.5361215683811
 31
0.0
  0
LINE
  5
7E2A
  8
1
 10
-5136.8919455255154
 20
1617.0361215683799
 30
0.0
 11
-5136.8919455255154
 21
1665.0361215683779
 31
0.0
  0
LINE
  5
7E2B
  8
1
 10
-5236.8919455255136
 20
1616.0361215683799
 30
0.0
 11
-5236.8919455255136
 21
1666.0361215683799
 31
0.0
  0
LINE
  5
7E2C
  8
1
 10
-5246.8919455255154
 20
1704.0361215683799
 30
0.0
 11
-5246.8919455255154
 21
1641.0361215683799
 31
0.0
  0
LINE
  5
7E2D
  8
1
 10
-5323.3919455255136
 20
1806.0361215683799
 30
0.0
 11
-5323.3919455255136
 21
1641.0361215683799
 31
0.0
  0
LINE
  5
7E2E
  8
1
 10
-5389.3919455255136
 20
1735.0361215683799
 30
0.0
 11
-5389.3919455255136
 21
1573.33824556838
 31
0.0
  0
LINE
  5
7E2F
  8
1
 10
-5396.3919455255154
 20
1738.0361215683799
 30
0.0
 11
-5396.3919455255154
 21
1583.33824556838
 31
0.0
  0
LINE
  5
7E30
  8
1
 10
-5231.8919455255136
 20
1320.7389328161521
 30
0.0
 11
-5231.8919455255136
 21
1841.0361215683799
 31
0.0
  0
LINE
  5
7E31
  8
1
 10
-5091.8919455255154
 20
1320.7389328161521
 30
0.0
 11
-5091.8919455255154
 21
1841.0361215683799
 31
0.0
  0
LINE
  5
7E32
  8
1
 10
-5217.8919455255154
 20
1511.0361215683799
 30
0.0
 11
-5277.8919455255154
 21
1511.0361215683799
 31
0.0
  0
LINE
  5
7E33
  8
1
 10
-5268.3367695255138
 20
1502.1389045683809
 30
0.0
 11
-5291.5105975255146
 21
1478.9650765683809
 31
0.0
  0
LINE
  5
7E34
  8
1
 10
-5266.1233134068661
 20
1431.0361215683799
 30
0.0
 11
-5290.5803725535443
 21
1431.0361215683799
 31
0.0
  0
LINE
  5
7E35
  8
1
 10
-5283.8919455255136
 20
1449.0361215683799
 30
0.0
 11
-5283.8919455255136
 21
1411.0361215683811
 31
0.0
  0
LINE
  5
7E36
  8
1
 10
-5317.8919455255154
 20
1331.0361215683811
 30
0.0
 11
-5317.8919455255154
 21
1439.0361215683799
 31
0.0
  0
LINE
  5
7E37
  8
1
 10
-5337.8919455255136
 20
1439.0361215683799
 30
0.0
 11
-5337.8919455255136
 21
1331.0361215683811
 31
0.0
  0
LINE
  5
7E38
  8
2
 10
-5327.8919455255136
 20
1542.5023157417661
 30
0.0
 11
-5327.8919455255136
 21
1316.637617274343
 31
0.0
  0
LINE
  5
7E39
  8
1
 10
-5277.8919455255154
 20
1511.0361215683811
 30
0.0
 11
-5277.8919455255154
 21
1331.0361215683811
 31
0.0
  0
LINE
  5
7E3A
  8
1
 10
-5277.8919455255154
 20
1411.0361215683811
 30
0.0
 11
-5283.8919455255136
 21
1411.0361215683811
 31
0.0
  0
LINE
  5
7E3B
  8
1
 10
-5283.8919455255136
 20
1417.0361215683799
 30
0.0
 11
-5317.8919455255154
 21
1417.0361215683799
 31
0.0
  0
LINE
  5
7E3C
  8
1
 10
-5417.8919455255136
 20
1461.0361215683811
 30
0.0
 11
-5335.3919455255154
 21
1461.0361215683811
 31
0.0
  0
LINE
  5
7E3D
  8
1
 10
-5338.3919455255154
 20
1481.0361215683799
 30
0.0
 11
-5395.3919455255136
 21
1481.0361215683799
 31
0.0
  0
ARC
  5
7E3E
  8
1
 10
-5422.8919455255136
 20
1462.0361215683811
 30
0.0
 40
5.0
 50
0.0
 51
90.0
  0
LINE
  5
7E3F
  8
1
 10
-5417.8919455255136
 20
1462.0361215683811
 30
0.0
 11
-5417.8919455255136
 21
1461.0361215683811
 31
0.0
  0
LINE
  5
7E40
  8
1
 10
-5443.8329855255151
 20
1482.1047245683801
 30
0.0
 11
-5395.3919455255136
 21
1481.0361215683799
 31
0.0
  0
LINE
  5
7E41
  8
1
 10
-5463.3919455255154
 20
1502.099841568381
 30
0.0
 11
-5463.3919455255154
 21
1534.1149785683799
 31
0.0
  0
ARC
  5
7E42
  8
1
 10
-5443.3919455255136
 20
1502.099841568381
 30
0.0
 40
20.0
 50
180.0
 51
268.73642000000001
  0
ARC
  5
7E43
  8
1
 10
-5416.3919455255136
 20
1583.33824556838
 30
0.0
 40
20.0
 50
270.0
 51
0.0
  0
ARC
  5
7E44
  8
1
 10
-5419.3919455255136
 20
1573.33824556838
 30
0.0
 40
30.0
 50
270.0
 51
0.0
  0
LINE
  5
7E45
  8
1
 10
-5317.8919455255154
 20
1508.5361215683811
 30
0.0
 11
-5337.8919455255136
 21
1508.5361215683811
 31
0.0
  0
LINE
  5
7E46
  8
1
 10
-5357.8919455255154
 20
1485.1380495683809
 30
0.0
 11
-5357.8919455255154
 21
1457.2072635683801
 31
0.0
  0
LINE
  5
7E47
  8
1
 10
-5298.5816425255152
 20
1476.0361215683799
 30
0.0
 11
-5311.1154138522843
 21
1476.0361215683799
 31
0.0
  0
LINE
  5
7E48
  8
1
 10
-5337.8919455255136
 20
1482.7758920683809
 30
0.0
 11
-5338.3919455255154
 21
1481.0361215683799
 31
0.0
  0
ARC
  5
7E49
  8
1
 10
-5338.3919455255154
 20
1478.0361215683811
 30
0.0
 40
3.0
 50
80.405931773139471
 51
90.0
  0
ARC
  5
7E4A
  8
1
 10
-5298.5816425255152
 20
1486.0361215683811
 30
0.0
 40
10.0
 50
270.0
 51
315.0
  0
LINE
  5
7E4B
  8
1
 10
-5345.2124536012034
 20
1461.036121568382
 30
0.0
 11
-5310.5714374498257
 21
1461.036121568382
 31
0.0
  0
LINE
  5
7E4C
  8
1
 10
-5342.8919455255154
 20
1477.036121568382
 30
0.0
 11
-5312.8919455255136
 21
1477.036121568382
 31
0.0
  0
ARC
  5
7E4D
  8
1
 10
-5327.8919455255136
 20
1448.3758675305371
 30
0.0
 40
28.66025403784414
 50
72.412046226006169
 51
107.5879537739938
  0
LINE
  5
7E4E
  8
1
 10
-5336.552199563359
 20
1475.696375606226
 30
0.0
 11
-5336.552199563359
 21
1461.036121568382
 31
0.0
  0
LINE
  5
7E4F
  8
1
 10
-5345.2124536012034
 20
1475.696375606226
 30
0.0
 11
-5345.2124536012034
 21
1461.036121568382
 31
0.0
  0
ARC
  5
7E50
  8
1
 10
-5340.8823265822812
 20
1469.368653323113
 30
0.0
 40
7.6674682452691139
 50
55.615752531956161
 51
124.3842474680438
  0
LINE
  5
7E51
  8
1
 10
-5342.8919455255154
 20
1477.036121568382
 30
0.0
 11
-5345.2124536012034
 21
1475.696375606226
 31
0.0
  0
LINE
  5
7E52
  8
1
 10
-5310.5714374498257
 20
1475.696375606226
 30
0.0
 11
-5310.5714374498257
 21
1461.036121568382
 31
0.0
  0
LINE
  5
7E53
  8
1
 10
-5319.2316914876701
 20
1475.696375606226
 30
0.0
 11
-5319.2316914876701
 21
1461.036121568382
 31
0.0
  0
LINE
  5
7E54
  8
1
 10
-5327.8919455255136
 20
1484.0360734582539
 30
0.0
 11
-5327.8919455255136
 21
1454.2284128962251
 31
0.0
  0
ARC
  5
7E55
  8
1
 10
-5314.9015644687479
 20
1469.368653323113
 30
0.0
 40
7.6674682452691139
 50
55.615752531956161
 51
124.3842474680438
  0
LINE
  5
7E56
  8
1
 10
-5312.8919455255136
 20
1477.036121568382
 30
0.0
 11
-5310.5714374498257
 21
1475.696375606226
 31
0.0
  0
LINE
  5
7E57
  8
1
 10
-5310.5714374498257
 20
1455.0361215683799
 30
0.0
 11
-5345.2124536012034
 21
1455.0361215683799
 31
0.0
  0
LINE
  5
7E58
  8
1
 10
-5337.8919455255136
 20
1508.5361215683811
 30
0.0
 11
-5337.8919455255136
 21
1477.036121568382
 31
0.0
  0
LINE
  5
7E59
  8
1
 10
-5317.8919455255154
 20
1477.036121568382
 30
0.0
 11
-5317.8919455255154
 21
1508.5361215683811
 31
0.0
  0
LINE
  5
7E5A
  8
1
 10
-5323.3919455255136
 20
1508.5361215683811
 30
0.0
 11
-5323.3919455255136
 21
1641.0361215683799
 31
0.0
  0
LINE
  5
7E5B
  8
1
 10
-5312.8919455255136
 20
1439.0361215683799
 30
0.0
 11
-5342.8919455255154
 21
1439.0361215683799
 31
0.0
  0
ARC
  5
7E5C
  8
1
 10
-5327.8919455255136
 20
1467.696375606225
 30
0.0
 40
28.66025403784414
 50
252.41204622600611
 51
287.58795377399377
  0
ARC
  5
7E5D
  8
1
 10
-5314.9015644687479
 20
1446.7035898136489
 30
0.0
 40
7.6674682452691139
 50
235.6157525319561
 51
304.38424746804378
  0
LINE
  5
7E5E
  8
1
 10
-5312.8919455255136
 20
1439.0361215683799
 30
0.0
 11
-5310.5714374498257
 21
1440.375867530536
 31
0.0
  0
ARC
  5
7E5F
  8
1
 10
-5340.8823265822812
 20
1446.7035898136489
 30
0.0
 40
7.6674682452691139
 50
235.6157525319561
 51
304.38424746804378
  0
LINE
  5
7E60
  8
1
 10
-5342.8919455255154
 20
1439.0361215683799
 30
0.0
 11
-5345.2124536012034
 21
1440.375867530536
 31
0.0
  0
LINE
  5
7E61
  8
1
 10
-5319.2316914876701
 20
1440.375867530536
 30
0.0
 11
-5319.2316914876701
 21
1455.0361215683799
 31
0.0
  0
LINE
  5
7E62
  8
1
 10
-5310.5714374498257
 20
1440.375867530536
 30
0.0
 11
-5310.5714374498257
 21
1455.0361215683799
 31
0.0
  0
LINE
  5
7E63
  8
1
 10
-5345.2124536012034
 20
1440.375867530536
 30
0.0
 11
-5345.2124536012034
 21
1455.0361215683799
 31
0.0
  0
LINE
  5
7E64
  8
1
 10
-5336.552199563359
 20
1440.375867530536
 30
0.0
 11
-5336.552199563359
 21
1455.0361215683799
 31
0.0
  0
LINE
  5
7E65
  8
1
 10
-5327.8919455255136
 20
1432.0361696785069
 30
0.0
 11
-5327.8919455255136
 21
1461.843830240537
 31
0.0
  0
ARC
  5
7E66
  8
1
 10
-5289.8919455255136
 20
1449.0361215683799
 30
0.0
 40
6.0
 50
0.0
 51
90.0
  0
ARC
  5
7E67
  8
1
 10
-5289.8919455255136
 20
1449.0361215683799
 30
0.0
 40
12.0
 50
0.0
 51
90.0
  0
LINE
  5
7E68
  8
1
 10
-5097.8919455255136
 20
1331.0361215683811
 30
0.0
 11
-5217.8919455255154
 21
1511.0361215683799
 31
0.0
  0
LINE
  5
7E69
  8
1
 10
-5271.8919455255136
 20
1511.0361215683811
 30
0.0
 11
-5271.8919455255136
 21
1331.0361215683811
 31
0.0
  0
LINE
  5
7E6A
  8
1
 10
-5047.8919455255136
 20
1331.0361215683811
 30
0.0
 11
-5047.8919455255136
 21
1295.0361215683799
 31
0.0
  0
LINE
  5
7E6B
  8
1
 10
-5126.8919455255136
 20
1541.0361215683799
 30
0.0
 11
-5206.8919455255154
 21
1541.0361215683799
 31
0.0
  0
LINE
  5
7E6C
  8
1
 10
-5236.8919455255136
 20
1617.0361215683799
 30
0.0
 11
-5136.8919455255154
 21
1617.0361215683799
 31
0.0
  0
LINE
  5
7E6D
  8
1
 10
-5236.8919455255136
 20
1616.0361215683799
 30
0.0
 11
-5246.8919455255154
 21
1616.0361215683799
 31
0.0
  0
LINE
  5
7E6E
  8
1
 10
-5261.8919455255154
 20
1576.0361215683799
 30
0.0
 11
-5248.8919455255136
 21
1576.0361215683799
 31
0.0
  0
ARC
  5
7E6F
  8
1
 10
-5248.8919455255136
 20
1578.0361215683811
 30
0.0
 40
2.0
 50
270.0
 51
0.0
  0
LINE
  5
7E70
  8
1
 10
-5246.8919455255154
 20
1578.0361215683811
 30
0.0
 11
-5246.8919455255154
 21
1641.0361215683799
 31
0.0
  0
ARC
  5
7E71
  8
1
 10
-5275.4079365255147
 20
1509.2099495683799
 30
0.0
 40
10.00005399999999
 50
315.0004879999999
 51
357.00027499999999
  0
LINE
  5
7E72
  8
1
 10
-5261.8919455255154
 20
1576.0361215683799
 30
0.0
 11
-5265.4216085255157
 21
1508.686633568381
 31
0.0
  0
LINE
  5
7E73
  8
1
 10
-5268.3367695255138
 20
1779.9333375683809
 30
0.0
 11
-5291.5105975255146
 21
1803.1071665683801
 31
0.0
  0
ARC
  5
7E74
  8
1
 10
-5467.1569605255163
 20
1840.31523456838
 30
0.0
 40
3.0
 50
5.1944290000000004
 51
83.884827000000001
  0
ARC
  5
7E75
  8
1
 10
-5457.4335715255138
 20
1832.7659185683799
 30
0.0
 40
6.0
 50
125.603737
 51
185.19442699999999
  0
LINE
  5
7E76
  8
1
 10
-5464.1692895255137
 20
1840.586841568381
 30
0.0
 11
-5463.3919455255154
 21
1832.0361215683799
 31
0.0
  0
ARC
  5
7E77
  8
1
 10
-5419.3919455255136
 20
1735.0361215683799
 30
0.0
 40
30.0
 50
0.0
 51
90.0
  0
ARC
  5
7E78
  8
1
 10
-5416.3919455255136
 20
1738.0361215683799
 30
0.0
 40
20.0
 50
0.0
 51
90.0
  0
LINE
  5
7E79
  8
1
 10
-5341.4303975255152
 20
1818.0361215683799
 30
0.0
 11
-5358.3919455255136
 21
1832.0361215683799
 31
0.0
  0
LINE
  5
7E7A
  8
1
 10
-5298.5816425255152
 20
1806.0361215683799
 30
0.0
 11
-5323.3919455255136
 21
1806.0361215683799
 31
0.0
  0
LINE
  5
7E7B
  8
1
 10
-5341.4303975255152
 20
1818.0361215683799
 30
0.0
 11
-5333.3919455255154
 21
1788.0361215683799
 31
0.0
  0
LINE
  5
7E7C
  8
1
 10
-5328.3919455255136
 20
1788.0361215683799
 30
0.0
 11
-5323.3919455255136
 21
1788.0361215683799
 31
0.0
  0
LINE
  5
7E7D
  8
1
 10
-5333.3919455255154
 20
1788.0361215683799
 30
0.0
 11
-5328.3919455255136
 21
1788.0361215683799
 31
0.0
  0
LINE
  5
7E7E
  8
1
 10
-5328.3919455255136
 20
1788.0361215683799
 30
0.0
 11
-5333.3919455255154
 21
1788.0361215683799
 31
0.0
  0
ARC
  5
7E7F
  8
1
 10
-5298.5816425255152
 20
1796.0361215683799
 30
0.0
 40
9.9999679999999991
 50
45.0
 51
90.0
  0
LINE
  5
7E80
  8
1
 10
-5126.8919455255136
 20
1741.0361215683811
 30
0.0
 11
-5206.8919455255154
 21
1741.0361215683811
 31
0.0
  0
LINE
  5
7E81
  8
1
 10
-5091.8919455255154
 20
1841.0361215683799
 30
0.0
 11
-5231.8919455255136
 21
1841.0361215683799
 31
0.0
  0
LINE
  5
7E82
  8
1
 10
-5236.8919455255136
 20
1665.0361215683799
 30
0.0
 11
-5136.8919455255154
 21
1665.0361215683779
 31
0.0
  0
ARC
  5
7E83
  8
1
 10
-5275.4079365255147
 20
1772.8622925683801
 30
0.0
 40
10.000031
 50
2.9997379999999998
 51
44.999503999999988
  0
LINE
  5
7E84
  8
1
 10
-5261.8919455255154
 20
1706.0361215683799
 30
0.0
 11
-5248.8919455255136
 21
1706.0361215683799
 31
0.0
  0
ARC
  5
7E85
  8
1
 10
-5248.8919455255136
 20
1704.0361215683799
 30
0.0
 40
2.0
 50
0.0
 51
90.0
  0
LINE
  5
7E86
  8
1
 10
-5261.8919455255154
 20
1706.0361215683799
 30
0.0
 11
-5265.4216085255157
 21
1773.385608568381
 31
0.0
  0
LINE
  5
7E87
  8
1
 10
-5236.8919455255136
 20
1666.0361215683799
 30
0.0
 11
-5246.8919455255154
 21
1666.0361215683799
 31
0.0
  0
LINE
  5
7E88
  8
1
 10
-4997.3919455255154
 20
1354.0361215683799
 30
0.0
 11
-4960.8919455255136
 21
1354.0361215683799
 31
0.0
  0
LINE
  5
7E89
  8
1
 10
-4957.8919455255136
 20
1350.0361215683799
 30
0.0
 11
-4957.8919455255136
 21
1351.0361215683799
 31
0.0
  0
ARC
  5
7E8A
  8
1
 10
-4960.8919455255136
 20
1351.0361215683799
 30
0.0
 40
3.0
 50
0.0
 51
90.0
  0
LINE
  5
7E8B
  8
1
 10
-5012.3919455255136
 20
1400.0361215683811
 30
0.0
 11
-5007.8919455255136
 21
1400.0361215683811
 31
0.0
  0
LINE
  5
7E8C
  8
1
 10
-5007.8919455255136
 20
1400.0361215683811
 30
0.0
 11
-5006.8919455255154
 21
1400.0361215683811
 31
0.0
  0
ARC
  5
7E8D
  8
1
 10
-5006.8919455255154
 20
1397.0361215683811
 30
0.0
 40
3.0
 50
0.0000000000003053
 51
90.0
  0
LINE
  5
7E8E
  8
1
 10
-5007.8919455255136
 20
1350.0361215683799
 30
0.0
 11
-5007.8919455255136
 21
1400.0361215683811
 31
0.0
  0
ARC
  5
7E8F
  8
1
 10
-4997.3919455255154
 20
1360.5361215683799
 30
0.0
 40
6.5
 50
180.0
 51
270.0
  0
LINE
  5
7E9B
  8
1
 10
-3757.9014777753332
 20
1631.0361215683799
 30
0.0
 11
-3757.9014777753332
 21
1748.0550415683799
 31
0.0
  0
LINE
  5
7E9C
  8
1
 10
-3747.9014777753318
 20
1751.0361215683799
 30
0.0
 11
-3747.9014777753318
 21
1631.0361215683799
 31
0.0
  0
ARC
  5
7E9D
  8
1
 10
-2889.5305067753329
 20
1627.5673715683799
 30
0.0
 40
1000.0
 50
174.84371899999991
 51
184.269531
  0
LINE
  5
7E9E
  8
1
 10
-3770.3163947753328
 20
1761.8608285683799
 30
0.0
 11
-3889.1874277753318
 21
1541.929797568381
 31
0.0
  0
LINE
  5
7E9F
  8
1
 10
-3767.149402775332
 20
1760.149036568381
 30
0.0
 11
-3886.0204357753341
 21
1540.2180055683809
 31
0.0
  0
LINE
  5
7EA0
  8
1
 10
-3737.3129767753321
 20
1841.0361215683799
 30
0.0
 11
-3737.3129767753321
 21
1320.7389328161521
 31
0.0
  0
LINE
  5
7EA1
  8
1
 10
-3770.4014777753332
 20
1471.0361215683799
 30
0.0
 11
-3770.4014777753332
 21
1391.0361215683799
 31
0.0
  0
LINE
  5
7EA2
  8
1
 10
-3785.4014777753318
 20
1471.0361215683799
 30
0.0
 11
-3785.4014777753318
 21
1391.0361215683799
 31
0.0
  0
LINE
  5
7EA4
  8
1
 10
-3747.9014777753318
 20
1370.1756375909381
 30
0.0
 11
-3747.9014777753318
 21
1511.0361215683799
 31
0.0
  0
LINE
  5
7EA5
  8
1
 10
-3797.9014777753332
 20
1348.9098428347249
 30
0.0
 11
-3797.9014777753332
 21
1511.0361215683799
 31
0.0
  0
LINE
  5
7EA6
  8
1
 10
-3753.9014777753332
 20
1367.927160602921
 30
0.0
 11
-3753.9014777753332
 21
1511.0361215683799
 31
0.0
  0
ARC
  5
7EA7
  8
1
 10
-3777.9014777753318
 20
1391.0361215683799
 30
0.0
 40
7.5
 50
180.0
 51
0.0
  0
LINE
  5
7EA8
  8
1
 10
-3880.1733287753318
 20
1551.0361215683799
 30
0.0
 11
-3776.7292977753332
 21
1551.0361215683799
 31
0.0
  0
ARC
  5
7EA9
  8
1
 10
-3888.3076667753339
 20
1541.454211568381
 30
0.0
 40
0.999915
 50
151.60498000000001
 51
241.60781899999989
  0
ARC
  5
7EAA
  8
1
 10
-3886.9001967753338
 20
1540.6934695683799
 30
0.0
 40
0.999915
 50
241.6049799999999
 51
331.60781900000001
  0
LINE
  5
7EAB
  8
1
 10
-3887.375781775334
 20
1539.81370856838
 30
0.0
 11
-3888.7832527753321
 21
1540.5745735683799
 31
0.0
  0
LINE
  5
7EAC
  8
1
 10
-3883.957080775333
 20
1551.6066775683801
 30
0.0
 11
-3886.7554207753328
 21
1553.119128568381
 31
0.0
  0
LINE
  5
7EAD
  8
1
 10
-3827.9014777753318
 20
1568.4305305683799
 30
0.0
 11
-3827.9014777753318
 21
1529.43651156838
 31
0.0
  0
LINE
  5
7EAE
  8
1
 10
-3757.9014777753332
 20
1631.0361215683799
 30
0.0
 11
-3742.6310927753329
 21
1631.0361215683799
 31
0.0
  0
LINE
  5
7EAF
  8
1
 10
-3719.9014777753318
 20
1536.2951545683809
 30
0.0
 11
-3713.5175057753331
 21
1540.9929085683809
 31
0.0
  0
ARC
  5
7EB0
  8
1
 10
-3776.729236775333
 20
1561.0361215683799
 30
0.0
 40
9.9999520000000004
 50
270.0
 51
352.87489299999999
  0
ARC
  5
7EB1
  8
1
 10
-3777.9014777753318
 20
1471.0361215683799
 30
0.0
 40
7.5
 50
0.0
 51
180.0
  0
ARC
  5
7EB2
  8
1
 10
-3716.9014777753318
 20
1478.0361215683811
 30
0.0
 40
3.0
 50
90.0
 51
180.0
  0
LINE
  5
7EB3
  8
1
 10
-3719.9014777753318
 20
1536.2951545683809
 30
0.0
 11
-3719.9014777753318
 21
1461.0361215683811
 31
0.0
  0
LINE
  5
7EB4
  8
1
 10
-3757.9014777753332
 20
1631.0361215683799
 30
0.0
 11
-3766.8065077753322
 21
1559.7957645683809
 31
0.0
  0
LINE
  5
7EB5
  8
1
 10
-3747.9014777753318
 20
1511.0361215683799
 30
0.0
 11
-3797.9014777753332
 21
1511.0361215683799
 31
0.0
  0
LINE
  5
7EB6
  8
1
 10
-3772.0375867753341
 20
1758.67650156838
 30
0.0
 11
-3848.2206917753329
 21
1753.7619515683809
 31
0.0
  0
ARC
  5
7EB7
  8
1
 10
-3845.6457407753328
 20
1713.84495856838
 30
0.0
 40
40.0
 50
93.690903000000006
 51
174.84380100000001
  0
ARC
  5
7EB8
  8
1
 10
-3762.9013557753328
 20
1748.0550415683799
 30
0.0
 40
4.9998969999999989
 50
0.0
 51
61.609809999999989
  0
LINE
  5
7EB9
  8
1
 10
-3768.870471775334
 20
1756.96483256838
 30
0.0
 11
-3760.5240367753322
 21
1752.45360156838
 31
0.0
  0
ARC
  5
7EBA
  8
1
 10
-3768.029163775333
 20
1760.6244995683801
 30
0.0
 40
1.0000219999999991
 50
331.61114500000002
 51
61.611136999999999
  0
ARC
  5
7EBB
  8
1
 10
-3769.436756775332
 20
1761.3853645683801
 30
0.0
 40
0.999915
 50
61.604987999999992
 51
151.60781299999999
  0
LINE
  5
7EBC
  8
1
 10
-3768.9611707753329
 20
1762.2650025683799
 30
0.0
 11
-3767.5536997753329
 21
1761.50426056838
 31
0.0
  0
LINE
  5
7EBD
  8
1
 10
-3733.8815807753322
 20
1691.0361215683799
 30
0.0
 11
-3775.1955457753338
 21
1691.0361215683799
 31
0.0
  0
LINE
  5
7EBE
  8
1
 10
-3758.887348775334
 20
1751.0361215683799
 30
0.0
 11
-3706.6462287753329
 21
1751.0361215683799
 31
0.0
  0
LINE
  5
7EC7
  8
2
 10
-3557.9014777753318
 20
-104.96387843161909
 30
0.0
 11
-3557.9014777753332
 21
1940.4087302645939
 31
0.0
  0
CIRCLE
  5
7ED1
  8
1
 10
-3557.9014777753332
 20
790.03612156838085
 30
0.0
 40
120.0
  0
POINT
  5
7EF8
  8
1
 10
-2982.9014777753332
 20
854.03612156838085
 30
0.0
  0
CIRCLE
  5
7EF9
  8
1
 10
-3557.9014777753332
 20
1641.0361215683799
 30
0.0
 40
100.0
  0
LINE
  5
7EFA
  8
1
 10
-3378.4899787753329
 20
1841.0361215683799
 30
0.0
 11
-3378.4899787753329
 21
1320.7389328161521
 31
0.0
  0
LINE
  5
7EFB
  8
1
 10
-3614.9014777753332
 20
1465.0361215683799
 30
0.0
 11
-3500.9014777753318
 21
1465.0361215683799
 31
0.0
  0
LINE
  5
7EFC
  8
1
 10
-3697.4014777753318
 20
1485.176868568381
 30
0.0
 11
-3697.4014777753318
 21
1456.814075568381
 31
0.0
  0
LINE
  5
7EFD
  8
1
 10
-3660.4014777753318
 20
1466.1846805683811
 30
0.0
 11
-3650.8947637753331
 21
1481.1072885683809
 31
0.0
  0
LINE
  5
7EFE
  8
1
 10
-3660.4014777753318
 20
1478.0361215683811
 30
0.0
 11
-3660.4014777753318
 21
1461.0361215683811
 31
0.0
  0
LINE
  5
7EFF
  8
1
 10
-3668.7253907753329
 20
1481.0361215683799
 30
0.0
 11
-3663.545642775332
 21
1489.16673656838
 31
0.0
  0
ARC
  5
7F00
  8
1
 10
-3663.4014777753318
 20
1478.0361215683811
 30
0.0
 40
3.0
 50
0.0
 51
90.0
  0
LINE
  5
7F01
  8
1
 10
-3330.4014777753332
 20
1471.0361215683799
 30
0.0
 11
-3330.4014777753332
 21
1391.0361215683799
 31
0.0
  0
LINE
  5
7F02
  8
1
 10
-3345.4014777753318
 20
1471.0361215683799
 30
0.0
 11
-3345.4014777753318
 21
1391.0361215683799
 31
0.0
  0
LINE
  5
7F04
  8
1
 10
-3367.9014777753332
 20
1370.1756375909381
 30
0.0
 11
-3367.9014777753332
 21
1511.0361215683799
 31
0.0
  0
LINE
  5
7F05
  8
1
 10
-3361.9014777753332
 20
1367.927160602921
 30
0.0
 11
-3361.9014777753332
 21
1511.0361215683799
 31
0.0
  0
LINE
  5
7F06
  8
1
 10
-3317.9014777753332
 20
1348.9098428347261
 30
0.0
 11
-3317.9014777753332
 21
1511.0361215683799
 31
0.0
  0
ARC
  5
7F07
  8
1
 10
-3337.9014777753318
 20
1391.0361215683799
 30
0.0
 40
7.5
 50
180.0
 51
0.0
  0
LINE
  5
7F08
  8
1
 10
-3395.9014777753318
 20
1536.2951545683809
 30
0.0
 11
-3402.2853887753331
 21
1540.9929085683809
 31
0.0
  0
LINE
  5
7F09
  8
1
 10
-3455.4014777753332
 20
1461.0361215683811
 30
0.0
 11
-3395.9014777753318
 21
1461.0361215683811
 31
0.0
  0
ARC
  5
7F0A
  8
1
 10
-3398.9014777753318
 20
1478.0361215683811
 30
0.0
 40
3.0
 50
0.0
 51
90.0
  0
LINE
  5
7F0B
  8
1
 10
-3455.4014777753332
 20
1466.1846805683811
 30
0.0
 11
-3464.9081917753329
 21
1481.1072885683809
 31
0.0
  0
LINE
  5
7F0C
  8
1
 10
-3418.4014777753318
 20
1485.176868568381
 30
0.0
 11
-3418.4014777753318
 21
1456.814075568381
 31
0.0
  0
LINE
  5
7F0D
  8
1
 10
-3455.4014777753332
 20
1478.0361215683811
 30
0.0
 11
-3455.4014777753332
 21
1461.0361215683811
 31
0.0
  0
LINE
  5
7F0E
  8
1
 10
-3452.4014777753332
 20
1481.0361215683799
 30
0.0
 11
-3398.9014777753318
 21
1481.0361215683799
 31
0.0
  0
LINE
  5
7F0F
  8
1
 10
-3447.0775637753318
 20
1481.0361215683799
 30
0.0
 11
-3452.257312775333
 21
1489.16673656838
 31
0.0
  0
ARC
  5
7F10
  8
1
 10
-3452.4014777753332
 20
1478.0361215683811
 30
0.0
 40
3.0
 50
90.0
 51
180.0
  0
LINE
  5
7F11
  8
1
 10
-3367.9014777753332
 20
1511.0361215683799
 30
0.0
 11
-3317.9014777753332
 21
1511.0361215683799
 31
0.0
  0
ARC
  5
7F12
  8
1
 10
-3337.9014777753318
 20
1471.0361215683799
 30
0.0
 40
7.5
 50
0.0
 51
180.0
  0
LINE
  5
7F13
  8
1
 10
-3395.9014777753318
 20
1536.2951545683809
 30
0.0
 11
-3395.9014777753318
 21
1461.0361215683811
 31
0.0
  0
LINE
  5
7F14
  8
1
 10
-3551.6514777753332
 20
1885.7861215683799
 30
0.0
 11
-3551.6514777753332
 21
1837.75694656838
 31
0.0
  0
LINE
  5
7F15
  8
1
 10
-3564.1514777753318
 20
1885.7861215683799
 30
0.0
 11
-3564.1514777753318
 21
1837.4687385683801
 31
0.0
  0
ARC
  5
7F16
  8
1
 10
-3546.6665077753328
 20
1840.31523456838
 30
0.0
 40
3.0
 50
5.1944030000000003
 51
83.884536999999995
  0
LINE
  5
7F17
  8
1
 10
-3551.6514777753332
 20
1843.8665045683799
 30
0.0
 11
-3546.3469117753339
 21
1843.298145568381
 31
0.0
  0
LINE
  5
7F18
  8
1
 10
-3539.4014777753318
 20
1832.0361215683799
 30
0.0
 11
-3539.4014777753318
 21
1825.1087525683799
 31
0.0
  0
LINE
  5
7F19
  8
1
 10
-3549.0693847753332
 20
1825.8251835683809
 30
0.0
 11
-3548.719043775332
 21
1828.9739875683799
 31
0.0
  0
LINE
  5
7F1A
  8
1
 10
-3542.5382567753331
 20
1825.3970835683799
 30
0.0
 11
-3542.4745977753341
 21
1828.5646855683799
 31
0.0
  0
ARC
  5
7F1B
  8
1
 10
-3545.737414775333
 20
1828.6422005683801
 30
0.0
 40
2.9999380000000002
 50
86.290451000000004
 51
173.650406
  0
ARC
  5
7F1C
  8
1
 10
-3557.9014777753332
 20
1641.0361215683799
 30
0.0
 40
191.00003100000001
 50
86.209778
 51
86.290237000000005
  0
ARC
  5
7F1D
  8
1
 10
-3545.4739867753319
 20
1828.62486656838
 30
0.0
 40
2.999992999999999
 50
358.85055499999987
 51
86.210021999999995
  0
LINE
  5
7F1E
  8
1
 10
-3543.678820775332
 20
1840.586841568381
 30
0.0
 11
-3542.9014777753332
 21
1832.0361215683799
 31
0.0
  0
ARC
  5
7F1F
  8
1
 10
-3569.1364477753318
 20
1840.31523456838
 30
0.0
 40
3.0
 50
96.115463000000005
 51
174.80560299999991
  0
LINE
  5
7F20
  8
1
 10
-3564.1514777753318
 20
1843.8665045683799
 30
0.0
 11
-3569.4560427753331
 21
1843.298145568381
 31
0.0
  0
LINE
  5
7F21
  8
1
 10
-3576.4014777753332
 20
1832.0361215683799
 30
0.0
 11
-3576.4014777753332
 21
1825.1087525683799
 31
0.0
  0
LINE
  5
7F22
  8
1
 10
-3566.7335697753329
 20
1825.8251835683809
 30
0.0
 11
-3567.083911775333
 21
1828.9739875683799
 31
0.0
  0
LINE
  5
7F23
  8
1
 10
-3573.2646977753338
 20
1825.3970835683799
 30
0.0
 11
-3573.3283577753341
 21
1828.5646855683799
 31
0.0
  0
ARC
  5
7F24
  8
1
 10
-3570.065539775333
 20
1828.6422005683801
 30
0.0
 40
3.000032
 50
6.349588999999999
 51
93.709548999999996
  0
ARC
  5
7F25
  8
1
 10
-3557.9014777753332
 20
1641.0361215683799
 30
0.0
 40
190.999954
 50
93.709762999999995
 51
93.790221999999986
  0
ARC
  5
7F26
  8
1
 10
-3570.3289677753319
 20
1828.62486656838
 30
0.0
 40
3.000090999999999
 50
93.789963
 51
181.1494449999999
  0
LINE
  5
7F27
  8
1
 10
-3572.1241337753322
 20
1840.586841568381
 30
0.0
 11
-3572.9014777753318
 21
1832.0361215683799
 31
0.0
  0
ARC
  5
7F28
  8
1
 10
-3567.1514777753332
 20
1837.4687385683801
 30
0.0
 40
3.0
 50
270.0
 51
0.0
  0
LINE
  5
7F29
  8
1
 10
-3576.4014777753332
 20
1832.0361215683799
 30
0.0
 11
-3539.4014777753318
 21
1832.0361215683799
 31
0.0
  0
ARC
  5
7F2A
  8
1
 10
-3548.6514777753332
 20
1837.75694656838
 30
0.0
 40
3.0
 50
180.0
 51
270.0
  0
ARC
  5
7F2B
  8
1
 10
-3557.9014777753332
 20
1885.7861215683799
 30
0.0
 40
6.25
 50
0.0
 51
180.0
  0
LINE
  5
7F2E
  8
1
 10
-6103.3919455255154
 20
440.03612156838079
 30
0.0
 11
-6103.3919455255154
 21
180.03612156838079
 31
0.0
  0
LINE
  5
7F35
  8
1
 10
-5012.3919455255136
 20
440.03612156838079
 30
0.0
 11
-5012.3919455255136
 21
180.03612156838079
 31
0.0
  0
LINE
  5
7F40
  8
1
 10
-5617.8919455255136
 20
1354.5361215683811
 30
0.0
 11
-5337.8919455255163
 21
1354.5361215683811
 31
0.0
  0
LINE
  5
7F41
  8
1
 10
-5317.8919455255154
 20
1358.5361215683811
 30
0.0
 11
-5277.8919455255154
 21
1358.5361215683811
 31
0.0
  0
LINE
  5
7F44
  8
1
 10
-6157.8919455255136
 20
1350.0361215683799
 30
0.0
 11
-6107.8919455255154
 21
1350.0361215683799
 31
0.0
  0
LINE
  5
7F45
  8
1
 10
-6157.8919455255136
 20
230.03612156838079
 30
0.0
 11
-6107.8919455255154
 21
230.03612156838079
 31
0.0
  0
LINE
  5
7F46
  8
1
 10
-5007.8919455255136
 20
230.03612156838091
 30
0.0
 11
-4957.8919455255136
 21
230.03612156838091
 31
0.0
  0
LINE
  5
7F47
  8
1
 10
-5007.8919455255136
 20
1350.0361215683799
 30
0.0
 11
-4957.8919455255136
 21
1350.0361215683799
 31
0.0
  0
LINE
  5
8006
  8
4
 10
-3046.4204398848628
 20
-817.20337344081042
 30
0.0
 11
-3046.4204398848628
 21
-1217.2033734408101
 31
0.0
  0
LINE
  5
8007
  8
4
 10
-4446.4204398848633
 20
-817.20337344081042
 30
0.0
 11
-4446.4204398848642
 21
-1217.2033734408101
 31
0.0
  0
LINE
  5
8008
  8
4
 10
-5446.4204398848642
 20
-817.20337344081042
 30
0.0
 11
-5446.4204398848642
 21
-1217.2033734408101
 31
0.0
  0
LINE
  5
800B
  8
4
 10
-5446.4204398848642
 20
-1217.2033734408101
 30
0.0
 11
-3046.4204398848628
 21
-1217.2033734408101
 31
0.0
  0
LINE
  5
800C
  8
4
 10
-5446.4204398848642
 20
-1017.20337344081
 30
0.0
 11
-3046.4204398848628
 21
-1017.20337344081
 31
0.0
  0
TEXT
  5
800D
  8
4
 10
-5369.41627819106
 20
-954.11732170758467
 30
0.0
 40
100.0
  1
機器名称
  0
TEXT
  5
800E
  8
4
 10
-5373.9042278352681
 20
-1173.913059976788
 30
0.0
 40
100.0
  1
機器型番
  0
TEXT
  5
800F
  8
4
 10
-4391.0629489095327
 20
-972.05983552567341
 30
0.0
 40
100.0
  1
ミツヤ軸流ファン
  0
TEXT
  5
8010
  8
4
 10
-4373.1114487139021
 20
-1182.8842048809231
 30
0.0
 40
100.0
  1
AP＃1120-2
  0
TEXT
  5
8012
  8
4
 10
-5064.0605725408959
 20
2949.6543092242209
 30
0.0
 40
107.9999999999999
  1
床置防振ベット
  0
TEXT
  5
8013
  8
4
 10
-6114.0852532259714
 20
3250.5585789577849
 30
0.0
 40
144.0
  1
ベルト駆動式横型軸流ファン
  0
LINE
  5
8014
  8
4
 10
-6246.4204398848642
 20
3121.6141350887988
 30
0.0
 11
-3046.4204398848628
 21
3121.6141350887988
 31
0.0
  0
LINE
  5
8015
  8
4
 10
-6246.4204398848642
 20
3521.6141350887988
 30
0.0
 11
-3046.4204398848628
 21
3521.6141350887988
 31
0.0
  0
LINE
  5
8016
  8
4
 10
-5446.4204398848642
 20
-817.20337344081042
 30
0.0
 11
-3046.4204398848628
 21
-817.20337344081042
 31
0.0
  0
LINE
  5
8017
  8
4
 10
-6246.4204398848642
 20
3521.6141350887988
 30
0.0
 11
-6246.4204398848642
 21
3121.6141350887988
 31
0.0
  0
TEXT
  5
8018
  8
4
 10
-6105.4642621031298
 20
2947.4355816518769
 30
0.0
 40
107.9999999999999
  1
左回転後方吐出
  0
TEXT
  5
8019
  8
4
 10
-3808.4813213862831
 20
3594.9187895498071
 30
0.0
 40
112.0
  1
No.
  0
TEXT
  5
801A
  8
4
 10
-4123.8283146848371
 20
2949.6543092242209
 30
0.0
 40
107.9999999999999
  1
縮尺：1/20
  0
LINE
  5
801B
  8
4
 10
-3046.4204398848628
 20
3521.6141350887988
 30
0.0
 11
-3046.4204398848628
 21
3121.6141350887988
 31
0.0
  0
LINE
  5
801C
  8
4
 10
-2546.4204398848628
 20
4082.796626559189
 30
0.0
 11
-2546.4204398848628
 21
4082.796626559189
 31
0.0
  0
LINE
  5
801D
  8
4
 10
-3865.1855951651341
 20
3545.3237928099911
 30
0.0
 11
-3865.1855951651341
 21
3756.1011496586939
 31
0.0
  0
LINE
  5
801E
  8
4
 10
-3865.1855951651341
 20
3756.1011496586939
 30
0.0
 11
-3046.4204398848628
 21
3756.1011496586939
 31
0.0
  0
LINE
  5
801F
  8
4
 10
-3046.4204398848628
 20
3756.1011496586939
 30
0.0
 11
-3046.4204398848628
 21
3545.3237928099911
 31
0.0
  0
LINE
  5
8020
  8
4
 10
-3046.4204398848628
 20
3545.3237928099911
 30
0.0
 11
-3865.1855951651341
 21
3545.3237928099911
 31
0.0
  0
LINE
  5
8021
  8
4
 10
-6746.4204398848642
 20
-1817.2033734408101
 30
0.0
 11
-6746.4204398848642
 21
4082.796626559189
 31
0.0
  0
LINE
  5
8022
  8
4
 10
-6746.4204398848642
 20
4082.796626559189
 30
0.0
 11
-2546.4204398848628
 21
4082.796626559189
 31
0.0
  0
LINE
  5
8023
  8
4
 10
-2546.4204398848628
 20
4082.796626559189
 30
0.0
 11
-2546.4204398848628
 21
-1817.2033734408101
 31
0.0
  0
LINE
  5
8024
  8
4
 10
-2546.4204398848628
 20
-1817.2033734408101
 30
0.0
 11
-6746.4204398848642
 21
-1817.2033734408101
 31
0.0
  0
LINE
  5
802C
  8
1
 10
-6107.8919455255118
 20
90.036121568380864
 30
0.0
 11
-4957.8919455255173
 21
90.036121568380864
 31
0.0
  0
LINE
  5
802E
  8
1
 10
-6107.8919455255163
 20
-19.96387843161915
 30
0.0
 11
-5007.8919455255136
 21
-19.96387843161915
 31
0.0
  0
LINE
  5
8032
  8
1
 10
-6107.8919455255173
 20
-69.96387843161915
 30
0.0
 11
-4957.8919455255136
 21
-69.96387843161915
 31
0.0
  0
LINE
  5
8038
  8
1
 10
-4117.9014777753318
 20
-69.96387843161915
 30
0.0
 11
-2997.9014777753318
 21
-69.96387843161915
 31
0.0
  0
LINE
  5
8039
  8
1
 10
-4117.9014777753318
 20
-19.96387843161915
 30
0.0
 11
-2997.9014777753341
 21
-19.96387843161915
 31
0.0
  0
LINE
  5
803A
  8
1
 10
-4117.9014777753318
 20
-69.96387843161915
 30
0.0
 11
-4117.9014777753318
 21
-19.96387843161915
 31
0.0
  0
LINE
  5
803B
  8
1
 10
-2997.9014777753318
 20
-69.96387843161915
 30
0.0
 11
-2997.9014777753332
 21
-19.96387843161915
 31
0.0
  0
LINE
  5
816B
  8
1
 10
-4057.9014777753341
 20
140.03612156838079
 30
0.0
 11
-3057.9014777753332
 21
140.03612156838079
 31
0.0
  0
LINE
  5
816C
  8
1
 10
-4057.9014777753341
 20
90.036121568380864
 30
0.0
 11
-4057.9014777753341
 21
140.03612156838079
 31
0.0
  0
LINE
  5
816D
  8
1
 10
-3057.9014777753332
 20
90.036121568380864
 30
0.0
 11
-3057.9014777753332
 21
140.03612156838079
 31
0.0
  0
LINE
  5
8170
  8
1
 10
-4007.9014777753332
 20
140.03612156838079
 30
0.0
 11
-3881.7420416328632
 21
273.09580663788881
 31
0.0
  0
LINE
  5
8171
  8
1
 10
-4012.2555125309559
 20
144.16436348799101
 30
0.0
 11
-3886.9077005716858
 21
276.36803285614991
 31
0.0
  0
LINE
  5
8172
  8
1
 10
-4007.9014777753332
 20
140.03612156838079
 30
0.0
 11
-4012.2555125309559
 21
144.16436348799101
 31
0.0
  0
LINE
  5
8173
  8
1
 10
-3103.54744301971
 20
144.16436348798879
 30
0.0
 11
-3228.8952549789801
 21
276.36803285614928
 31
0.0
  0
LINE
  5
8174
  8
1
 10
-3107.9014777753332
 20
140.03612156837829
 30
0.0
 11
-3234.0609139178032
 21
273.09580663788802
 31
0.0
  0
LINE
  5
8175
  8
1
 10
-3107.9014777753332
 20
140.03612156837829
 30
0.0
 11
-3103.54744301971
 21
144.16436348798879
 31
0.0
  0
LINE
  5
8176
  8
1
 10
-4007.9014777753332
 20
-19.96387843161915
 30
0.0
 11
-4007.9014777753332
 21
-59.96387843161915
 31
0.0
  0
LINE
  5
8177
  8
1
 10
-3107.9014777753332
 20
-19.96387843161915
 30
0.0
 11
-3107.9014777753332
 21
-59.96387843161915
 31
0.0
  0
LINE
  5
8178
  8
1
 10
-4007.9014777753332
 20
-59.96387843161915
 30
0.0
 11
-3107.9014777753332
 21
-59.96387843161915
 31
0.0
  0
LINE
  5
8179
  8
1
 10
-4007.9014777753332
 20
-24.96387843161915
 30
0.0
 11
-3107.9014777753332
 21
-24.96387843161915
 31
0.0
  0
LINE
  5
81B8
  8
1
 10
-3895.9533059341052
 20
39.011121568380759
 30
0.0
 11
-3895.9533059341052
 21
-19.96387843161915
 31
0.0
  0
LINE
  5
81B9
  8
1
 10
-3954.8283059341038
 20
39.011121568380759
 30
0.0
 11
-3954.8283059341038
 21
-19.96387843161915
 31
0.0
  0
LINE
  5
81BA
  8
1
 10
-3954.8283059341038
 20
-19.94887843161905
 30
0.0
 11
-3895.9533059341052
 21
-19.94887843161905
 31
0.0
  0
LINE
  5
81BB
  8
1
 10
-3954.4358059341048
 20
90.036121568380864
 30
0.0
 11
-3896.3458059341051
 21
90.036121568380864
 31
0.0
  0
LINE
  5
81BC
  8
1
 10
-3960.7158059341041
 20
39.011121568380759
 30
0.0
 11
-3890.0658059341049
 21
39.011121568380759
 31
0.0
  0
ARC
  5
81BD
  8
1
 10
-3954.4358059341048
 20
83.756121568380877
 30
0.0
 40
6.2800000000000002
 50
90.0
 51
180.0
  0
LINE
  5
81BE
  8
1
 10
-3960.7158059341041
 20
83.756121568380877
 30
0.0
 11
-3960.7158059341041
 21
39.011121568380759
 31
0.0
  0
ARC
  5
81BF
  8
1
 10
-3896.3458059341051
 20
83.756121568380877
 30
0.0
 40
6.2800000000000002
 50
0.0
 51
90.0
  0
LINE
  5
81C0
  8
1
 10
-3890.0658059341049
 20
83.756121568380877
 30
0.0
 11
-3890.0658059341049
 21
39.011121568380759
 31
0.0
  0
LINE
  5
81C1
  8
1
 10
-3154.948118399273
 20
83.756121568380877
 30
0.0
 11
-3154.948118399273
 21
39.011121568380759
 31
0.0
  0
LINE
  5
81C2
  8
1
 10
-3225.5981183992722
 20
83.756121568380877
 30
0.0
 11
-3225.5981183992722
 21
39.011121568380759
 31
0.0
  0
LINE
  5
81C3
  8
1
 10
-3225.5981183992722
 20
39.011121568380759
 30
0.0
 11
-3154.948118399273
 21
39.011121568380759
 31
0.0
  0
LINE
  5
81C4
  8
1
 10
-3219.7106183992728
 20
-19.94887843161905
 30
0.0
 11
-3160.8356183992728
 21
-19.94887843161905
 31
0.0
  0
LINE
  5
81C5
  8
1
 10
-3219.7106183992728
 20
39.011121568380759
 30
0.0
 11
-3219.7106183992719
 21
-19.96387843161915
 31
0.0
  0
LINE
  5
81C6
  8
1
 10
-3160.8356183992728
 20
39.011121568380759
 30
0.0
 11
-3160.8356183992719
 21
-19.96387843161915
 31
0.0
  0
LINE
  5
81C7
  8
1
 10
-3219.318118399272
 20
90.036121568380864
 30
0.0
 11
-3161.2281183992718
 21
90.036121568380864
 31
0.0
  0
ARC
  5
81C8
  8
1
 10
-3219.318118399272
 20
83.756121568380877
 30
0.0
 40
6.2800000000000002
 50
90.0
 51
180.0
  0
ARC
  5
81C9
  8
1
 10
-3161.2281183992718
 20
83.756121568380877
 30
0.0
 40
6.2800000000000002
 50
0.0
 51
90.0
  0
LINE
  5
81CB
  8
1
 10
-6103.3919455255163
 20
225.53612156838079
 30
0.0
 11
-5012.3919455255154
 21
225.53612156838079
 31
0.0
  0
LINE
  5
81CC
  8
1
 10
-6107.8919455255154
 20
230.03612156838079
 30
0.0
 11
-5007.8919455255136
 21
230.03612156838079
 31
0.0
  0
LINE
  5
81CF
  8
1
 10
-6107.8919455255163
 20
-25.96387843161915
 30
0.0
 11
-5007.8919455255136
 21
-25.96387843161915
 31
0.0
  0
LINE
  5
81DD
  8
1
 10
-5007.8919455255118
 20
-69.96387843161915
 30
0.0
 11
-4957.8919455255127
 21
-69.96387843161915
 31
0.0
  0
LINE
  5
81DE
  8
1
 10
-5007.8919455255118
 20
-69.96387843161915
 30
0.0
 11
-5007.8919455255118
 21
-19.96387843161915
 31
0.0
  0
LINE
  5
81DF
  8
1
 10
-4957.8919455255127
 20
-69.96387843161915
 30
0.0
 11
-4957.8919455255127
 21
-68.46387843161915
 31
0.0
  0
LINE
  5
81E0
  8
1
 10
-5007.8919455255118
 20
-19.96387843161915
 30
0.0
 11
-5006.3919455255127
 21
-19.96387843161915
 31
0.0
  0
LINE
  5
81E1
  8
1
 10
-4995.3919455255118
 20
-63.96387843161915
 30
0.0
 11
-4962.3919455255127
 21
-63.96387843161915
 31
0.0
  0
LINE
  5
81E2
  8
1
 10
-5001.8919455255127
 20
-57.46387843161915
 30
0.0
 11
-5001.8919455255127
 21
-24.46387843161915
 31
0.0
  0
ARC
  5
81E3
  8
1
 10
-4962.3919455255127
 20
-68.46387843161915
 30
0.0
 40
4.5
 50
0.0
 51
90.0
  0
ARC
  5
81E4
  8
1
 10
-5006.3919455255127
 20
-24.46387843161915
 30
0.0
 40
4.5
 50
0.0
 51
90.0
  0
ARC
  5
81E5
  8
1
 10
-4995.3919455255118
 20
-57.46387843161915
 30
0.0
 40
6.5
 50
180.0
 51
270.0
  0
LINE
  5
81F6
  8
1
 10
-5001.8919455255127
 20
-19.96387843161915
 30
0.0
 11
-5001.8919455255127
 21
-59.96387843161915
 31
0.0
  0
LINE
  5
81F7
  8
1
 10
-5001.8919455255127
 20
-19.96387843161915
 30
0.0
 11
-4961.8919455255127
 21
-19.96387843161915
 31
0.0
  0
LINE
  5
81F8
  8
1
 10
-5001.8919455255127
 20
-59.96387843161915
 30
0.0
 11
-4999.8919455255118
 21
-59.96387843161915
 31
0.0
  0
LINE
  5
81F9
  8
1
 10
-4961.8919455255127
 20
-19.96387843161915
 30
0.0
 11
-4961.8919455255127
 21
-21.96387843161915
 31
0.0
  0
LINE
  5
81FA
  8
1
 10
-4992.3919455255127
 20
-24.96387843161915
 30
0.0
 11
-4964.8919455255118
 21
-24.96387843161915
 31
0.0
  0
LINE
  5
81FB
  8
1
 10
-4996.8919455255118
 20
-29.46387843161915
 30
0.0
 11
-4996.8919455255118
 21
-56.96387843161915
 31
0.0
  0
ARC
  5
81FC
  8
1
 10
-4999.8919455255118
 20
-56.96387843161915
 30
0.0
 40
3.0
 50
270.0
 51
0.0
  0
ARC
  5
81FD
  8
1
 10
-4964.8919455255118
 20
-21.96387843161915
 30
0.0
 40
3.0
 50
270.0
 51
0.0
  0
ARC
  5
81FE
  8
1
 10
-4992.3919455255127
 20
-29.46387843161915
 30
0.0
 40
4.5
 50
90.0
 51
180.0
  0
LINE
  5
81FF
  8
1
 10
-6113.8919455255163
 20
-19.96387843161915
 30
0.0
 11
-6113.8919455255163
 21
-59.96387843161915
 31
0.0
  0
LINE
  5
8200
  8
1
 10
-6118.8919455255173
 20
-29.46387843161915
 30
0.0
 11
-6118.8919455255173
 21
-56.96387843161915
 31
0.0
  0
LINE
  5
8201
  8
1
 10
-6107.8919455255163
 20
-69.96387843161915
 30
0.0
 11
-6107.8919455255163
 21
-19.96387843161915
 31
0.0
  0
LINE
  5
8202
  8
1
 10
-6113.8919455255163
 20
-57.46387843161915
 30
0.0
 11
-6113.8919455255163
 21
-24.46387843161915
 31
0.0
  0
LINE
  5
8203
  8
1
 10
-6113.8919455255163
 20
-59.96387843161915
 30
0.0
 11
-6115.8919455255163
 21
-59.96387843161915
 31
0.0
  0
ARC
  5
8204
  8
1
 10
-6115.8919455255163
 20
-56.96387843161915
 30
0.0
 40
3.0
 50
180.0
 51
270.0
  0
LINE
  5
8205
  8
1
 10
-6107.8919455255163
 20
-69.96387843161915
 30
0.0
 11
-6157.8919455255163
 21
-69.96387843161915
 31
0.0
  0
LINE
  5
8206
  8
1
 10
-6157.8919455255163
 20
-69.96387843161915
 30
0.0
 11
-6157.8919455255163
 21
-68.46387843161915
 31
0.0
  0
LINE
  5
8207
  8
1
 10
-6120.3919455255173
 20
-63.96387843161915
 30
0.0
 11
-6153.3919455255163
 21
-63.96387843161915
 31
0.0
  0
ARC
  5
8208
  8
1
 10
-6153.3919455255163
 20
-68.46387843161915
 30
0.0
 40
4.5
 50
90.0
 51
180.0
  0
ARC
  5
8209
  8
1
 10
-6120.3919455255173
 20
-57.46387843161915
 30
0.0
 40
6.5
 50
270.0
 51
0.000000000000007
  0
LINE
  5
820A
  8
1
 10
-6113.8919455255163
 20
-19.96387843161915
 30
0.0
 11
-6153.8919455255163
 21
-19.96387843161915
 31
0.0
  0
LINE
  5
820B
  8
1
 10
-6153.8919455255163
 20
-19.96387843161915
 30
0.0
 11
-6153.8919455255163
 21
-21.96387843161915
 31
0.0
  0
LINE
  5
820C
  8
1
 10
-6123.3919455255163
 20
-24.96387843161915
 30
0.0
 11
-6150.8919455255173
 21
-24.96387843161915
 31
0.0
  0
ARC
  5
820D
  8
1
 10
-6150.8919455255173
 20
-21.96387843161915
 30
0.0
 40
3.0
 50
180.0
 51
270.0
  0
ARC
  5
820E
  8
1
 10
-6123.3919455255163
 20
-29.46387843161915
 30
0.0
 40
4.5
 50
0.000000000000007
 51
90.0
  0
LINE
  5
820F
  8
1
 10
-6107.8919455255163
 20
-19.96387843161915
 30
0.0
 11
-6109.3919455255163
 21
-19.96387843161915
 31
0.0
  0
ARC
  5
8210
  8
1
 10
-6109.3919455255163
 20
-24.46387843161915
 30
0.0
 40
4.5
 50
90.0
 51
180.0
  0
LINE
  5
8211
  8
1
 10
-6107.8919455255173
 20
140.03612156838079
 30
0.0
 11
-5007.8919455255182
 21
140.03612156838079
 31
0.0
  0
LINE
  5
8212
  8
1
 10
-5007.8919455255182
 20
193.32866129319061
 30
0.0
 11
-5007.8919455255182
 21
150.03612156838079
 31
0.0
  0
LINE
  5
8214
  8
1
 10
-6107.8919455255118
 20
96.036121568380892
 30
0.0
 11
-5007.8919455255182
 21
96.03612156838085
 31
0.0
  0
LINE
  5
8216
  8
1
 10
-5007.8919455255173
 20
90.036121568380864
 30
0.0
 11
-4957.8919455255173
 21
90.036121568380864
 31
0.0
  0
LINE
  5
8217
  8
1
 10
-5007.8919455255173
 20
90.036121568380864
 30
0.0
 11
-5007.8919455255173
 21
140.03612156838079
 31
0.0
  0
LINE
  5
8218
  8
1
 10
-4957.8919455255173
 20
90.036121568380864
 30
0.0
 11
-4957.8919455255173
 21
91.536121568380835
 31
0.0
  0
LINE
  5
8219
  8
1
 10
-5007.8919455255173
 20
140.03612156838079
 30
0.0
 11
-5006.3919455255173
 21
140.03612156838079
 31
0.0
  0
LINE
  5
821A
  8
1
 10
-4995.3919455255173
 20
96.03612156838085
 30
0.0
 11
-4962.3919455255163
 21
96.03612156838085
 31
0.0
  0
LINE
  5
821B
  8
1
 10
-5001.8919455255173
 20
102.53612156838081
 30
0.0
 11
-5001.8919455255173
 21
135.53612156838079
 31
0.0
  0
ARC
  5
821C
  8
1
 10
-4962.3919455255163
 20
91.536121568380835
 30
0.0
 40
4.5
 50
0.0
 51
90.0
  0
ARC
  5
821D
  8
1
 10
-5006.3919455255173
 20
135.53612156838079
 30
0.0
 40
4.5
 50
0.0
 51
90.0
  0
ARC
  5
821E
  8
1
 10
-4995.3919455255173
 20
102.53612156838081
 30
0.0
 40
6.5
 50
180.0
 51
270.0
  0
LINE
  5
821F
  8
1
 10
-6107.8919455255118
 20
90.036121568380864
 30
0.0
 11
-6157.8919455255127
 21
90.036121568380864
 31
0.0
  0
LINE
  5
8220
  8
1
 10
-6107.8919455255118
 20
90.036121568380864
 30
0.0
 11
-6107.8919455255118
 21
140.03612156838079
 31
0.0
  0
LINE
  5
8221
  8
1
 10
-6157.8919455255127
 20
90.036121568380864
 30
0.0
 11
-6157.8919455255127
 21
91.536121568380835
 31
0.0
  0
LINE
  5
8222
  8
1
 10
-6107.8919455255118
 20
140.03612156838079
 30
0.0
 11
-6109.3919455255118
 21
140.03612156838079
 31
0.0
  0
LINE
  5
8223
  8
1
 10
-6120.3919455255118
 20
96.03612156838085
 30
0.0
 11
-6153.3919455255127
 21
96.03612156838085
 31
0.0
  0
LINE
  5
8224
  8
1
 10
-6113.8919455255118
 20
102.53612156838081
 30
0.0
 11
-6113.8919455255118
 21
135.53612156838079
 31
0.0
  0
ARC
  5
8225
  8
1
 10
-6153.3919455255127
 20
91.536121568380835
 30
0.0
 40
4.5
 50
90.0
 51
180.0
  0
ARC
  5
8226
  8
1
 10
-6109.3919455255118
 20
135.53612156838079
 30
0.0
 40
4.5
 50
90.0
 51
180.0
  0
ARC
  5
8227
  8
1
 10
-6120.3919455255118
 20
102.53612156838081
 30
0.0
 40
6.5
 50
270.0
 51
0.000000000000007
  0
LINE
  5
8228
  8
1
 10
-6107.8919455255182
 20
193.32866129319061
 30
0.0
 11
-6107.8919455255173
 21
140.03612156838079
 31
0.0
  0
LINE
  5
8291
  8
1
 10
-5993.6431838046456
 20
83.756121568380877
 30
0.0
 11
-5993.6431838046456
 21
39.011121568380759
 31
0.0
  0
LINE
  5
8292
  8
1
 10
-6064.2931838046452
 20
83.756121568380877
 30
0.0
 11
-6064.2931838046452
 21
39.011121568380759
 31
0.0
  0
LINE
  5
8293
  8
1
 10
-6064.2931838046452
 20
39.011121568380759
 30
0.0
 11
-5993.6431838046456
 21
39.011121568380759
 31
0.0
  0
LINE
  5
8294
  8
1
 10
-6058.4056838046463
 20
-19.94887843161905
 30
0.0
 11
-5999.5306838046454
 21
-19.94887843161905
 31
0.0
  0
LINE
  5
8295
  8
1
 10
-6058.4056838046463
 20
39.011121568380759
 30
0.0
 11
-6058.4056838046463
 21
-19.96387843161915
 31
0.0
  0
LINE
  5
8296
  8
1
 10
-5999.5306838046454
 20
39.011121568380759
 30
0.0
 11
-5999.5306838046436
 21
-19.96387843161915
 31
0.0
  0
LINE
  5
8297
  8
1
 10
-6058.0131838046464
 20
90.036121568380864
 30
0.0
 11
-5999.9231838046462
 21
90.036121568380864
 31
0.0
  0
ARC
  5
8298
  8
1
 10
-6058.0131838046464
 20
83.756121568380877
 30
0.0
 40
6.2800000000000002
 50
90.0
 51
180.0
  0
ARC
  5
8299
  8
1
 10
-5999.9231838046462
 20
83.756121568380877
 30
0.0
 40
6.2800000000000002
 50
0.0
 51
90.0
  0
LINE
  5
829A
  8
1
 10
-5038.4625121552017
 20
83.756121568380877
 30
0.0
 11
-5038.4625121552017
 21
39.011121568380759
 31
0.0
  0
LINE
  5
829B
  8
1
 10
-5109.1125121552031
 20
83.756121568380877
 30
0.0
 11
-5109.1125121552031
 21
39.011121568380759
 31
0.0
  0
LINE
  5
829C
  8
1
 10
-5109.1125121552031
 20
39.011121568380759
 30
0.0
 11
-5038.4625121552017
 21
39.011121568380759
 31
0.0
  0
LINE
  5
829D
  8
1
 10
-5044.3500121552024
 20
39.011121568380759
 30
0.0
 11
-5044.3500121552024
 21
-19.96387843161915
 31
0.0
  0
LINE
  5
829E
  8
1
 10
-5103.2250121552033
 20
39.011121568380759
 30
0.0
 11
-5103.2250121552033
 21
-19.96387843161915
 31
0.0
  0
LINE
  5
829F
  8
1
 10
-5103.2250121552033
 20
-19.94887843161905
 30
0.0
 11
-5044.3500121552024
 21
-19.94887843161905
 31
0.0
  0
ARC
  5
82A0
  8
1
 10
-5102.8325121552016
 20
83.756121568380877
 30
0.0
 40
6.2800000000000002
 50
90.0
 51
180.0
  0
ARC
  5
82A1
  8
1
 10
-5044.7425121552023
 20
83.756121568380877
 30
0.0
 40
6.2800000000000002
 50
0.0
 51
90.0
  0
LINE
  5
82A2
  8
1
 10
-5102.8325121552016
 20
90.036121568380864
 30
0.0
 11
-5044.7425121552023
 21
90.036121568380864
 31
0.0
  0
CIRCLE
  5
8468
  8
1
 10
-3557.9014777753332
 20
790.03612156838085
 30
0.0
 40
560.0
  0
CIRCLE
  5
8469
  8
1
 10
-3557.9014777753332
 20
790.03612156838085
 30
0.0
 40
566.0
  0
CIRCLE
  5
846A
  8
1
 10
-3557.9014777753332
 20
790.03612156838085
 30
0.0
 40
610.0
  0
LINE
  5
84EC
  8
1
 10
-3657.9014777753318
 20
1641.0361215683799
 30
0.0
 11
-3677.9014777753318
 21
790.03612156838085
 31
0.0
  0
LINE
  5
84ED
  8
1
 10
-3457.9014777753332
 20
1641.0361215683799
 30
0.0
 11
-3437.9014777753318
 21
790.03612156838085
 31
0.0
  0
LINE
  5
854C
  8
1
 10
-6025.6968235742952
 20
1346.0361215683799
 30
0.0
 11
-5980.087067476732
 21
1346.0361215683799
 31
0.0
  0
LINE
  5
854D
  8
1
 10
-6025.6968235742952
 20
1346.0361215683799
 30
0.0
 11
-6087.8919455255136
 21
1040.0361215683799
 31
0.0
  0
LINE
  5
854E
  8
1
 10
-5980.087067476733
 20
1346.0361215683799
 30
0.0
 11
-5917.8919455255136
 21
1040.0361215683799
 31
0.0
  0
DIMENSION
  5
85FD
  8
3
  2
*D2
 10
-4957.8919455255127
 20
-283.8104560496576
 30
0.0
 11
-5549.0014245791308
 21
-283.8104560496576
 31
0.0
 70
   128
 13
-6157.8919455255163
 23
-69.96387843161915
 33
0.0
 14
-4957.8919455255127
 24
-69.96387843161915
 34
0.0
1001
ACAD
1000
DSTYLE
1002
{
1070
   287
1070
     3
1070
   287
1070
     3
1070
   287
1070
     3
1070
    40
1040
20.0
1070
   143
1040
0.039
1070
   172
1070
     1
1070
   271
1070
     0
1070
   279
1070
     0
1070
   288
1070
     1
1002
}
  0
DIMENSION
  5
860A
  8
3
  2
*D3
 10
-6405.8572390551371
 20
230.03612156838091
 30
0.0
 11
-6405.8572390551371
 21
820.1819579882831
 31
0.0
 70
   128
 13
-6157.8919455255136
 23
1350.0361215683799
 33
0.0
 14
-6157.8919455255136
 24
230.03612156838079
 34
0.0
 50
90.0
1001
ACAD
1000
DSTYLE
1002
{
1070
   287
1070
     3
1070
   287
1070
     3
1070
   287
1070
     3
1070
     3
1000
φ<>
1070
    40
1040
20.0
1070
   143
1040
0.039
1070
   172
1070
     1
1070
   271
1070
     0
1070
   279
1070
     0
1070
   288
1070
     1
1002
}
  0
DIMENSION
  5
8621
  8
3
  2
*D4
 10
-2947.9014777753318
 20
2070.6578207756529
 30
0.0
 11
-3563.6876187126941
 21
2070.6578207756529
 31
0.0
 70
   128
 13
-4167.9014777753328
 23
790.03612156838085
 33
0.0
 14
-2947.9014777753318
 24
790.03612156838085
 34
0.0
1001
ACAD
1000
DSTYLE
1002
{
1070
   287
1070
     3
1070
   287
1070
     3
1070
   287
1070
     3
1070
    40
1040
20.0
1070
   143
1040
0.039
1070
   172
1070
     1
1070
   271
1070
     0
1070
   279
1070
     0
1070
   288
1070
     1
1002
}
  0
DIMENSION
  5
862E
  8
3
  2
*D5
 10
-5007.8919455255154
 20
2123.9474688599471
 30
0.0
 11
-5544.0543561229679
 21
2123.9474688599471
 31
0.0
 70
   128
 13
-6107.8919455255154
 23
1400.0361215683811
 33
0.0
 14
-5007.8919455255154
 24
1400.0361215683811
 34
0.0
1001
ACAD
1000
DSTYLE
1002
{
1070
   287
1070
     3
1070
   287
1070
     3
1070
   287
1070
     3
1070
    40
1040
20.0
1070
   143
1040
0.039
1070
   172
1070
     1
1070
   271
1070
     0
1070
   279
1070
     0
1070
   288
1070
     1
1002
}
  0
DIMENSION
  5
863B
  8
3
  2
*D6
 10
-2997.9014777753318
 20
-296.09120272710601
 30
0.0
 11
-3536.2538754558009
 21
-296.09120272710601
 31
0.0
 70
   128
 13
-4117.9014777753318
 23
-69.96387843161915
 33
0.0
 14
-2997.9014777753318
 24
-69.96387843161915
 34
0.0
1001
ACAD
1000
DSTYLE
1002
{
1070
   287
1070
     3
1070
   287
1070
     3
1070
   287
1070
     3
1070
    40
1040
20.0
1070
   143
1040
0.039
1070
   172
1070
     1
1070
   271
1070
     0
1070
   279
1070
     0
1070
   288
1070
     1
1002
}
  0
DIMENSION
  5
8649
  8
3
  2
*D7
 10
-4311.0628862655722
 20
90.036121568380935
 30
0.0
 11
-4311.0628862655722
 21
436.16917284658302
 31
0.0
 70
   128
 13
-4247.3696492348372
 23
790.03612156838085
 33
0.0
 14
-4057.9014777753341
 24
90.036121568380864
 34
0.0
 50
90.0
1001
ACAD
1000
DSTYLE
1002
{
1070
   287
1070
     3
1070
   287
1070
     3
1070
   287
1070
     3
1070
    40
1040
20.0
1070
   143
1040
0.039
1070
   172
1070
     1
1070
   271
1070
     0
1070
   279
1070
     0
1070
   288
1070
     1
1002
}
  0
DIMENSION
  5
8665
  8
3
  2
*D8
 10
-4311.0629142706493
 20
-69.963878431619094
 30
0.0
 11
-4311.0629142706493
 21
-218.5353070030483
 31
0.0
 70
   128
 13
-4117.9014777753318
 23
-19.96387843161915
 33
0.0
 14
-4117.9014777753318
 24
-69.96387843161915
 34
0.0
 50
90.0
1001
ACAD
1000
DSTYLE
1002
{
1070
   287
1070
     3
1070
   287
1070
     3
1070
   287
1070
     3
1070
    40
1040
20.0
1070
   143
1040
0.039
1070
   172
1070
     1
1070
   271
1070
     0
1070
   279
1070
     0
1070
   288
1070
     1
1070
     6
1000
DOT
1070
     7
1000
OPEN
1002
}
  0
DIMENSION
  5
86DC
  8
3
  2
*D9
 10
-4573.4050451760922
 20
1892.0361215683811
 30
0.0
 11
-4573.4050451760922
 21
1353.993879993069
 31
0.0
 70
   128
  1
MAX.1250
 13
-4247.3696492348372
 23
790.03612156838085
 33
0.0
 14
-3557.9014777753332
 24
1892.0361215683811
 34
0.0
 50
90.0
1001
ACAD
1000
DSTYLE
1002
{
1070
   287
1070
     3
1070
   287
1070
     3
1070
   287
1070
     3
1070
    40
1040
20.0
1070
   143
1040
0.039
1070
   172
1070
     1
1070
   271
1070
     0
1070
   279
1070
     0
1070
   288
1070
     1
1002
}
  0
DIMENSION
  5
879E
  8
3
  2
*D10
 10
-4311.0629142706493
 20
-19.96387843161909
 30
0.0
 11
-4432.5981336158138
 21
122.5177031776529
 31
0.0
 70
   128
 13
-4057.9014777753341
 23
90.036121568380864
 33
0.0
 14
-4117.9014777753318
 24
-19.96387843161915
 34
0.0
 50
90.0
1001
ACAD
1000
DSTYLE
1002
{
1070
   287
1070
     4
1070
   287
1070
     4
1070
    40
1040
20.0
1070
   143
1040
0.039
1070
   172
1070
     1
1070
   271
1070
     0
1070
   279
1070
     1
1070
   288
1070
     1
1070
   289
1070
     3
1070
     6
1000
OPEN
1070
     7
1000
DOT
1002
}
  0
DIMENSION
  5
87ED
  8
3
  2
*D11
 10
-4570.9615463907212
 20
-69.963878431619023
 30
0.0
 11
-4570.9615463907212
 21
364.62621444343313
 31
0.0
 70
   128
 13
-4247.3696492348372
 23
790.03612156838085
 33
0.0
 14
-4117.9014777753318
 24
-69.96387843161915
 34
0.0
 50
90.0
1001
ACAD
1000
DSTYLE
1002
{
1070
   287
1070
     3
1070
   287
1070
     3
1070
    40
1040
20.0
1070
   143
1040
0.039
1070
   172
1070
     1
1070
   271
1070
     0
1070
   279
1070
     0
1070
   288
1070
     1
1002
}
  0
ENDSEC
  0
EOF
