  0
SECTION
  2
HEADER
  9
$ACADVER
  1
AC1009
  9
$INSBASE
 10
0.0
 20
0.0
 30
0.0
  9
$EXTMIN
 10
-6746.4204398848642
 20
-1817.2033734408101
 30
0.0
  9
$EXTMAX
 10
-2546.4204398848628
 20
4082.796626559189
 30
0.0
  9
$LIMMIN
 10
0.0
 20
0.0
  9
$LIMMAX
 10
297.0
 20
210.0
  9
$ORTHOMODE
 70
     0
  9
$REGENMODE
 70
     1
  9
$FILLMODE
 70
     0
  9
$QTEXTMODE
 70
     0
  9
$MIRRTEXT
 70
     1
  9
$DRAGMODE
 70
     2
  9
$LTSCALE
 40
100.0
  9
$OSMODE
 70
    37
  9
$ATTMODE
 70
     1
  9
$TEXTSIZE
 40
180.0
  9
$TRACEWID
 40
0.05
  9
$TEXTSTYLE
  7
STANDARD
  9
$CLAYER
  8
3
  9
$CELTYPE
  6
BYLAYER
  9
$CECOLOR
 62
   256
  9
$DIMSCALE
 40
20.0
  9
$DIMASZ
 40
2.0
  9
$DIMEXO
 40
0.5
  9
$DIMDLI
 40
10.0
  9
$DIMRND
 40
0.0
  9
$DIMDLE
 40
0.0
  9
$DIMEXE
 40
1.0
  9
$DIMTP
 40
1.0
  9
$DIMTM
 40
1.0
  9
$DIMTXT
 40
3.0
  9
$DIMCEN
 40
0.0
  9
$DIMTSZ
 40
0.0
  9
$DIMTOL
 70
     0
  9
$DIMLIM
 70
     0
  9
$DIMTIH
 70
     0
  9
$DIMTOH
 70
     0
  9
$DIMSE1
 70
     0
  9
$DIMSE2
 70
     0
  9
$DIMTAD
 70
     1
  9
$DIMZIN
 70
     8
  9
$DIMBLK
  1

  9
$DIMASO
 70
     1
  9
$DIMSHO
 70
     1
  9
$DIMPOST
  1

  9
$DIMAPOST
  1

  9
$DIMALT
 70
     0
  9
$DIMALTD
 70
     2
  9
$DIMALTF
 40
0.039
  9
$DIMLFAC
 40
1.0
  9
$DIMTOFL
 70
     1
  9
$DIMTVP
 40
0.0
  9
$DIMTIX
 70
     0
  9
$DIMSOXD
 70
     0
  9
$DIMSAH
 70
     1
  9
$DIMBLK1
  1
OPEN
  9
$DIMBLK2
  1
OPEN
  9
$DIMSTYLE
  2
IGA
  9
$DIMCLRD
 70
     0
  9
$DIMCLRE
 70
     0
  9
$DIMCLRT
 70
     0
  9
$DIMTFAC
 40
10.0
  9
$DIMGAP
 40
1.0
  9
$LUNITS
 70
     2
  9
$LUPREC
 70
     3
  9
$SKETCHINC
 40
0.1
  9
$FILLETRAD
 40
50.0
  9
$AUNITS
 70
     0
  9
$AUPREC
 70
     0
  9
$MENU
  1
acad
  9
$ELEVATION
 40
0.0
  9
$PELEVATION
 40
0.0
  9
$THICKNESS
 40
0.0
  9
$LIMCHECK
 70
     0
  9
$BLIPMODE
 70
     0
  9
$CHAMFERA
 40
0.5
  9
$CHAMFERB
 40
0.5
  9
$SKPOLY
 70
     0
  9
$TDCREATE
 40
2453249.427640046
  9
$TDUPDATE
 40
2454953.629923136
  9
$TDINDWG
 40
0.0420675347
  9
$TDUSRTIMER
 40
0.0420675347
  9
$USRTIMER
 70
     1
  9
$ANGBASE
 50
0.0
  9
$ANGDIR
 70
     0
  9
$PDMODE
 70
     0
  9
$PDSIZE
 40
0.0
  9
$PLINEWID
 40
0.0
  9
$COORDS
 70
     1
  9
$SPLFRAME
 70
     0
  9
$SPLINETYPE
 70
     6
  9
$SPLINESEGS
 70
     8
  9
$ATTDIA
 70
     0
  9
$ATTREQ
 70
     1
  9
$HANDLING
 70
 10241
  9
$HANDSEED
  5
84D3
  9
$SURFTAB1
 70
     6
  9
$SURFTAB2
 70
     6
  9
$SURFTYPE
 70
     6
  9
$SURFU
 70
     6
  9
$SURFV
 70
     6
  9
$UCSNAME
  2

  9
$UCSORG
 10
0.0
 20
0.0
 30
0.0
  9
$UCSXDIR
 10
1.0
 20
0.0
 30
0.0
  9
$UCSYDIR
 10
0.0
 20
1.0
 30
0.0
  9
$PUCSNAME
  2

  9
$PUCSORG
 10
0.0
 20
0.0
 30
0.0
  9
$PUCSXDIR
 10
1.0
 20
0.0
 30
0.0
  9
$PUCSYDIR
 10
0.0
 20
1.0
 30
0.0
  9
$USERI1
 70
     0
  9
$USERI2
 70
     0
  9
$USERI3
 70
     0
  9
$USERI4
 70
     0
  9
$USERI5
 70
     0
  9
$USERR1
 40
0.0
  9
$USERR2
 40
0.0
  9
$USERR3
 40
0.0
  9
$USERR4
 40
0.0
  9
$USERR5
 40
0.0
  9
$WORLDVIEW
 70
     1
  9
$SHADEDGE
 70
     3
  9
$SHADEDIF
 70
    70
  9
$TILEMODE
 70
     1
  9
$MAXACTVP
 70
    16
  9
$PLIMCHECK
 70
     0
  9
$PEXTMIN
 10
1.0000000000000000E+020
 20
1.0000000000000000E+020
 30
1.0000000000000000E+020
  9
$PEXTMAX
 10
-1.0000000000000000E+020
 20
-1.0000000000000000E+020
 30
-1.0000000000000000E+020
  9
$PLIMMIN
 10
0.0
 20
0.0
  9
$PLIMMAX
 10
12.0
 20
9.0
  9
$UNITMODE
 70
     0
  9
$VISRETAIN
 70
     0
  9
$PLINEGEN
 70
     0
  9
$PSLTSCALE
 70
     1
  0
ENDSEC
  0
SECTION
  2
TABLES
  0
TABLE
  2
VPORT
 70
     2
  0
VPORT
  2
*ACTIVE
 70
     0
 10
0.0
 20
0.0
 11
1.0
 21
1.0
 12
-2871.7717451378521
 22
-1132.580886461084
 13
0.0
 23
0.0
 14
10.0
 24
10.0
 15
10.0
 25
10.0
 16
0.0
 26
0.0
 36
1.0
 17
0.0
 27
0.0
 37
0.0
 40
1655.592280124665
 41
3.1666666666666661
 42
50.0
 43
0.0
 44
0.0
 50
0.0
 51
0.0
 71
     0
 72
   100
 73
     1
 74
     0
 75
     0
 76
     0
 77
     0
 78
     0
  0
ENDTAB
  0
TABLE
  2
LTYPE
 70
     2
  0
LTYPE
  2
CONTINUOUS
 70
     0
  3
Solid line
 72
    65
 73
     0
 40
0.0
  0
LTYPE
  2
CENTER
 70
     0
  3
____ _ ____ _ ____ _ ____ _ ____ _ ____ _ ____ 
 72
    65
 73
     4
 40
2.0
 49
1.25
 49
-0.25
 49
0.25
 49
-0.25
  0
ENDTAB
  0
TABLE
  2
LAYER
 70
     6
  0
LAYER
  2
0
 70
     0
 62
     7
  6
CONTINUOUS
  0
LAYER
  2
3
 70
     0
 62
     2
  6
CONTINUOUS
  0
LAYER
  2
2
 70
     0
 62
     3
  6
CENTER
  0
LAYER
  2
1
 70
     0
 62
     4
  6
CONTINUOUS
  0
LAYER
  2
4
 70
     0
 62
     7
  6
CONTINUOUS
  0
LAYER
  2
DEFPOINTS
 70
     0
 62
     7
  6
CONTINUOUS
  0
ENDTAB
  0
TABLE
  2
STYLE
 70
     1
  0
STYLE
  2
STANDARD
 70
     0
 40
0.0
 41
1.0
 50
0.0
 71
     0
 42
180.0
  3
simplex.shx
  4
extfont.shx
  0
ENDTAB
  0
TABLE
  2
VIEW
 70
     0
  0
ENDTAB
  0
TABLE
  2
UCS
 70
     0
  0
ENDTAB
  0
TABLE
  2
APPID
 70
     1
  0
APPID
  2
ACAD
 70
     0
  0
ENDTAB
  0
TABLE
  2
DIMSTYLE
 70
     2
  0
DIMSTYLE
  2
IGA
 70
     0
  3

  4

  5

  6
OPEN
  7
OPEN
 40
2.0
 41
2.0
 42
0.5
 43
10.0
 44
1.0
 45
0.0
 46
0.0
 47
1.0
 48
1.0
140
3.0
141
0.0
142
0.0
143
0.03937
144
1.0
145
0.0
146
10.0
147
1.0
 71
     0
 72
     0
 73
     0
 74
     0
 75
     0
 76
     0
 77
     1
 78
     8
170
     0
171
     2
172
     0
173
     1
174
     0
175
     0
176
     0
177
     0
178
     0
  0
DIMSTYLE
  2
MATSU
 70
     0
  3

  4

  5

  6
OPEN
  7
OPEN
 40
12.0
 41
2.0
 42
1.0
 43
10.0
 44
1.0
 45
0.0
 46
0.0
 47
0.0
 48
0.0
140
3.0
141
0.0
142
0.0
143
0.03937
144
1.0
145
0.0
146
1.0
147
0.5
 71
     0
 72
     0
 73
     0
 74
     0
 75
     0
 76
     0
 77
     1
 78
     8
170
     0
171
     2
172
     1
173
     1
174
     0
175
     0
176
   256
177
   256
178
   256
  0
ENDTAB
  0
ENDSEC
  0
SECTION
  2
BLOCKS
  0
BLOCK
  8
0
  2
$MODEL_SPACE
 70
     0
 10
0.0
 20
0.0
 30
0.0
  3
$MODEL_SPACE
  1

  0
ENDBLK
  5
1B
  8
0
  0
BLOCK
 67
     1
  8
0
  2
$PAPER_SPACE
 70
     0
 10
0.0
 20
0.0
 30
0.0
  3
$PAPER_SPACE
  1

  0
ENDBLK
  5
18
 67
     1
  8
0
  0
BLOCK
  8
0
  2
_OPEN
 70
     0
 10
0.0
 20
0.0
 30
0.0
  3
_OPEN
  1

  0
LINE
  5
79FD
  8
0
  6
BYBLOCK
 62
     0
 10
-1.0
 20
0.1666666666666666
 30
0.0
 11
0.0
 21
0.0
 31
0.0
  0
LINE
  5
79FE
  8
0
  6
BYBLOCK
 62
     0
 10
0.0
 20
0.0
 30
0.0
 11
-1.0
 21
-0.1666666666666666
 31
0.0
  0
LINE
  5
79FF
  8
0
  6
BYBLOCK
 62
     0
 10
0.0
 20
0.0
 30
0.0
 11
-1.0
 21
0.0
 31
0.0
  0
ENDBLK
  5
7A01
  8
0
  0
BLOCK
  8
0
  2
_DOT
 70
     0
 10
0.0
 20
0.0
 30
0.0
  3
_DOT
  1

  0
POLYLINE
  5
8078
  8
0
  6
BYBLOCK
 62
     0
 66
     1
 10
0.0
 20
0.0
 30
0.0
 70
     1
 40
0.5
 41
0.5
  0
VERTEX
  5
846F
  8
0
  6
BYBLOCK
 62
     0
 10
-0.25
 20
0.0
 30
0.0
 42
1.0
  0
VERTEX
  5
8470
  8
0
  6
BYBLOCK
 62
     0
 10
0.25
 20
0.0
 30
0.0
 42
1.0
  0
SEQEND
  5
8471
  8
0
  6
BYBLOCK
 62
     0
  0
LINE
  5
807C
  8
0
  6
BYBLOCK
 62
     0
 10
-0.5
 20
0.0
 30
0.0
 11
-1.0
 21
0.0
 31
0.0
  0
ENDBLK
  5
807D
  8
0
  0
BLOCK
  8
0
  2
*D2
 70
     1
 10
0.0
 20
0.0
 30
0.0
  3
*D2
  1

  0
LINE
  5
8472
  8
3
 62
     0
 10
-6107.8919455255154
 20
1410.0361215683799
 30
0.0
 11
-6107.8919455255154
 21
2101.851995632931
 31
0.0
  0
LINE
  5
8473
  8
3
 62
     0
 10
-5007.8919455255154
 20
1410.0361215683799
 30
0.0
 11
-5007.8919455255154
 21
2101.851995632931
 31
0.0
  0
LINE
  5
8474
  8
3
 62
     0
 10
-6067.8919455255154
 20
2081.851995632931
 30
0.0
 11
-5047.8919455255154
 21
2081.851995632931
 31
0.0
  0
INSERT
  5
8475
  8
3
 62
     0
  2
_OPEN
 10
-6107.8919455255154
 20
2081.851995632931
 30
0.0
 41
40.0
 42
40.0
 43
40.0
 50
180.0
  0
INSERT
  5
8476
  8
3
 62
     0
  2
_OPEN
 10
-5007.8919455255154
 20
2081.851995632931
 30
0.0
 41
40.0
 42
40.0
 43
40.0
  0
TEXT
  8
3
  40
60
  5
84CA
  62
0
  72
0
  71
0
 10
-5700.00
 20
2025.65
 30
0.000000
  1
1100
  0
POINT
  5
8478
  8
DEFPOINTS
 62
     0
 10
-6107.8919455255154
 20
1400.0361215683811
 30
0.0
  0
POINT
  5
8479
  8
DEFPOINTS
 62
     0
 10
-5007.8919455255154
 20
1400.0361215683811
 30
0.0
  0
POINT
  5
847A
  8
DEFPOINTS
 62
     0
 10
-5007.8919455255154
 20
2081.851995632931
 30
0.0
  0
ENDBLK
  5
8256
  8
0
  0
BLOCK
  8
0
  2
*D3
 70
     1
 10
0.0
 20
0.0
 30
0.0
  3
*D3
  1

  0
LINE
  5
847B
  8
3
 62
     0
 10
-6167.8919455255136
 20
1350.0361215683799
 30
0.0
 11
-6372.5105152326514
 21
1350.0361215683799
 31
0.0
  0
LINE
  5
847C
  8
3
 62
     0
 10
-6167.8919455255136
 20
230.03612156838079
 30
0.0
 11
-6372.5105152326514
 21
230.03612156838091
 31
0.0
  0
LINE
  5
847D
  8
3
 62
     0
 10
-6352.5105152326496
 20
1310.0361215683799
 30
0.0
 11
-6352.5105152326496
 21
270.03612156838091
 31
0.0
  0
INSERT
  5
847E
  8
3
 62
     0
  2
_OPEN
 10
-6352.5105152326496
 20
1350.0361215683799
 30
0.0
 41
40.0
 42
40.0
 43
40.0
 50
90.0
  0
INSERT
  5
847F
  8
3
 62
     0
  2
_OPEN
 10
-6352.5105152326496
 20
230.03612156838091
 30
0.0
 41
40.0
 42
40.0
 43
40.0
 50
270.0
  0
TEXT
  8
3
  40
60
  5
84CB
  62
0
  72
0
  71
0
 10
-6522.51
 20
721.618
 30
0.000000
  1
φ1120
  0
POINT
  5
8481
  8
DEFPOINTS
 62
     0
 10
-6157.8919455255136
 20
1350.0361215683799
 30
0.0
  0
POINT
  5
8482
  8
DEFPOINTS
 62
     0
 10
-6157.8919455255136
 20
230.03612156838079
 30
0.0
  0
POINT
  5
8483
  8
DEFPOINTS
 62
     0
 10
-6352.5105152326496
 20
230.03612156838091
 30
0.0
  0
ENDBLK
  5
82C9
  8
0
  0
BLOCK
  8
0
  2
*D4
 70
     1
 10
0.0
 20
0.0
 30
0.0
  3
*D4
  1

  0
LINE
  5
8484
  8
3
 62
     0
 10
-6157.8919455255136
 20
-14.96387843161915
 30
0.0
 11
-6157.8919455255136
 21
-350.46424193603519
 31
0.0
  0
LINE
  5
8485
  8
3
 62
     0
 10
-4957.8919455255136
 20
-14.96387843161915
 30
0.0
 11
-4957.8919455255136
 21
-350.46424193603519
 31
0.0
  0
LINE
  5
8486
  8
3
 62
     0
 10
-6117.8919455255136
 20
-330.46424193603519
 30
0.0
 11
-4997.8919455255136
 21
-330.46424193603519
 31
0.0
  0
INSERT
  5
8487
  8
3
 62
     0
  2
_OPEN
 10
-6157.8919455255136
 20
-330.46424193603519
 30
0.0
 41
40.0
 42
40.0
 43
40.0
 50
180.0
  0
INSERT
  5
8488
  8
3
 62
     0
  2
_OPEN
 10
-4957.8919455255136
 20
-330.46424193603519
 30
0.0
 41
40.0
 42
40.0
 43
40.0
  0
TEXT
  8
3
  40
60
  5
84CC
  62
0
  72
0
  71
0
 10
-5684.63
 20
-386.664
 30
0.000000
  1
1200
  0
POINT
  5
848A
  8
DEFPOINTS
 62
     0
 10
-6157.8919455255136
 20
-4.9638784316191504
 30
0.0
  0
POINT
  5
848B
  8
DEFPOINTS
 62
     0
 10
-4957.8919455255136
 20
-4.9638784316191504
 30
0.0
  0
POINT
  5
848C
  8
DEFPOINTS
 62
     0
 10
-4957.8919455255136
 20
-330.46424193603519
 30
0.0
  0
ENDBLK
  5
82DF
  8
0
  0
BLOCK
  8
0
  2
*D5
 70
     1
 10
0.0
 20
0.0
 30
0.0
  3
*D5
  1

  0
LINE
  5
848D
  8
3
 62
     0
 10
-4167.9014777753328
 20
800.03612156838085
 30
0.0
 11
-4167.9014777753328
 21
2096.9560207444501
 31
0.0
  0
LINE
  5
848E
  8
3
 62
     0
 10
-2947.9014777753318
 20
800.03612156838085
 30
0.0
 11
-2947.9014777753318
 21
2096.9560207444501
 31
0.0
  0
LINE
  5
848F
  8
3
 62
     0
 10
-4127.9014777753318
 20
2076.9560207444501
 30
0.0
 11
-2987.9014777753318
 21
2076.9560207444501
 31
0.0
  0
INSERT
  5
8490
  8
3
 62
     0
  2
_OPEN
 10
-4167.9014777753328
 20
2076.9560207444501
 30
0.0
 41
40.0
 42
40.0
 43
40.0
 50
180.0
  0
INSERT
  5
8491
  8
3
 62
     0
  2
_OPEN
 10
-2947.9014777753318
 20
2076.9560207444501
 30
0.0
 41
40.0
 42
40.0
 43
40.0
  0
TEXT
  8
3
  40
60
  5
84CD
  62
0
  72
0
  71
0
 10
-3716.26
 20
2020.76
 30
0.000000
  1
1220
  0
POINT
  5
8493
  8
DEFPOINTS
 62
     0
 10
-4167.9014777753328
 20
790.03612156838085
 30
0.0
  0
POINT
  5
8494
  8
DEFPOINTS
 62
     0
 10
-2947.9014777753318
 20
790.03612156838085
 30
0.0
  0
POINT
  5
8495
  8
DEFPOINTS
 62
     0
 10
-2947.9014777753318
 20
2076.9560207444501
 30
0.0
  0
ENDBLK
  5
82EC
  8
0
  0
BLOCK
  8
0
  2
*D6
 70
     1
 10
0.0
 20
0.0
 30
0.0
  3
*D6
  1

  0
LINE
  5
8496
  8
3
 62
     0
 10
-4117.9014777753318
 20
-14.96387843161915
 30
0.0
 11
-4117.9014777753318
 21
-314.48388489997518
 31
0.0
  0
LINE
  5
8497
  8
3
 62
     0
 10
-2997.9014777753318
 20
-14.96387843161915
 30
0.0
 11
-2997.9014777753318
 21
-314.48388489997518
 31
0.0
  0
LINE
  5
8498
  8
3
 62
     0
 10
-4077.9014777753318
 20
-294.48388489997518
 30
0.0
 11
-3037.9014777753318
 21
-294.48388489997518
 31
0.0
  0
INSERT
  5
8499
  8
3
 62
     0
  2
_OPEN
 10
-4117.9014777753318
 20
-294.48388489997518
 30
0.0
 41
40.0
 42
40.0
 43
40.0
 50
180.0
  0
INSERT
  5
849A
  8
3
 62
     0
  2
_OPEN
 10
-2997.9014777753318
 20
-294.48388489997518
 30
0.0
 41
40.0
 42
40.0
 43
40.0
  0
TEXT
  8
3
  40
60
  5
84CE
  62
0
  72
0
  71
0
 10
-3658.52
 20
-350.684
 30
0.000000
  1
1120
  0
POINT
  5
849C
  8
DEFPOINTS
 62
     0
 10
-4117.9014777753318
 20
-4.9638784316191513
 30
0.0
  0
POINT
  5
849D
  8
DEFPOINTS
 62
     0
 10
-2997.9014777753318
 20
-4.9638784316191487
 30
0.0
  0
POINT
  5
849E
  8
DEFPOINTS
 62
     0
 10
-2997.9014777753318
 20
-294.48388489997518
 30
0.0
  0
ENDBLK
  5
82F9
  8
0
  0
BLOCK
  8
0
  2
*D7
 70
     1
 10
0.0
 20
0.0
 30
0.0
  3
*D7
  1

  0
LINE
  5
849F
  8
3
 62
     0
 10
-4257.3696492348381
 20
790.03612156838085
 30
0.0
 11
-4340.277948808518
 21
790.03612156838085
 31
0.0
  0
LINE
  5
84A0
  8
3
 62
     0
 10
-4067.9014777753332
 20
90.036121568380864
 30
0.0
 11
-4340.277948808518
 21
90.036121568380935
 31
0.0
  0
LINE
  5
84A1
  8
3
 62
     0
 10
-4320.2779488085171
 20
750.03612156838085
 30
0.0
 11
-4320.2779488085171
 21
130.03612156838091
 31
0.0
  0
INSERT
  5
84A2
  8
3
 62
     0
  2
_OPEN
 10
-4320.2779488085171
 20
790.03612156838085
 30
0.0
 41
40.0
 42
40.0
 43
40.0
 50
90.0
  0
INSERT
  5
84A3
  8
3
 62
     0
  2
_OPEN
 10
-4320.2779488085171
 20
90.036121568380935
 30
0.0
 41
40.0
 42
40.0
 43
40.0
 50
270.0
  0
TEXT
  8
3
  40
60
  5
84CF
  62
0
  72
0
  71
0
 10
-4490.28
 20
355.031
 30
0.000000
  1
700
  0
POINT
  5
84A5
  8
DEFPOINTS
 62
     0
 10
-4247.3696492348372
 20
790.03612156838085
 30
0.0
  0
POINT
  5
84A6
  8
DEFPOINTS
 62
     0
 10
-4057.9014777753341
 20
90.036121568380864
 30
0.0
  0
POINT
  5
84A7
  8
DEFPOINTS
 62
     0
 10
-4320.2779488085171
 20
90.036121568380935
 30
0.0
  0
ENDBLK
  5
8307
  8
0
  0
BLOCK
  8
0
  2
*D8
 70
     1
 10
0.0
 20
0.0
 30
0.0
  3
*D8
  1

  0
LINE
  5
84A8
  8
3
 62
     0
 10
-4067.9014777753332
 20
90.036121568380864
 30
0.0
 11
-4340.277948808518
 21
90.036121568380935
 31
0.0
  0
LINE
  5
84A9
  8
3
 62
     0
 10
-4127.9014777753318
 20
45.03612156838085
 30
0.0
 11
-4340.277948808518
 21
45.036121568380914
 31
0.0
  0
LINE
  5
84AA
  8
3
 62
     0
 10
-4320.2779488085171
 20
130.03612156838091
 30
0.0
 11
-4320.2779488085171
 21
170.03612156838091
 31
0.0
  0
LINE
  5
84AB
  8
3
 62
     0
 10
-4320.2779488085171
 20
5.0361215683809064
 30
0.0
 11
-4320.2779488085171
 21
-34.963878431619086
 31
0.0
  0
LINE
  5
84AC
  8
3
 62
     0
 10
-4320.2779488085171
 20
67.536121568380921
 30
0.0
 11
-4435.5713533145681
 21
94.951086740193915
 31
0.0
  0
LINE
  5
84AD
  8
3
 62
     0
 10
-4435.5713533145681
 20
94.951086740193915
 30
0.0
 11
-4435.5713533145681
 21
232.093943883051
 31
0.0
  0
TEXT
  8
3
  40
60
  5
84D0
  62
0
  72
0
  71
0
 10
-4605.57
 20
57.3225
 30
0.000000
  1
45
  0
LINE
  5
84AF
  8
3
 62
     0
 10
-4320.2779488085171
 20
90.036121568380935
 30
0.0
 11
-4320.2779488085171
 21
45.036121568380899
 31
0.0
  0
LINE
  5
84B0
  8
3
 62
     0
 10
-4320.2779488085171
 20
90.036121568380935
 30
0.0
 11
-4320.2779488085171
 21
45.036121568380899
 31
0.0
  0
INSERT
  5
84B1
  8
3
 62
     0
  2
_OPEN
 10
-4320.2779488085171
 20
90.036121568380935
 30
0.0
 41
40.0
 42
40.0
 43
40.0
 50
270.0
  0
INSERT
  5
84B2
  8
3
 62
     0
  2
_DOT
 10
-4320.2779488085171
 20
45.036121568380899
 30
0.0
 41
40.0
 42
40.0
 43
40.0
 50
90.0
  0
POINT
  5
84B3
  8
DEFPOINTS
 62
     0
 10
-4057.9014777753341
 20
90.036121568380864
 30
0.0
  0
POINT
  5
84B4
  8
DEFPOINTS
 62
     0
 10
-4117.9014777753318
 20
45.03612156838085
 30
0.0
  0
POINT
  5
84B5
  8
DEFPOINTS
 62
     0
 10
-4320.2779488085171
 20
45.036121568380899
 30
0.0
  0
ENDBLK
  5
8316
  8
0
  0
BLOCK
  8
0
  2
*D9
 70
     1
 10
0.0
 20
0.0
 30
0.0
  3
*D9
  1

  0
LINE
  5
84B6
  8
3
 62
     0
 10
-4127.9014777753318
 20
45.03612156838085
 30
0.0
 11
-4340.277948808518
 21
45.036121568380914
 31
0.0
  0
LINE
  5
84B7
  8
3
 62
     0
 10
-4127.9014777753318
 20
-4.963878431619146
 30
0.0
 11
-4340.277948808518
 21
-4.9638784316190874
 31
0.0
  0
LINE
  5
84B8
  8
3
 62
     0
 10
-4320.2779488085171
 20
85.036121568380906
 30
0.0
 11
-4320.2779488085171
 21
125.03612156838091
 31
0.0
  0
LINE
  5
84B9
  8
3
 62
     0
 10
-4320.2779488085171
 20
-44.963878431619086
 30
0.0
 11
-4320.2779488085171
 21
-240.67816414590399
 31
0.0
  0
LINE
  5
84BA
  8
3
 62
     0
 10
-4320.2779488085171
 20
45.036121568380899
 30
0.0
 11
-4320.2779488085171
 21
-4.9638784316190918
 31
0.0
  0
INSERT
  5
84BB
  8
3
 62
     0
  2
_DOT
 10
-4320.2779488085171
 20
45.036121568380899
 30
0.0
 41
40.0
 42
40.0
 43
40.0
 50
270.0
  0
INSERT
  5
84BC
  8
3
 62
     0
  2
_OPEN
 10
-4320.2779488085171
 20
-4.9638784316190918
 30
0.0
 41
40.0
 42
40.0
 43
40.0
 50
90.0
  0
TEXT
  8
3
  40
60
  5
84D1
  62
0
  72
0
  71
0
 10
-4490.28
 20
-278.307
 30
0.000000
  1
50
  0
POINT
  5
84BE
  8
DEFPOINTS
 62
     0
 10
-4117.9014777753318
 20
45.03612156838085
 30
0.0
  0
POINT
  5
84BF
  8
DEFPOINTS
 62
     0
 10
-4117.9014777753318
 20
-4.9638784316191504
 30
0.0
  0
POINT
  5
84C0
  8
DEFPOINTS
 62
     0
 10
-4320.2779488085171
 20
-4.9638784316190918
 30
0.0
  0
ENDBLK
  5
8351
  8
0
  0
BLOCK
  8
0
  2
*D10
 70
     1
 10
0.0
 20
0.0
 30
0.0
  3
*D10
  1

  0
LINE
  5
84C1
  8
3
 62
     0
 10
-4257.3696492348381
 20
790.03612156838085
 30
0.0
 11
-4338.491304882551
 21
790.03612156838085
 31
0.0
  0
LINE
  5
84C2
  8
3
 62
     0
 10
-3567.9014777753332
 20
1892.0361215683811
 30
0.0
 11
-4338.491304882551
 21
1892.0361215683811
 31
0.0
  0
LINE
  5
84C3
  8
3
 62
     0
 10
-4318.491304882551
 20
830.03612156838085
 30
0.0
 11
-4318.491304882551
 21
1852.0361215683811
 31
0.0
  0
INSERT
  5
84C4
  8
3
 62
     0
  2
_OPEN
 10
-4318.491304882551
 20
790.03612156838085
 30
0.0
 41
40.0
 42
40.0
 43
40.0
 50
270.0
  0
INSERT
  5
84C5
  8
3
 62
     0
  2
_OPEN
 10
-4318.491304882551
 20
1892.0361215683811
 30
0.0
 41
40.0
 42
40.0
 43
40.0
 50
90.0
  0
TEXT
  8
3
  40
60
  5
84D2
  62
0
  72
0
  71
0
 10
-4488.49
 20
1254.16
 30
0.000000
  1
MAX.1250
  0
POINT
  5
84C7
  8
DEFPOINTS
 62
     0
 10
-4247.3696492348372
 20
790.03612156838085
 30
0.0
  0
POINT
  5
84C8
  8
DEFPOINTS
 62
     0
 10
-3557.9014777753332
 20
1892.0361215683811
 30
0.0
  0
POINT
  5
84C9
  8
DEFPOINTS
 62
     0
 10
-4318.491304882551
 20
1892.0361215683811
 30
0.0
  0
ENDBLK
  5
83CF
  8
0
  0
ENDSEC
  0
SECTION
  2
ENTITIES
  0
LINE
  5
7D76
  8
1
 10
-3660.4014777753318
 20
1461.0361215683811
 30
0.0
 11
-3719.9014777753318
 21
1461.0361215683811
 31
0.0
  0
LINE
  5
7D77
  8
1
 10
-3663.4014777753318
 20
1481.0361215683799
 30
0.0
 11
-3716.9014777753318
 21
1481.0361215683799
 31
0.0
  0
LINE
  5
7D78
  8
2
 10
-3362.4490547753339
 20
1641.0361215683799
 30
0.0
 11
-3753.3539007753329
 21
1641.0361215683799
 31
0.0
  0
LINE
  5
7D79
  8
1
 10
-3378.4899787753329
 20
1841.0361215683799
 30
0.0
 11
-3737.3129767753321
 21
1841.0361215683799
 31
0.0
  0
LINE
  5
7D7A
  8
1
 10
-3747.9014777753318
 20
1461.0361215683811
 30
0.0
 11
-3367.9014777753332
 21
1461.0361215683811
 31
0.0
  0
ARC
  5
7D7B
  8
1
 10
-3557.9014777753332
 20
1641.0361215683799
 30
0.0
 40
185.0
 50
287.94525099999993
 51
252.05474899999999
  0
LINE
  5
7D7C
  8
1
 10
-3692.448413039936
 20
974.10437578649112
 30
0.0
 11
-3972.3143021669839
 21
1166.6818582756141
 31
0.0
  0
LINE
  5
7D7D
  8
1
 10
-4110.458262187577
 20
699.0361215683813
 30
0.0
 11
-3005.3446933630871
 21
699.0361215683813
 31
0.0
  0
LINE
  5
7D7E
  8
1
 10
-4112.0124774856804
 20
709.0361215683813
 30
0.0
 11
-3003.790478064986
 21
709.0361215683813
 31
0.0
  0
ARC
  5
7D7F
  8
1
 10
-3557.9014777753332
 20
790.03612156838085
 30
0.0
 40
222.0
 50
338.6007335046495
 51
201.3992664953505
  0
ARC
  5
7D80
  8
1
 10
-3557.9014777753332
 20
790.03612156838085
 30
0.0
 40
228.0
 50
339.1904264223237
 51
200.80957357767619
  0
LINE
  5
7D81
  8
1
 10
-3747.9014777753318
 20
1411.0361215683811
 30
0.0
 11
-3367.9014777753332
 21
1411.0361215683811
 31
0.0
  0
LINE
  5
7D82
  8
1
 10
-4057.9014777753341
 20
90.036121568380864
 30
0.0
 11
-3057.9014777753332
 21
90.036121568380864
 31
0.0
  0
LINE
  5
7D86
  8
2
 10
-4247.3696492348372
 20
790.03612156838085
 30
0.0
 11
-2854.1988597185391
 21
790.03612156838085
 31
0.0
  0
LINE
  5
7D87
  8
1
 10
-6025.6968235742952
 20
1346.0361215683799
 30
0.0
 11
-6087.8919455255136
 21
1040.0361215683799
 31
0.0
  0
LINE
  5
7D88
  8
1
 10
-5980.0870674767339
 20
1346.0361215683799
 30
0.0
 11
-5917.8919455255136
 21
1040.0361215683799
 31
0.0
  0
LINE
  5
7D89
  8
1
 10
-5176.8919455255154
 20
670.03612156838085
 30
0.0
 11
-5176.8919455255154
 21
1741.0361215683811
 31
0.0
  0
LINE
  5
7D8A
  8
1
 10
-5256.8919455255154
 20
670.03612156838085
 30
0.0
 11
-5256.8919455255154
 21
1741.0361215683811
 31
0.0
  0
LINE
  5
7D8B
  8
1
 10
-5012.3919455255136
 20
1400.036121568382
 30
0.0
 11
-5012.3919455255136
 21
304.03612156838079
 31
0.0
  0
LINE
  5
7D8C
  8
1
 10
-6103.3919455255154
 20
1400.036121568382
 30
0.0
 11
-6103.3919455255154
 21
304.03612156838079
 31
0.0
  0
LINE
  5
7D8D
  8
1
 10
-6107.8919455255163
 20
1400.0361215683811
 30
0.0
 11
-6107.8919455255136
 21
230.03612156838079
 31
0.0
  0
LINE
  5
7D8E
  8
1
 10
-5007.8919455255154
 20
1400.0361215683811
 30
0.0
 11
-5007.8919455255136
 21
230.03612156838091
 31
0.0
  0
LINE
  5
7D8F
  8
1
 10
-4957.8919455255136
 20
1351.0361215683799
 30
0.0
 11
-4957.8919455255154
 21
230.03612156838091
 31
0.0
  0
LINE
  5
7D90
  8
1
 10
-6157.8919455255136
 20
1351.0361215683799
 30
0.0
 11
-6157.8919455255154
 21
230.03612156838079
 31
0.0
  0
LINE
  5
7D91
  8
1
 10
-5003.8919455255154
 20
183.03612156838079
 30
0.0
 11
-5003.8919455255154
 21
1397.0361215683811
 31
0.0
  0
LINE
  5
7D92
  8
1
 10
-6111.8919455255127
 20
183.03612156838079
 30
0.0
 11
-6111.8919455255127
 21
1397.0361215683811
 31
0.0
  0
LINE
  5
7D93
  8
1
 10
-5944.5728214524934
 20
225.53612156838071
 30
0.0
 11
-5171.2110695985357
 21
225.53612156838091
 31
0.0
  0
LINE
  5
7D94
  8
2
 10
-6207.8919455255136
 20
790.03612156838085
 30
0.0
 11
-4921.0544090327039
 21
790.03612156838085
 31
0.0
  0
LINE
  5
7D95
  8
1
 10
-6107.8919455255154
 20
230.03612156838079
 30
0.0
 11
-6157.8919455255136
 21
230.03612156838079
 31
0.0
  0
LINE
  5
7D96
  8
1
 10
-6118.3919455255136
 20
226.03612156838079
 30
0.0
 11
-6154.8919455255136
 21
226.03612156838079
 31
0.0
  0
LINE
  5
7D97
  8
1
 10
-6125.0829308473731
 20
202.53612156838079
 30
0.0
 11
-6086.7552450241847
 21
202.53612156838079
 31
0.0
  0
LINE
  5
7D98
  8
1
 10
-6157.8919455255136
 20
230.03612156838079
 30
0.0
 11
-6157.8919455255136
 21
229.03612156838079
 31
0.0
  0
ARC
  5
7D99
  8
1
 10
-6154.8919455255136
 20
229.03612156838079
 30
0.0
 40
3.0
 50
180.0
 51
270.0
  0
LINE
  5
7D9A
  8
1
 10
-6017.8919455255154
 20
1025.0361215683799
 30
0.0
 11
-6017.8919455255154
 21
555.03612156838085
 31
0.0
  0
LINE
  5
7D9B
  8
1
 10
-6032.8919455255136
 20
1025.0361215683799
 30
0.0
 11
-6032.8919455255136
 21
555.03612156838085
 31
0.0
  0
LINE
  5
7D9C
  8
1
 10
-5917.8919455255136
 20
1040.0361215683799
 30
0.0
 11
-5917.8919455255136
 21
540.03612156838085
 31
0.0
  0
LINE
  5
7D9D
  8
1
 10
-6087.8919455255136
 20
1040.0361215683799
 30
0.0
 11
-6087.8919455255136
 21
540.03612156838085
 31
0.0
  0
LINE
  5
7D9E
  8
1
 10
-6087.8919455255136
 20
555.03612156838085
 30
0.0
 11
-5917.8919455255136
 21
555.03612156838085
 31
0.0
  0
LINE
  5
7D9F
  8
1
 10
-6087.8919455255136
 20
540.03612156838085
 30
0.0
 11
-5917.8919455255136
 21
540.03612156838085
 31
0.0
  0
LINE
  5
7DA0
  8
1
 10
-5980.087067476733
 20
234.03612156838091
 30
0.0
 11
-5917.8919455255136
 21
540.03612156838085
 31
0.0
  0
LINE
  5
7DA1
  8
1
 10
-6025.6968235742952
 20
234.03612156838079
 30
0.0
 11
-6087.8919455255136
 21
540.03612156838085
 31
0.0
  0
LINE
  5
7DA2
  8
1
 10
-6025.6968235742952
 20
234.03612156838079
 30
0.0
 11
-5980.087067476732
 21
234.03612156838099
 31
0.0
  0
ARC
  5
7DA3
  8
1
 10
-6118.3919455255136
 20
219.53612156838079
 30
0.0
 40
6.5
 50
0.0
 51
90.0
  0
LINE
  5
7DA4
  8
1
 10
-6103.3919455255154
 20
180.03612156838079
 30
0.0
 11
-6107.8919455255154
 21
180.03612156838079
 31
0.0
  0
LINE
  5
7DA5
  8
1
 10
-6107.8919455255154
 20
180.03612156838079
 30
0.0
 11
-6108.8919455255127
 21
180.03612156838079
 31
0.0
  0
ARC
  5
7DA6
  8
1
 10
-6108.8919455255127
 20
183.03612156838079
 30
0.0
 40
3.0
 50
180.00000000000031
 51
270.0
  0
LINE
  5
7DA7
  8
1
 10
-6107.8919455255154
 20
230.03612156838079
 30
0.0
 11
-6107.8919455255154
 21
180.03612156838079
 31
0.0
  0
LINE
  5
7DA8
  8
1
 10
-6087.8919455255136
 20
1025.0361215683799
 30
0.0
 11
-5917.8919455255136
 21
1025.0361215683799
 31
0.0
  0
LINE
  5
7DA9
  8
1
 10
-6087.8919455255136
 20
1040.0361215683799
 30
0.0
 11
-5917.8919455255136
 21
1040.0361215683799
 31
0.0
  0
LINE
  5
7DAA
  8
1
 10
-6052.8919455255154
 20
850.03612156838085
 30
0.0
 11
-5952.8919455255136
 21
850.03612156838085
 31
0.0
  0
LINE
  5
7DAB
  8
1
 10
-6052.8919455255154
 20
730.03612156838085
 30
0.0
 11
-5952.8919455255136
 21
730.03612156838085
 31
0.0
  0
LINE
  5
7DAC
  8
1
 10
-6052.8919455255154
 20
850.03612156838085
 30
0.0
 11
-6052.8919455255154
 21
730.03612156838085
 31
0.0
  0
LINE
  5
7DAD
  8
1
 10
-5952.8919455255136
 20
850.03612156838085
 30
0.0
 11
-5952.8919455255136
 21
730.03612156838085
 31
0.0
  0
LINE
  5
7DAE
  8
1
 10
-5030.2015884743232
 20
202.53612156838079
 30
0.0
 11
-4984.2083714778864
 21
202.53612156838079
 31
0.0
  0
LINE
  5
7DAF
  8
1
 10
-5176.8919455255154
 20
670.03612156838085
 30
0.0
 11
-5256.8919455255154
 21
670.03612156838085
 31
0.0
  0
LINE
  5
7DB0
  8
1
 10
-5176.8919455255154
 20
910.03612156838085
 30
0.0
 11
-5256.8919455255154
 21
910.03612156838085
 31
0.0
  0
LINE
  5
7DB1
  8
1
 10
-4997.3919455255154
 20
226.03612156838079
 30
0.0
 11
-4960.8919455255136
 21
226.03612156838079
 31
0.0
  0
LINE
  5
7DB2
  8
1
 10
-4957.8919455255136
 20
230.03612156838079
 30
0.0
 11
-4957.8919455255136
 21
229.03612156838079
 31
0.0
  0
ARC
  5
7DB3
  8
1
 10
-4960.8919455255136
 20
229.03612156838079
 30
0.0
 40
3.0
 50
270.0
 51
0.0
  0
LINE
  5
7DB4
  8
1
 10
-4957.8919455255136
 20
230.03612156838079
 30
0.0
 11
-4957.8919455255136
 21
229.03612156838079
 31
0.0
  0
LINE
  5
7DB5
  8
1
 10
-5012.3919455255136
 20
180.03612156838079
 30
0.0
 11
-5007.8919455255136
 21
180.03612156838079
 31
0.0
  0
LINE
  5
7DB6
  8
1
 10
-5007.8919455255136
 20
180.03612156838079
 30
0.0
 11
-5006.8919455255154
 21
180.03612156838079
 31
0.0
  0
ARC
  5
7DB7
  8
1
 10
-5006.8919455255154
 20
183.03612156838079
 30
0.0
 40
3.0
 50
270.0
 51
359.9999999999996
  0
LINE
  5
7DB8
  8
1
 10
-5007.8919455255136
 20
180.03612156838079
 30
0.0
 11
-5006.8919455255154
 21
180.03612156838079
 31
0.0
  0
LINE
  5
7DB9
  8
1
 10
-5007.8919455255136
 20
230.03612156838079
 30
0.0
 11
-5007.8919455255136
 21
180.03612156838079
 31
0.0
  0
LINE
  5
7DBA
  8
1
 10
-5007.8919455255136
 20
230.03612156838079
 30
0.0
 11
-5007.8919455255136
 21
180.03612156838079
 31
0.0
  0
LINE
  5
7DBB
  8
1
 10
-5007.8919455255136
 20
230.03612156838079
 30
0.0
 11
-4957.8919455255136
 21
230.03612156838079
 31
0.0
  0
ARC
  5
7DBC
  8
1
 10
-4997.3919455255154
 20
219.53612156838079
 30
0.0
 40
6.5
 50
90.0
 51
180.0
  0
CIRCLE
  5
7DBD
  8
1
 10
-5528.3919455255136
 20
1862.0361215683799
 30
0.0
 40
17.5
  0
LINE
  5
7DBE
  8
1
 10
-5528.3919455255136
 20
1844.5361215683799
 30
0.0
 11
-5516.8373805255151
 21
1843.2981455683801
 31
0.0
  0
LINE
  5
7DBF
  8
1
 10
-5516.8373805255151
 20
1843.2981455683801
 30
0.0
 11
-5539.9465115255152
 21
1843.2981455683801
 31
0.0
  0
LINE
  5
7DC0
  8
1
 10
-5569.8602685255146
 20
1862.0361215683799
 30
0.0
 11
-5488.5098655255142
 21
1862.0361215683799
 31
0.0
  0
ARC
  5
7DC1
  8
1
 10
-5528.3919455255136
 20
1862.0361215683799
 30
0.0
 40
29.999988999999999
 50
305.60385099999991
 51
234.39613299999999
  0
LINE
  5
7DC2
  8
1
 10
-5469.3919455255154
 20
1765.0361215683799
 30
0.0
 11
-5587.3919455255136
 21
1765.0361215683799
 31
0.0
  0
LINE
  5
7DC3
  8
1
 10
-5590.3919455255154
 20
1758.0361215683799
 30
0.0
 11
-5466.3919455255154
 21
1758.0361215683799
 31
0.0
  0
LINE
  5
7DC4
  8
2
 10
-5588.7122585255138
 20
1691.0361215683799
 30
0.0
 11
-5464.7048115255138
 21
1691.0361215683799
 31
0.0
  0
LINE
  5
7DC5
  8
1
 10
-5472.8919455255136
 20
1467.0361215683799
 30
0.0
 11
-5528.3919455255136
 21
1467.0361215683799
 31
0.0
  0
LINE
  5
7DC6
  8
1
 10
-5587.3919455255136
 20
1543.33824556838
 30
0.0
 11
-5469.3919455255154
 21
1543.33824556838
 31
0.0
  0
LINE
  5
7DC7
  8
1
 10
-5466.3919455255154
 20
1563.33824556838
 30
0.0
 11
-5590.3919455255154
 21
1563.33824556838
 31
0.0
  0
LINE
  5
7DC8
  8
2
 10
-5861.8010035255156
 20
1641.0361215683799
 30
0.0
 11
-5167.1021505255158
 21
1641.0361215683799
 31
0.0
  0
LINE
  5
7DC9
  8
1
 10
-5408.3919455255154
 20
1832.0361215683799
 30
0.0
 11
-5528.3919455255136
 21
1832.0361215683799
 31
0.0
  0
LINE
  5
7DCA
  8
1
 10
-5339.8919455255154
 20
1455.0361215683799
 30
0.0
 11
-5715.8919455255136
 21
1455.0361215683799
 31
0.0
  0
LINE
  5
7DCB
  8
1
 10
-5339.8919455255154
 20
1461.0361215683811
 30
0.0
 11
-5715.8919455255136
 21
1461.0361215683811
 31
0.0
  0
LINE
  5
7DCC
  8
1
 10
-6103.3919455255154
 20
1354.536121568382
 30
0.0
 11
-5587.8919455255136
 21
1354.5361215683811
 31
0.0
  0
LINE
  5
7DCD
  8
1
 10
-5147.8919455255154
 20
1295.0361215683811
 30
0.0
 11
-6042.8919455255136
 21
1295.0361215683799
 31
0.0
  0
LINE
  5
7DCE
  8
1
 10
-5147.8919455255136
 20
1331.0361215683799
 30
0.0
 11
-6042.8919455255136
 21
1331.036121568382
 31
0.0
  0
LINE
  5
7DCF
  8
1
 10
-5387.8919455255136
 20
1417.0361215683799
 30
0.0
 11
-5667.8919455255136
 21
1417.0361215683799
 31
0.0
  0
LINE
  5
7DD0
  8
1
 10
-6118.3919455255136
 20
1354.0361215683799
 30
0.0
 11
-6154.8919455255136
 21
1354.0361215683799
 31
0.0
  0
LINE
  5
7DD1
  8
1
 10
-6125.0829308473731
 20
1377.5361215683811
 30
0.0
 11
-6086.7552450241847
 21
1377.5361215683811
 31
0.0
  0
LINE
  5
7DD2
  8
1
 10
-6157.8919455255136
 20
1350.0361215683799
 30
0.0
 11
-6157.8919455255136
 21
1351.0361215683799
 31
0.0
  0
ARC
  5
7DD3
  8
1
 10
-6154.8919455255136
 20
1351.0361215683799
 30
0.0
 40
3.0
 50
90.0
 51
180.0
  0
LINE
  5
7DD4
  8
1
 10
-5617.3919455255154
 20
1735.0361215683799
 30
0.0
 11
-5617.3919455255154
 21
1573.33824556838
 31
0.0
  0
LINE
  5
7DD5
  8
1
 10
-5610.3919455255136
 20
1738.0361215683799
 30
0.0
 11
-5610.3919455255136
 21
1583.33824556838
 31
0.0
  0
LINE
  5
7DD6
  8
1
 10
-5708.3919455255154
 20
1825.7227665683799
 30
0.0
 11
-5708.3919455255154
 21
1465.0361215683799
 31
0.0
  0
LINE
  5
7DD7
  8
1
 10
-5658.3919455255154
 20
1481.0361215683799
 30
0.0
 11
-5658.3919455255154
 21
1826.0361215683799
 31
0.0
  0
LINE
  5
7DD8
  8
1
 10
-5848.3919455255154
 20
1778.1494025683801
 30
0.0
 11
-5848.3919455255154
 21
1503.9228395683799
 31
0.0
  0
LINE
  5
7DD9
  8
1
 10
-5788.2919705255163
 20
1814.4088625683801
 30
0.0
 11
-5788.2919705255163
 21
1467.6624635683811
 31
0.0
  0
LINE
  5
7DDA
  8
1
 10
-5739.991921525515
 20
1467.5361215683811
 30
0.0
 11
-5739.991921525515
 21
1814.8494755683801
 31
0.0
  0
LINE
  5
7DDB
  8
2
 10
-5528.3919455255136
 20
1899.5342905683799
 30
0.0
 11
-5528.3919455255136
 21
1448.79088156838
 31
0.0
  0
LINE
  5
7DDC
  8
1
 10
-5733.1224145255146
 20
1465.0361215683799
 30
0.0
 11
-5695.2124536012043
 21
1465.0361215683799
 31
0.0
  0
LINE
  5
7DDD
  8
1
 10
-6025.6968235742952
 20
1346.0361215683799
 30
0.0
 11
-5980.0870674767339
 21
1346.0361215683799
 31
0.0
  0
LINE
  5
7DDE
  8
1
 10
-6042.8919455255136
 20
1331.0361215683811
 30
0.0
 11
-6042.8919455255136
 21
1295.0361215683799
 31
0.0
  0
LINE
  5
7DDF
  8
1
 10
-6103.3919455255154
 20
1400.0361215683811
 30
0.0
 11
-6107.8919455255154
 21
1400.0361215683811
 31
0.0
  0
LINE
  5
7DE0
  8
1
 10
-6107.8919455255154
 20
1400.0361215683811
 30
0.0
 11
-6108.8919455255127
 21
1400.0361215683811
 31
0.0
  0
ARC
  5
7DE1
  8
1
 10
-6108.8919455255127
 20
1397.0361215683811
 30
0.0
 40
3.0
 50
90.0
 51
179.9999999999996
  0
ARC
  5
7DE2
  8
1
 10
-6118.3919455255136
 20
1360.5361215683799
 30
0.0
 40
6.5
 50
270.0
 51
0.0
  0
LINE
  5
7DE3
  8
1
 10
-6107.8919455255154
 20
1350.0361215683799
 30
0.0
 11
-6107.8919455255154
 21
1400.0361215683811
 31
0.0
  0
LINE
  5
7DE4
  8
1
 10
-5793.8489765255163
 20
1469.5457645683809
 30
0.0
 11
-5845.8919455255154
 21
1499.59276156838
 31
0.0
  0
ARC
  5
7DE5
  8
1
 10
-5843.3919455255136
 20
1503.9228395683799
 30
0.0
 40
5.0
 50
180.0
 51
239.99972500000001
  0
LINE
  5
7DE6
  8
1
 10
-5786.3489765255154
 20
1467.5361215683811
 30
0.0
 11
-5739.991921525515
 21
1467.5361215683811
 31
0.0
  0
ARC
  5
7DE7
  8
1
 10
-5786.3489765255154
 20
1482.5361215683799
 30
0.0
 40
15.0
 50
239.999954
 51
270.0
  0
LINE
  5
7DE8
  8
1
 10
-5733.1224145255146
 20
1465.0361215683799
 30
0.0
 11
-5739.991921525515
 21
1467.5361215683811
 31
0.0
  0
LINE
  5
7DE9
  8
1
 10
-5721.8919455255154
 20
1449.0361215683799
 30
0.0
 11
-5721.8919455255154
 21
1411.0361215683811
 31
0.0
  0
LINE
  5
7DEA
  8
1
 10
-5727.8919455255154
 20
1449.0361215683799
 30
0.0
 11
-5727.8919455255154
 21
1411.0361215683811
 31
0.0
  0
LINE
  5
7DEB
  8
1
 10
-5667.8919455255136
 20
1331.0361215683811
 30
0.0
 11
-5667.8919455255136
 21
1439.0361215683799
 31
0.0
  0
LINE
  5
7DEC
  8
1
 10
-5687.8919455255136
 20
1439.0361215683799
 30
0.0
 11
-5687.8919455255136
 21
1331.0361215683811
 31
0.0
  0
LINE
  5
7DED
  8
1
 10
-5677.8919455255154
 20
1542.5023157417661
 30
0.0
 11
-5677.8919455255154
 21
1316.637617274343
 31
0.0
  0
LINE
  5
7DEE
  8
1
 10
-5721.8919455255154
 20
1411.0361215683811
 30
0.0
 11
-5727.8919455255154
 21
1411.0361215683811
 31
0.0
  0
LINE
  5
7DEF
  8
1
 10
-5687.8919455255136
 20
1417.0361215683799
 30
0.0
 11
-5721.8919455255154
 21
1417.0361215683799
 31
0.0
  0
LINE
  5
7DF0
  8
1
 10
-5668.3919455255136
 20
1481.0361215683799
 30
0.0
 11
-5611.3919455255154
 21
1481.0361215683799
 31
0.0
  0
LINE
  5
7DF1
  8
1
 10
-5588.8919455255154
 20
1461.0361215683811
 30
0.0
 11
-5671.3919455255136
 21
1461.0361215683811
 31
0.0
  0
LINE
  5
7DF2
  8
1
 10
-5648.8919455255136
 20
1485.1380495683809
 30
0.0
 11
-5648.8919455255136
 21
1457.2072635683801
 31
0.0
  0
ARC
  5
7DF3
  8
1
 10
-5653.7804955255151
 20
1484.0361215683799
 30
0.0
 40
3.0
 50
270.0
 51
0.0
  0
LINE
  5
7DF4
  8
1
 10
-5667.8919455255136
 20
1508.5361215683811
 30
0.0
 11
-5687.8919455255136
 21
1508.5361215683811
 31
0.0
  0
LINE
  5
7DF5
  8
1
 10
-5662.8919455255136
 20
1477.0361215683799
 30
0.0
 11
-5660.5714374498248
 21
1475.696375606225
 31
0.0
  0
ARC
  5
7DF6
  8
1
 10
-5664.9015644687479
 20
1469.3686533231121
 30
0.0
 40
7.6674682452691139
 50
55.615752531956161
 51
124.3842474680438
  0
LINE
  5
7DF7
  8
1
 10
-5692.8919455255154
 20
1477.0361215683799
 30
0.0
 11
-5695.2124536012043
 21
1475.696375606225
 31
0.0
  0
ARC
  5
7DF8
  8
1
 10
-5690.8823265822812
 20
1469.3686533231121
 30
0.0
 40
7.6674682452691139
 50
55.615752531956161
 51
124.3842474680438
  0
ARC
  5
7DF9
  8
1
 10
-5677.8919455255154
 20
1448.375867530536
 30
0.0
 40
28.66025403784414
 50
72.412046226006169
 51
107.5879537739938
  0
LINE
  5
7DFA
  8
1
 10
-5660.5714374498248
 20
1455.0361215683799
 30
0.0
 11
-5695.2124536012043
 21
1455.0361215683799
 31
0.0
  0
LINE
  5
7DFB
  8
1
 10
-5695.2124536012043
 20
1461.0361215683811
 30
0.0
 11
-5660.5714374498248
 21
1461.0361215683811
 31
0.0
  0
LINE
  5
7DFC
  8
1
 10
-5695.2124536012043
 20
1475.696375606225
 30
0.0
 11
-5695.2124536012043
 21
1461.0361215683811
 31
0.0
  0
LINE
  5
7DFD
  8
1
 10
-5686.552199563359
 20
1475.696375606225
 30
0.0
 11
-5686.552199563359
 21
1461.0361215683811
 31
0.0
  0
LINE
  5
7DFE
  8
1
 10
-5669.2316914876701
 20
1475.696375606225
 30
0.0
 11
-5669.2316914876701
 21
1461.0361215683811
 31
0.0
  0
LINE
  5
7DFF
  8
1
 10
-5660.5714374498248
 20
1475.696375606225
 30
0.0
 11
-5660.5714374498248
 21
1461.0361215683811
 31
0.0
  0
LINE
  5
7E00
  8
1
 10
-5692.8919455255154
 20
1477.0361215683799
 30
0.0
 11
-5662.8919455255136
 21
1477.0361215683799
 31
0.0
  0
LINE
  5
7E01
  8
1
 10
-5667.8919455255136
 20
1477.0361215683799
 30
0.0
 11
-5667.8919455255136
 21
1508.5361215683811
 31
0.0
  0
LINE
  5
7E02
  8
1
 10
-5687.8919455255136
 20
1508.5361215683811
 30
0.0
 11
-5687.8919455255136
 21
1477.0361215683799
 31
0.0
  0
ARC
  5
7E03
  8
1
 10
-5677.8919455255154
 20
1467.696375606225
 30
0.0
 40
28.66025403784414
 50
252.41204622600611
 51
287.58795377399377
  0
LINE
  5
7E04
  8
1
 10
-5662.8919455255136
 20
1439.0361215683799
 30
0.0
 11
-5692.8919455255154
 21
1439.0361215683799
 31
0.0
  0
LINE
  5
7E05
  8
1
 10
-5692.8919455255154
 20
1439.0361215683799
 30
0.0
 11
-5695.2124536012043
 21
1440.375867530536
 31
0.0
  0
ARC
  5
7E06
  8
1
 10
-5690.8823265822812
 20
1446.7035898136489
 30
0.0
 40
7.6674682452691139
 50
235.6157525319561
 51
304.38424746804378
  0
LINE
  5
7E07
  8
1
 10
-5662.8919455255136
 20
1439.0361215683799
 30
0.0
 11
-5660.5714374498248
 21
1440.375867530536
 31
0.0
  0
ARC
  5
7E08
  8
1
 10
-5664.9015644687479
 20
1446.7035898136489
 30
0.0
 40
7.6674682452691139
 50
235.6157525319561
 51
304.38424746804378
  0
ARC
  5
7E09
  8
1
 10
-5715.8919455255136
 20
1449.0361215683799
 30
0.0
 40
12.0
 50
90.0
 51
180.0
  0
ARC
  5
7E0A
  8
1
 10
-5715.8919455255136
 20
1449.0361215683799
 30
0.0
 40
6.0
 50
90.0
 51
180.0
  0
LINE
  5
7E0B
  8
1
 10
-5686.552199563359
 20
1440.375867530536
 30
0.0
 11
-5686.552199563359
 21
1455.0361215683799
 31
0.0
  0
LINE
  5
7E0C
  8
1
 10
-5695.2124536012043
 20
1440.375867530536
 30
0.0
 11
-5695.2124536012043
 21
1455.0361215683799
 31
0.0
  0
LINE
  5
7E0D
  8
1
 10
-5660.5714374498248
 20
1440.375867530536
 30
0.0
 11
-5660.5714374498248
 21
1455.0361215683799
 31
0.0
  0
LINE
  5
7E0E
  8
1
 10
-5669.2316914876701
 20
1440.375867530536
 30
0.0
 11
-5669.2316914876701
 21
1455.0361215683799
 31
0.0
  0
LINE
  5
7E0F
  8
1
 10
-5543.3919455255136
 20
1502.099841568381
 30
0.0
 11
-5543.3919455255136
 21
1534.1149785683799
 31
0.0
  0
ARC
  5
7E10
  8
1
 10
-5563.3919455255136
 20
1502.099841568381
 30
0.0
 40
19.999980999999998
 50
271.26357999999999
 51
0.0
  0
ARC
  5
7E11
  8
1
 10
-5583.8919455255154
 20
1462.0361215683811
 30
0.0
 40
5.0
 50
90.0
 51
180.0
  0
LINE
  5
7E12
  8
1
 10
-5588.8919455255154
 20
1462.0361215683811
 30
0.0
 11
-5588.8919455255154
 21
1461.0361215683811
 31
0.0
  0
ARC
  5
7E13
  8
1
 10
-5590.3919455255154
 20
1583.33824556838
 30
0.0
 40
20.0
 50
180.0
 51
270.0
  0
ARC
  5
7E14
  8
1
 10
-5587.3919455255136
 20
1573.33824556838
 30
0.0
 40
30.0
 50
180.0
 51
270.0
  0
LINE
  5
7E15
  8
1
 10
-5583.8919455255154
 20
1467.0361215683799
 30
0.0
 11
-5528.3919455255136
 21
1467.0361215683799
 31
0.0
  0
LINE
  5
7E16
  8
1
 10
-5562.9509055255139
 20
1482.1047245683801
 30
0.0
 11
-5611.3919455255154
 21
1481.0361215683799
 31
0.0
  0
LINE
  5
7E17
  8
1
 10
-5711.7053005255148
 20
1824.830310568381
 30
0.0
 11
-5736.6785665255147
 21
1815.741931568381
 31
0.0
  0
LINE
  5
7E18
  8
1
 10
-5793.8489765255163
 20
1812.5264775683811
 30
0.0
 11
-5845.8919455255154
 21
1782.47948056838
 31
0.0
  0
ARC
  5
7E19
  8
1
 10
-5843.3919455255136
 20
1778.1494025683801
 30
0.0
 40
5.0
 50
120.000282
 51
180.0
  0
LINE
  5
7E1A
  8
1
 10
-5786.3489765255154
 20
1814.5361215683799
 30
0.0
 11
-5743.518166525515
 21
1814.5361215683799
 31
0.0
  0
ARC
  5
7E1B
  8
1
 10
-5786.3489765255154
 20
1799.5361215683799
 30
0.0
 40
15.0
 50
90.0
 51
120.000046
  0
ARC
  5
7E1C
  8
1
 10
-5743.518166525515
 20
1834.5361215683799
 30
0.0
 40
20.0
 50
270.0
 51
289.99749800000001
  0
LINE
  5
7E1D
  8
1
 10
-5648.3919455255136
 20
1832.0361215683799
 30
0.0
 11
-5528.3919455255136
 21
1832.0361215683799
 31
0.0
  0
LINE
  5
7E1E
  8
1
 10
-5648.3919455255136
 20
1832.0361215683799
 30
0.0
 11
-5658.3919455255154
 21
1823.78209256838
 31
0.0
  0
ARC
  5
7E1F
  8
1
 10
-5704.8657005255163
 20
1806.0361215683799
 30
0.0
 40
20.0
 50
90.0
 51
109.997505
  0
LINE
  5
7E20
  8
1
 10
-5704.8657005255163
 20
1826.0361215683799
 30
0.0
 11
-5658.3919455255154
 21
1826.0361215683799
 31
0.0
  0
ARC
  5
7E21
  8
1
 10
-5528.3919455255136
 20
1862.0361215683799
 30
0.0
 40
30.0
 50
234.39613299999999
 51
234.80995200000001
  0
ARC
  5
7E22
  8
1
 10
-5539.6269315255158
 20
1840.31523456838
 30
0.0
 40
3.0
 50
96.115172999999999
 51
174.80557300000001
  0
LINE
  5
7E23
  8
1
 10
-5528.3919455255136
 20
1844.5361215683799
 30
0.0
 11
-5539.9465115255152
 21
1843.2981455683801
 31
0.0
  0
ARC
  5
7E24
  8
1
 10
-5549.3503195255153
 20
1832.7659185683799
 30
0.0
 40
6.0
 50
354.80557299999992
 51
54.396262999999998
  0
LINE
  5
7E25
  8
1
 10
-5542.6146015255154
 20
1840.586841568381
 30
0.0
 11
-5543.3919455255136
 21
1832.0361215683799
 31
0.0
  0
ARC
  5
7E26
  8
1
 10
-5587.3919455255136
 20
1735.0361215683799
 30
0.0
 40
30.0
 50
90.0
 51
180.0
  0
ARC
  5
7E27
  8
1
 10
-5590.3919455255154
 20
1738.0361215683799
 30
0.0
 40
20.0
 50
90.0
 51
180.0
  0
LINE
  5
7E28
  8
1
 10
-5141.8919455255136
 20
1354.536121568362
 30
0.0
 11
-5012.3919455255136
 21
1354.5361215683929
 31
0.0
  0
LINE
  5
7E29
  8
1
 10
-5030.2015884743232
 20
1377.5361215683811
 30
0.0
 11
-4984.2083714778864
 21
1377.5361215683811
 31
0.0
  0
LINE
  5
7E2A
  8
1
 10
-5186.8919455255136
 20
1617.0361215683799
 30
0.0
 11
-5186.8919455255136
 21
1665.0361215683779
 31
0.0
  0
LINE
  5
7E2B
  8
1
 10
-5286.8919455255136
 20
1616.0361215683799
 30
0.0
 11
-5286.8919455255136
 21
1666.0361215683799
 31
0.0
  0
LINE
  5
7E2C
  8
1
 10
-5296.8919455255154
 20
1704.0361215683799
 30
0.0
 11
-5296.8919455255154
 21
1641.0361215683799
 31
0.0
  0
LINE
  5
7E2D
  8
1
 10
-5373.3919455255154
 20
1806.0361215683799
 30
0.0
 11
-5373.3919455255154
 21
1641.0361215683799
 31
0.0
  0
LINE
  5
7E2E
  8
1
 10
-5439.3919455255136
 20
1735.0361215683799
 30
0.0
 11
-5439.3919455255136
 21
1573.33824556838
 31
0.0
  0
LINE
  5
7E2F
  8
1
 10
-5446.3919455255136
 20
1738.0361215683799
 30
0.0
 11
-5446.3919455255136
 21
1583.33824556838
 31
0.0
  0
LINE
  5
7E30
  8
1
 10
-5281.8919455255154
 20
1320.7389328161521
 30
0.0
 11
-5281.8919455255154
 21
1841.0361215683799
 31
0.0
  0
LINE
  5
7E31
  8
1
 10
-5141.8919455255136
 20
1320.7389328161521
 30
0.0
 11
-5141.8919455255136
 21
1841.0361215683799
 31
0.0
  0
LINE
  5
7E32
  8
1
 10
-5267.8919455255154
 20
1511.0361215683799
 30
0.0
 11
-5327.8919455255136
 21
1511.0361215683799
 31
0.0
  0
LINE
  5
7E33
  8
1
 10
-5318.3367695255147
 20
1502.1389045683809
 30
0.0
 11
-5341.5105975255155
 21
1478.9650765683809
 31
0.0
  0
LINE
  5
7E34
  8
1
 10
-5316.1233134068652
 20
1431.0361215683799
 30
0.0
 11
-5340.5803725535443
 21
1431.0361215683799
 31
0.0
  0
LINE
  5
7E35
  8
1
 10
-5333.8919455255154
 20
1449.0361215683799
 30
0.0
 11
-5333.8919455255154
 21
1411.0361215683811
 31
0.0
  0
LINE
  5
7E36
  8
1
 10
-5367.8919455255136
 20
1331.0361215683811
 30
0.0
 11
-5367.8919455255136
 21
1439.0361215683799
 31
0.0
  0
LINE
  5
7E37
  8
1
 10
-5387.8919455255136
 20
1439.0361215683799
 30
0.0
 11
-5387.8919455255136
 21
1331.0361215683811
 31
0.0
  0
LINE
  5
7E38
  8
1
 10
-5377.8919455255154
 20
1542.5023157417661
 30
0.0
 11
-5377.8919455255154
 21
1316.637617274343
 31
0.0
  0
LINE
  5
7E39
  8
1
 10
-5327.8919455255136
 20
1511.0361215683811
 30
0.0
 11
-5327.8919455255136
 21
1331.0361215683811
 31
0.0
  0
LINE
  5
7E3A
  8
1
 10
-5327.8919455255136
 20
1411.0361215683811
 30
0.0
 11
-5333.8919455255154
 21
1411.0361215683811
 31
0.0
  0
LINE
  5
7E3B
  8
1
 10
-5333.8919455255154
 20
1417.0361215683799
 30
0.0
 11
-5367.8919455255136
 21
1417.0361215683799
 31
0.0
  0
LINE
  5
7E3C
  8
1
 10
-5467.8919455255154
 20
1461.0361215683811
 30
0.0
 11
-5385.3919455255154
 21
1461.0361215683811
 31
0.0
  0
LINE
  5
7E3D
  8
1
 10
-5388.3919455255154
 20
1481.0361215683799
 30
0.0
 11
-5445.3919455255136
 21
1481.0361215683799
 31
0.0
  0
ARC
  5
7E3E
  8
1
 10
-5472.8919455255136
 20
1462.0361215683811
 30
0.0
 40
5.0
 50
0.0
 51
90.0
  0
LINE
  5
7E3F
  8
1
 10
-5467.8919455255154
 20
1462.0361215683811
 30
0.0
 11
-5467.8919455255154
 21
1461.0361215683811
 31
0.0
  0
LINE
  5
7E40
  8
1
 10
-5493.8329855255151
 20
1482.1047245683801
 30
0.0
 11
-5445.3919455255136
 21
1481.0361215683799
 31
0.0
  0
LINE
  5
7E41
  8
1
 10
-5513.3919455255154
 20
1502.099841568381
 30
0.0
 11
-5513.3919455255154
 21
1534.1149785683799
 31
0.0
  0
ARC
  5
7E42
  8
1
 10
-5493.3919455255136
 20
1502.099841568381
 30
0.0
 40
20.0
 50
180.0
 51
268.73642000000001
  0
ARC
  5
7E43
  8
1
 10
-5466.3919455255154
 20
1583.33824556838
 30
0.0
 40
20.0
 50
270.0
 51
0.0
  0
ARC
  5
7E44
  8
1
 10
-5469.3919455255154
 20
1573.33824556838
 30
0.0
 40
30.0
 50
270.0
 51
0.0
  0
LINE
  5
7E45
  8
1
 10
-5367.8919455255136
 20
1508.5361215683811
 30
0.0
 11
-5387.8919455255136
 21
1508.5361215683811
 31
0.0
  0
LINE
  5
7E46
  8
1
 10
-5407.8919455255136
 20
1485.1380495683809
 30
0.0
 11
-5407.8919455255136
 21
1457.2072635683801
 31
0.0
  0
LINE
  5
7E47
  8
1
 10
-5348.5816425255152
 20
1476.0361215683799
 30
0.0
 11
-5361.1154138522843
 21
1476.0361215683799
 31
0.0
  0
LINE
  5
7E48
  8
1
 10
-5387.8919455255136
 20
1482.7758920683809
 30
0.0
 11
-5388.3919455255154
 21
1481.0361215683799
 31
0.0
  0
ARC
  5
7E49
  8
1
 10
-5388.3919455255154
 20
1478.0361215683811
 30
0.0
 40
3.0
 50
80.405931773139471
 51
90.0
  0
ARC
  5
7E4A
  8
1
 10
-5348.5816425255152
 20
1486.0361215683811
 30
0.0
 40
10.0
 50
270.0
 51
315.0
  0
LINE
  5
7E4B
  8
1
 10
-5395.2124536012034
 20
1461.036121568382
 30
0.0
 11
-5360.5714374498248
 21
1461.036121568382
 31
0.0
  0
LINE
  5
7E4C
  8
1
 10
-5392.8919455255154
 20
1477.036121568382
 30
0.0
 11
-5362.8919455255154
 21
1477.036121568382
 31
0.0
  0
ARC
  5
7E4D
  8
1
 10
-5377.8919455255154
 20
1448.3758675305371
 30
0.0
 40
28.66025403784414
 50
72.412046226006169
 51
107.5879537739938
  0
LINE
  5
7E4E
  8
1
 10
-5386.552199563359
 20
1475.696375606226
 30
0.0
 11
-5386.552199563359
 21
1461.036121568382
 31
0.0
  0
LINE
  5
7E4F
  8
1
 10
-5395.2124536012034
 20
1475.696375606226
 30
0.0
 11
-5395.2124536012034
 21
1461.036121568382
 31
0.0
  0
ARC
  5
7E50
  8
1
 10
-5390.8823265822812
 20
1469.368653323113
 30
0.0
 40
7.6674682452691139
 50
55.615752531956161
 51
124.3842474680438
  0
LINE
  5
7E51
  8
1
 10
-5392.8919455255154
 20
1477.036121568382
 30
0.0
 11
-5395.2124536012034
 21
1475.696375606226
 31
0.0
  0
LINE
  5
7E52
  8
1
 10
-5360.5714374498248
 20
1475.696375606226
 30
0.0
 11
-5360.5714374498248
 21
1461.036121568382
 31
0.0
  0
LINE
  5
7E53
  8
1
 10
-5369.2316914876692
 20
1475.696375606226
 30
0.0
 11
-5369.2316914876692
 21
1461.036121568382
 31
0.0
  0
LINE
  5
7E54
  8
1
 10
-5377.8919455255154
 20
1484.0360734582539
 30
0.0
 11
-5377.8919455255154
 21
1454.2284128962251
 31
0.0
  0
ARC
  5
7E55
  8
1
 10
-5364.9015644687479
 20
1469.368653323113
 30
0.0
 40
7.6674682452691139
 50
55.615752531956161
 51
124.3842474680438
  0
LINE
  5
7E56
  8
1
 10
-5362.8919455255154
 20
1477.036121568382
 30
0.0
 11
-5360.5714374498248
 21
1475.696375606226
 31
0.0
  0
LINE
  5
7E57
  8
1
 10
-5360.5714374498248
 20
1455.0361215683799
 30
0.0
 11
-5395.2124536012034
 21
1455.0361215683799
 31
0.0
  0
LINE
  5
7E58
  8
1
 10
-5387.8919455255136
 20
1508.5361215683811
 30
0.0
 11
-5387.8919455255136
 21
1477.036121568382
 31
0.0
  0
LINE
  5
7E59
  8
1
 10
-5367.8919455255136
 20
1477.036121568382
 30
0.0
 11
-5367.8919455255136
 21
1508.5361215683811
 31
0.0
  0
LINE
  5
7E5A
  8
1
 10
-5373.3919455255154
 20
1508.5361215683811
 30
0.0
 11
-5373.3919455255154
 21
1641.0361215683799
 31
0.0
  0
LINE
  5
7E5B
  8
1
 10
-5362.8919455255154
 20
1439.0361215683799
 30
0.0
 11
-5392.8919455255154
 21
1439.0361215683799
 31
0.0
  0
ARC
  5
7E5C
  8
1
 10
-5377.8919455255154
 20
1467.696375606225
 30
0.0
 40
28.66025403784414
 50
252.41204622600611
 51
287.58795377399377
  0
ARC
  5
7E5D
  8
1
 10
-5364.9015644687479
 20
1446.7035898136489
 30
0.0
 40
7.6674682452691139
 50
235.6157525319561
 51
304.38424746804378
  0
LINE
  5
7E5E
  8
1
 10
-5362.8919455255154
 20
1439.0361215683799
 30
0.0
 11
-5360.5714374498248
 21
1440.375867530536
 31
0.0
  0
ARC
  5
7E5F
  8
1
 10
-5390.8823265822812
 20
1446.7035898136489
 30
0.0
 40
7.6674682452691139
 50
235.6157525319561
 51
304.38424746804378
  0
LINE
  5
7E60
  8
1
 10
-5392.8919455255154
 20
1439.0361215683799
 30
0.0
 11
-5395.2124536012034
 21
1440.375867530536
 31
0.0
  0
LINE
  5
7E61
  8
1
 10
-5369.2316914876692
 20
1440.375867530536
 30
0.0
 11
-5369.2316914876692
 21
1455.0361215683799
 31
0.0
  0
LINE
  5
7E62
  8
1
 10
-5360.5714374498248
 20
1440.375867530536
 30
0.0
 11
-5360.5714374498248
 21
1455.0361215683799
 31
0.0
  0
LINE
  5
7E63
  8
1
 10
-5395.2124536012034
 20
1440.375867530536
 30
0.0
 11
-5395.2124536012034
 21
1455.0361215683799
 31
0.0
  0
LINE
  5
7E64
  8
1
 10
-5386.552199563359
 20
1440.375867530536
 30
0.0
 11
-5386.552199563359
 21
1455.0361215683799
 31
0.0
  0
LINE
  5
7E65
  8
1
 10
-5377.8919455255154
 20
1432.0361696785069
 30
0.0
 11
-5377.8919455255154
 21
1461.843830240537
 31
0.0
  0
ARC
  5
7E66
  8
1
 10
-5339.8919455255154
 20
1449.0361215683799
 30
0.0
 40
6.0
 50
0.0
 51
90.0
  0
ARC
  5
7E67
  8
1
 10
-5339.8919455255154
 20
1449.0361215683799
 30
0.0
 40
12.0
 50
0.0
 51
90.0
  0
LINE
  5
7E68
  8
1
 10
-5147.8919455255154
 20
1331.0361215683811
 30
0.0
 11
-5267.8919455255154
 21
1511.0361215683799
 31
0.0
  0
LINE
  5
7E69
  8
1
 10
-5321.8919455255136
 20
1511.0361215683811
 30
0.0
 11
-5321.8919455255136
 21
1331.0361215683811
 31
0.0
  0
LINE
  5
7E6A
  8
1
 10
-5147.8919455255154
 20
1331.0361215683811
 30
0.0
 11
-5147.8919455255154
 21
1295.0361215683799
 31
0.0
  0
LINE
  5
7E6B
  8
1
 10
-5176.8919455255154
 20
1541.0361215683799
 30
0.0
 11
-5256.8919455255154
 21
1541.0361215683799
 31
0.0
  0
LINE
  5
7E6C
  8
1
 10
-5286.8919455255136
 20
1617.0361215683799
 30
0.0
 11
-5186.8919455255136
 21
1617.0361215683799
 31
0.0
  0
LINE
  5
7E6D
  8
1
 10
-5286.8919455255136
 20
1616.0361215683799
 30
0.0
 11
-5296.8919455255154
 21
1616.0361215683799
 31
0.0
  0
LINE
  5
7E6E
  8
1
 10
-5311.8919455255136
 20
1576.0361215683799
 30
0.0
 11
-5298.8919455255154
 21
1576.0361215683799
 31
0.0
  0
ARC
  5
7E6F
  8
1
 10
-5298.8919455255154
 20
1578.0361215683811
 30
0.0
 40
2.0
 50
270.0
 51
0.0
  0
LINE
  5
7E70
  8
1
 10
-5296.8919455255154
 20
1578.0361215683811
 30
0.0
 11
-5296.8919455255154
 21
1641.0361215683799
 31
0.0
  0
ARC
  5
7E71
  8
1
 10
-5325.4079365255147
 20
1509.2099495683799
 30
0.0
 40
10.00005399999999
 50
315.0004879999999
 51
357.00027499999999
  0
LINE
  5
7E72
  8
1
 10
-5311.8919455255136
 20
1576.0361215683799
 30
0.0
 11
-5315.4216085255148
 21
1508.686633568381
 31
0.0
  0
LINE
  5
7E73
  8
1
 10
-5318.3367695255147
 20
1779.9333375683809
 30
0.0
 11
-5341.5105975255155
 21
1803.1071665683801
 31
0.0
  0
ARC
  5
7E74
  8
1
 10
-5517.1569605255154
 20
1840.31523456838
 30
0.0
 40
3.0
 50
5.1944290000000004
 51
83.884827000000001
  0
ARC
  5
7E75
  8
1
 10
-5507.4335715255138
 20
1832.7659185683799
 30
0.0
 40
6.0
 50
125.603737
 51
185.19442699999999
  0
LINE
  5
7E76
  8
1
 10
-5514.1692895255146
 20
1840.586841568381
 30
0.0
 11
-5513.3919455255154
 21
1832.0361215683799
 31
0.0
  0
ARC
  5
7E77
  8
1
 10
-5469.3919455255154
 20
1735.0361215683799
 30
0.0
 40
30.0
 50
0.0
 51
90.0
  0
ARC
  5
7E78
  8
1
 10
-5466.3919455255154
 20
1738.0361215683799
 30
0.0
 40
20.0
 50
0.0
 51
90.0
  0
LINE
  5
7E79
  8
1
 10
-5391.4303975255152
 20
1818.0361215683799
 30
0.0
 11
-5408.3919455255154
 21
1832.0361215683799
 31
0.0
  0
LINE
  5
7E7A
  8
1
 10
-5348.5816425255152
 20
1806.0361215683799
 30
0.0
 11
-5373.3919455255154
 21
1806.0361215683799
 31
0.0
  0
LINE
  5
7E7B
  8
1
 10
-5391.4303975255152
 20
1818.0361215683799
 30
0.0
 11
-5383.3919455255154
 21
1788.0361215683799
 31
0.0
  0
LINE
  5
7E7C
  8
1
 10
-5378.3919455255136
 20
1788.0361215683799
 30
0.0
 11
-5373.3919455255154
 21
1788.0361215683799
 31
0.0
  0
LINE
  5
7E7D
  8
1
 10
-5383.3919455255154
 20
1788.0361215683799
 30
0.0
 11
-5378.3919455255136
 21
1788.0361215683799
 31
0.0
  0
LINE
  5
7E7E
  8
1
 10
-5378.3919455255136
 20
1788.0361215683799
 30
0.0
 11
-5383.3919455255154
 21
1788.0361215683799
 31
0.0
  0
ARC
  5
7E7F
  8
1
 10
-5348.5816425255152
 20
1796.0361215683799
 30
0.0
 40
9.9999679999999991
 50
45.0
 51
90.0
  0
LINE
  5
7E80
  8
1
 10
-5176.8919455255154
 20
1741.0361215683811
 30
0.0
 11
-5256.8919455255154
 21
1741.0361215683811
 31
0.0
  0
LINE
  5
7E81
  8
1
 10
-5141.8919455255136
 20
1841.0361215683799
 30
0.0
 11
-5281.8919455255154
 21
1841.0361215683799
 31
0.0
  0
LINE
  5
7E82
  8
1
 10
-5286.8919455255136
 20
1665.0361215683799
 30
0.0
 11
-5186.8919455255136
 21
1665.0361215683779
 31
0.0
  0
ARC
  5
7E83
  8
1
 10
-5325.4079365255147
 20
1772.8622925683801
 30
0.0
 40
10.000031
 50
2.9997379999999998
 51
44.999503999999988
  0
LINE
  5
7E84
  8
1
 10
-5311.8919455255136
 20
1706.0361215683799
 30
0.0
 11
-5298.8919455255154
 21
1706.0361215683799
 31
0.0
  0
ARC
  5
7E85
  8
1
 10
-5298.8919455255154
 20
1704.0361215683799
 30
0.0
 40
2.0
 50
0.0
 51
90.0
  0
LINE
  5
7E86
  8
1
 10
-5311.8919455255136
 20
1706.0361215683799
 30
0.0
 11
-5315.4216085255148
 21
1773.385608568381
 31
0.0
  0
LINE
  5
7E87
  8
1
 10
-5286.8919455255136
 20
1666.0361215683799
 30
0.0
 11
-5296.8919455255154
 21
1666.0361215683799
 31
0.0
  0
LINE
  5
7E88
  8
1
 10
-4997.3919455255154
 20
1354.0361215683799
 30
0.0
 11
-4960.8919455255136
 21
1354.0361215683799
 31
0.0
  0
LINE
  5
7E89
  8
1
 10
-4957.8919455255136
 20
1350.0361215683799
 30
0.0
 11
-4957.8919455255136
 21
1351.0361215683799
 31
0.0
  0
ARC
  5
7E8A
  8
1
 10
-4960.8919455255136
 20
1351.0361215683799
 30
0.0
 40
3.0
 50
0.0
 51
90.0
  0
LINE
  5
7E8B
  8
1
 10
-5012.3919455255136
 20
1400.0361215683811
 30
0.0
 11
-5007.8919455255136
 21
1400.0361215683811
 31
0.0
  0
LINE
  5
7E8C
  8
1
 10
-5007.8919455255136
 20
1400.0361215683811
 30
0.0
 11
-5006.8919455255154
 21
1400.0361215683811
 31
0.0
  0
ARC
  5
7E8D
  8
1
 10
-5006.8919455255154
 20
1397.0361215683811
 30
0.0
 40
3.0
 50
0.0000000000003053
 51
90.0
  0
LINE
  5
7E8E
  8
1
 10
-5007.8919455255136
 20
1350.0361215683799
 30
0.0
 11
-5007.8919455255136
 21
1400.0361215683811
 31
0.0
  0
ARC
  5
7E8F
  8
1
 10
-4997.3919455255154
 20
1360.5361215683799
 30
0.0
 40
6.5
 50
180.0
 51
270.0
  0
LINE
  5
7E90
  8
1
 10
-4057.9014777753341
 20
350.03612156838079
 30
0.0
 11
-4057.9014777753341
 21
90.036121568380864
 31
0.0
  0
LINE
  5
7E91
  8
1
 10
-3838.8263771232441
 20
305.59706355760733
 30
0.0
 11
-3720.245609589399
 21
696.71498341661049
 31
0.0
  0
LINE
  5
7E92
  8
1
 10
-3845.9179561349338
 20
309.77941084656982
 30
0.0
 11
-3727.9014777753318
 21
699.0361215683813
 31
0.0
  0
LINE
  5
7E93
  8
1
 10
-4009.5575934580838
 20
380.02788608234943
 30
0.0
 11
-4057.9014777753341
 21
350.03612156838079
 31
0.0
  0
LINE
  5
7E95
  8
1
 10
-3981.1212394137178
 20
1156.7581325777389
 30
0.0
 11
-3730.2123807281041
 21
939.34436890790607
 31
0.0
  0
LINE
  5
7E96
  8
1
 10
-3979.018775298292
 20
1159.1705438686579
 30
0.0
 11
-3728.0998543251212
 21
941.74806117702349
 31
0.0
  0
LINE
  5
7E97
  8
1
 10
-4112.2014852286547
 20
869.73243100142042
 30
0.0
 11
-3783.5807665241859
 21
822.48390469469018
 31
0.0
  0
LINE
  5
7E98
  8
1
 10
-3770.604373826392
 20
872.14262564383182
 30
0.0
 11
-4110.1577893299218
 21
882.84219005595855
 31
0.0
  0
LINE
  5
7E99
  8
1
 10
-4111.7370278762628
 20
872.89855844058172
 30
0.0
 11
-3783.1031303777631
 21
825.6481373093286
 31
0.0
  0
LINE
  5
7E9A
  8
1
 10
-3727.9014777753318
 20
699.0361215683813
 30
0.0
 11
-3720.245609589399
 21
696.71498341661049
 31
0.0
  0
LINE
  5
7E9B
  8
1
 10
-3757.9014777753332
 20
1631.0361215683799
 30
0.0
 11
-3757.9014777753332
 21
1748.0550415683799
 31
0.0
  0
LINE
  5
7E9C
  8
1
 10
-3747.9014777753318
 20
1751.0361215683799
 30
0.0
 11
-3747.9014777753318
 21
1631.0361215683799
 31
0.0
  0
ARC
  5
7E9D
  8
1
 10
-2889.5305067753329
 20
1627.5673715683799
 30
0.0
 40
1000.0
 50
174.84371899999991
 51
184.269531
  0
LINE
  5
7E9E
  8
1
 10
-3770.3163947753328
 20
1761.8608285683799
 30
0.0
 11
-3889.1874277753318
 21
1541.929797568381
 31
0.0
  0
LINE
  5
7E9F
  8
1
 10
-3767.149402775332
 20
1760.149036568381
 30
0.0
 11
-3886.0204357753341
 21
1540.2180055683809
 31
0.0
  0
LINE
  5
7EA0
  8
1
 10
-3737.3129767753321
 20
1841.0361215683799
 30
0.0
 11
-3737.3129767753321
 21
1320.7389328161521
 31
0.0
  0
LINE
  5
7EA1
  8
1
 10
-3770.4014777753332
 20
1471.0361215683799
 30
0.0
 11
-3770.4014777753332
 21
1391.0361215683799
 31
0.0
  0
LINE
  5
7EA2
  8
1
 10
-3785.4014777753318
 20
1471.0361215683799
 30
0.0
 11
-3785.4014777753318
 21
1391.0361215683799
 31
0.0
  0
LINE
  5
7EA3
  8
1
 10
-3777.9014777753318
 20
1374.2672906203479
 30
0.0
 11
-3777.9014777753318
 21
1487.8049525164131
 31
0.0
  0
LINE
  5
7EA4
  8
1
 10
-3747.9014777753318
 20
1370.1756375909381
 30
0.0
 11
-3747.9014777753318
 21
1511.0361215683799
 31
0.0
  0
LINE
  5
7EA5
  8
1
 10
-3797.9014777753332
 20
1348.9098428347249
 30
0.0
 11
-3797.9014777753332
 21
1511.0361215683799
 31
0.0
  0
LINE
  5
7EA6
  8
1
 10
-3753.9014777753332
 20
1367.927160602921
 30
0.0
 11
-3753.9014777753332
 21
1511.0361215683799
 31
0.0
  0
ARC
  5
7EA7
  8
1
 10
-3777.9014777753318
 20
1391.0361215683799
 30
0.0
 40
7.5
 50
180.0
 51
0.0
  0
LINE
  5
7EA8
  8
1
 10
-3880.1733287753318
 20
1551.0361215683799
 30
0.0
 11
-3776.7292977753332
 21
1551.0361215683799
 31
0.0
  0
ARC
  5
7EA9
  8
1
 10
-3888.3076667753339
 20
1541.454211568381
 30
0.0
 40
0.999915
 50
151.60498000000001
 51
241.60781899999989
  0
ARC
  5
7EAA
  8
1
 10
-3886.9001967753338
 20
1540.6934695683799
 30
0.0
 40
0.999915
 50
241.6049799999999
 51
331.60781900000001
  0
LINE
  5
7EAB
  8
1
 10
-3887.375781775334
 20
1539.81370856838
 30
0.0
 11
-3888.7832527753321
 21
1540.5745735683799
 31
0.0
  0
LINE
  5
7EAC
  8
1
 10
-3883.957080775333
 20
1551.6066775683801
 30
0.0
 11
-3886.7554207753328
 21
1553.119128568381
 31
0.0
  0
LINE
  5
7EAD
  8
1
 10
-3827.9014777753318
 20
1568.4305305683799
 30
0.0
 11
-3827.9014777753318
 21
1529.43651156838
 31
0.0
  0
LINE
  5
7EAE
  8
1
 10
-3757.9014777753332
 20
1631.0361215683799
 30
0.0
 11
-3742.6310927753329
 21
1631.0361215683799
 31
0.0
  0
LINE
  5
7EAF
  8
1
 10
-3719.9014777753318
 20
1536.2951545683809
 30
0.0
 11
-3713.5175057753331
 21
1540.9929085683809
 31
0.0
  0
ARC
  5
7EB0
  8
1
 10
-3776.729236775333
 20
1561.0361215683799
 30
0.0
 40
9.9999520000000004
 50
270.0
 51
352.87489299999999
  0
ARC
  5
7EB1
  8
1
 10
-3777.9014777753318
 20
1471.0361215683799
 30
0.0
 40
7.5
 50
0.0
 51
180.0
  0
ARC
  5
7EB2
  8
1
 10
-3716.9014777753318
 20
1478.0361215683811
 30
0.0
 40
3.0
 50
90.0
 51
180.0
  0
LINE
  5
7EB3
  8
1
 10
-3719.9014777753318
 20
1536.2951545683809
 30
0.0
 11
-3719.9014777753318
 21
1461.0361215683811
 31
0.0
  0
LINE
  5
7EB4
  8
1
 10
-3757.9014777753332
 20
1631.0361215683799
 30
0.0
 11
-3766.8065077753322
 21
1559.7957645683809
 31
0.0
  0
LINE
  5
7EB5
  8
1
 10
-3747.9014777753318
 20
1511.0361215683799
 30
0.0
 11
-3797.9014777753332
 21
1511.0361215683799
 31
0.0
  0
LINE
  5
7EB6
  8
1
 10
-3772.0375867753341
 20
1758.67650156838
 30
0.0
 11
-3848.2206917753329
 21
1753.7619515683809
 31
0.0
  0
ARC
  5
7EB7
  8
1
 10
-3845.6457407753328
 20
1713.84495856838
 30
0.0
 40
40.0
 50
93.690903000000006
 51
174.84380100000001
  0
ARC
  5
7EB8
  8
1
 10
-3762.9013557753328
 20
1748.0550415683799
 30
0.0
 40
4.9998969999999989
 50
0.0
 51
61.609809999999989
  0
LINE
  5
7EB9
  8
1
 10
-3768.870471775334
 20
1756.96483256838
 30
0.0
 11
-3760.5240367753322
 21
1752.45360156838
 31
0.0
  0
ARC
  5
7EBA
  8
1
 10
-3768.029163775333
 20
1760.6244995683801
 30
0.0
 40
1.0000219999999991
 50
331.61114500000002
 51
61.611136999999999
  0
ARC
  5
7EBB
  8
1
 10
-3769.436756775332
 20
1761.3853645683801
 30
0.0
 40
0.999915
 50
61.604987999999992
 51
151.60781299999999
  0
LINE
  5
7EBC
  8
1
 10
-3768.9611707753329
 20
1762.2650025683799
 30
0.0
 11
-3767.5536997753329
 21
1761.50426056838
 31
0.0
  0
LINE
  5
7EBD
  8
1
 10
-3733.8815807753322
 20
1691.0361215683799
 30
0.0
 11
-3775.1955457753338
 21
1691.0361215683799
 31
0.0
  0
LINE
  5
7EBE
  8
1
 10
-3758.887348775334
 20
1751.0361215683799
 30
0.0
 11
-3706.6462287753329
 21
1751.0361215683799
 31
0.0
  0
LINE
  5
7EBF
  8
1
 10
-3446.3599212718009
 20
988.88903498120851
 30
0.0
 11
-3387.4457735853648
 21
1323.4635795316001
 31
0.0
  0
LINE
  5
7EC0
  8
1
 10
-3715.671709606534
 20
1327.352186792499
 30
0.0
 11
-3622.1365007351801
 21
1008.800519552486
 31
0.0
  0
LINE
  5
7EC1
  8
1
 10
-3571.5747509701869
 20
1017.625755779034
 30
0.0
 11
-3702.8976713607931
 21
1330.9391663423289
 31
0.0
  0
LINE
  5
7EC2
  8
1
 10
-3712.598756229419
 20
1328.2449583955911
 30
0.0
 11
-3619.059796282183
 21
1009.680516164315
 31
0.0
  0
LINE
  5
7EC3
  8
1
 10
-3397.0634442901128
 20
1326.441870031806
 30
0.0
 11
-3490.6024042373501
 21
1007.8774278005289
 31
0.0
  0
LINE
  5
7EC4
  8
1
 10
-3400.1312459441301
 20
1327.352186792499
 30
0.0
 11
-3493.6664548154881
 21
1008.800519552486
 31
0.0
  0
LINE
  5
7EC7
  8
2
 10
-3557.9014777753332
 20
-54.96387843161915
 30
0.0
 11
-3557.9014777753332
 21
1940.4087302645939
 31
0.0
  0
LINE
  5
7EC8
  8
1
 10
-3057.9014777753332
 20
350.03612156838079
 30
0.0
 11
-3057.9014777753332
 21
90.036121568380864
 31
0.0
  0
LINE
  5
7EC9
  8
1
 10
-3134.6817161369481
 20
1156.758132577741
 30
0.0
 11
-3385.5905748225609
 21
939.34436890790607
 31
0.0
  0
LINE
  5
7ECA
  8
1
 10
-3003.6014703220098
 20
869.73243100142065
 30
0.0
 11
-3332.22218902648
 21
822.48390469468973
 31
0.0
  0
LINE
  5
7ECB
  8
1
 10
-3330.6824682203978
 20
771.18083857197712
 30
0.0
 11
-3001.8689362390401
 21
856.57793363185544
 31
0.0
  0
LINE
  5
7ECC
  8
1
 10
-3003.1551127094531
 20
866.56370121254383
 30
0.0
 11
-3331.7890102079532
 21
819.31328008129071
 31
0.0
  0
LINE
  5
7ECD
  8
1
 10
-3356.5587476483101
 20
897.01791920235632
 30
0.0
 11
-3126.1123575078
 21
1146.628543835862
 31
0.0
  0
LINE
  5
7ECE
  8
1
 10
-3132.593071555124
 20
1154.33374659279
 30
0.0
 11
-3383.5119925282938
 21
936.91126390115608
 31
0.0
  0
LINE
  5
7ECF
  8
1
 10
-3269.8849994157322
 20
309.77941084656948
 30
0.0
 11
-3387.9014777753318
 21
699.0361215683813
 31
0.0
  0
LINE
  5
7ED0
  8
1
 10
-3276.9765784274209
 20
305.59706355760687
 30
0.0
 11
-3395.557345961266
 21
696.71498341661049
 31
0.0
  0
CIRCLE
  5
7ED1
  8
1
 10
-3557.9014777753332
 20
790.03612156838085
 30
0.0
 40
120.0
  0
LINE
  5
7ED2
  8
1
 10
-3495.4014777753332
 20
718.03612156838085
 30
0.0
 11
-3620.4014777753332
 21
718.03612156838085
 31
0.0
  0
ARC
  5
7ED3
  8
1
 10
-3557.9014777753332
 20
790.03612156838085
 30
0.0
 40
68.0
 50
5.6692599840288924
 51
174.33074001597109
  0
LINE
  5
7ED4
  8
1
 10
-3702.9014777753318
 20
709.03612156838085
 30
0.0
 11
-3412.9014777753318
 21
709.03612156838085
 31
0.0
  0
LINE
  5
7ED5
  8
1
 10
-3412.9014777753318
 20
715.03612156838085
 30
0.0
 11
-3702.9014777753318
 21
715.03612156838085
 31
0.0
  0
ARC
  5
7ED6
  8
1
 10
-3630.4014777753332
 20
732.3472573161323
 30
0.0
 40
10.0
 50
0.0
 51
93.814074834290381
  0
LINE
  5
7ED7
  8
1
 10
-3629.2983691215431
 20
759.18486155730909
 30
0.0
 11
-3625.5688702750649
 21
796.75356098285852
 31
0.0
  0
LINE
  5
7ED8
  8
1
 10
-3620.4014777753332
 20
715.03612156838085
 30
0.0
 11
-3620.4014777753332
 21
732.3472573161323
 31
0.0
  0
LINE
  5
7ED9
  8
1
 10
-3690.4014777753318
 20
738.36945490171411
 30
0.0
 11
-3690.4014777753318
 21
743.03612156838085
 31
0.0
  0
ARC
  5
7EDA
  8
1
 10
-3690.4014777753318
 20
733.35835610892332
 30
0.0
 40
5.0
 50
93.814074834290381
 51
180.0
  0
LINE
  5
7EDB
  8
1
 10
-3695.4014777753332
 20
715.03612156838085
 30
0.0
 11
-3695.4014777753332
 21
733.35835610892332
 31
0.0
  0
LINE
  5
7EDC
  8
1
 10
-3640.7445371394929
 20
743.03612156838085
 30
0.0
 11
-3690.4014777753318
 21
743.03612156838085
 31
0.0
  0
ARC
  5
7EDD
  8
1
 10
-3649.2005433861682
 20
761.16057903215574
 30
0.0
 40
20.0
 50
273.8140748342903
 51
354.330740015971
  0
LINE
  5
7EDE
  8
1
 10
-3631.0666678805701
 20
742.32510889469825
 30
0.0
 11
-3690.7340728279519
 21
738.34728189820635
 31
0.0
  0
LINE
  5
7EDF
  8
1
 10
-3663.9014777753332
 20
703.38240258176711
 30
0.0
 11
-3663.9014777753332
 21
763.38240258176711
 31
0.0
  0
LINE
  5
7EE0
  8
1
 10
-3702.9014777753318
 20
715.03612156838085
 30
0.0
 11
-3702.9014777753318
 21
709.03612156838085
 31
0.0
  0
LINE
  5
7EE1
  8
1
 10
-3553.9534829025988
 20
858.03612156838085
 30
0.0
 11
-3553.9534829025988
 21
871.9655587924949
 31
0.0
  0
LINE
  5
7EE2
  8
1
 10
-3561.8494726480671
 20
871.9655587924949
 30
0.0
 11
-3561.8494726480671
 21
858.03612156838085
 31
0.0
  0
LINE
  5
7EE3
  8
1
 10
-3561.8494726480671
 20
858.03612156838085
 30
0.0
 11
-3553.9534829025988
 21
858.03612156838085
 31
0.0
  0
LINE
  5
7EE4
  8
1
 10
-3553.9534829025988
 20
871.9655587924949
 30
0.0
 11
-3561.8494726480671
 21
871.9655587924949
 31
0.0
  0
POINT
  5
7EE5
  8
1
 10
-3557.9014777753332
 20
790.03612156838085
 30
0.0
  0
POINT
  5
7EE6
  8
1
 10
-3557.9014777753332
 20
790.03612156838085
 30
0.0
  0
POINT
  5
7EE7
  8
1
 10
-3557.9014777753332
 20
790.03612156838085
 30
0.0
  0
CIRCLE
  5
7EE8
  8
1
 10
-3557.9014777753332
 20
790.03612156838085
 30
0.0
 40
25.0
  0
CIRCLE
  5
7EE9
  8
1
 10
-3557.9014777753332
 20
790.03612156838085
 30
0.0
 40
40.0
  0
LINE
  5
7EEA
  8
1
 10
-3425.4014777753318
 20
738.36945490171411
 30
0.0
 11
-3425.4014777753318
 21
743.03612156838085
 31
0.0
  0
ARC
  5
7EEB
  8
1
 10
-3425.4014777753318
 20
733.35835610892332
 30
0.0
 40
5.0
 50
0.0
 51
86.185925165709605
  0
LINE
  5
7EEC
  8
1
 10
-3420.4014777753332
 20
715.03612156838085
 30
0.0
 11
-3420.4014777753332
 21
733.35835610892332
 31
0.0
  0
LINE
  5
7EED
  8
1
 10
-3412.9014777753318
 20
709.03612156838085
 30
0.0
 11
-3412.9014777753318
 21
715.03612156838085
 31
0.0
  0
LINE
  5
7EEE
  8
1
 10
-3451.9014777753318
 20
703.38240258176711
 30
0.0
 11
-3451.9014777753318
 21
763.38240258176711
 31
0.0
  0
ARC
  5
7EEF
  8
1
 10
-3485.4014777753332
 20
732.3472573161323
 30
0.0
 40
10.0
 50
86.185925165709605
 51
180.0
  0
LINE
  5
7EF0
  8
1
 10
-3486.5045864291228
 20
759.18486155730909
 30
0.0
 11
-3490.2340852756001
 21
796.75356098285852
 31
0.0
  0
LINE
  5
7EF1
  8
1
 10
-3495.4014777753332
 20
715.03612156838085
 30
0.0
 11
-3495.4014777753332
 21
732.3472573161323
 31
0.0
  0
ARC
  5
7EF2
  8
1
 10
-3466.6024121644959
 20
761.16057903215574
 30
0.0
 40
20.0
 50
185.66925998402891
 51
266.18592516570959
  0
LINE
  5
7EF3
  8
1
 10
-3475.0584184111722
 20
743.03612156838085
 30
0.0
 11
-3425.4014777753318
 21
743.03612156838085
 31
0.0
  0
LINE
  5
7EF4
  8
1
 10
-3484.736287670095
 20
742.32510889469825
 30
0.0
 11
-3425.068882722715
 21
738.34728189820635
 31
0.0
  0
LINE
  5
7EF5
  8
1
 10
-3387.9014777753318
 20
699.0361215683813
 30
0.0
 11
-3395.557345961266
 21
696.71498341661049
 31
0.0
  0
LINE
  5
7EF7
  8
1
 10
-3106.2453620925821
 20
380.02788608234908
 30
0.0
 11
-3057.9014777753332
 21
350.03612156838079
 31
0.0
  0
POINT
  5
7EF8
  8
1
 10
-2982.9014777753332
 20
790.03612156838085
 30
0.0
  0
CIRCLE
  5
7EF9
  8
1
 10
-3557.9014777753332
 20
1641.0361215683799
 30
0.0
 40
100.0
  0
LINE
  5
7EFA
  8
1
 10
-3378.4899787753329
 20
1841.0361215683799
 30
0.0
 11
-3378.4899787753329
 21
1320.7389328161521
 31
0.0
  0
LINE
  5
7EFB
  8
1
 10
-3614.9014777753332
 20
1465.0361215683799
 30
0.0
 11
-3500.9014777753318
 21
1465.0361215683799
 31
0.0
  0
LINE
  5
7EFC
  8
1
 10
-3697.4014777753318
 20
1485.176868568381
 30
0.0
 11
-3697.4014777753318
 21
1456.814075568381
 31
0.0
  0
LINE
  5
7EFD
  8
1
 10
-3660.4014777753318
 20
1466.1846805683811
 30
0.0
 11
-3650.8947637753331
 21
1481.1072885683809
 31
0.0
  0
LINE
  5
7EFE
  8
1
 10
-3660.4014777753318
 20
1478.0361215683811
 30
0.0
 11
-3660.4014777753318
 21
1461.0361215683811
 31
0.0
  0
LINE
  5
7EFF
  8
1
 10
-3668.7253907753329
 20
1481.0361215683799
 30
0.0
 11
-3663.545642775332
 21
1489.16673656838
 31
0.0
  0
ARC
  5
7F00
  8
1
 10
-3663.4014777753318
 20
1478.0361215683811
 30
0.0
 40
3.0
 50
0.0
 51
90.0
  0
LINE
  5
7F01
  8
1
 10
-3330.4014777753332
 20
1471.0361215683799
 30
0.0
 11
-3330.4014777753332
 21
1391.0361215683799
 31
0.0
  0
LINE
  5
7F02
  8
1
 10
-3345.4014777753318
 20
1471.0361215683799
 30
0.0
 11
-3345.4014777753318
 21
1391.0361215683799
 31
0.0
  0
LINE
  5
7F03
  8
1
 10
-3337.9014777753318
 20
1374.2672906203479
 30
0.0
 11
-3337.9014777753318
 21
1487.8049525164131
 31
0.0
  0
LINE
  5
7F04
  8
1
 10
-3367.9014777753332
 20
1370.1756375909381
 30
0.0
 11
-3367.9014777753332
 21
1511.0361215683799
 31
0.0
  0
LINE
  5
7F05
  8
1
 10
-3361.9014777753332
 20
1367.927160602921
 30
0.0
 11
-3361.9014777753332
 21
1511.0361215683799
 31
0.0
  0
LINE
  5
7F06
  8
1
 10
-3317.9014777753332
 20
1348.9098428347261
 30
0.0
 11
-3317.9014777753332
 21
1511.0361215683799
 31
0.0
  0
ARC
  5
7F07
  8
1
 10
-3337.9014777753318
 20
1391.0361215683799
 30
0.0
 40
7.5
 50
180.0
 51
0.0
  0
LINE
  5
7F08
  8
1
 10
-3395.9014777753318
 20
1536.2951545683809
 30
0.0
 11
-3402.2853887753331
 21
1540.9929085683809
 31
0.0
  0
LINE
  5
7F09
  8
1
 10
-3455.4014777753332
 20
1461.0361215683811
 30
0.0
 11
-3395.9014777753318
 21
1461.0361215683811
 31
0.0
  0
ARC
  5
7F0A
  8
1
 10
-3398.9014777753318
 20
1478.0361215683811
 30
0.0
 40
3.0
 50
0.0
 51
90.0
  0
LINE
  5
7F0B
  8
1
 10
-3455.4014777753332
 20
1466.1846805683811
 30
0.0
 11
-3464.9081917753329
 21
1481.1072885683809
 31
0.0
  0
LINE
  5
7F0C
  8
1
 10
-3418.4014777753318
 20
1485.176868568381
 30
0.0
 11
-3418.4014777753318
 21
1456.814075568381
 31
0.0
  0
LINE
  5
7F0D
  8
1
 10
-3455.4014777753332
 20
1478.0361215683811
 30
0.0
 11
-3455.4014777753332
 21
1461.0361215683811
 31
0.0
  0
LINE
  5
7F0E
  8
1
 10
-3452.4014777753332
 20
1481.0361215683799
 30
0.0
 11
-3398.9014777753318
 21
1481.0361215683799
 31
0.0
  0
LINE
  5
7F0F
  8
1
 10
-3447.0775637753318
 20
1481.0361215683799
 30
0.0
 11
-3452.257312775333
 21
1489.16673656838
 31
0.0
  0
ARC
  5
7F10
  8
1
 10
-3452.4014777753332
 20
1478.0361215683811
 30
0.0
 40
3.0
 50
90.0
 51
180.0
  0
LINE
  5
7F11
  8
1
 10
-3367.9014777753332
 20
1511.0361215683799
 30
0.0
 11
-3317.9014777753332
 21
1511.0361215683799
 31
0.0
  0
ARC
  5
7F12
  8
1
 10
-3337.9014777753318
 20
1471.0361215683799
 30
0.0
 40
7.5
 50
0.0
 51
180.0
  0
LINE
  5
7F13
  8
1
 10
-3395.9014777753318
 20
1536.2951545683809
 30
0.0
 11
-3395.9014777753318
 21
1461.0361215683811
 31
0.0
  0
LINE
  5
7F14
  8
1
 10
-3551.6514777753332
 20
1885.7861215683799
 30
0.0
 11
-3551.6514777753332
 21
1837.75694656838
 31
0.0
  0
LINE
  5
7F15
  8
1
 10
-3564.1514777753318
 20
1885.7861215683799
 30
0.0
 11
-3564.1514777753318
 21
1837.4687385683801
 31
0.0
  0
ARC
  5
7F16
  8
1
 10
-3546.6665077753328
 20
1840.31523456838
 30
0.0
 40
3.0
 50
5.1944030000000003
 51
83.884536999999995
  0
LINE
  5
7F17
  8
1
 10
-3551.6514777753332
 20
1843.8665045683799
 30
0.0
 11
-3546.3469117753339
 21
1843.298145568381
 31
0.0
  0
LINE
  5
7F18
  8
1
 10
-3539.4014777753318
 20
1832.0361215683799
 30
0.0
 11
-3539.4014777753318
 21
1825.1087525683799
 31
0.0
  0
LINE
  5
7F19
  8
1
 10
-3549.0693847753332
 20
1825.8251835683809
 30
0.0
 11
-3548.719043775332
 21
1828.9739875683799
 31
0.0
  0
LINE
  5
7F1A
  8
1
 10
-3542.5382567753331
 20
1825.3970835683799
 30
0.0
 11
-3542.4745977753341
 21
1828.5646855683799
 31
0.0
  0
ARC
  5
7F1B
  8
1
 10
-3545.737414775333
 20
1828.6422005683801
 30
0.0
 40
2.9999380000000002
 50
86.290451000000004
 51
173.650406
  0
ARC
  5
7F1C
  8
1
 10
-3557.9014777753332
 20
1641.0361215683799
 30
0.0
 40
191.00003100000001
 50
86.209778
 51
86.290237000000005
  0
ARC
  5
7F1D
  8
1
 10
-3545.4739867753319
 20
1828.62486656838
 30
0.0
 40
2.999992999999999
 50
358.85055499999987
 51
86.210021999999995
  0
LINE
  5
7F1E
  8
1
 10
-3543.678820775332
 20
1840.586841568381
 30
0.0
 11
-3542.9014777753332
 21
1832.0361215683799
 31
0.0
  0
ARC
  5
7F1F
  8
1
 10
-3569.1364477753318
 20
1840.31523456838
 30
0.0
 40
3.0
 50
96.115463000000005
 51
174.80560299999991
  0
LINE
  5
7F20
  8
1
 10
-3564.1514777753318
 20
1843.8665045683799
 30
0.0
 11
-3569.4560427753331
 21
1843.298145568381
 31
0.0
  0
LINE
  5
7F21
  8
1
 10
-3576.4014777753332
 20
1832.0361215683799
 30
0.0
 11
-3576.4014777753332
 21
1825.1087525683799
 31
0.0
  0
LINE
  5
7F22
  8
1
 10
-3566.7335697753329
 20
1825.8251835683809
 30
0.0
 11
-3567.083911775333
 21
1828.9739875683799
 31
0.0
  0
LINE
  5
7F23
  8
1
 10
-3573.2646977753338
 20
1825.3970835683799
 30
0.0
 11
-3573.3283577753341
 21
1828.5646855683799
 31
0.0
  0
ARC
  5
7F24
  8
1
 10
-3570.065539775333
 20
1828.6422005683801
 30
0.0
 40
3.000032
 50
6.349588999999999
 51
93.709548999999996
  0
ARC
  5
7F25
  8
1
 10
-3557.9014777753332
 20
1641.0361215683799
 30
0.0
 40
190.999954
 50
93.709762999999995
 51
93.790221999999986
  0
ARC
  5
7F26
  8
1
 10
-3570.3289677753319
 20
1828.62486656838
 30
0.0
 40
3.000090999999999
 50
93.789963
 51
181.1494449999999
  0
LINE
  5
7F27
  8
1
 10
-3572.1241337753322
 20
1840.586841568381
 30
0.0
 11
-3572.9014777753318
 21
1832.0361215683799
 31
0.0
  0
ARC
  5
7F28
  8
1
 10
-3567.1514777753332
 20
1837.4687385683801
 30
0.0
 40
3.0
 50
270.0
 51
0.0
  0
LINE
  5
7F29
  8
1
 10
-3576.4014777753332
 20
1832.0361215683799
 30
0.0
 11
-3539.4014777753318
 21
1832.0361215683799
 31
0.0
  0
ARC
  5
7F2A
  8
1
 10
-3548.6514777753332
 20
1837.75694656838
 30
0.0
 40
3.0
 50
180.0
 51
270.0
  0
ARC
  5
7F2B
  8
1
 10
-3557.9014777753332
 20
1885.7861215683799
 30
0.0
 40
6.25
 50
0.0
 51
180.0
  0
LINE
  5
7F2C
  8
1
 10
-4027.901477775335
 20
23.08965992560843
 30
0.0
 11
-4027.9014777753332
 21
112.8106929886798
 31
0.0
  0
LINE
  5
7F2D
  8
1
 10
-3087.901477775335
 20
23.08965992560843
 30
0.0
 11
-3087.9014777753332
 21
112.8106929886798
 31
0.0
  0
LINE
  5
7F2E
  8
1
 10
-6103.3919455255154
 20
440.03612156838079
 30
0.0
 11
-6103.3919455255154
 21
90.036121568380864
 31
0.0
  0
LINE
  5
7F2F
  8
1
 10
-6103.3919455255154
 20
90.036121568380864
 30
0.0
 11
-6033.3919455255154
 21
90.036121568380864
 31
0.0
  0
LINE
  5
7F30
  8
1
 10
-6097.3919455255154
 20
440.03612156838079
 30
0.0
 11
-6097.3919455255118
 21
96.03612156838085
 31
0.0
  0
LINE
  5
7F31
  8
1
 10
-6097.3919455255127
 20
96.03612156838085
 30
0.0
 11
-6033.3919455255154
 21
96.03612156838085
 31
0.0
  0
LINE
  5
7F32
  8
1
 10
-6103.3919455255154
 20
440.03612156838079
 30
0.0
 11
-6097.3919455255154
 21
440.03612156838079
 31
0.0
  0
LINE
  5
7F33
  8
1
 10
-6033.3919455255154
 20
90.036121568380864
 30
0.0
 11
-6033.3919455255118
 21
99.036121568380864
 31
0.0
  0
LINE
  5
7F34
  8
1
 10
-5018.3919455255154
 20
440.03612156838079
 30
0.0
 11
-5018.3919455255154
 21
96.03612156838085
 31
0.0
  0
LINE
  5
7F35
  8
1
 10
-5012.3919455255136
 20
440.03612156838079
 30
0.0
 11
-5012.3919455255154
 21
90.036121568380864
 31
0.0
  0
LINE
  5
7F36
  8
1
 10
-5018.3919455255154
 20
96.03612156838085
 30
0.0
 11
-5082.3919455255154
 21
96.03612156838085
 31
0.0
  0
LINE
  5
7F37
  8
1
 10
-5012.3919455255136
 20
90.036121568380864
 30
0.0
 11
-5082.3919455255154
 21
90.036121568380864
 31
0.0
  0
LINE
  5
7F38
  8
1
 10
-5082.3919455255154
 20
90.036121568380864
 30
0.0
 11
-5082.3919455255154
 21
99.036121568380864
 31
0.0
  0
LINE
  5
7F39
  8
1
 10
-5012.3919455255136
 20
440.03612156838079
 30
0.0
 11
-5018.3919455255154
 21
440.03612156838079
 31
0.0
  0
LINE
  5
7F3A
  8
1
 10
-6057.8919455255154
 20
126.6734933555455
 30
0.0
 11
-6057.8919455255154
 21
24.889906934058668
 31
0.0
  0
LINE
  5
7F3B
  8
1
 10
-5057.8919455255154
 20
126.6734933555455
 30
0.0
 11
-5057.8919455255154
 21
20.975414262520641
 31
0.0
  0
LINE
  5
7F3C
  8
1
 10
-5897.3919455255154
 20
286.27914979216138
 30
0.0
 11
-6097.3919455255154
 21
286.27914979216138
 31
0.0
  0
LINE
  5
7F3D
  8
1
 10
-5897.3919455255154
 20
286.27914979216138
 30
0.0
 11
-6045.159236242921
 21
96.03612156838085
 31
0.0
  0
LINE
  5
7F3E
  8
1
 10
-5218.3919455255136
 20
286.27914979216092
 30
0.0
 11
-5070.6246548081072
 21
96.03612156838085
 31
0.0
  0
LINE
  5
7F3F
  8
1
 10
-5218.3919455255136
 20
286.27914979216092
 30
0.0
 11
-5018.3919455255154
 21
286.27914979216092
 31
0.0
  0
LINE
  5
7F40
  8
1
 10
-5667.8919455255136
 20
1354.5361215683811
 30
0.0
 11
-5387.8919455255163
 21
1354.5361215683811
 31
0.0
  0
LINE
  5
7F41
  8
1
 10
-5367.8919455255136
 20
1354.5361215683811
 30
0.0
 11
-5327.8919455255136
 21
1354.5361215683811
 31
0.0
  0
LINE
  5
7F44
  8
1
 10
-6157.8919455255136
 20
1350.0361215683799
 30
0.0
 11
-6107.8919455255154
 21
1350.0361215683799
 31
0.0
  0
LINE
  5
7F45
  8
1
 10
-6157.8919455255136
 20
230.03612156838079
 30
0.0
 11
-6107.8919455255154
 21
230.03612156838079
 31
0.0
  0
LINE
  5
7F46
  8
1
 10
-5007.8919455255136
 20
230.03612156838091
 30
0.0
 11
-4957.8919455255136
 21
230.03612156838091
 31
0.0
  0
LINE
  5
7F47
  8
1
 10
-5007.8919455255136
 20
1350.0361215683799
 30
0.0
 11
-4957.8919455255136
 21
1350.0361215683799
 31
0.0
  0
LINE
  5
8006
  8
4
 10
-3046.4204398848628
 20
-817.20337344081042
 30
0.0
 11
-3046.4204398848628
 21
-1217.2033734408101
 31
0.0
  0
LINE
  5
8007
  8
4
 10
-4446.4204398848633
 20
-817.20337344081042
 30
0.0
 11
-4446.4204398848642
 21
-1217.2033734408101
 31
0.0
  0
LINE
  5
8008
  8
4
 10
-5446.4204398848642
 20
-817.20337344081042
 30
0.0
 11
-5446.4204398848642
 21
-1217.2033734408101
 31
0.0
  0
LINE
  5
800B
  8
4
 10
-5446.4204398848642
 20
-1217.2033734408101
 30
0.0
 11
-3046.4204398848628
 21
-1217.2033734408101
 31
0.0
  0
LINE
  5
800C
  8
4
 10
-5446.4204398848642
 20
-1017.20337344081
 30
0.0
 11
-3046.4204398848628
 21
-1017.20337344081
 31
0.0
  0
TEXT
  5
800D
  8
4
 10
-5369.41627819106
 20
-954.11732170758467
 30
0.0
 40
100.0
  1
機器名称
  0
TEXT
  5
800E
  8
4
 10
-5373.9042278352681
 20
-1173.913059976788
 30
0.0
 40
100.0
  1
機器型番
  0
TEXT
  5
800F
  8
4
 10
-4391.0629489095327
 20
-972.05983552567341
 30
0.0
 40
100.0
  1
ミツヤ軸流ファン
  0
TEXT
  5
8010
  8
4
 10
-4373.1114487139021
 20
-1182.8842048809231
 30
0.0
 40
100.0
  1
AP#1120-2
  0
TEXT
  5
8012
  8
4
 10
-5064.0605725408959
 20
2949.6543092242209
 30
0.0
 40
107.9999999999999
  1
床置防振ベット
  0
TEXT
  5
8013
  8
4
 10
-6114.0852532259714
 20
3250.5585789577849
 30
0.0
 40
144.0
  1
ベルト駆動式横型軸流ファン
  0
LINE
  5
8014
  8
4
 10
-6246.4204398848642
 20
3121.6141350887988
 30
0.0
 11
-3046.4204398848628
 21
3121.6141350887988
 31
0.0
  0
LINE
  5
8015
  8
4
 10
-6246.4204398848642
 20
3521.6141350887988
 30
0.0
 11
-3046.4204398848628
 21
3521.6141350887988
 31
0.0
  0
LINE
  5
8016
  8
4
 10
-5446.4204398848642
 20
-817.20337344081042
 30
0.0
 11
-3046.4204398848628
 21
-817.20337344081042
 31
0.0
  0
LINE
  5
8017
  8
4
 10
-6246.4204398848642
 20
3521.6141350887988
 30
0.0
 11
-6246.4204398848642
 21
3121.6141350887988
 31
0.0
  0
TEXT
  5
8018
  8
4
 10
-6105.4642621031298
 20
2947.4355816518769
 30
0.0
 40
107.9999999999999
  1
左回転後方吐出
  0
TEXT
  5
8019
  8
4
 10
-3808.4813213862831
 20
3594.9187895498071
 30
0.0
 40
112.0
  1
No.
  0
TEXT
  5
801A
  8
4
 10
-4123.8283146848371
 20
2949.6543092242209
 30
0.0
 40
107.9999999999999
  1
縮尺：1/20
  0
LINE
  5
801B
  8
4
 10
-3046.4204398848628
 20
3521.6141350887988
 30
0.0
 11
-3046.4204398848628
 21
3121.6141350887988
 31
0.0
  0
LINE
  5
801C
  8
4
 10
-2546.4204398848628
 20
4082.796626559189
 30
0.0
 11
-2546.4204398848628
 21
4082.796626559189
 31
0.0
  0
LINE
  5
801D
  8
4
 10
-3865.1855951651341
 20
3545.3237928099911
 30
0.0
 11
-3865.1855951651341
 21
3756.1011496586939
 31
0.0
  0
LINE
  5
801E
  8
4
 10
-3865.1855951651341
 20
3756.1011496586939
 30
0.0
 11
-3046.4204398848628
 21
3756.1011496586939
 31
0.0
  0
LINE
  5
801F
  8
4
 10
-3046.4204398848628
 20
3756.1011496586939
 30
0.0
 11
-3046.4204398848628
 21
3545.3237928099911
 31
0.0
  0
LINE
  5
8020
  8
4
 10
-3046.4204398848628
 20
3545.3237928099911
 30
0.0
 11
-3865.1855951651341
 21
3545.3237928099911
 31
0.0
  0
LINE
  5
8021
  8
4
 10
-6746.4204398848642
 20
-1817.2033734408101
 30
0.0
 11
-6746.4204398848642
 21
4082.796626559189
 31
0.0
  0
LINE
  5
8022
  8
4
 10
-6746.4204398848642
 20
4082.796626559189
 30
0.0
 11
-2546.4204398848628
 21
4082.796626559189
 31
0.0
  0
LINE
  5
8023
  8
4
 10
-2546.4204398848628
 20
4082.796626559189
 30
0.0
 11
-2546.4204398848628
 21
-1817.2033734408101
 31
0.0
  0
LINE
  5
8024
  8
4
 10
-2546.4204398848628
 20
-1817.2033734408101
 30
0.0
 11
-6746.4204398848642
 21
-1817.2033734408101
 31
0.0
  0
LINE
  5
802C
  8
1
 10
-6033.3919455255154
 20
90.036121568380864
 30
0.0
 11
-5082.3919455255154
 21
90.036121568380864
 31
0.0
  0
LINE
  5
802D
  8
1
 10
-6033.3919455255118
 20
99.036121568380864
 30
0.0
 11
-5082.3919455255154
 21
99.036121568380864
 31
0.0
  0
LINE
  5
802E
  8
1
 10
-6157.8919455255136
 20
45.03612156838085
 30
0.0
 11
-4957.8919455255136
 21
45.03612156838085
 31
0.0
  0
LINE
  5
8030
  8
1
 10
-6157.8919455255136
 20
45.036121568381077
 30
0.0
 11
-6157.8919455255136
 21
-4.9638784316191504
 31
0.0
  0
LINE
  5
8031
  8
1
 10
-4957.8919455255136
 20
45.03612156838085
 30
0.0
 11
-4957.8919455255127
 21
-4.9638784316191504
 31
0.0
  0
LINE
  5
8032
  8
1
 10
-6157.8919455255136
 20
-4.9638784316191504
 30
0.0
 11
-4957.8919455255136
 21
-4.9638784316191504
 31
0.0
  0
LINE
  5
8038
  8
1
 10
-4117.9014777753318
 20
-4.9638784316191513
 30
0.0
 11
-2997.9014777753318
 21
-4.9638784316191487
 31
0.0
  0
LINE
  5
8039
  8
1
 10
-4117.9014777753318
 20
45.03612156838085
 30
0.0
 11
-2997.9014777753341
 21
45.03612156838085
 31
0.0
  0
LINE
  5
803A
  8
1
 10
-4117.9014777753318
 20
-4.9638784316191504
 30
0.0
 11
-4117.9014777753318
 21
45.03612156838085
 31
0.0
  0
LINE
  5
803B
  8
1
 10
-2997.9014777753318
 20
-4.9638784316191504
 30
0.0
 11
-2997.9014777753332
 21
45.03612156838085
 31
0.0
  0
CIRCLE
  5
81D0
  8
1
 10
-3557.9014777753332
 20
790.03612156838085
 30
0.0
 40
560.0
  0
CIRCLE
  5
81D1
  8
1
 10
-3557.9014777753332
 20
790.03612156838085
 30
0.0
 40
566.0
  0
CIRCLE
  5
81D2
  8
1
 10
-3557.9014777753332
 20
790.03612156838085
 30
0.0
 40
610.0
  0
DIMENSION
  5
824A
  8
3
  2
*D2
 10
-5007.8919455255154
 20
2081.851995632931
 30
0.0
 11
-5579.9966814085019
 21
2081.851995632931
 31
0.0
 70
   128
 13
-6107.8919455255154
 23
1400.0361215683811
 33
0.0
 14
-5007.8919455255154
 24
1400.0361215683811
 34
0.0
1001
ACAD
1000
DSTYLE
1002
{
1070
   287
1070
     3
1070
   287
1070
     3
1070
   287
1070
     3
1070
    40
1040
20.0
1070
   143
1040
0.039
1070
   172
1070
     1
1070
   271
1070
     0
1070
   279
1070
     0
1070
   288
1070
     1
1002
}
  0
DIMENSION
  5
82BD
  8
3
  2
*D3
 10
-6352.5105152326496
 20
230.03612156838091
 30
0.0
 11
-6352.5105152326496
 21
827.81780931136552
 31
0.0
 70
   128
 13
-6157.8919455255136
 23
1350.0361215683799
 33
0.0
 14
-6157.8919455255136
 24
230.03612156838079
 34
0.0
 50
90.0
1001
ACAD
1000
DSTYLE
1002
{
1070
   287
1070
     3
1070
   287
1070
     3
1070
     3
1000
φ<>
1070
    40
1040
20.0
1070
   143
1040
0.039
1070
   172
1070
     1
1070
   271
1070
     0
1070
   279
1070
     0
1070
   288
1070
     1
1002
}
  0
DIMENSION
  5
82D3
  8
3
  2
*D4
 10
-4957.8919455255136
 20
-330.46424193603519
 30
0.0
 11
-5564.6311523510412
 21
-330.46424193603519
 31
0.0
 70
   128
 13
-6157.8919455255136
 23
-4.9638784316191504
 33
0.0
 14
-4957.8919455255136
 24
-4.9638784316191504
 34
0.0
1001
ACAD
1000
DSTYLE
1002
{
1070
   287
1070
     3
1070
   287
1070
     3
1070
    40
1040
20.0
1070
   143
1040
0.039
1070
   172
1070
     1
1070
   271
1070
     0
1070
   279
1070
     0
1070
   288
1070
     1
1002
}
  0
DIMENSION
  5
82E0
  8
3
  2
*D5
 10
-2947.9014777753318
 20
2076.9560207444501
 30
0.0
 11
-3596.260030338995
 21
2076.9560207444501
 31
0.0
 70
   128
 13
-4167.9014777753328
 23
790.03612156838085
 33
0.0
 14
-2947.9014777753318
 24
790.03612156838085
 34
0.0
1001
ACAD
1000
DSTYLE
1002
{
1070
   287
1070
     3
1070
   287
1070
     3
1070
    40
1040
20.0
1070
   143
1040
0.039
1070
   172
1070
     1
1070
   271
1070
     0
1070
   279
1070
     0
1070
   288
1070
     1
1002
}
  0
DIMENSION
  5
82ED
  8
3
  2
*D6
 10
-2997.9014777753318
 20
-294.48388489997518
 30
0.0
 11
-3538.5243987681861
 21
-294.48388489997518
 31
0.0
 70
   128
 13
-4117.9014777753318
 23
-4.9638784316191513
 33
0.0
 14
-2997.9014777753318
 24
-4.9638784316191487
 34
0.0
1001
ACAD
1000
DSTYLE
1002
{
1070
   287
1070
     3
1070
   287
1070
     3
1070
    40
1040
20.0
1070
   143
1040
0.039
1070
   172
1070
     1
1070
   271
1070
     0
1070
   279
1070
     0
1070
   288
1070
     1
1002
}
  0
DIMENSION
  5
82FB
  8
3
  2
*D7
 10
-4320.2779488085171
 20
90.036121568380935
 30
0.0
 11
-4320.2779488085171
 21
461.23122013636203
 31
0.0
 70
   128
 13
-4247.3696492348372
 23
790.03612156838085
 33
0.0
 14
-4057.9014777753341
 24
90.036121568380864
 34
0.0
 50
90.0
1001
ACAD
1000
DSTYLE
1002
{
1070
   287
1070
     3
1070
   287
1070
     3
1070
    40
1040
20.0
1070
   143
1040
0.039
1070
   172
1070
     1
1070
   271
1070
     0
1070
   279
1070
     0
1070
   288
1070
     1
1002
}
  0
DIMENSION
  5
8308
  8
3
  2
*D8
 10
-4320.2779488085171
 20
45.036121568380899
 30
0.0
 11
-4435.5713533145681
 21
114.9510867401932
 31
0.0
 70
   128
 13
-4057.9014777753341
 23
90.036121568380864
 33
0.0
 14
-4117.9014777753318
 24
45.03612156838085
 34
0.0
 50
90.0
1001
ACAD
1000
DSTYLE
1002
{
1070
   287
1070
     4
1070
   287
1070
     4
1070
    40
1040
20.0
1070
   143
1040
0.039
1070
   172
1070
     1
1070
   271
1070
     0
1070
   279
1070
     1
1070
   288
1070
     1
1070
   289
1070
     3
1070
     6
1000
OPEN
1070
     7
1000
DOT
1002
}
  0
DIMENSION
  5
8343
  8
3
  2
*D9
 10
-4320.2779488085171
 20
-4.9638784316190918
 30
0.0
 11
-4320.2779488085171
 21
-172.1067355744762
 31
0.0
 70
   128
 13
-4117.9014777753318
 23
45.03612156838085
 33
0.0
 14
-4117.9014777753318
 24
-4.9638784316191504
 34
0.0
 50
90.0
1001
ACAD
1000
DSTYLE
1002
{
1070
   287
1070
     3
1070
   287
1070
     3
1070
    40
1040
20.0
1070
   143
1040
0.039
1070
   172
1070
     1
1070
   271
1070
     0
1070
   279
1070
     0
1070
   288
1070
     1
1070
     6
1000
DOT
1070
     7
1000
OPEN
1002
}
  0
DIMENSION
  5
83C3
  8
3
  2
*D10
 10
-4318.491304882551
 20
1892.0361215683811
 30
0.0
 11
-4318.491304882551
 21
1360.3577692613651
 31
0.0
 70
   128
  1
MAX.1250
 13
-4247.3696492348372
 23
790.03612156838085
 33
0.0
 14
-3557.9014777753332
 24
1892.0361215683811
 34
0.0
 50
90.0
1001
ACAD
1000
DSTYLE
1002
{
1070
   287
1070
     3
1070
   287
1070
     3
1070
    40
1040
20.0
1070
   143
1040
0.039
1070
   172
1070
     1
1070
   271
1070
     0
1070
   279
1070
     0
1070
   288
1070
     1
1002
}
  0
ENDSEC
  0
EOF
