  0
SECTION
  2
HEADER
  9
$ACADVER
  1
AC1009
  9
$INSBASE
 10
0.0
 20
0.0
 30
0.0
  9
$EXTMIN
 10
-6746.4204398848642
 20
-1817.2033734408101
 30
0.0
  9
$EXTMAX
 10
-2546.4204398848628
 20
4082.796626559189
 30
0.0
  9
$LIMMIN
 10
0.0
 20
0.0
  9
$LIMMAX
 10
297.0
 20
210.0
  9
$ORTHOMODE
 70
     0
  9
$REGENMODE
 70
     1
  9
$FILLMODE
 70
     0
  9
$QTEXTMODE
 70
     0
  9
$MIRRTEXT
 70
     1
  9
$DRAGMODE
 70
     2
  9
$LTSCALE
 40
100.0
  9
$OSMODE
 70
    37
  9
$ATTMODE
 70
     1
  9
$TEXTSIZE
 40
180.0
  9
$TRACEWID
 40
0.05
  9
$TEXTSTYLE
  7
STANDARD
  9
$CLAYER
  8
3
  9
$CELTYPE
  6
BYLAYER
  9
$CECOLOR
 62
   256
  9
$DIMSCALE
 40
20.0
  9
$DIMASZ
 40
2.0
  9
$DIMEXO
 40
0.5
  9
$DIMDLI
 40
10.0
  9
$DIMRND
 40
0.0
  9
$DIMDLE
 40
0.0
  9
$DIMEXE
 40
1.0
  9
$DIMTP
 40
1.0
  9
$DIMTM
 40
1.0
  9
$DIMTXT
 40
3.0
  9
$DIMCEN
 40
0.0
  9
$DIMTSZ
 40
0.0
  9
$DIMTOL
 70
     0
  9
$DIMLIM
 70
     0
  9
$DIMTIH
 70
     0
  9
$DIMTOH
 70
     0
  9
$DIMSE1
 70
     0
  9
$DIMSE2
 70
     0
  9
$DIMTAD
 70
     1
  9
$DIMZIN
 70
     8
  9
$DIMBLK
  1

  9
$DIMASO
 70
     1
  9
$DIMSHO
 70
     1
  9
$DIMPOST
  1

  9
$DIMAPOST
  1

  9
$DIMALT
 70
     0
  9
$DIMALTD
 70
     2
  9
$DIMALTF
 40
0.039
  9
$DIMLFAC
 40
1.0
  9
$DIMTOFL
 70
     1
  9
$DIMTVP
 40
0.0
  9
$DIMTIX
 70
     0
  9
$DIMSOXD
 70
     0
  9
$DIMSAH
 70
     1
  9
$DIMBLK1
  1
OPEN
  9
$DIMBLK2
  1
OPEN
  9
$DIMSTYLE
  2
IGA
  9
$DIMCLRD
 70
     0
  9
$DIMCLRE
 70
     0
  9
$DIMCLRT
 70
     0
  9
$DIMTFAC
 40
10.0
  9
$DIMGAP
 40
1.0
  9
$LUNITS
 70
     2
  9
$LUPREC
 70
     3
  9
$SKETCHINC
 40
0.1
  9
$FILLETRAD
 40
50.0
  9
$AUNITS
 70
     0
  9
$AUPREC
 70
     0
  9
$MENU
  1
acad
  9
$ELEVATION
 40
0.0
  9
$PELEVATION
 40
0.0
  9
$THICKNESS
 40
0.0
  9
$LIMCHECK
 70
     0
  9
$BLIPMODE
 70
     0
  9
$CHAMFERA
 40
0.5
  9
$CHAMFERB
 40
0.5
  9
$SKPOLY
 70
     0
  9
$TDCREATE
 40
2453249.427640046
  9
$TDUPDATE
 40
2454953.6326555209
  9
$TDINDWG
 40
0.021893287
  9
$TDUSRTIMER
 40
0.021893287
  9
$USRTIMER
 70
     1
  9
$ANGBASE
 50
0.0
  9
$ANGDIR
 70
     0
  9
$PDMODE
 70
     0
  9
$PDSIZE
 40
0.0
  9
$PLINEWID
 40
0.0
  9
$COORDS
 70
     1
  9
$SPLFRAME
 70
     0
  9
$SPLINETYPE
 70
     6
  9
$SPLINESEGS
 70
     8
  9
$ATTDIA
 70
     0
  9
$ATTREQ
 70
     1
  9
$HANDLING
 70
 10241
  9
$HANDSEED
  5
8277
  9
$SURFTAB1
 70
     6
  9
$SURFTAB2
 70
     6
  9
$SURFTYPE
 70
     6
  9
$SURFU
 70
     6
  9
$SURFV
 70
     6
  9
$UCSNAME
  2

  9
$UCSORG
 10
0.0
 20
0.0
 30
0.0
  9
$UCSXDIR
 10
1.0
 20
0.0
 30
0.0
  9
$UCSYDIR
 10
0.0
 20
1.0
 30
0.0
  9
$PUCSNAME
  2

  9
$PUCSORG
 10
0.0
 20
0.0
 30
0.0
  9
$PUCSXDIR
 10
1.0
 20
0.0
 30
0.0
  9
$PUCSYDIR
 10
0.0
 20
1.0
 30
0.0
  9
$USERI1
 70
     0
  9
$USERI2
 70
     0
  9
$USERI3
 70
     0
  9
$USERI4
 70
     0
  9
$USERI5
 70
     0
  9
$USERR1
 40
0.0
  9
$USERR2
 40
0.0
  9
$USERR3
 40
0.0
  9
$USERR4
 40
0.0
  9
$USERR5
 40
0.0
  9
$WORLDVIEW
 70
     1
  9
$SHADEDGE
 70
     3
  9
$SHADEDIF
 70
    70
  9
$TILEMODE
 70
     1
  9
$MAXACTVP
 70
    16
  9
$PLIMCHECK
 70
     0
  9
$PEXTMIN
 10
1.0000000000000000E+020
 20
1.0000000000000000E+020
 30
1.0000000000000000E+020
  9
$PEXTMAX
 10
-1.0000000000000000E+020
 20
-1.0000000000000000E+020
 30
-1.0000000000000000E+020
  9
$PLIMMIN
 10
0.0
 20
0.0
  9
$PLIMMAX
 10
12.0
 20
9.0
  9
$UNITMODE
 70
     0
  9
$VISRETAIN
 70
     0
  9
$PLINEGEN
 70
     0
  9
$PSLTSCALE
 70
     1
  0
ENDSEC
  0
SECTION
  2
TABLES
  0
TABLE
  2
VPORT
 70
     2
  0
VPORT
  2
*ACTIVE
 70
     0
 10
0.0
 20
0.0
 11
1.0
 21
1.0
 12
-2753.941462466451
 22
-1128.259233222105
 13
0.0
 23
0.0
 14
10.0
 24
10.0
 15
10.0
 25
10.0
 16
0.0
 26
0.0
 36
1.0
 17
0.0
 27
0.0
 37
0.0
 40
1745.8772577182961
 41
3.1666666666666661
 42
50.0
 43
0.0
 44
0.0
 50
0.0
 51
0.0
 71
     0
 72
   100
 73
     1
 74
     0
 75
     0
 76
     0
 77
     0
 78
     0
  0
ENDTAB
  0
TABLE
  2
LTYPE
 70
     2
  0
LTYPE
  2
CONTINUOUS
 70
     0
  3
Solid line
 72
    65
 73
     0
 40
0.0
  0
LTYPE
  2
CENTER
 70
     0
  3
____ _ ____ _ ____ _ ____ _ ____ _ ____ _ ____ 
 72
    65
 73
     4
 40
2.0
 49
1.25
 49
-0.25
 49
0.25
 49
-0.25
  0
ENDTAB
  0
TABLE
  2
LAYER
 70
     6
  0
LAYER
  2
0
 70
     0
 62
     7
  6
CONTINUOUS
  0
LAYER
  2
3
 70
     0
 62
     2
  6
CONTINUOUS
  0
LAYER
  2
2
 70
     0
 62
     3
  6
CENTER
  0
LAYER
  2
1
 70
     0
 62
     4
  6
CONTINUOUS
  0
LAYER
  2
4
 70
     0
 62
     7
  6
CONTINUOUS
  0
LAYER
  2
DEFPOINTS
 70
     0
 62
     7
  6
CONTINUOUS
  0
ENDTAB
  0
TABLE
  2
STYLE
 70
     1
  0
STYLE
  2
STANDARD
 70
     0
 40
0.0
 41
1.0
 50
0.0
 71
     0
 42
180.0
  3
simplex.shx
  4
extfont.shx
  0
ENDTAB
  0
TABLE
  2
VIEW
 70
     0
  0
ENDTAB
  0
TABLE
  2
UCS
 70
     0
  0
ENDTAB
  0
TABLE
  2
APPID
 70
     1
  0
APPID
  2
ACAD
 70
     0
  0
ENDTAB
  0
TABLE
  2
DIMSTYLE
 70
     3
  0
DIMSTYLE
  2
IGA
 70
     0
  3

  4

  5

  6
OPEN
  7
OPEN
 40
2.0
 41
2.0
 42
0.5
 43
10.0
 44
1.0
 45
0.0
 46
0.0
 47
1.0
 48
1.0
140
3.0
141
0.0
142
0.0
143
0.03937
144
1.0
145
0.0
146
10.0
147
1.0
 71
     0
 72
     0
 73
     0
 74
     0
 75
     0
 76
     0
 77
     1
 78
     8
170
     0
171
     2
172
     0
173
     1
174
     0
175
     0
176
     0
177
     0
178
     0
  0
DIMSTYLE
  2
MATSU
 70
     0
  3

  4

  5

  6
OPEN
  7
OPEN
 40
12.0
 41
2.0
 42
1.0
 43
10.0
 44
1.0
 45
0.0
 46
0.0
 47
0.0
 48
0.0
140
3.0
141
0.0
142
0.0
143
0.03937
144
1.0
145
0.0
146
1.0
147
0.5
 71
     0
 72
     0
 73
     0
 74
     0
 75
     0
 76
     0
 77
     1
 78
     8
170
     0
171
     2
172
     1
173
     1
174
     0
175
     0
176
   256
177
   256
178
   256
  0
DIMSTYLE
  2
STANDARD
 70
     0
  3

  4

  5

  6

  7

 40
1.0
 41
0.18
 42
0.0625
 43
0.38
 44
0.18
 45
0.0
 46
0.0
 47
0.0
 48
0.0
140
0.18
141
0.09
142
0.0
143
25.399999999999999
144
1.0
145
0.0
146
1.0
147
0.09
 71
     0
 72
     0
 73
     1
 74
     1
 75
     0
 76
     0
 77
     0
 78
     0
170
     0
171
     2
172
     0
173
     0
174
     0
175
     0
176
     0
177
     0
178
     0
  0
ENDTAB
  0
ENDSEC
  0
SECTION
  2
BLOCKS
  0
BLOCK
  8
0
  2
$MODEL_SPACE
 70
     0
 10
0.0
 20
0.0
 30
0.0
  3
$MODEL_SPACE
  1

  0
ENDBLK
  5
1B
  8
0
  0
BLOCK
 67
     1
  8
0
  2
$PAPER_SPACE
 70
     0
 10
0.0
 20
0.0
 30
0.0
  3
$PAPER_SPACE
  1

  0
ENDBLK
  5
18
 67
     1
  8
0
  0
BLOCK
  8
0
  2
_OPEN
 70
     0
 10
0.0
 20
0.0
 30
0.0
  3
_OPEN
  1

  0
LINE
  5
79FD
  8
0
  6
BYBLOCK
 62
     0
 10
-1.0
 20
0.1666666666666666
 30
0.0
 11
0.0
 21
0.0
 31
0.0
  0
LINE
  5
79FE
  8
0
  6
BYBLOCK
 62
     0
 10
0.0
 20
0.0
 30
0.0
 11
-1.0
 21
-0.1666666666666666
 31
0.0
  0
LINE
  5
79FF
  8
0
  6
BYBLOCK
 62
     0
 10
0.0
 20
0.0
 30
0.0
 11
-1.0
 21
0.0
 31
0.0
  0
ENDBLK
  5
7A01
  8
0
  0
BLOCK
  8
0
  2
*D1
 70
     1
 10
0.0
 20
0.0
 30
0.0
  3
*D1
  1

  0
LINE
  5
80CD
  8
3
 10
-5817.8919455255154
 20
1414.0361215683799
 30
0.0
 11
-5817.8919455255154
 21
2338.6617901374188
 31
0.0
  0
LINE
  5
80CE
  8
3
 10
-5007.8919455255136
 20
1414.0361215683799
 30
0.0
 11
-5007.8919455255136
 21
2338.6617901374188
 31
0.0
  0
LINE
  5
80CF
  8
3
 10
-5777.8919455255154
 20
2318.6617901374188
 30
0.0
 11
-5047.8919455255136
 21
2318.6617901374188
 31
0.0
  0
INSERT
  5
80D0
  8
3
  2
_OPEN
 10
-5817.8919455255154
 20
2318.6617901374188
 30
0.0
 41
40.0
 42
40.0
 43
40.0
 50
180.0
  0
INSERT
  5
80D1
  8
3
  2
_OPEN
 10
-5007.8919455255136
 20
2318.6617901374188
 30
0.0
 41
40.0
 42
40.0
 43
40.0
  0
TEXT
  5
80D2
  8
3
 10
-5484.3205169540861
 20
2328.6617901374188
 30
0.0
 40
60.0
  1
810
  0
POINT
  5
80D3
  8
DEFPOINTS
 62
     0
 10
-5817.8919455255154
 20
1404.0361215683799
 30
0.0
  0
POINT
  5
80D4
  8
DEFPOINTS
 62
     0
 10
-5007.8919455255136
 20
1404.0361215683799
 30
0.0
  0
POINT
  5
80D5
  8
DEFPOINTS
 62
     0
 10
-5007.8919455255136
 20
2318.6617901374188
 30
0.0
  0
ENDBLK
  5
7FB8
  8
0
  0
BLOCK
  8
0
  2
*D2
 70
     1
 10
0.0
 20
0.0
 30
0.0
  3
*D2
  1

  0
LINE
  5
7FBA
  8
0
  6
BYBLOCK
 10
2187.1551738233738
 20
1787.527780624303
 30
0.0
 11
2020.844827473539
 21
1787.527780624303
 31
0.0
  0
LINE
  5
7FBB
  8
0
  6
BYBLOCK
 10
2187.1551738233738
 20
787.52778062430309
 30
0.0
 11
2020.844827473539
 21
787.52778062430309
 31
0.0
  0
LINE
  5
7FBC
  8
0
  6
BYBLOCK
 10
2040.844827473539
 20
1747.527780624303
 30
0.0
 11
2040.844827473539
 21
827.5277806243032
 31
0.0
  0
INSERT
  5
7FBD
  8
0
  6
BYBLOCK
  2
_OPEN
 10
2040.844827473539
 20
1787.527780624303
 30
0.0
 41
40.0
 42
40.0
 43
40.0
 50
90.0
  0
INSERT
  5
7FBE
  8
0
  6
BYBLOCK
  2
_OPEN
 10
2040.844827473539
 20
787.52778062430309
 30
0.0
 41
40.0
 42
40.0
 43
40.0
 50
270.0
  0
TEXT
  5
7FBF
  8
3
 10
2030.8448274735399
 20
1157.5277806243021
 30
0.0
 40
60.0
  1
φ1000
 50
90.0
  0
POINT
  5
7FC0
  8
DEFPOINTS
  6
BYBLOCK
 62
     0
 10
2197.1551738233738
 20
1787.527780624303
 30
0.0
  0
POINT
  5
7FC1
  8
DEFPOINTS
  6
BYBLOCK
 62
     0
 10
2197.1551738233738
 20
787.52778062430309
 30
0.0
  0
POINT
  5
7FC2
  8
DEFPOINTS
  6
BYBLOCK
 62
     0
 10
2040.844827473539
 20
787.52778062430309
 30
0.0
  0
ENDBLK
  5
7FC3
  8
0
  0
BLOCK
  8
0
  2
*D3
 70
     1
 10
0.0
 20
0.0
 30
0.0
  3
*D3
  1

  0
LINE
  5
7FC5
  8
0
  6
BYBLOCK
 10
3117.1551738233738
 20
1787.527780624303
 30
0.0
 11
3303.2242584719111
 21
1787.527780624303
 31
0.0
  0
LINE
  5
7FC6
  8
0
  6
BYBLOCK
 10
3117.1551738233738
 20
787.52778062430332
 30
0.0
 11
3303.2242584719111
 21
787.52778062430332
 31
0.0
  0
LINE
  5
7FC7
  8
0
  6
BYBLOCK
 10
3283.2242584719111
 20
1747.527780624303
 30
0.0
 11
3283.2242584719111
 21
827.52778062430343
 31
0.0
  0
INSERT
  5
7FC8
  8
0
  6
BYBLOCK
  2
_OPEN
 10
3283.2242584719111
 20
1787.527780624303
 30
0.0
 41
40.0
 42
40.0
 43
40.0
 50
90.0
  0
INSERT
  5
7FC9
  8
0
  6
BYBLOCK
  2
_OPEN
 10
3283.2242584719111
 20
787.52778062430332
 30
0.0
 41
40.0
 42
40.0
 43
40.0
 50
270.0
  0
TEXT
  5
7FCA
  8
3
 10
3273.2242584719111
 20
1157.527780624303
 30
0.0
 40
60.0
  1
φ1000
 50
90.0
  0
POINT
  5
7FCB
  8
DEFPOINTS
  6
BYBLOCK
 62
     0
 10
3107.1551738233738
 20
1787.527780624303
 30
0.0
  0
POINT
  5
7FCC
  8
DEFPOINTS
  6
BYBLOCK
 62
     0
 10
3107.1551738233738
 20
787.52778062430332
 30
0.0
  0
POINT
  5
7FCD
  8
DEFPOINTS
  6
BYBLOCK
 62
     0
 10
3283.2242584719111
 20
787.52778062430332
 30
0.0
  0
ENDBLK
  5
7FCE
  8
0
  0
BLOCK
  8
0
  2
*D4
 70
     1
 10
0.0
 20
0.0
 30
0.0
  3
*D4
  1

  0
LINE
  5
8241
  8
3
 62
     0
 10
-4257.3696492348381
 20
854.03612156838085
 30
0.0
 11
-4384.2753381102866
 21
854.03612156838085
 31
0.0
  0
LINE
  5
8242
  8
3
 62
     0
 10
-3567.9014777753332
 20
1892.0361215683811
 30
0.0
 11
-4384.2753381102866
 21
1892.0361215683811
 31
0.0
  0
LINE
  5
8243
  8
3
 62
     0
 10
-4364.2753381102857
 20
894.03612156838085
 30
0.0
 11
-4364.2753381102857
 21
1852.0361215683811
 31
0.0
  0
INSERT
  5
8244
  8
3
 62
     0
  2
_OPEN
 10
-4364.2753381102857
 20
854.03612156838085
 30
0.0
 41
40.0
 42
40.0
 43
40.0
 50
270.0
  0
INSERT
  5
8245
  8
3
 62
     0
  2
_OPEN
 10
-4364.2753381102857
 20
1892.0361215683811
 30
0.0
 41
40.0
 42
40.0
 43
40.0
 50
90.0
  0
TEXT
  8
3
  40
60
  5
8272
  62
0
  72
0
  71
0
 10
-4534.28
 20
1266.84
 30
0.000000
  1
MAX1180
  0
POINT
  5
8247
  8
DEFPOINTS
 62
     0
 10
-4247.3696492348372
 20
854.03612156838085
 30
0.0
  0
POINT
  5
8248
  8
DEFPOINTS
 62
     0
 10
-3557.9014777753332
 20
1892.0361215683811
 30
0.0
  0
POINT
  5
8249
  8
DEFPOINTS
 62
     0
 10
-4364.2753381102857
 20
1892.0361215683811
 30
0.0
  0
ENDBLK
  5
7FF9
  8
0
  0
BLOCK
  8
0
  2
L-65-6
 70
     0
 10
0.0
 20
0.0
 30
0.0
  3
L-65-6
  1

  0
LINE
  5
80E9
  8
0
 10
129.3812175658654
 20
95.549682491784893
 30
0.0
 11
194.38121756586531
 21
95.549682491784893
 31
0.0
  0
LINE
  5
80EA
  8
0
 10
129.3812175658654
 20
95.549682491784893
 30
0.0
 11
129.3812175658654
 21
160.54968249178489
 31
0.0
  0
LINE
  5
80EB
  8
0
 10
194.38121756586531
 20
95.549682491784893
 30
0.0
 11
194.38121756586531
 21
97.549682491784893
 31
0.0
  0
LINE
  5
80EC
  8
0
 10
129.3812175658654
 20
160.54968249178489
 30
0.0
 11
131.3812175658654
 21
160.54968249178481
 31
0.0
  0
LINE
  5
80ED
  8
0
 10
135.3812175658654
 20
110.04968249178491
 30
0.0
 11
135.3812175658654
 21
156.54968249178481
 31
0.0
  0
LINE
  5
80EE
  8
0
 10
143.8812175658654
 20
101.54968249178491
 30
0.0
 11
190.3812175658654
 21
101.54968249178479
 31
0.0
  0
ARC
  5
80EF
  8
0
 10
190.3812175658654
 20
97.549682491784893
 30
0.0
 40
4.0
 50
0.0
 51
90.0
  0
ARC
  5
80F0
  8
0
 10
131.3812175658654
 20
156.54968249178481
 30
0.0
 40
4.0
 50
0.0
 51
89.999999999999204
  0
ARC
  5
80F1
  8
0
 10
143.8812175658654
 20
110.04968249178491
 30
0.0
 40
8.5
 50
180.0
 51
270.0
  0
ENDBLK
  5
80F3
  8
0
  0
BLOCK
  8
0
  2
*D6
 70
     1
 10
0.0
 20
0.0
 30
0.0
  3
*D6
  1

  0
LINE
  5
824A
  8
3
 62
     0
 10
-4157.9014777753318
 20
1950.4087302645939
 30
0.0
 11
-4157.9014777753318
 21
2193.359095656655
 31
0.0
  0
LINE
  5
824B
  8
3
 62
     0
 10
-2957.9014777753332
 20
1950.4087302645939
 30
0.0
 11
-2957.9014777753332
 21
2193.359095656655
 31
0.0
  0
LINE
  5
824C
  8
3
 62
     0
 10
-4117.9014777753318
 20
2173.359095656655
 30
0.0
 11
-2997.9014777753318
 21
2173.359095656655
 31
0.0
  0
INSERT
  5
824D
  8
3
 62
     0
  2
_OPEN
 10
-4157.9014777753318
 20
2173.359095656655
 30
0.0
 41
40.0
 42
40.0
 43
40.0
 50
180.0
  0
INSERT
  5
824E
  8
3
 62
     0
  2
_OPEN
 10
-2957.9014777753332
 20
2173.359095656655
 30
0.0
 41
40.0
 42
40.0
 43
40.0
  0
TEXT
  8
3
  40
60
  5
8273
  62
0
  72
0
  71
0
 10
-3689.87
 20
2117.16
 30
0.000000
  1
1200
  0
POINT
  5
8250
  8
DEFPOINTS
 62
     0
 10
-4157.9014777753318
 20
1940.4087302645939
 30
0.0
  0
POINT
  5
8251
  8
DEFPOINTS
 62
     0
 10
-2957.9014777753332
 20
1940.4087302645939
 30
0.0
  0
POINT
  5
8252
  8
DEFPOINTS
 62
     0
 10
-2957.9014777753332
 20
2173.359095656655
 30
0.0
  0
ENDBLK
  5
8115
  8
0
  0
BLOCK
  8
0
  2
*D7
 70
     1
 10
0.0
 20
0.0
 30
0.0
  3
*D7
  1

  0
LINE
  5
8253
  8
3
 62
     0
 10
-5782.8919455255136
 20
1973.3441587616251
 30
0.0
 11
-5782.8919455255136
 21
2160.8632090542669
 31
0.0
  0
LINE
  5
8254
  8
3
 62
     0
 10
-5042.8919455255136
 20
1973.3441587616251
 30
0.0
 11
-5042.8919455255136
 21
2160.8632090542669
 31
0.0
  0
LINE
  5
8255
  8
3
 62
     0
 10
-5742.8919455255136
 20
2140.8632090542669
 30
0.0
 11
-5082.8919455255136
 21
2140.8632090542669
 31
0.0
  0
INSERT
  5
8256
  8
3
 62
     0
  2
_OPEN
 10
-5782.8919455255136
 20
2140.8632090542669
 30
0.0
 41
40.0
 42
40.0
 43
40.0
 50
180.0
  0
INSERT
  5
8257
  8
3
 62
     0
  2
_OPEN
 10
-5042.8919455255136
 20
2140.8632090542669
 30
0.0
 41
40.0
 42
40.0
 43
40.0
  0
TEXT
  8
3
  40
60
  5
8274
  62
0
  72
0
  71
0
 10
-5532.89
 20
2084.66
 30
0.000000
  1
740
  0
POINT
  5
8259
  8
DEFPOINTS
 62
     0
 10
-5782.8919455255136
 20
1963.3441587616251
 30
0.0
  0
POINT
  5
825A
  8
DEFPOINTS
 62
     0
 10
-5042.8919455255136
 20
1963.3441587616251
 30
0.0
  0
POINT
  5
825B
  8
DEFPOINTS
 62
     0
 10
-5042.8919455255136
 20
2140.8632090542669
 30
0.0
  0
ENDBLK
  5
812B
  8
0
  0
BLOCK
  8
0
  2
*D8
 70
     1
 10
0.0
 20
0.0
 30
0.0
  3
*D8
  1

  0
LINE
  5
825C
  8
3
 62
     0
 10
-5042.8919455255136
 20
1973.3441587616251
 30
0.0
 11
-5042.8919455255136
 21
2160.8632090542669
 31
0.0
  0
LINE
  5
825D
  8
3
 62
     0
 10
-5007.8919455255136
 20
1414.0361215683799
 30
0.0
 11
-5007.8919455255136
 21
2160.8632090542669
 31
0.0
  0
LINE
  5
825E
  8
3
 62
     0
 10
-5082.8919455255136
 20
2140.8632090542669
 30
0.0
 11
-5122.8919455255136
 21
2140.8632090542669
 31
0.0
  0
LINE
  5
825F
  8
3
 62
     0
 10
-4967.8919455255154
 20
2140.8632090542669
 30
0.0
 11
-4927.8919455255154
 21
2140.8632090542669
 31
0.0
  0
TEXT
  8
3
  40
60
  5
8275
  62
0
  72
0
  71
0
 10
-5011.72
 20
2079.65
 30
0.000000
  1
35
  0
LINE
  5
8261
  8
3
 62
     0
 10
-5042.8919455255136
 20
2140.8632090542669
 30
0.0
 11
-5007.8919455255136
 21
2140.8632090542669
 31
0.0
  0
INSERT
  5
8262
  8
3
 62
     0
  2
_OPEN
 10
-5042.8919455255136
 20
2140.8632090542669
 30
0.0
 41
40.0
 42
40.0
 43
40.0
  0
INSERT
  5
8263
  8
3
 62
     0
  2
_OPEN
 10
-5007.8919455255136
 20
2140.8632090542669
 30
0.0
 41
40.0
 42
40.0
 43
40.0
 50
180.0
  0
POINT
  5
8264
  8
DEFPOINTS
 62
     0
 10
-5042.8919455255136
 20
1963.3441587616251
 30
0.0
  0
POINT
  5
8265
  8
DEFPOINTS
 62
     0
 10
-5007.8919455255136
 20
1404.0361215683799
 30
0.0
  0
POINT
  5
8266
  8
DEFPOINTS
 62
     0
 10
-5007.8919455255136
 20
2140.8632090542669
 30
0.0
  0
ENDBLK
  5
813D
  8
0
  0
BLOCK
  8
0
  2
*D9
 70
     1
 10
0.0
 20
0.0
 30
0.0
  3
*D9
  1

  0
LINE
  5
8267
  8
3
 62
     0
 10
-5782.8919455255136
 20
1973.3441587616251
 30
0.0
 11
-5782.8919455255136
 21
2160.8632090542669
 31
0.0
  0
LINE
  5
8268
  8
3
 62
     0
 10
-5817.8919455255154
 20
1414.0361215683799
 30
0.0
 11
-5817.8919455255154
 21
2160.8632090542669
 31
0.0
  0
LINE
  5
8269
  8
3
 62
     0
 10
-5742.8919455255136
 20
2140.8632090542669
 30
0.0
 11
-5702.8919455255136
 21
2140.8632090542669
 31
0.0
  0
LINE
  5
826A
  8
3
 62
     0
 10
-5857.8919455255154
 20
2140.8632090542669
 30
0.0
 11
-5897.8919455255154
 21
2140.8632090542669
 31
0.0
  0
TEXT
  8
3
  40
60
  5
8276
  62
0
  72
0
  71
0
 10
-6082.71
 20
2088.98
 30
0.000000
  1
35
  0
LINE
  5
826C
  8
3
 62
     0
 10
-5782.8919455255136
 20
2140.8632090542669
 30
0.0
 11
-5817.8919455255154
 21
2140.8632090542669
 31
0.0
  0
INSERT
  5
826D
  8
3
 62
     0
  2
_OPEN
 10
-5782.8919455255136
 20
2140.8632090542669
 30
0.0
 41
40.0
 42
40.0
 43
40.0
 50
180.0
  0
INSERT
  5
826E
  8
3
 62
     0
  2
_OPEN
 10
-5817.8919455255154
 20
2140.8632090542669
 30
0.0
 41
40.0
 42
40.0
 43
40.0
  0
POINT
  5
826F
  8
DEFPOINTS
 62
     0
 10
-5782.8919455255136
 20
1963.3441587616251
 30
0.0
  0
POINT
  5
8270
  8
DEFPOINTS
 62
     0
 10
-5817.8919455255154
 20
1404.0361215683799
 30
0.0
  0
POINT
  5
8271
  8
DEFPOINTS
 62
     0
 10
-5817.8919455255154
 20
2140.8632090542669
 30
0.0
  0
ENDBLK
  5
814F
  8
0
  0
ENDSEC
  0
SECTION
  2
ENTITIES
  0
LINE
  5
7D76
  8
1
 10
-3660.4014777753318
 20
1461.0361215683811
 30
0.0
 11
-3719.9014777753318
 21
1461.0361215683811
 31
0.0
  0
LINE
  5
7D77
  8
1
 10
-3663.4014777753318
 20
1481.0361215683799
 30
0.0
 11
-3716.9014777753318
 21
1481.0361215683799
 31
0.0
  0
LINE
  5
7D78
  8
2
 10
-3362.4490547753339
 20
1641.0361215683799
 30
0.0
 11
-3753.3539007753329
 21
1641.0361215683799
 31
0.0
  0
LINE
  5
7D79
  8
1
 10
-3378.4899787753329
 20
1841.0361215683799
 30
0.0
 11
-3737.3129767753321
 21
1841.0361215683799
 31
0.0
  0
LINE
  5
7D7A
  8
1
 10
-3747.9014777753318
 20
1461.0361215683811
 30
0.0
 11
-3367.9014777753332
 21
1461.0361215683811
 31
0.0
  0
ARC
  5
7D7B
  8
1
 10
-3557.9014777753332
 20
1641.0361215683799
 30
0.0
 40
185.0
 50
287.94525099999993
 51
252.05474899999999
  0
LINE
  5
7D7C
  8
1
 10
-3692.448413039936
 20
1038.1043757864909
 30
0.0
 11
-3922.376629427049
 21
1196.3194308729071
 31
0.0
  0
LINE
  5
7D7D
  8
1
 10
-4049.5507430041139
 20
763.03612156838119
 30
0.0
 11
-3066.252212546553
 21
763.03612156838119
 31
0.0
  0
LINE
  5
7D7E
  8
1
 10
-4051.2968567565322
 20
773.0361215683813
 30
0.0
 11
-3064.5060987941338
 21
773.0361215683813
 31
0.0
  0
ARC
  5
7D7F
  8
1
 10
-3557.9014777753332
 20
854.03612156838085
 30
0.0
 40
222.0
 50
338.6007335046495
 51
201.3992664953505
  0
ARC
  5
7D80
  8
1
 10
-3557.9014777753332
 20
854.03612156838085
 30
0.0
 40
228.0
 50
339.1904264223237
 51
200.80957357767619
  0
LINE
  5
7D81
  8
1
 10
-3747.9014777753318
 20
1411.0361215683811
 30
0.0
 11
-3367.9014777753332
 21
1411.0361215683811
 31
0.0
  0
CIRCLE
  5
7D83
  8
1
 10
-3557.9014777753332
 20
854.03612156838085
 30
0.0
 40
504.49999999999989
  0
CIRCLE
  5
7D84
  8
1
 10
-3557.9014777753332
 20
854.03612156838085
 30
0.0
 40
500.0
  0
CIRCLE
  5
7D85
  8
1
 10
-3557.9014777753332
 20
854.03612156838085
 30
0.0
 40
550.0
  0
LINE
  5
7D86
  8
2
 10
-4247.3696492348372
 20
854.03612156838085
 30
0.0
 11
-2854.1988597185391
 21
854.03612156838085
 31
0.0
  0
LINE
  5
7D87
  8
1
 10
-5747.8919455255136
 20
1350.0361215683799
 30
0.0
 11
-5797.8919455255136
 21
1104.0361215683799
 31
0.0
  0
LINE
  5
7D88
  8
1
 10
-5677.8919455255154
 20
1350.0361215683799
 30
0.0
 11
-5627.8919455255154
 21
1104.0361215683799
 31
0.0
  0
LINE
  5
7D89
  8
1
 10
-5076.8919455255136
 20
734.03612156838085
 30
0.0
 11
-5076.8919455255136
 21
1741.0361215683811
 31
0.0
  0
LINE
  5
7D8A
  8
1
 10
-5156.8919455255154
 20
734.03612156838085
 30
0.0
 11
-5156.8919455255154
 21
1741.0361215683811
 31
0.0
  0
LINE
  5
7D8B
  8
1
 10
-5012.3919455255136
 20
1404.0361215683811
 30
0.0
 11
-5012.3919455255136
 21
304.03612156838079
 31
0.0
  0
LINE
  5
7D8C
  8
1
 10
-5813.3919455255136
 20
1404.0361215683811
 30
0.0
 11
-5813.3919455255136
 21
304.03612156838079
 31
0.0
  0
LINE
  5
7D8D
  8
1
 10
-5817.8919455255154
 20
1404.0361215683799
 30
0.0
 11
-5817.8919455255154
 21
304.03612156838079
 31
0.0
  0
LINE
  5
7D8E
  8
1
 10
-5007.8919455255136
 20
1404.0361215683799
 30
0.0
 11
-5007.8919455255136
 21
304.03612156838079
 31
0.0
  0
LINE
  5
7D8F
  8
1
 10
-4957.8919455255136
 20
1354.0361215683799
 30
0.0
 11
-4957.8919455255136
 21
354.03612156838079
 31
0.0
  0
LINE
  5
7D90
  8
1
 10
-5867.8919455255136
 20
1354.0361215683799
 30
0.0
 11
-5867.8919455255136
 21
354.03612156838079
 31
0.0
  0
LINE
  5
7D91
  8
1
 10
-5003.8919455255154
 20
307.03612156838079
 30
0.0
 11
-5003.8919455255154
 21
1401.0361215683799
 31
0.0
  0
LINE
  5
7D92
  8
1
 10
-5821.8919455255136
 20
307.03612156838079
 30
0.0
 11
-5821.8919455255136
 21
1401.0361215683799
 31
0.0
  0
LINE
  5
7D93
  8
1
 10
-5813.3919455255136
 20
349.53612156838079
 30
0.0
 11
-5012.3919455255136
 21
349.53612156838102
 31
0.0
  0
LINE
  5
7D94
  8
2
 10
-5934.0077274814557
 20
854.03612156838085
 30
0.0
 11
-4921.0544090327039
 21
854.03612156838085
 31
0.0
  0
LINE
  5
7D95
  8
1
 10
-5817.8919455255154
 20
354.03612156838079
 30
0.0
 11
-5867.8919455255136
 21
354.03612156838079
 31
0.0
  0
LINE
  5
7D96
  8
1
 10
-5828.3919455255136
 20
350.03612156838079
 30
0.0
 11
-5864.8919455255136
 21
350.03612156838079
 31
0.0
  0
LINE
  5
7D97
  8
1
 10
-5835.082930847374
 20
326.53612156838079
 30
0.0
 11
-5796.7552450241847
 21
326.53612156838079
 31
0.0
  0
LINE
  5
7D98
  8
1
 10
-5867.8919455255136
 20
354.03612156838079
 30
0.0
 11
-5867.8919455255136
 21
353.03612156838079
 31
0.0
  0
ARC
  5
7D99
  8
1
 10
-5864.8919455255136
 20
353.03612156838079
 30
0.0
 40
3.0
 50
180.0
 51
270.0
  0
LINE
  5
7D9A
  8
1
 10
-5727.8919455255154
 20
1089.0361215683811
 30
0.0
 11
-5727.8919455255154
 21
619.03612156838085
 31
0.0
  0
LINE
  5
7D9B
  8
1
 10
-5742.8919455255136
 20
1089.0361215683811
 30
0.0
 11
-5742.8919455255136
 21
619.03612156838085
 31
0.0
  0
LINE
  5
7D9C
  8
1
 10
-5627.8919455255154
 20
1104.0361215683799
 30
0.0
 11
-5627.8919455255154
 21
604.03612156838085
 31
0.0
  0
LINE
  5
7D9D
  8
1
 10
-5797.8919455255136
 20
1104.0361215683799
 30
0.0
 11
-5797.8919455255136
 21
604.03612156838085
 31
0.0
  0
LINE
  5
7D9E
  8
1
 10
-5797.8919455255136
 20
619.03612156838085
 30
0.0
 11
-5627.8919455255154
 21
619.03612156838085
 31
0.0
  0
LINE
  5
7D9F
  8
1
 10
-5797.8919455255136
 20
604.03612156838085
 30
0.0
 11
-5627.8919455255154
 21
604.03612156838085
 31
0.0
  0
LINE
  5
7DA0
  8
1
 10
-5677.8919455255154
 20
358.03612156838102
 30
0.0
 11
-5627.8919455255154
 21
604.03612156838085
 31
0.0
  0
LINE
  5
7DA1
  8
1
 10
-5747.8919455255136
 20
358.03612156838079
 30
0.0
 11
-5797.8919455255136
 21
604.03612156838085
 31
0.0
  0
LINE
  5
7DA2
  8
1
 10
-5747.8919455255136
 20
358.03612156838079
 30
0.0
 11
-5677.8919455255154
 21
358.03612156838102
 31
0.0
  0
ARC
  5
7DA3
  8
1
 10
-5828.3919455255136
 20
343.53612156838079
 30
0.0
 40
6.5
 50
0.0
 51
90.0
  0
LINE
  5
7DA4
  8
1
 10
-5813.3919455255136
 20
304.03612156838079
 30
0.0
 11
-5817.8919455255154
 21
304.03612156838079
 31
0.0
  0
LINE
  5
7DA5
  8
1
 10
-5817.8919455255154
 20
304.03612156838079
 30
0.0
 11
-5818.8919455255136
 21
304.03612156838079
 31
0.0
  0
ARC
  5
7DA6
  8
1
 10
-5818.8919455255136
 20
307.03612156838079
 30
0.0
 40
3.0
 50
180.00000000000031
 51
270.0
  0
LINE
  5
7DA7
  8
1
 10
-5817.8919455255154
 20
354.03612156838079
 30
0.0
 11
-5817.8919455255154
 21
304.03612156838079
 31
0.0
  0
LINE
  5
7DA8
  8
1
 10
-5797.8919455255136
 20
1089.0361215683811
 30
0.0
 11
-5627.8919455255154
 21
1089.0361215683811
 31
0.0
  0
LINE
  5
7DA9
  8
1
 10
-5797.8919455255136
 20
1104.0361215683799
 30
0.0
 11
-5627.8919455255154
 21
1104.0361215683799
 31
0.0
  0
LINE
  5
7DAA
  8
1
 10
-5762.8919455255136
 20
914.03612156838085
 30
0.0
 11
-5662.8919455255136
 21
914.03612156838085
 31
0.0
  0
LINE
  5
7DAB
  8
1
 10
-5762.8919455255136
 20
794.03612156838085
 30
0.0
 11
-5662.8919455255136
 21
794.03612156838085
 31
0.0
  0
LINE
  5
7DAC
  8
1
 10
-5762.8919455255136
 20
914.03612156838085
 30
0.0
 11
-5762.8919455255136
 21
794.03612156838085
 31
0.0
  0
LINE
  5
7DAD
  8
1
 10
-5662.8919455255136
 20
914.03612156838085
 30
0.0
 11
-5662.8919455255136
 21
794.03612156838085
 31
0.0
  0
LINE
  5
7DAE
  8
1
 10
-5030.2015884743232
 20
326.53612156838079
 30
0.0
 11
-4984.2083714778864
 21
326.53612156838079
 31
0.0
  0
LINE
  5
7DAF
  8
1
 10
-5076.8919455255136
 20
734.03612156838085
 30
0.0
 11
-5156.8919455255154
 21
734.03612156838085
 31
0.0
  0
LINE
  5
7DB0
  8
1
 10
-5076.8919455255136
 20
974.03612156838085
 30
0.0
 11
-5156.8919455255154
 21
974.03612156838085
 31
0.0
  0
LINE
  5
7DB1
  8
1
 10
-4997.3919455255154
 20
350.03612156838079
 30
0.0
 11
-4960.8919455255136
 21
350.03612156838079
 31
0.0
  0
LINE
  5
7DB2
  8
1
 10
-4957.8919455255136
 20
354.03612156838079
 30
0.0
 11
-4957.8919455255136
 21
353.03612156838079
 31
0.0
  0
ARC
  5
7DB3
  8
1
 10
-4960.8919455255136
 20
353.03612156838079
 30
0.0
 40
3.0
 50
270.0
 51
0.0
  0
LINE
  5
7DB4
  8
1
 10
-4957.8919455255136
 20
354.03612156838079
 30
0.0
 11
-4957.8919455255136
 21
353.03612156838079
 31
0.0
  0
LINE
  5
7DB5
  8
1
 10
-5012.3919455255136
 20
304.03612156838079
 30
0.0
 11
-5007.8919455255136
 21
304.03612156838079
 31
0.0
  0
LINE
  5
7DB6
  8
1
 10
-5007.8919455255136
 20
304.03612156838079
 30
0.0
 11
-5006.8919455255154
 21
304.03612156838079
 31
0.0
  0
ARC
  5
7DB7
  8
1
 10
-5006.8919455255154
 20
307.03612156838079
 30
0.0
 40
3.0
 50
270.0
 51
359.9999999999996
  0
LINE
  5
7DB8
  8
1
 10
-5007.8919455255136
 20
304.03612156838079
 30
0.0
 11
-5006.8919455255154
 21
304.03612156838079
 31
0.0
  0
LINE
  5
7DB9
  8
1
 10
-5007.8919455255136
 20
354.03612156838079
 30
0.0
 11
-5007.8919455255136
 21
304.03612156838079
 31
0.0
  0
LINE
  5
7DBA
  8
1
 10
-5007.8919455255136
 20
354.03612156838079
 30
0.0
 11
-5007.8919455255136
 21
304.03612156838079
 31
0.0
  0
LINE
  5
7DBB
  8
1
 10
-5007.8919455255136
 20
354.03612156838079
 30
0.0
 11
-4957.8919455255136
 21
354.03612156838079
 31
0.0
  0
ARC
  5
7DBC
  8
1
 10
-4997.3919455255154
 20
343.53612156838079
 30
0.0
 40
6.5
 50
90.0
 51
180.0
  0
CIRCLE
  5
7DBD
  8
1
 10
-5428.3919455255154
 20
1862.0361215683799
 30
0.0
 40
17.5
  0
LINE
  5
7DBE
  8
1
 10
-5428.3919455255154
 20
1844.5361215683799
 30
0.0
 11
-5416.8373805255151
 21
1843.2981455683801
 31
0.0
  0
LINE
  5
7DBF
  8
1
 10
-5416.8373805255151
 20
1843.2981455683801
 30
0.0
 11
-5439.9465115255161
 21
1843.2981455683801
 31
0.0
  0
LINE
  5
7DC0
  8
1
 10
-5469.8602685255146
 20
1862.0361215683799
 30
0.0
 11
-5388.5098655255151
 21
1862.0361215683799
 31
0.0
  0
ARC
  5
7DC1
  8
1
 10
-5428.3919455255154
 20
1862.0361215683799
 30
0.0
 40
29.999988999999999
 50
305.60385099999991
 51
234.39613299999999
  0
LINE
  5
7DC2
  8
1
 10
-5369.3919455255154
 20
1765.0361215683799
 30
0.0
 11
-5487.3919455255154
 21
1765.0361215683799
 31
0.0
  0
LINE
  5
7DC3
  8
1
 10
-5490.3919455255154
 20
1758.0361215683799
 30
0.0
 11
-5366.3919455255136
 21
1758.0361215683799
 31
0.0
  0
LINE
  5
7DC4
  8
2
 10
-5488.7122585255147
 20
1691.0361215683799
 30
0.0
 11
-5364.7048115255138
 21
1691.0361215683799
 31
0.0
  0
LINE
  5
7DC5
  8
1
 10
-5372.8919455255136
 20
1467.0361215683799
 30
0.0
 11
-5428.3919455255154
 21
1467.0361215683799
 31
0.0
  0
LINE
  5
7DC6
  8
1
 10
-5487.3919455255154
 20
1543.33824556838
 30
0.0
 11
-5369.3919455255154
 21
1543.33824556838
 31
0.0
  0
LINE
  5
7DC7
  8
1
 10
-5366.3919455255136
 20
1563.33824556838
 30
0.0
 11
-5490.3919455255154
 21
1563.33824556838
 31
0.0
  0
LINE
  5
7DC8
  8
2
 10
-5761.8010035255156
 20
1641.0361215683799
 30
0.0
 11
-5067.1021505255158
 21
1641.0361215683799
 31
0.0
  0
LINE
  5
7DC9
  8
1
 10
-5308.3919455255154
 20
1832.0361215683799
 30
0.0
 11
-5428.3919455255154
 21
1832.0361215683799
 31
0.0
  0
LINE
  5
7DCA
  8
1
 10
-5239.8919455255136
 20
1455.0361215683799
 30
0.0
 11
-5615.8919455255154
 21
1455.0361215683799
 31
0.0
  0
LINE
  5
7DCB
  8
1
 10
-5239.8919455255136
 20
1461.0361215683811
 30
0.0
 11
-5615.8919455255154
 21
1461.0361215683811
 31
0.0
  0
LINE
  5
7DCC
  8
1
 10
-5813.3919455255136
 20
1358.5361215683811
 30
0.0
 11
-5587.8919455255136
 21
1358.5361215683811
 31
0.0
  0
LINE
  5
7DCD
  8
1
 10
-5047.8919455255136
 20
1295.0361215683799
 30
0.0
 11
-5752.8919455255154
 21
1295.0361215683799
 31
0.0
  0
LINE
  5
7DCE
  8
1
 10
-5012.3919455255136
 20
1331.0361215683811
 30
0.0
 11
-5813.3919455255136
 21
1331.0361215683811
 31
0.0
  0
LINE
  5
7DCF
  8
1
 10
-5287.8919455255136
 20
1417.0361215683799
 30
0.0
 11
-5567.8919455255154
 21
1417.0361215683799
 31
0.0
  0
LINE
  5
7DD0
  8
1
 10
-5828.3919455255136
 20
1358.0361215683799
 30
0.0
 11
-5864.8919455255136
 21
1358.0361215683799
 31
0.0
  0
LINE
  5
7DD1
  8
1
 10
-5835.082930847374
 20
1381.5361215683811
 30
0.0
 11
-5796.7552450241847
 21
1381.5361215683799
 31
0.0
  0
LINE
  5
7DD2
  8
1
 10
-5867.8919455255136
 20
1354.0361215683799
 30
0.0
 11
-5867.8919455255136
 21
1355.0361215683811
 31
0.0
  0
ARC
  5
7DD3
  8
1
 10
-5864.8919455255136
 20
1355.0361215683811
 30
0.0
 40
3.0
 50
90.0
 51
180.0
  0
LINE
  5
7DD4
  8
1
 10
-5517.3919455255136
 20
1735.0361215683799
 30
0.0
 11
-5517.3919455255136
 21
1573.33824556838
 31
0.0
  0
LINE
  5
7DD5
  8
1
 10
-5510.3919455255154
 20
1738.0361215683799
 30
0.0
 11
-5510.3919455255154
 21
1583.33824556838
 31
0.0
  0
LINE
  5
7DD6
  8
1
 10
-5608.3919455255136
 20
1825.7227665683799
 30
0.0
 11
-5608.3919455255136
 21
1465.0361215683799
 31
0.0
  0
LINE
  5
7DD7
  8
1
 10
-5558.3919455255154
 20
1481.0361215683799
 30
0.0
 11
-5558.3919455255154
 21
1826.0361215683799
 31
0.0
  0
LINE
  5
7DD8
  8
1
 10
-5748.3919455255154
 20
1778.1494025683801
 30
0.0
 11
-5748.3919455255154
 21
1503.9228395683799
 31
0.0
  0
LINE
  5
7DD9
  8
1
 10
-5688.2919705255154
 20
1814.4088625683801
 30
0.0
 11
-5688.2919705255154
 21
1467.6624635683811
 31
0.0
  0
LINE
  5
7DDA
  8
1
 10
-5639.991921525515
 20
1467.5361215683811
 30
0.0
 11
-5639.991921525515
 21
1814.8494755683801
 31
0.0
  0
LINE
  5
7DDB
  8
2
 10
-5428.3919455255154
 20
1899.5342905683799
 30
0.0
 11
-5428.3919455255154
 21
1448.79088156838
 31
0.0
  0
LINE
  5
7DDC
  8
1
 10
-5633.1224145255146
 20
1465.0361215683799
 30
0.0
 11
-5595.2124536012034
 21
1465.0361215683799
 31
0.0
  0
LINE
  5
7DDD
  8
1
 10
-5747.8919455255136
 20
1350.0361215683799
 30
0.0
 11
-5677.8919455255154
 21
1350.0361215683799
 31
0.0
  0
LINE
  5
7DDE
  8
1
 10
-5752.8919455255154
 20
1331.0361215683811
 30
0.0
 11
-5752.8919455255154
 21
1295.0361215683799
 31
0.0
  0
LINE
  5
7DDF
  8
1
 10
-5813.3919455255136
 20
1404.0361215683811
 30
0.0
 11
-5817.8919455255154
 21
1404.0361215683799
 31
0.0
  0
LINE
  5
7DE0
  8
1
 10
-5817.8919455255154
 20
1404.0361215683799
 30
0.0
 11
-5818.8919455255136
 21
1404.0361215683799
 31
0.0
  0
ARC
  5
7DE1
  8
1
 10
-5818.8919455255136
 20
1401.0361215683799
 30
0.0
 40
3.0
 50
90.0
 51
179.9999999999996
  0
ARC
  5
7DE2
  8
1
 10
-5828.3919455255136
 20
1364.5361215683799
 30
0.0
 40
6.5
 50
270.0
 51
0.0
  0
LINE
  5
7DE3
  8
1
 10
-5817.8919455255154
 20
1354.0361215683799
 30
0.0
 11
-5817.8919455255154
 21
1404.0361215683799
 31
0.0
  0
LINE
  5
7DE4
  8
1
 10
-5693.8489765255154
 20
1469.5457645683809
 30
0.0
 11
-5745.8919455255154
 21
1499.59276156838
 31
0.0
  0
ARC
  5
7DE5
  8
1
 10
-5743.3919455255136
 20
1503.9228395683799
 30
0.0
 40
5.0
 50
180.0
 51
239.99972500000001
  0
LINE
  5
7DE6
  8
1
 10
-5686.3489765255154
 20
1467.5361215683811
 30
0.0
 11
-5639.991921525515
 21
1467.5361215683811
 31
0.0
  0
ARC
  5
7DE7
  8
1
 10
-5686.3489765255154
 20
1482.5361215683799
 30
0.0
 40
15.0
 50
239.999954
 51
270.0
  0
LINE
  5
7DE8
  8
1
 10
-5633.1224145255146
 20
1465.0361215683799
 30
0.0
 11
-5639.991921525515
 21
1467.5361215683811
 31
0.0
  0
LINE
  5
7DE9
  8
1
 10
-5621.8919455255154
 20
1449.0361215683799
 30
0.0
 11
-5621.8919455255154
 21
1411.0361215683811
 31
0.0
  0
LINE
  5
7DEA
  8
1
 10
-5627.8919455255154
 20
1449.0361215683799
 30
0.0
 11
-5627.8919455255154
 21
1411.0361215683811
 31
0.0
  0
LINE
  5
7DEB
  8
1
 10
-5567.8919455255154
 20
1331.0361215683811
 30
0.0
 11
-5567.8919455255154
 21
1439.0361215683799
 31
0.0
  0
LINE
  5
7DEC
  8
1
 10
-5587.8919455255136
 20
1439.0361215683799
 30
0.0
 11
-5587.8919455255136
 21
1331.0361215683811
 31
0.0
  0
LINE
  5
7DED
  8
2
 10
-5577.8919455255136
 20
1542.5023157417661
 30
0.0
 11
-5577.8919455255136
 21
1316.637617274343
 31
0.0
  0
LINE
  5
7DEE
  8
1
 10
-5621.8919455255154
 20
1411.0361215683811
 30
0.0
 11
-5627.8919455255154
 21
1411.0361215683811
 31
0.0
  0
LINE
  5
7DEF
  8
1
 10
-5587.8919455255136
 20
1417.0361215683799
 30
0.0
 11
-5621.8919455255154
 21
1417.0361215683799
 31
0.0
  0
LINE
  5
7DF0
  8
1
 10
-5568.3919455255136
 20
1481.0361215683799
 30
0.0
 11
-5511.3919455255136
 21
1481.0361215683799
 31
0.0
  0
LINE
  5
7DF1
  8
1
 10
-5488.8919455255154
 20
1461.0361215683811
 30
0.0
 11
-5571.3919455255136
 21
1461.0361215683811
 31
0.0
  0
LINE
  5
7DF2
  8
1
 10
-5548.8919455255154
 20
1485.1380495683809
 30
0.0
 11
-5548.8919455255154
 21
1457.2072635683801
 31
0.0
  0
ARC
  5
7DF3
  8
1
 10
-5553.7804955255151
 20
1484.0361215683799
 30
0.0
 40
3.0
 50
270.0
 51
0.0
  0
LINE
  5
7DF4
  8
1
 10
-5567.8919455255154
 20
1508.5361215683811
 30
0.0
 11
-5587.8919455255136
 21
1508.5361215683811
 31
0.0
  0
LINE
  5
7DF5
  8
1
 10
-5562.8919455255136
 20
1477.0361215683799
 30
0.0
 11
-5560.5714374498257
 21
1475.696375606225
 31
0.0
  0
ARC
  5
7DF6
  8
1
 10
-5564.9015644687479
 20
1469.3686533231121
 30
0.0
 40
7.6674682452691139
 50
55.615752531956161
 51
124.3842474680438
  0
LINE
  5
7DF7
  8
1
 10
-5592.8919455255154
 20
1477.0361215683799
 30
0.0
 11
-5595.2124536012034
 21
1475.696375606225
 31
0.0
  0
ARC
  5
7DF8
  8
1
 10
-5590.8823265822812
 20
1469.3686533231121
 30
0.0
 40
7.6674682452691139
 50
55.615752531956161
 51
124.3842474680438
  0
ARC
  5
7DF9
  8
1
 10
-5577.8919455255136
 20
1448.375867530536
 30
0.0
 40
28.66025403784414
 50
72.412046226006169
 51
107.5879537739938
  0
LINE
  5
7DFA
  8
1
 10
-5560.5714374498257
 20
1455.0361215683799
 30
0.0
 11
-5595.2124536012043
 21
1455.0361215683799
 31
0.0
  0
LINE
  5
7DFB
  8
1
 10
-5595.2124536012034
 20
1461.0361215683811
 30
0.0
 11
-5560.5714374498257
 21
1461.0361215683811
 31
0.0
  0
LINE
  5
7DFC
  8
1
 10
-5595.2124536012034
 20
1475.696375606225
 30
0.0
 11
-5595.2124536012034
 21
1461.0361215683811
 31
0.0
  0
LINE
  5
7DFD
  8
1
 10
-5586.552199563359
 20
1475.696375606225
 30
0.0
 11
-5586.552199563359
 21
1461.0361215683811
 31
0.0
  0
LINE
  5
7DFE
  8
1
 10
-5569.2316914876701
 20
1475.696375606225
 30
0.0
 11
-5569.2316914876701
 21
1461.0361215683811
 31
0.0
  0
LINE
  5
7DFF
  8
1
 10
-5560.5714374498257
 20
1475.696375606225
 30
0.0
 11
-5560.5714374498257
 21
1461.0361215683811
 31
0.0
  0
LINE
  5
7E00
  8
1
 10
-5592.8919455255154
 20
1477.0361215683799
 30
0.0
 11
-5562.8919455255136
 21
1477.0361215683799
 31
0.0
  0
LINE
  5
7E01
  8
1
 10
-5567.8919455255154
 20
1477.0361215683799
 30
0.0
 11
-5567.8919455255154
 21
1508.5361215683811
 31
0.0
  0
LINE
  5
7E02
  8
1
 10
-5587.8919455255136
 20
1508.5361215683811
 30
0.0
 11
-5587.8919455255136
 21
1477.0361215683799
 31
0.0
  0
ARC
  5
7E03
  8
1
 10
-5577.8919455255136
 20
1467.696375606225
 30
0.0
 40
28.66025403784414
 50
252.41204622600611
 51
287.58795377399377
  0
LINE
  5
7E04
  8
1
 10
-5562.8919455255136
 20
1439.0361215683799
 30
0.0
 11
-5592.8919455255154
 21
1439.0361215683799
 31
0.0
  0
LINE
  5
7E05
  8
1
 10
-5592.8919455255154
 20
1439.0361215683799
 30
0.0
 11
-5595.2124536012034
 21
1440.375867530536
 31
0.0
  0
ARC
  5
7E06
  8
1
 10
-5590.8823265822812
 20
1446.7035898136489
 30
0.0
 40
7.6674682452691139
 50
235.6157525319561
 51
304.38424746804378
  0
LINE
  5
7E07
  8
1
 10
-5562.8919455255136
 20
1439.0361215683799
 30
0.0
 11
-5560.5714374498257
 21
1440.375867530536
 31
0.0
  0
ARC
  5
7E08
  8
1
 10
-5564.9015644687479
 20
1446.7035898136489
 30
0.0
 40
7.6674682452691139
 50
235.6157525319561
 51
304.38424746804378
  0
ARC
  5
7E09
  8
1
 10
-5615.8919455255154
 20
1449.0361215683799
 30
0.0
 40
12.0
 50
90.0
 51
180.0
  0
ARC
  5
7E0A
  8
1
 10
-5615.8919455255154
 20
1449.0361215683799
 30
0.0
 40
6.0
 50
90.0
 51
180.0
  0
LINE
  5
7E0B
  8
1
 10
-5586.552199563359
 20
1440.375867530536
 30
0.0
 11
-5586.552199563359
 21
1455.0361215683799
 31
0.0
  0
LINE
  5
7E0C
  8
1
 10
-5595.2124536012034
 20
1440.375867530536
 30
0.0
 11
-5595.2124536012034
 21
1455.0361215683799
 31
0.0
  0
LINE
  5
7E0D
  8
1
 10
-5560.5714374498257
 20
1440.375867530536
 30
0.0
 11
-5560.5714374498257
 21
1455.0361215683799
 31
0.0
  0
LINE
  5
7E0E
  8
1
 10
-5569.2316914876701
 20
1440.375867530536
 30
0.0
 11
-5569.2316914876701
 21
1455.0361215683799
 31
0.0
  0
LINE
  5
7E0F
  8
1
 10
-5443.3919455255136
 20
1502.099841568381
 30
0.0
 11
-5443.3919455255136
 21
1534.1149785683799
 31
0.0
  0
ARC
  5
7E10
  8
1
 10
-5463.3919455255154
 20
1502.099841568381
 30
0.0
 40
19.999980999999998
 50
271.26357999999999
 51
0.0
  0
ARC
  5
7E11
  8
1
 10
-5483.8919455255136
 20
1462.0361215683811
 30
0.0
 40
5.0
 50
90.0
 51
180.0
  0
LINE
  5
7E12
  8
1
 10
-5488.8919455255154
 20
1462.0361215683811
 30
0.0
 11
-5488.8919455255154
 21
1461.0361215683811
 31
0.0
  0
ARC
  5
7E13
  8
1
 10
-5490.3919455255154
 20
1583.33824556838
 30
0.0
 40
20.0
 50
180.0
 51
270.0
  0
ARC
  5
7E14
  8
1
 10
-5487.3919455255154
 20
1573.33824556838
 30
0.0
 40
30.0
 50
180.0
 51
270.0
  0
LINE
  5
7E15
  8
1
 10
-5483.8919455255136
 20
1467.0361215683799
 30
0.0
 11
-5428.3919455255154
 21
1467.0361215683799
 31
0.0
  0
LINE
  5
7E16
  8
1
 10
-5462.9509055255148
 20
1482.1047245683801
 30
0.0
 11
-5511.3919455255136
 21
1481.0361215683799
 31
0.0
  0
LINE
  5
7E17
  8
1
 10
-5611.7053005255148
 20
1824.830310568381
 30
0.0
 11
-5636.6785665255156
 21
1815.741931568381
 31
0.0
  0
LINE
  5
7E18
  8
1
 10
-5693.8489765255154
 20
1812.5264775683811
 30
0.0
 11
-5745.8919455255154
 21
1782.47948056838
 31
0.0
  0
ARC
  5
7E19
  8
1
 10
-5743.3919455255136
 20
1778.1494025683801
 30
0.0
 40
5.0
 50
120.000282
 51
180.0
  0
LINE
  5
7E1A
  8
1
 10
-5686.3489765255154
 20
1814.5361215683799
 30
0.0
 11
-5643.518166525515
 21
1814.5361215683799
 31
0.0
  0
ARC
  5
7E1B
  8
1
 10
-5686.3489765255154
 20
1799.5361215683799
 30
0.0
 40
15.0
 50
90.0
 51
120.000046
  0
ARC
  5
7E1C
  8
1
 10
-5643.518166525515
 20
1834.5361215683799
 30
0.0
 40
20.0
 50
270.0
 51
289.99749800000001
  0
LINE
  5
7E1D
  8
1
 10
-5548.3919455255154
 20
1832.0361215683799
 30
0.0
 11
-5428.3919455255154
 21
1832.0361215683799
 31
0.0
  0
LINE
  5
7E1E
  8
1
 10
-5548.3919455255154
 20
1832.0361215683799
 30
0.0
 11
-5558.3919455255154
 21
1823.78209256838
 31
0.0
  0
ARC
  5
7E1F
  8
1
 10
-5604.8657005255163
 20
1806.0361215683799
 30
0.0
 40
20.0
 50
90.0
 51
109.997505
  0
LINE
  5
7E20
  8
1
 10
-5604.8657005255163
 20
1826.0361215683799
 30
0.0
 11
-5558.3919455255154
 21
1826.0361215683799
 31
0.0
  0
ARC
  5
7E21
  8
1
 10
-5428.3919455255154
 20
1862.0361215683799
 30
0.0
 40
30.0
 50
234.39613299999999
 51
234.80995200000001
  0
ARC
  5
7E22
  8
1
 10
-5439.6269315255158
 20
1840.31523456838
 30
0.0
 40
3.0
 50
96.115172999999999
 51
174.80557300000001
  0
LINE
  5
7E23
  8
1
 10
-5428.3919455255154
 20
1844.5361215683799
 30
0.0
 11
-5439.9465115255161
 21
1843.2981455683801
 31
0.0
  0
ARC
  5
7E24
  8
1
 10
-5449.3503195255153
 20
1832.7659185683799
 30
0.0
 40
6.0
 50
354.80557299999992
 51
54.396262999999998
  0
LINE
  5
7E25
  8
1
 10
-5442.6146015255163
 20
1840.586841568381
 30
0.0
 11
-5443.3919455255136
 21
1832.0361215683799
 31
0.0
  0
ARC
  5
7E26
  8
1
 10
-5487.3919455255154
 20
1735.0361215683799
 30
0.0
 40
30.0
 50
90.0
 51
180.0
  0
ARC
  5
7E27
  8
1
 10
-5490.3919455255154
 20
1738.0361215683799
 30
0.0
 40
20.0
 50
90.0
 51
180.0
  0
LINE
  5
7E28
  8
1
 10
-5066.2252788588494
 20
1358.5361215683811
 30
0.0
 11
-5012.3919455255136
 21
1358.5361215683929
 31
0.0
  0
LINE
  5
7E29
  8
1
 10
-5030.2015884743232
 20
1381.5361215683811
 30
0.0
 11
-4984.2083714778864
 21
1381.5361215683811
 31
0.0
  0
LINE
  5
7E2A
  8
1
 10
-5086.8919455255154
 20
1617.0361215683799
 30
0.0
 11
-5086.8919455255154
 21
1665.0361215683779
 31
0.0
  0
LINE
  5
7E2B
  8
1
 10
-5186.8919455255136
 20
1616.0361215683799
 30
0.0
 11
-5186.8919455255136
 21
1666.0361215683799
 31
0.0
  0
LINE
  5
7E2C
  8
1
 10
-5196.8919455255136
 20
1704.0361215683799
 30
0.0
 11
-5196.8919455255136
 21
1641.0361215683799
 31
0.0
  0
LINE
  5
7E2D
  8
1
 10
-5273.3919455255136
 20
1806.0361215683799
 30
0.0
 11
-5273.3919455255136
 21
1641.0361215683799
 31
0.0
  0
LINE
  5
7E2E
  8
1
 10
-5339.3919455255136
 20
1735.0361215683799
 30
0.0
 11
-5339.3919455255136
 21
1573.33824556838
 31
0.0
  0
LINE
  5
7E2F
  8
1
 10
-5346.3919455255136
 20
1738.0361215683799
 30
0.0
 11
-5346.3919455255136
 21
1583.33824556838
 31
0.0
  0
LINE
  5
7E30
  8
1
 10
-5181.8919455255154
 20
1320.7389328161521
 30
0.0
 11
-5181.8919455255154
 21
1841.0361215683799
 31
0.0
  0
LINE
  5
7E31
  8
1
 10
-5041.8919455255154
 20
1320.7389328161521
 30
0.0
 11
-5041.8919455255154
 21
1841.0361215683799
 31
0.0
  0
LINE
  5
7E32
  8
1
 10
-5167.8919455255136
 20
1511.0361215683799
 30
0.0
 11
-5227.8919455255154
 21
1511.0361215683799
 31
0.0
  0
LINE
  5
7E33
  8
1
 10
-5218.3367695255147
 20
1502.1389045683809
 30
0.0
 11
-5241.5105975255155
 21
1478.9650765683809
 31
0.0
  0
LINE
  5
7E34
  8
1
 10
-5216.1233134068661
 20
1431.0361215683799
 30
0.0
 11
-5240.5803725535443
 21
1431.0361215683799
 31
0.0
  0
LINE
  5
7E35
  8
1
 10
-5233.8919455255136
 20
1449.0361215683799
 30
0.0
 11
-5233.8919455255136
 21
1411.0361215683811
 31
0.0
  0
LINE
  5
7E36
  8
1
 10
-5267.8919455255154
 20
1331.0361215683811
 30
0.0
 11
-5267.8919455255154
 21
1439.0361215683799
 31
0.0
  0
LINE
  5
7E37
  8
1
 10
-5287.8919455255136
 20
1439.0361215683799
 30
0.0
 11
-5287.8919455255136
 21
1331.0361215683811
 31
0.0
  0
LINE
  5
7E38
  8
2
 10
-5277.8919455255154
 20
1542.5023157417661
 30
0.0
 11
-5277.8919455255154
 21
1316.637617274343
 31
0.0
  0
LINE
  5
7E39
  8
1
 10
-5227.8919455255154
 20
1511.0361215683811
 30
0.0
 11
-5227.8919455255154
 21
1331.0361215683811
 31
0.0
  0
LINE
  5
7E3A
  8
1
 10
-5227.8919455255154
 20
1411.0361215683811
 30
0.0
 11
-5233.8919455255136
 21
1411.0361215683811
 31
0.0
  0
LINE
  5
7E3B
  8
1
 10
-5233.8919455255136
 20
1417.0361215683799
 30
0.0
 11
-5267.8919455255154
 21
1417.0361215683799
 31
0.0
  0
LINE
  5
7E3C
  8
1
 10
-5367.8919455255136
 20
1461.0361215683811
 30
0.0
 11
-5285.3919455255136
 21
1461.0361215683811
 31
0.0
  0
LINE
  5
7E3D
  8
1
 10
-5288.3919455255136
 20
1481.0361215683799
 30
0.0
 11
-5345.3919455255136
 21
1481.0361215683799
 31
0.0
  0
ARC
  5
7E3E
  8
1
 10
-5372.8919455255136
 20
1462.0361215683811
 30
0.0
 40
5.0
 50
0.0
 51
90.0
  0
LINE
  5
7E3F
  8
1
 10
-5367.8919455255136
 20
1462.0361215683811
 30
0.0
 11
-5367.8919455255136
 21
1461.0361215683811
 31
0.0
  0
LINE
  5
7E40
  8
1
 10
-5393.8329855255161
 20
1482.1047245683801
 30
0.0
 11
-5345.3919455255136
 21
1481.0361215683799
 31
0.0
  0
LINE
  5
7E41
  8
1
 10
-5413.3919455255136
 20
1502.099841568381
 30
0.0
 11
-5413.3919455255136
 21
1534.1149785683799
 31
0.0
  0
ARC
  5
7E42
  8
1
 10
-5393.3919455255154
 20
1502.099841568381
 30
0.0
 40
20.0
 50
180.0
 51
268.73642000000001
  0
ARC
  5
7E43
  8
1
 10
-5366.3919455255136
 20
1583.33824556838
 30
0.0
 40
20.0
 50
270.0
 51
0.0
  0
ARC
  5
7E44
  8
1
 10
-5369.3919455255154
 20
1573.33824556838
 30
0.0
 40
30.0
 50
270.0
 51
0.0
  0
LINE
  5
7E45
  8
1
 10
-5267.8919455255154
 20
1508.5361215683811
 30
0.0
 11
-5287.8919455255136
 21
1508.5361215683811
 31
0.0
  0
LINE
  5
7E46
  8
1
 10
-5307.8919455255154
 20
1485.1380495683809
 30
0.0
 11
-5307.8919455255154
 21
1457.2072635683801
 31
0.0
  0
LINE
  5
7E47
  8
1
 10
-5248.5816425255152
 20
1476.0361215683799
 30
0.0
 11
-5261.1154138522843
 21
1476.0361215683799
 31
0.0
  0
LINE
  5
7E48
  8
1
 10
-5287.8919455255136
 20
1482.7758920683809
 30
0.0
 11
-5288.3919455255136
 21
1481.0361215683799
 31
0.0
  0
ARC
  5
7E49
  8
1
 10
-5288.3919455255136
 20
1478.0361215683811
 30
0.0
 40
3.0
 50
80.405931773139471
 51
90.0
  0
ARC
  5
7E4A
  8
1
 10
-5248.5816425255152
 20
1486.0361215683811
 30
0.0
 40
10.0
 50
270.0
 51
315.0
  0
LINE
  5
7E4B
  8
1
 10
-5295.2124536012034
 20
1461.036121568382
 30
0.0
 11
-5260.5714374498257
 21
1461.036121568382
 31
0.0
  0
LINE
  5
7E4C
  8
1
 10
-5292.8919455255136
 20
1477.036121568382
 30
0.0
 11
-5262.8919455255136
 21
1477.036121568382
 31
0.0
  0
ARC
  5
7E4D
  8
1
 10
-5277.8919455255154
 20
1448.3758675305371
 30
0.0
 40
28.66025403784414
 50
72.412046226006169
 51
107.5879537739938
  0
LINE
  5
7E4E
  8
1
 10
-5286.552199563359
 20
1475.696375606226
 30
0.0
 11
-5286.552199563359
 21
1461.036121568382
 31
0.0
  0
LINE
  5
7E4F
  8
1
 10
-5295.2124536012034
 20
1475.696375606226
 30
0.0
 11
-5295.2124536012034
 21
1461.036121568382
 31
0.0
  0
ARC
  5
7E50
  8
1
 10
-5290.8823265822812
 20
1469.368653323113
 30
0.0
 40
7.6674682452691139
 50
55.615752531956161
 51
124.3842474680438
  0
LINE
  5
7E51
  8
1
 10
-5292.8919455255136
 20
1477.036121568382
 30
0.0
 11
-5295.2124536012034
 21
1475.696375606226
 31
0.0
  0
LINE
  5
7E52
  8
1
 10
-5260.5714374498257
 20
1475.696375606226
 30
0.0
 11
-5260.5714374498257
 21
1461.036121568382
 31
0.0
  0
LINE
  5
7E53
  8
1
 10
-5269.2316914876701
 20
1475.696375606226
 30
0.0
 11
-5269.2316914876701
 21
1461.036121568382
 31
0.0
  0
LINE
  5
7E54
  8
1
 10
-5277.8919455255154
 20
1484.0360734582539
 30
0.0
 11
-5277.8919455255154
 21
1454.2284128962251
 31
0.0
  0
ARC
  5
7E55
  8
1
 10
-5264.9015644687479
 20
1469.368653323113
 30
0.0
 40
7.6674682452691139
 50
55.615752531956161
 51
124.3842474680438
  0
LINE
  5
7E56
  8
1
 10
-5262.8919455255136
 20
1477.036121568382
 30
0.0
 11
-5260.5714374498257
 21
1475.696375606226
 31
0.0
  0
LINE
  5
7E57
  8
1
 10
-5260.5714374498257
 20
1455.0361215683799
 30
0.0
 11
-5295.2124536012034
 21
1455.0361215683799
 31
0.0
  0
LINE
  5
7E58
  8
1
 10
-5287.8919455255136
 20
1508.5361215683811
 30
0.0
 11
-5287.8919455255136
 21
1477.036121568382
 31
0.0
  0
LINE
  5
7E59
  8
1
 10
-5267.8919455255154
 20
1477.036121568382
 30
0.0
 11
-5267.8919455255154
 21
1508.5361215683811
 31
0.0
  0
LINE
  5
7E5A
  8
1
 10
-5273.3919455255136
 20
1508.5361215683811
 30
0.0
 11
-5273.3919455255136
 21
1641.0361215683799
 31
0.0
  0
LINE
  5
7E5B
  8
1
 10
-5262.8919455255136
 20
1439.0361215683799
 30
0.0
 11
-5292.8919455255136
 21
1439.0361215683799
 31
0.0
  0
ARC
  5
7E5C
  8
1
 10
-5277.8919455255154
 20
1467.696375606225
 30
0.0
 40
28.66025403784414
 50
252.41204622600611
 51
287.58795377399377
  0
ARC
  5
7E5D
  8
1
 10
-5264.9015644687479
 20
1446.7035898136489
 30
0.0
 40
7.6674682452691139
 50
235.6157525319561
 51
304.38424746804378
  0
LINE
  5
7E5E
  8
1
 10
-5262.8919455255136
 20
1439.0361215683799
 30
0.0
 11
-5260.5714374498257
 21
1440.375867530536
 31
0.0
  0
ARC
  5
7E5F
  8
1
 10
-5290.8823265822812
 20
1446.7035898136489
 30
0.0
 40
7.6674682452691139
 50
235.6157525319561
 51
304.38424746804378
  0
LINE
  5
7E60
  8
1
 10
-5292.8919455255136
 20
1439.0361215683799
 30
0.0
 11
-5295.2124536012034
 21
1440.375867530536
 31
0.0
  0
LINE
  5
7E61
  8
1
 10
-5269.2316914876701
 20
1440.375867530536
 30
0.0
 11
-5269.2316914876701
 21
1455.0361215683799
 31
0.0
  0
LINE
  5
7E62
  8
1
 10
-5260.5714374498257
 20
1440.375867530536
 30
0.0
 11
-5260.5714374498257
 21
1455.0361215683799
 31
0.0
  0
LINE
  5
7E63
  8
1
 10
-5295.2124536012034
 20
1440.375867530536
 30
0.0
 11
-5295.2124536012034
 21
1455.0361215683799
 31
0.0
  0
LINE
  5
7E64
  8
1
 10
-5286.552199563359
 20
1440.375867530536
 30
0.0
 11
-5286.552199563359
 21
1455.0361215683799
 31
0.0
  0
LINE
  5
7E65
  8
1
 10
-5277.8919455255154
 20
1432.0361696785069
 30
0.0
 11
-5277.8919455255154
 21
1461.843830240537
 31
0.0
  0
ARC
  5
7E66
  8
1
 10
-5239.8919455255136
 20
1449.0361215683799
 30
0.0
 40
6.0
 50
0.0
 51
90.0
  0
ARC
  5
7E67
  8
1
 10
-5239.8919455255136
 20
1449.0361215683799
 30
0.0
 40
12.0
 50
0.0
 51
90.0
  0
LINE
  5
7E68
  8
1
 10
-5047.8919455255136
 20
1331.0361215683811
 30
0.0
 11
-5167.8919455255136
 21
1511.0361215683799
 31
0.0
  0
LINE
  5
7E69
  8
1
 10
-5221.8919455255154
 20
1511.0361215683811
 30
0.0
 11
-5221.8919455255154
 21
1331.0361215683811
 31
0.0
  0
LINE
  5
7E6A
  8
1
 10
-5047.8919455255136
 20
1331.0361215683811
 30
0.0
 11
-5047.8919455255136
 21
1295.0361215683799
 31
0.0
  0
LINE
  5
7E6B
  8
1
 10
-5076.8919455255136
 20
1541.0361215683799
 30
0.0
 11
-5156.8919455255154
 21
1541.0361215683799
 31
0.0
  0
LINE
  5
7E6C
  8
1
 10
-5186.8919455255136
 20
1617.0361215683799
 30
0.0
 11
-5086.8919455255154
 21
1617.0361215683799
 31
0.0
  0
LINE
  5
7E6D
  8
1
 10
-5186.8919455255136
 20
1616.0361215683799
 30
0.0
 11
-5196.8919455255136
 21
1616.0361215683799
 31
0.0
  0
LINE
  5
7E6E
  8
1
 10
-5211.8919455255154
 20
1576.0361215683799
 30
0.0
 11
-5198.8919455255136
 21
1576.0361215683799
 31
0.0
  0
ARC
  5
7E6F
  8
1
 10
-5198.8919455255136
 20
1578.0361215683811
 30
0.0
 40
2.0
 50
270.0
 51
0.0
  0
LINE
  5
7E70
  8
1
 10
-5196.8919455255136
 20
1578.0361215683811
 30
0.0
 11
-5196.8919455255136
 21
1641.0361215683799
 31
0.0
  0
ARC
  5
7E71
  8
1
 10
-5225.4079365255147
 20
1509.2099495683799
 30
0.0
 40
10.00005399999999
 50
315.0004879999999
 51
357.00027499999999
  0
LINE
  5
7E72
  8
1
 10
-5211.8919455255154
 20
1576.0361215683799
 30
0.0
 11
-5215.4216085255157
 21
1508.686633568381
 31
0.0
  0
LINE
  5
7E73
  8
1
 10
-5218.3367695255147
 20
1779.9333375683809
 30
0.0
 11
-5241.5105975255155
 21
1803.1071665683801
 31
0.0
  0
ARC
  5
7E74
  8
1
 10
-5417.1569605255163
 20
1840.31523456838
 30
0.0
 40
3.0
 50
5.1944290000000004
 51
83.884827000000001
  0
ARC
  5
7E75
  8
1
 10
-5407.4335715255147
 20
1832.7659185683799
 30
0.0
 40
6.0
 50
125.603737
 51
185.19442699999999
  0
LINE
  5
7E76
  8
1
 10
-5414.1692895255137
 20
1840.586841568381
 30
0.0
 11
-5413.3919455255136
 21
1832.0361215683799
 31
0.0
  0
ARC
  5
7E77
  8
1
 10
-5369.3919455255154
 20
1735.0361215683799
 30
0.0
 40
30.0
 50
0.0
 51
90.0
  0
ARC
  5
7E78
  8
1
 10
-5366.3919455255136
 20
1738.0361215683799
 30
0.0
 40
20.0
 50
0.0
 51
90.0
  0
LINE
  5
7E79
  8
1
 10
-5291.4303975255152
 20
1818.0361215683799
 30
0.0
 11
-5308.3919455255154
 21
1832.0361215683799
 31
0.0
  0
LINE
  5
7E7A
  8
1
 10
-5248.5816425255152
 20
1806.0361215683799
 30
0.0
 11
-5273.3919455255136
 21
1806.0361215683799
 31
0.0
  0
LINE
  5
7E7B
  8
1
 10
-5291.4303975255152
 20
1818.0361215683799
 30
0.0
 11
-5283.3919455255154
 21
1788.0361215683799
 31
0.0
  0
LINE
  5
7E7C
  8
1
 10
-5278.3919455255136
 20
1788.0361215683799
 30
0.0
 11
-5273.3919455255136
 21
1788.0361215683799
 31
0.0
  0
LINE
  5
7E7D
  8
1
 10
-5283.3919455255154
 20
1788.0361215683799
 30
0.0
 11
-5278.3919455255136
 21
1788.0361215683799
 31
0.0
  0
LINE
  5
7E7E
  8
1
 10
-5278.3919455255136
 20
1788.0361215683799
 30
0.0
 11
-5283.3919455255154
 21
1788.0361215683799
 31
0.0
  0
ARC
  5
7E7F
  8
1
 10
-5248.5816425255152
 20
1796.0361215683799
 30
0.0
 40
9.9999679999999991
 50
45.0
 51
90.0
  0
LINE
  5
7E80
  8
1
 10
-5076.8919455255136
 20
1741.0361215683811
 30
0.0
 11
-5156.8919455255154
 21
1741.0361215683811
 31
0.0
  0
LINE
  5
7E81
  8
1
 10
-5041.8919455255154
 20
1841.0361215683799
 30
0.0
 11
-5181.8919455255154
 21
1841.0361215683799
 31
0.0
  0
LINE
  5
7E82
  8
1
 10
-5186.8919455255136
 20
1665.0361215683799
 30
0.0
 11
-5086.8919455255154
 21
1665.0361215683779
 31
0.0
  0
ARC
  5
7E83
  8
1
 10
-5225.4079365255147
 20
1772.8622925683801
 30
0.0
 40
10.000031
 50
2.9997379999999998
 51
44.999503999999988
  0
LINE
  5
7E84
  8
1
 10
-5211.8919455255154
 20
1706.0361215683799
 30
0.0
 11
-5198.8919455255136
 21
1706.0361215683799
 31
0.0
  0
ARC
  5
7E85
  8
1
 10
-5198.8919455255136
 20
1704.0361215683799
 30
0.0
 40
2.0
 50
0.0
 51
90.0
  0
LINE
  5
7E86
  8
1
 10
-5211.8919455255154
 20
1706.0361215683799
 30
0.0
 11
-5215.4216085255157
 21
1773.385608568381
 31
0.0
  0
LINE
  5
7E87
  8
1
 10
-5186.8919455255136
 20
1666.0361215683799
 30
0.0
 11
-5196.8919455255136
 21
1666.0361215683799
 31
0.0
  0
LINE
  5
7E88
  8
1
 10
-4997.3919455255154
 20
1358.0361215683799
 30
0.0
 11
-4960.8919455255136
 21
1358.0361215683799
 31
0.0
  0
LINE
  5
7E89
  8
1
 10
-4957.8919455255136
 20
1354.0361215683799
 30
0.0
 11
-4957.8919455255136
 21
1355.0361215683811
 31
0.0
  0
ARC
  5
7E8A
  8
1
 10
-4960.8919455255136
 20
1355.0361215683811
 30
0.0
 40
3.0
 50
0.0
 51
90.0
  0
LINE
  5
7E8B
  8
1
 10
-5012.3919455255136
 20
1404.0361215683811
 30
0.0
 11
-5007.8919455255136
 21
1404.0361215683799
 31
0.0
  0
LINE
  5
7E8C
  8
1
 10
-5007.8919455255136
 20
1404.0361215683799
 30
0.0
 11
-5006.8919455255154
 21
1404.0361215683799
 31
0.0
  0
ARC
  5
7E8D
  8
1
 10
-5006.8919455255154
 20
1401.0361215683799
 30
0.0
 40
3.0
 50
0.0000000000003053
 51
90.0
  0
LINE
  5
7E8E
  8
1
 10
-5007.8919455255136
 20
1354.0361215683799
 30
0.0
 11
-5007.8919455255136
 21
1404.0361215683799
 31
0.0
  0
ARC
  5
7E8F
  8
1
 10
-4997.3919455255154
 20
1364.5361215683799
 30
0.0
 40
6.5
 50
180.0
 51
270.0
  0
LINE
  5
7E91
  8
1
 10
-3820.245609589399
 20
430.88247516659402
 30
0.0
 11
-3720.245609589399
 21
760.71498341661038
 31
0.0
  0
LINE
  5
7E92
  8
1
 10
-3827.9014777753318
 20
433.20361331836477
 30
0.0
 11
-3727.9014777753318
 21
763.03612156838119
 31
0.0
  0
LINE
  5
7E94
  8
1
 10
-3827.9014777753318
 20
433.20361331836477
 30
0.0
 11
-3820.245609589399
 21
430.88247516659402
 31
0.0
  0
LINE
  5
7E95
  8
1
 10
-3935.776264952463
 20
1181.466488541023
 30
0.0
 11
-3730.2123807281041
 21
1003.344368907906
 31
0.0
  0
LINE
  5
7E96
  8
1
 10
-3933.6807106038368
 20
1183.8848871789569
 30
0.0
 11
-3728.0998543251212
 21
1005.748061177023
 31
0.0
  0
LINE
  5
7E97
  8
1
 10
-4052.8121987157988
 20
925.19354070502345
 30
0.0
 11
-3783.5807665241859
 21
886.48390469469007
 31
0.0
  0
LINE
  5
7E98
  8
1
 10
-3770.604373826392
 20
936.14262564383193
 30
0.0
 11
-4049.5698148753281
 21
944.93302081872412
 31
0.0
  0
LINE
  5
7E99
  8
1
 10
-4052.3567912333242
 20
928.36096931904217
 30
0.0
 11
-3783.1031303777631
 21
889.64813730932849
 31
0.0
  0
LINE
  5
7E9A
  8
1
 10
-3727.9014777753318
 20
763.03612156838119
 30
0.0
 11
-3720.245609589399
 21
760.71498341661038
 31
0.0
  0
LINE
  5
7E9B
  8
1
 10
-3757.9014777753332
 20
1631.0361215683799
 30
0.0
 11
-3757.9014777753332
 21
1748.0550415683799
 31
0.0
  0
LINE
  5
7E9C
  8
1
 10
-3747.9014777753318
 20
1751.0361215683799
 30
0.0
 11
-3747.9014777753318
 21
1631.0361215683799
 31
0.0
  0
ARC
  5
7E9D
  8
1
 10
-2889.5305067753329
 20
1627.5673715683799
 30
0.0
 40
1000.0
 50
174.84371899999991
 51
184.269531
  0
LINE
  5
7E9E
  8
1
 10
-3770.3163947753328
 20
1761.8608285683799
 30
0.0
 11
-3889.1874277753318
 21
1541.929797568381
 31
0.0
  0
LINE
  5
7E9F
  8
1
 10
-3767.149402775332
 20
1760.149036568381
 30
0.0
 11
-3886.0204357753341
 21
1540.2180055683809
 31
0.0
  0
LINE
  5
7EA0
  8
1
 10
-3737.3129767753321
 20
1841.0361215683799
 30
0.0
 11
-3737.3129767753321
 21
1320.7389328161521
 31
0.0
  0
LINE
  5
7EA1
  8
1
 10
-3770.4014777753332
 20
1471.0361215683799
 30
0.0
 11
-3770.4014777753332
 21
1391.0361215683799
 31
0.0
  0
LINE
  5
7EA2
  8
1
 10
-3785.4014777753318
 20
1471.0361215683799
 30
0.0
 11
-3785.4014777753318
 21
1391.0361215683799
 31
0.0
  0
LINE
  5
7EA3
  8
1
 10
-3777.9014777753318
 20
1374.2672906203479
 30
0.0
 11
-3777.9014777753318
 21
1487.8049525164131
 31
0.0
  0
LINE
  5
7EA4
  8
1
 10
-3747.9014777753318
 20
1370.1756375909381
 30
0.0
 11
-3747.9014777753318
 21
1511.0361215683799
 31
0.0
  0
LINE
  5
7EA5
  8
1
 10
-3797.9014777753332
 20
1348.9098428347249
 30
0.0
 11
-3797.9014777753332
 21
1511.0361215683799
 31
0.0
  0
LINE
  5
7EA6
  8
1
 10
-3753.9014777753332
 20
1367.927160602921
 30
0.0
 11
-3753.9014777753332
 21
1511.0361215683799
 31
0.0
  0
ARC
  5
7EA7
  8
1
 10
-3777.9014777753318
 20
1391.0361215683799
 30
0.0
 40
7.5
 50
180.0
 51
0.0
  0
LINE
  5
7EA8
  8
1
 10
-3880.1733287753318
 20
1551.0361215683799
 30
0.0
 11
-3776.7292977753332
 21
1551.0361215683799
 31
0.0
  0
ARC
  5
7EA9
  8
1
 10
-3888.3076667753339
 20
1541.454211568381
 30
0.0
 40
0.999915
 50
151.60498000000001
 51
241.60781899999989
  0
ARC
  5
7EAA
  8
1
 10
-3886.9001967753338
 20
1540.6934695683799
 30
0.0
 40
0.999915
 50
241.6049799999999
 51
331.60781900000001
  0
LINE
  5
7EAB
  8
1
 10
-3887.375781775334
 20
1539.81370856838
 30
0.0
 11
-3888.7832527753321
 21
1540.5745735683799
 31
0.0
  0
LINE
  5
7EAC
  8
1
 10
-3883.957080775333
 20
1551.6066775683801
 30
0.0
 11
-3886.7554207753328
 21
1553.119128568381
 31
0.0
  0
LINE
  5
7EAD
  8
1
 10
-3827.9014777753318
 20
1568.4305305683799
 30
0.0
 11
-3827.9014777753318
 21
1529.43651156838
 31
0.0
  0
LINE
  5
7EAE
  8
1
 10
-3757.9014777753332
 20
1631.0361215683799
 30
0.0
 11
-3742.6310927753329
 21
1631.0361215683799
 31
0.0
  0
LINE
  5
7EAF
  8
1
 10
-3719.9014777753318
 20
1536.2951545683809
 30
0.0
 11
-3713.5175057753331
 21
1540.9929085683809
 31
0.0
  0
ARC
  5
7EB0
  8
1
 10
-3776.729236775333
 20
1561.0361215683799
 30
0.0
 40
9.9999520000000004
 50
270.0
 51
352.87489299999999
  0
ARC
  5
7EB1
  8
1
 10
-3777.9014777753318
 20
1471.0361215683799
 30
0.0
 40
7.5
 50
0.0
 51
180.0
  0
ARC
  5
7EB2
  8
1
 10
-3716.9014777753318
 20
1478.0361215683811
 30
0.0
 40
3.0
 50
90.0
 51
180.0
  0
LINE
  5
7EB3
  8
1
 10
-3719.9014777753318
 20
1536.2951545683809
 30
0.0
 11
-3719.9014777753318
 21
1461.0361215683811
 31
0.0
  0
LINE
  5
7EB4
  8
1
 10
-3757.9014777753332
 20
1631.0361215683799
 30
0.0
 11
-3766.8065077753322
 21
1559.7957645683809
 31
0.0
  0
LINE
  5
7EB5
  8
1
 10
-3747.9014777753318
 20
1511.0361215683799
 30
0.0
 11
-3797.9014777753332
 21
1511.0361215683799
 31
0.0
  0
LINE
  5
7EB6
  8
1
 10
-3772.0375867753341
 20
1758.67650156838
 30
0.0
 11
-3848.2206917753329
 21
1753.7619515683809
 31
0.0
  0
ARC
  5
7EB7
  8
1
 10
-3845.6457407753328
 20
1713.84495856838
 30
0.0
 40
40.0
 50
93.690903000000006
 51
174.84380100000001
  0
ARC
  5
7EB8
  8
1
 10
-3762.9013557753328
 20
1748.0550415683799
 30
0.0
 40
4.9998969999999989
 50
0.0
 51
61.609809999999989
  0
LINE
  5
7EB9
  8
1
 10
-3768.870471775334
 20
1756.96483256838
 30
0.0
 11
-3760.5240367753322
 21
1752.45360156838
 31
0.0
  0
ARC
  5
7EBA
  8
1
 10
-3768.029163775333
 20
1760.6244995683801
 30
0.0
 40
1.0000219999999991
 50
331.61114500000002
 51
61.611136999999999
  0
ARC
  5
7EBB
  8
1
 10
-3769.436756775332
 20
1761.3853645683801
 30
0.0
 40
0.999915
 50
61.604987999999992
 51
151.60781299999999
  0
LINE
  5
7EBC
  8
1
 10
-3768.9611707753329
 20
1762.2650025683799
 30
0.0
 11
-3767.5536997753329
 21
1761.50426056838
 31
0.0
  0
LINE
  5
7EBD
  8
1
 10
-3733.8815807753322
 20
1691.0361215683799
 30
0.0
 11
-3775.1955457753338
 21
1691.0361215683799
 31
0.0
  0
LINE
  5
7EBE
  8
1
 10
-3758.887348775334
 20
1751.0361215683799
 30
0.0
 11
-3706.6462287753329
 21
1751.0361215683799
 31
0.0
  0
LINE
  5
7EBF
  8
1
 10
-3446.3599212718009
 20
1052.8890349812079
 30
0.0
 11
-3397.958078018371
 21
1327.764006407541
 31
0.0
  0
LINE
  5
7EC0
  8
1
 10
-3698.7677561960481
 20
1333.7826083756299
 30
0.0
 11
-3622.1365007351801
 21
1072.800519552487
 31
0.0
  0
LINE
  5
7EC1
  8
1
 10
-3571.5747509701869
 20
1081.6257557790341
 30
0.0
 11
-3679.4651585877141
 21
1339.0333086811991
 31
0.0
  0
LINE
  5
7EC2
  8
1
 10
-3695.6973786804811
 20
1334.6841525575221
 30
0.0
 11
-3619.059796282183
 21
1073.6805161643149
 31
0.0
  0
LINE
  5
7EC3
  8
1
 10
-3413.9648218390512
 20
1332.8810641937371
 30
0.0
 11
-3490.6024042373501
 21
1071.8774278005289
 31
0.0
  0
LINE
  5
7EC4
  8
1
 10
-3417.0351993546169
 20
1333.782608375629
 30
0.0
 11
-3493.6664548154881
 21
1072.800519552487
 31
0.0
  0
LINE
  5
7EC5
  8
1
 10
-3457.933773918885
 20
1643.577417629371
 30
0.0
 11
-3437.9402331475958
 21
857.08567684157026
 31
0.0
  0
LINE
  5
7EC6
  8
1
 10
-3657.8691816317801
 20
1643.577417629371
 30
0.0
 11
-3677.8627224030688
 21
857.08567684157026
 31
0.0
  0
LINE
  5
7EC7
  8
2
 10
-3557.9014777753332
 20
79.484444975776796
 30
0.0
 11
-3557.9014777753332
 21
1940.4087302645939
 31
0.0
  0
LINE
  5
7EC9
  8
1
 10
-3180.0266905982039
 20
1181.466488541023
 30
0.0
 11
-3385.5905748225609
 21
1003.344368907906
 31
0.0
  0
LINE
  5
7ECA
  8
1
 10
-3062.9907568348658
 20
925.19354070502345
 30
0.0
 11
-3332.22218902648
 21
886.48390469468973
 31
0.0
  0
LINE
  5
7ECB
  8
1
 10
-3330.6824682203978
 20
835.18083857197701
 30
0.0
 11
-3060.5405471444078
 21
905.34016314348639
 31
0.0
  0
LINE
  5
7ECC
  8
1
 10
-3062.5353493523921
 20
922.02611209100428
 30
0.0
 11
-3331.7890102079532
 21
883.3132800812906
 31
0.0
  0
LINE
  5
7ECD
  8
1
 10
-3356.5587476483101
 20
961.01791920235632
 30
0.0
 11
-3167.2318967658039
 21
1166.0894478987359
 31
0.0
  0
LINE
  5
7ECE
  8
1
 10
-3177.9311362495791
 20
1179.048089903089
 30
0.0
 11
-3383.5119925282938
 21
1000.911263901156
 31
0.0
  0
LINE
  5
7ECF
  8
1
 10
-3287.9014777753318
 20
433.20361331836477
 30
0.0
 11
-3387.9014777753318
 21
763.03612156838119
 31
0.0
  0
LINE
  5
7ED0
  8
1
 10
-3295.5573459612651
 20
430.88247516659402
 30
0.0
 11
-3395.557345961266
 21
760.71498341661038
 31
0.0
  0
CIRCLE
  5
7ED1
  8
1
 10
-3557.9014777753332
 20
854.03612156838085
 30
0.0
 40
120.0
  0
LINE
  5
7ED2
  8
1
 10
-3495.4014777753332
 20
782.03612156838085
 30
0.0
 11
-3620.4014777753332
 21
782.03612156838085
 31
0.0
  0
ARC
  5
7ED3
  8
1
 10
-3557.9014777753332
 20
854.03612156838085
 30
0.0
 40
68.0
 50
5.6692599840288924
 51
174.33074001597109
  0
LINE
  5
7ED4
  8
1
 10
-3702.9014777753318
 20
773.03612156838085
 30
0.0
 11
-3412.9014777753318
 21
773.03612156838085
 31
0.0
  0
LINE
  5
7ED5
  8
1
 10
-3412.9014777753318
 20
779.03612156838085
 30
0.0
 11
-3702.9014777753318
 21
779.03612156838085
 31
0.0
  0
ARC
  5
7ED6
  8
1
 10
-3630.4014777753332
 20
796.3472573161323
 30
0.0
 40
10.0
 50
0.0
 51
93.814074834290381
  0
LINE
  5
7ED7
  8
1
 10
-3629.2983691215431
 20
823.1848615573092
 30
0.0
 11
-3625.5688702750649
 21
860.75356098285863
 31
0.0
  0
LINE
  5
7ED8
  8
1
 10
-3620.4014777753332
 20
779.03612156838085
 30
0.0
 11
-3620.4014777753332
 21
796.3472573161323
 31
0.0
  0
LINE
  5
7ED9
  8
1
 10
-3690.4014777753318
 20
802.36945490171411
 30
0.0
 11
-3690.4014777753318
 21
807.03612156838085
 31
0.0
  0
ARC
  5
7EDA
  8
1
 10
-3690.4014777753318
 20
797.35835610892332
 30
0.0
 40
5.0
 50
93.814074834290381
 51
180.0
  0
LINE
  5
7EDB
  8
1
 10
-3695.4014777753332
 20
779.03612156838085
 30
0.0
 11
-3695.4014777753332
 21
797.35835610892332
 31
0.0
  0
LINE
  5
7EDC
  8
1
 10
-3640.7445371394929
 20
807.03612156838085
 30
0.0
 11
-3690.4014777753318
 21
807.03612156838085
 31
0.0
  0
ARC
  5
7EDD
  8
1
 10
-3649.2005433861682
 20
825.16057903215574
 30
0.0
 40
20.0
 50
273.8140748342903
 51
354.330740015971
  0
LINE
  5
7EDE
  8
1
 10
-3631.0666678805701
 20
806.32510889469836
 30
0.0
 11
-3690.7340728279519
 21
802.34728189820635
 31
0.0
  0
LINE
  5
7EDF
  8
1
 10
-3663.9014777753332
 20
767.38240258176711
 30
0.0
 11
-3663.9014777753332
 21
827.382402581767
 31
0.0
  0
LINE
  5
7EE0
  8
1
 10
-3702.9014777753318
 20
779.03612156838085
 30
0.0
 11
-3702.9014777753318
 21
773.03612156838085
 31
0.0
  0
LINE
  5
7EE1
  8
1
 10
-3553.9534829025988
 20
922.03612156838085
 30
0.0
 11
-3553.9534829025988
 21
935.9655587924949
 31
0.0
  0
LINE
  5
7EE2
  8
1
 10
-3561.8494726480671
 20
935.9655587924949
 30
0.0
 11
-3561.8494726480671
 21
922.03612156838085
 31
0.0
  0
LINE
  5
7EE3
  8
1
 10
-3561.8494726480671
 20
922.03612156838085
 30
0.0
 11
-3553.9534829025988
 21
922.03612156838085
 31
0.0
  0
LINE
  5
7EE4
  8
1
 10
-3553.9534829025988
 20
935.9655587924949
 30
0.0
 11
-3561.8494726480671
 21
935.9655587924949
 31
0.0
  0
POINT
  5
7EE5
  8
1
 10
-3557.9014777753332
 20
854.03612156838085
 30
0.0
  0
POINT
  5
7EE6
  8
1
 10
-3557.9014777753332
 20
854.03612156838085
 30
0.0
  0
POINT
  5
7EE7
  8
1
 10
-3557.9014777753332
 20
854.03612156838085
 30
0.0
  0
CIRCLE
  5
7EE8
  8
1
 10
-3557.9014777753332
 20
854.03612156838085
 30
0.0
 40
25.0
  0
CIRCLE
  5
7EE9
  8
1
 10
-3557.9014777753332
 20
854.03612156838085
 30
0.0
 40
40.0
  0
LINE
  5
7EEA
  8
1
 10
-3425.4014777753318
 20
802.36945490171411
 30
0.0
 11
-3425.4014777753318
 21
807.03612156838085
 31
0.0
  0
ARC
  5
7EEB
  8
1
 10
-3425.4014777753318
 20
797.35835610892332
 30
0.0
 40
5.0
 50
0.0
 51
86.185925165709605
  0
LINE
  5
7EEC
  8
1
 10
-3420.4014777753332
 20
779.03612156838085
 30
0.0
 11
-3420.4014777753332
 21
797.35835610892332
 31
0.0
  0
LINE
  5
7EED
  8
1
 10
-3412.9014777753318
 20
773.03612156838085
 30
0.0
 11
-3412.9014777753318
 21
779.03612156838085
 31
0.0
  0
LINE
  5
7EEE
  8
1
 10
-3451.9014777753318
 20
767.38240258176711
 30
0.0
 11
-3451.9014777753318
 21
827.382402581767
 31
0.0
  0
ARC
  5
7EEF
  8
1
 10
-3485.4014777753332
 20
796.3472573161323
 30
0.0
 40
10.0
 50
86.185925165709605
 51
180.0
  0
LINE
  5
7EF0
  8
1
 10
-3486.5045864291228
 20
823.1848615573092
 30
0.0
 11
-3490.2340852756001
 21
860.75356098285863
 31
0.0
  0
LINE
  5
7EF1
  8
1
 10
-3495.4014777753332
 20
779.03612156838085
 30
0.0
 11
-3495.4014777753332
 21
796.3472573161323
 31
0.0
  0
ARC
  5
7EF2
  8
1
 10
-3466.6024121644959
 20
825.16057903215574
 30
0.0
 40
20.0
 50
185.66925998402891
 51
266.18592516570959
  0
LINE
  5
7EF3
  8
1
 10
-3475.0584184111722
 20
807.03612156838085
 30
0.0
 11
-3425.4014777753318
 21
807.03612156838085
 31
0.0
  0
LINE
  5
7EF4
  8
1
 10
-3484.736287670095
 20
806.32510889469836
 30
0.0
 11
-3425.068882722715
 21
802.34728189820635
 31
0.0
  0
LINE
  5
7EF5
  8
1
 10
-3387.9014777753318
 20
763.03612156838119
 30
0.0
 11
-3395.557345961266
 21
760.71498341661038
 31
0.0
  0
LINE
  5
7EF6
  8
1
 10
-3287.9014777753318
 20
433.20361331836477
 30
0.0
 11
-3295.5573459612651
 21
430.88247516659402
 31
0.0
  0
POINT
  5
7EF8
  8
1
 10
-2982.9014777753332
 20
854.03612156838085
 30
0.0
  0
CIRCLE
  5
7EF9
  8
1
 10
-3557.9014777753332
 20
1641.0361215683799
 30
0.0
 40
100.0
  0
LINE
  5
7EFA
  8
1
 10
-3378.4899787753329
 20
1841.0361215683799
 30
0.0
 11
-3378.4899787753329
 21
1320.7389328161521
 31
0.0
  0
LINE
  5
7EFB
  8
1
 10
-3614.9014777753332
 20
1465.0361215683799
 30
0.0
 11
-3500.9014777753318
 21
1465.0361215683799
 31
0.0
  0
LINE
  5
7EFC
  8
1
 10
-3697.4014777753318
 20
1485.176868568381
 30
0.0
 11
-3697.4014777753318
 21
1456.814075568381
 31
0.0
  0
LINE
  5
7EFD
  8
1
 10
-3660.4014777753318
 20
1466.1846805683811
 30
0.0
 11
-3650.8947637753331
 21
1481.1072885683809
 31
0.0
  0
LINE
  5
7EFE
  8
1
 10
-3660.4014777753318
 20
1478.0361215683811
 30
0.0
 11
-3660.4014777753318
 21
1461.0361215683811
 31
0.0
  0
LINE
  5
7EFF
  8
1
 10
-3668.7253907753329
 20
1481.0361215683799
 30
0.0
 11
-3663.545642775332
 21
1489.16673656838
 31
0.0
  0
ARC
  5
7F00
  8
1
 10
-3663.4014777753318
 20
1478.0361215683811
 30
0.0
 40
3.0
 50
0.0
 51
90.0
  0
LINE
  5
7F01
  8
1
 10
-3330.4014777753332
 20
1471.0361215683799
 30
0.0
 11
-3330.4014777753332
 21
1391.0361215683799
 31
0.0
  0
LINE
  5
7F02
  8
1
 10
-3345.4014777753318
 20
1471.0361215683799
 30
0.0
 11
-3345.4014777753318
 21
1391.0361215683799
 31
0.0
  0
LINE
  5
7F03
  8
1
 10
-3337.9014777753318
 20
1374.2672906203479
 30
0.0
 11
-3337.9014777753318
 21
1487.8049525164131
 31
0.0
  0
LINE
  5
7F04
  8
1
 10
-3367.9014777753332
 20
1370.1756375909381
 30
0.0
 11
-3367.9014777753332
 21
1511.0361215683799
 31
0.0
  0
LINE
  5
7F05
  8
1
 10
-3361.9014777753332
 20
1367.927160602921
 30
0.0
 11
-3361.9014777753332
 21
1511.0361215683799
 31
0.0
  0
LINE
  5
7F06
  8
1
 10
-3317.9014777753332
 20
1348.9098428347261
 30
0.0
 11
-3317.9014777753332
 21
1511.0361215683799
 31
0.0
  0
ARC
  5
7F07
  8
1
 10
-3337.9014777753318
 20
1391.0361215683799
 30
0.0
 40
7.5
 50
180.0
 51
0.0
  0
LINE
  5
7F08
  8
1
 10
-3395.9014777753318
 20
1536.2951545683809
 30
0.0
 11
-3402.2853887753331
 21
1540.9929085683809
 31
0.0
  0
LINE
  5
7F09
  8
1
 10
-3455.4014777753332
 20
1461.0361215683811
 30
0.0
 11
-3395.9014777753318
 21
1461.0361215683811
 31
0.0
  0
ARC
  5
7F0A
  8
1
 10
-3398.9014777753318
 20
1478.0361215683811
 30
0.0
 40
3.0
 50
0.0
 51
90.0
  0
LINE
  5
7F0B
  8
1
 10
-3455.4014777753332
 20
1466.1846805683811
 30
0.0
 11
-3464.9081917753329
 21
1481.1072885683809
 31
0.0
  0
LINE
  5
7F0C
  8
1
 10
-3418.4014777753318
 20
1485.176868568381
 30
0.0
 11
-3418.4014777753318
 21
1456.814075568381
 31
0.0
  0
LINE
  5
7F0D
  8
1
 10
-3455.4014777753332
 20
1478.0361215683811
 30
0.0
 11
-3455.4014777753332
 21
1461.0361215683811
 31
0.0
  0
LINE
  5
7F0E
  8
1
 10
-3452.4014777753332
 20
1481.0361215683799
 30
0.0
 11
-3398.9014777753318
 21
1481.0361215683799
 31
0.0
  0
LINE
  5
7F0F
  8
1
 10
-3447.0775637753318
 20
1481.0361215683799
 30
0.0
 11
-3452.257312775333
 21
1489.16673656838
 31
0.0
  0
ARC
  5
7F10
  8
1
 10
-3452.4014777753332
 20
1478.0361215683811
 30
0.0
 40
3.0
 50
90.0
 51
180.0
  0
LINE
  5
7F11
  8
1
 10
-3367.9014777753332
 20
1511.0361215683799
 30
0.0
 11
-3317.9014777753332
 21
1511.0361215683799
 31
0.0
  0
ARC
  5
7F12
  8
1
 10
-3337.9014777753318
 20
1471.0361215683799
 30
0.0
 40
7.5
 50
0.0
 51
180.0
  0
LINE
  5
7F13
  8
1
 10
-3395.9014777753318
 20
1536.2951545683809
 30
0.0
 11
-3395.9014777753318
 21
1461.0361215683811
 31
0.0
  0
LINE
  5
7F14
  8
1
 10
-3551.6514777753332
 20
1885.7861215683799
 30
0.0
 11
-3551.6514777753332
 21
1837.75694656838
 31
0.0
  0
LINE
  5
7F15
  8
1
 10
-3564.1514777753318
 20
1885.7861215683799
 30
0.0
 11
-3564.1514777753318
 21
1837.4687385683801
 31
0.0
  0
ARC
  5
7F16
  8
1
 10
-3546.6665077753328
 20
1840.31523456838
 30
0.0
 40
3.0
 50
5.1944030000000003
 51
83.884536999999995
  0
LINE
  5
7F17
  8
1
 10
-3551.6514777753332
 20
1843.8665045683799
 30
0.0
 11
-3546.3469117753339
 21
1843.298145568381
 31
0.0
  0
LINE
  5
7F18
  8
1
 10
-3539.4014777753318
 20
1832.0361215683799
 30
0.0
 11
-3539.4014777753318
 21
1825.1087525683799
 31
0.0
  0
LINE
  5
7F19
  8
1
 10
-3549.0693847753332
 20
1825.8251835683809
 30
0.0
 11
-3548.719043775332
 21
1828.9739875683799
 31
0.0
  0
LINE
  5
7F1A
  8
1
 10
-3542.5382567753331
 20
1825.3970835683799
 30
0.0
 11
-3542.4745977753341
 21
1828.5646855683799
 31
0.0
  0
ARC
  5
7F1B
  8
1
 10
-3545.737414775333
 20
1828.6422005683801
 30
0.0
 40
2.9999380000000002
 50
86.290451000000004
 51
173.650406
  0
ARC
  5
7F1C
  8
1
 10
-3557.9014777753332
 20
1641.0361215683799
 30
0.0
 40
191.00003100000001
 50
86.209778
 51
86.290237000000005
  0
ARC
  5
7F1D
  8
1
 10
-3545.4739867753319
 20
1828.62486656838
 30
0.0
 40
2.999992999999999
 50
358.85055499999987
 51
86.210021999999995
  0
LINE
  5
7F1E
  8
1
 10
-3543.678820775332
 20
1840.586841568381
 30
0.0
 11
-3542.9014777753332
 21
1832.0361215683799
 31
0.0
  0
ARC
  5
7F1F
  8
1
 10
-3569.1364477753318
 20
1840.31523456838
 30
0.0
 40
3.0
 50
96.115463000000005
 51
174.80560299999991
  0
LINE
  5
7F20
  8
1
 10
-3564.1514777753318
 20
1843.8665045683799
 30
0.0
 11
-3569.4560427753331
 21
1843.298145568381
 31
0.0
  0
LINE
  5
7F21
  8
1
 10
-3576.4014777753332
 20
1832.0361215683799
 30
0.0
 11
-3576.4014777753332
 21
1825.1087525683799
 31
0.0
  0
LINE
  5
7F22
  8
1
 10
-3566.7335697753329
 20
1825.8251835683809
 30
0.0
 11
-3567.083911775333
 21
1828.9739875683799
 31
0.0
  0
LINE
  5
7F23
  8
1
 10
-3573.2646977753338
 20
1825.3970835683799
 30
0.0
 11
-3573.3283577753341
 21
1828.5646855683799
 31
0.0
  0
ARC
  5
7F24
  8
1
 10
-3570.065539775333
 20
1828.6422005683801
 30
0.0
 40
3.000032
 50
6.349588999999999
 51
93.709548999999996
  0
ARC
  5
7F25
  8
1
 10
-3557.9014777753332
 20
1641.0361215683799
 30
0.0
 40
190.999954
 50
93.709762999999995
 51
93.790221999999986
  0
ARC
  5
7F26
  8
1
 10
-3570.3289677753319
 20
1828.62486656838
 30
0.0
 40
3.000090999999999
 50
93.789963
 51
181.1494449999999
  0
LINE
  5
7F27
  8
1
 10
-3572.1241337753322
 20
1840.586841568381
 30
0.0
 11
-3572.9014777753318
 21
1832.0361215683799
 31
0.0
  0
ARC
  5
7F28
  8
1
 10
-3567.1514777753332
 20
1837.4687385683801
 30
0.0
 40
3.0
 50
270.0
 51
0.0
  0
LINE
  5
7F29
  8
1
 10
-3576.4014777753332
 20
1832.0361215683799
 30
0.0
 11
-3539.4014777753318
 21
1832.0361215683799
 31
0.0
  0
ARC
  5
7F2A
  8
1
 10
-3548.6514777753332
 20
1837.75694656838
 30
0.0
 40
3.0
 50
180.0
 51
270.0
  0
ARC
  5
7F2B
  8
1
 10
-3557.9014777753332
 20
1885.7861215683799
 30
0.0
 40
6.25
 50
0.0
 51
180.0
  0
LINE
  5
7F40
  8
1
 10
-5567.8919455255154
 20
1358.5361215683811
 30
0.0
 11
-5287.8919455255154
 21
1358.5361215683811
 31
0.0
  0
LINE
  5
7F41
  8
1
 10
-5267.8919455255154
 20
1358.5361215683811
 30
0.0
 11
-5227.8919455255154
 21
1358.5361215683811
 31
0.0
  0
DIMENSION
  5
7F43
  8
3
  2
*D1
 10
-5007.8919455255136
 20
2318.6617901374188
 30
0.0
 11
-5412.8919455255136
 21
2358.6617901374188
 31
0.0
 70
     0
 13
-5817.8919455255154
 23
1404.0361215683799
 33
0.0
 14
-5007.8919455255136
 24
1404.0361215683799
 34
0.0
1001
ACAD
1000
DSTYLE
1002
{
1070
    40
1040
20.0
1070
    42
1040
0.5
1070
   271
1070
     0
1002
}
  0
LINE
  5
7F44
  8
1
 10
-5867.8919455255136
 20
1354.0361215683799
 30
0.0
 11
-5817.8919455255154
 21
1354.0361215683799
 31
0.0
  0
LINE
  5
7F45
  8
1
 10
-5867.8919455255136
 20
354.03612156838079
 30
0.0
 11
-5817.8919455255154
 21
354.03612156838079
 31
0.0
  0
LINE
  5
7F46
  8
1
 10
-5007.8919455255136
 20
354.03612156838091
 30
0.0
 11
-4957.8919455255136
 21
354.03612156838091
 31
0.0
  0
LINE
  5
7F47
  8
1
 10
-5007.8919455255136
 20
1354.0361215683799
 30
0.0
 11
-4957.8919455255136
 21
1354.0361215683799
 31
0.0
  0
DIMENSION
  5
7F48
  8
3
  2
*D2
 10
-6024.2022918753482
 20
354.03612156838079
 30
0.0
 11
-6064.2022918753482
 21
854.03612156838051
 31
0.0
 12
-8065.0471193488866
 22
-433.4916590559223
 32
0.0
 70
     0
 13
-5867.8919455255136
 23
1354.0361215683799
 33
0.0
 14
-5867.8919455255136
 24
354.03612156838079
 34
0.0
 50
90.0
1001
ACAD
1000
DSTYLE
1002
{
1070
    40
1040
20.0
1070
     3
1000
φ<>
1070
    42
1040
0.5
1070
   271
1070
     0
1002
}
  0
DIMENSION
  5
7F49
  8
3
  2
*D3
 10
-4781.8228608769768
 20
354.03612156838091
 30
0.0
 11
-4821.8228608769768
 21
854.03612156838085
 31
0.0
 12
-8065.0471193488866
 22
-433.4916590559223
 32
0.0
 70
     0
 13
-4957.8919455255136
 23
1354.0361215683799
 33
0.0
 14
-4957.8919455255136
 24
354.03612156838091
 34
0.0
 50
90.0
1001
ACAD
1000
DSTYLE
1002
{
1070
    40
1040
20.0
1070
     3
1000
φ<>
1070
    42
1040
0.5
1070
   271
1070
     0
1002
}
  0
DIMENSION
  5
7F4D
  8
3
  2
*D4
 10
-4364.2753381102857
 20
1892.0361215683811
 30
0.0
 11
-4414.2753381102857
 21
1373.0361215683799
 31
0.0
 70
     0
  1
MAX1180
 13
-4247.3696492348372
 23
854.03612156838085
 33
0.0
 14
-3557.9014777753332
 24
1892.0361215683811
 34
0.0
 50
90.0
1001
ACAD
1000
DSTYLE
1002
{
1070
   287
1070
     3
1070
   287
1070
     3
1070
    40
1040
20.0
1070
   143
1040
0.039
1070
   172
1070
     1
1070
   271
1070
     0
1070
   279
1070
     0
1070
   288
1070
     1
1002
}
  0
LINE
  5
8006
  8
4
 10
-3046.4204398848628
 20
-817.20337344081042
 30
0.0
 11
-3046.4204398848628
 21
-1217.2033734408101
 31
0.0
  0
LINE
  5
8007
  8
4
 10
-4446.4204398848633
 20
-817.20337344081042
 30
0.0
 11
-4446.4204398848642
 21
-1217.2033734408101
 31
0.0
  0
LINE
  5
8008
  8
4
 10
-5446.4204398848642
 20
-817.20337344081042
 30
0.0
 11
-5446.4204398848642
 21
-1217.2033734408101
 31
0.0
  0
LINE
  5
800B
  8
4
 10
-5446.4204398848642
 20
-1217.2033734408101
 30
0.0
 11
-3046.4204398848628
 21
-1217.2033734408101
 31
0.0
  0
LINE
  5
800C
  8
4
 10
-5446.4204398848642
 20
-1017.20337344081
 30
0.0
 11
-3046.4204398848628
 21
-1017.20337344081
 31
0.0
  0
TEXT
  5
800D
  8
4
 10
-5369.41627819106
 20
-954.11732170758467
 30
0.0
 40
100.0
  1
機器名称
  0
TEXT
  5
800E
  8
4
 10
-5373.9042278352681
 20
-1173.913059976788
 30
0.0
 40
100.0
  1
機器型番
  0
TEXT
  5
800F
  8
4
 10
-4391.0629489095327
 20
-972.05983552567341
 30
0.0
 40
100.0
  1
ミツヤ軸流ファン
  0
TEXT
  5
8010
  8
4
 10
-4373.1114487139021
 20
-1182.8842048809231
 30
0.0
 40
100.0
  1
AP＃1000-2
  0
TEXT
  5
8012
  8
4
 10
-4936.8489089528557
 20
2949.6543092242209
 30
0.0
 40
107.9999999999999
  1
天井吊本体形
  0
TEXT
  5
8013
  8
4
 10
-6114.0852532259714
 20
3250.5585789577849
 30
0.0
 40
144.0
  1
ベルト駆動式横型軸流ファン
  0
LINE
  5
8014
  8
4
 10
-6246.4204398848642
 20
3121.6141350887988
 30
0.0
 11
-3046.4204398848628
 21
3121.6141350887988
 31
0.0
  0
LINE
  5
8015
  8
4
 10
-6246.4204398848642
 20
3521.6141350887988
 30
0.0
 11
-3046.4204398848628
 21
3521.6141350887988
 31
0.0
  0
LINE
  5
8016
  8
4
 10
-5446.4204398848642
 20
-817.20337344081042
 30
0.0
 11
-3046.4204398848628
 21
-817.20337344081042
 31
0.0
  0
LINE
  5
8017
  8
4
 10
-6246.4204398848642
 20
3521.6141350887988
 30
0.0
 11
-6246.4204398848642
 21
3121.6141350887988
 31
0.0
  0
TEXT
  5
8018
  8
4
 10
-6187.6875958752526
 20
2947.4355816518769
 30
0.0
 40
107.9999999999999
  1
左回転後方吐出
  0
TEXT
  5
8019
  8
4
 10
-3808.4813213862831
 20
3594.9187895498071
 30
0.0
 40
112.0
  1
No.
  0
TEXT
  5
801A
  8
4
 10
-3926.4761204525639
 20
2949.6543092242209
 30
0.0
 40
107.9999999999999
  1
縮尺：1/20
  0
LINE
  5
801B
  8
4
 10
-3046.4204398848628
 20
3521.6141350887988
 30
0.0
 11
-3046.4204398848628
 21
3121.6141350887988
 31
0.0
  0
LINE
  5
801C
  8
4
 10
-2546.4204398848628
 20
4082.796626559189
 30
0.0
 11
-2546.4204398848628
 21
4082.796626559189
 31
0.0
  0
LINE
  5
801D
  8
4
 10
-3865.1855951651341
 20
3545.3237928099911
 30
0.0
 11
-3865.1855951651341
 21
3756.1011496586939
 31
0.0
  0
LINE
  5
801E
  8
4
 10
-3865.1855951651341
 20
3756.1011496586939
 30
0.0
 11
-3046.4204398848628
 21
3756.1011496586939
 31
0.0
  0
LINE
  5
801F
  8
4
 10
-3046.4204398848628
 20
3756.1011496586939
 30
0.0
 11
-3046.4204398848628
 21
3545.3237928099911
 31
0.0
  0
LINE
  5
8020
  8
4
 10
-3046.4204398848628
 20
3545.3237928099911
 30
0.0
 11
-3865.1855951651341
 21
3545.3237928099911
 31
0.0
  0
LINE
  5
8021
  8
4
 10
-6746.4204398848642
 20
-1817.2033734408101
 30
0.0
 11
-6746.4204398848642
 21
4082.796626559189
 31
0.0
  0
LINE
  5
8022
  8
4
 10
-6746.4204398848642
 20
4082.796626559189
 30
0.0
 11
-2546.4204398848628
 21
4082.796626559189
 31
0.0
  0
LINE
  5
8023
  8
4
 10
-2546.4204398848628
 20
4082.796626559189
 30
0.0
 11
-2546.4204398848628
 21
-1817.2033734408101
 31
0.0
  0
LINE
  5
8024
  8
4
 10
-2546.4204398848628
 20
-1817.2033734408101
 30
0.0
 11
-6746.4204398848642
 21
-1817.2033734408101
 31
0.0
  0
LINE
  5
8084
  8
1
 10
-5817.8919455255154
 20
354.03612156838079
 30
0.0
 11
-5007.8919455255136
 21
354.03612156838079
 31
0.0
  0
LINE
  5
8085
  8
1
 10
-5817.8919455255154
 20
1354.0361215683799
 30
0.0
 11
-5587.8919455255127
 21
1354.0361215683811
 31
0.0
  0
LINE
  5
8086
  8
1
 10
-5267.8919455255163
 20
1354.0361215683799
 30
0.0
 11
-5007.8919455255136
 21
1354.0361215683799
 31
0.0
  0
LINE
  5
8087
  8
1
 10
-5567.8919455255154
 20
1354.0361215683811
 30
0.0
 11
-5287.8919455255154
 21
1354.0361215683799
 31
0.0
  0
LINE
  5
80C1
  8
2
 10
-4157.9014777753318
 20
763.55317376136918
 30
0.0
 11
-4157.9014777753318
 21
1940.4087302645939
 31
0.0
  0
LINE
  5
80C2
  8
1
 10
-4192.4014777753328
 20
834.03612156838085
 30
0.0
 11
-4192.4014777753328
 21
899.03612156838085
 31
0.0
  0
LINE
  5
80C3
  8
1
 10
-4062.4014777753332
 20
834.03612156838096
 30
0.0
 11
-4062.4014777753318
 21
899.03612156838085
 31
0.0
  0
LINE
  5
80C4
  8
1
 10
-4192.4014777753328
 20
834.03612156838096
 30
0.0
 11
-4062.4014777753318
 21
834.03612156838085
 31
0.0
  0
LINE
  5
80C5
  8
1
 10
-4192.4014777753328
 20
899.03612156838085
 30
0.0
 11
-4062.4014777753318
 21
899.03612156838062
 31
0.0
  0
LINE
  5
80C6
  8
1
 10
-4192.4014777753328
 20
840.03612156838096
 30
0.0
 11
-4062.4014777753318
 21
840.03612156838085
 31
0.0
  0
LINE
  5
80C7
  8
1
 10
-2923.4014777753318
 20
840.03612156838096
 30
0.0
 11
-3053.4014777753332
 21
840.03612156838085
 31
0.0
  0
LINE
  5
80C8
  8
1
 10
-2923.4014777753318
 20
899.03612156838085
 30
0.0
 11
-3053.4014777753332
 21
899.03612156838062
 31
0.0
  0
LINE
  5
80C9
  8
1
 10
-2923.4014777753318
 20
834.03612156838096
 30
0.0
 11
-3053.4014777753332
 21
834.03612156838085
 31
0.0
  0
LINE
  5
80CA
  8
1
 10
-2923.4014777753318
 20
834.03612156838085
 30
0.0
 11
-2923.4014777753318
 21
899.03612156838085
 31
0.0
  0
LINE
  5
80CB
  8
1
 10
-3053.4014777753332
 20
834.03612156838096
 30
0.0
 11
-3053.4014777753332
 21
899.03612156838085
 31
0.0
  0
LINE
  5
80CC
  8
2
 10
-2957.9014777753332
 20
763.55317376136918
 30
0.0
 11
-2957.9014777753332
 21
1940.4087302645939
 31
0.0
  0
LINE
  5
80D7
  8
2
 10
-5042.8919455255136
 20
1963.3441587616251
 30
0.0
 11
-5042.8919455255136
 21
763.55317376136918
 31
0.0
  0
LINE
  5
80F5
  8
1
 10
-5077.3919455255154
 20
834.03612156838085
 30
0.0
 11
-5012.3919455255136
 21
834.03612156838085
 31
0.0
  0
LINE
  5
80F6
  8
1
 10
-5077.3919455255154
 20
834.03612156838085
 30
0.0
 11
-5077.3919455255154
 21
899.03612156838062
 31
0.0
  0
LINE
  5
80F7
  8
1
 10
-5012.3919455255136
 20
834.03612156838085
 30
0.0
 11
-5012.3919455255136
 21
836.03612156838074
 31
0.0
  0
LINE
  5
80F8
  8
1
 10
-5077.3919455255154
 20
899.03612156838062
 30
0.0
 11
-5075.3919455255136
 21
899.03612156838062
 31
0.0
  0
LINE
  5
80F9
  8
1
 10
-5071.3919455255136
 20
848.53612156838074
 30
0.0
 11
-5071.3919455255136
 21
895.03612156838074
 31
0.0
  0
LINE
  5
80FA
  8
1
 10
-5062.8919455255136
 20
840.03612156838074
 30
0.0
 11
-5016.3919455255154
 21
840.03612156838074
 31
0.0
  0
ARC
  5
80FB
  8
1
 10
-5016.3919455255154
 20
836.03612156838074
 30
0.0
 40
4.0
 50
0.0
 51
90.0
  0
ARC
  5
80FC
  8
1
 10
-5075.3919455255136
 20
895.03612156838074
 30
0.0
 40
4.0
 50
0.0
 51
90.0
  0
ARC
  5
80FD
  8
1
 10
-5062.8919455255136
 20
848.53612156838074
 30
0.0
 40
8.5
 50
180.0
 51
270.0
  0
ARC
  5
80FF
  8
1
 10
-5809.3919455255154
 20
836.03612156838074
 30
0.0
 40
4.0
 50
90.0
 51
180.0
  0
LINE
  5
8100
  8
1
 10
-5748.3919455255154
 20
834.03612156838085
 30
0.0
 11
-5813.3919455255136
 21
834.03612156838085
 31
0.0
  0
ARC
  5
8101
  8
1
 10
-5762.8919455255136
 20
848.53612156838074
 30
0.0
 40
8.5
 50
270.0
 51
0.000000000000007
  0
ARC
  5
8102
  8
1
 10
-5750.3919455255136
 20
895.03612156838074
 30
0.0
 40
4.0
 50
90.0
 51
180.0
  0
LINE
  5
8103
  8
1
 10
-5762.8919455255136
 20
840.03612156838074
 30
0.0
 11
-5809.3919455255154
 21
840.03612156838074
 31
0.0
  0
LINE
  5
8104
  8
1
 10
-5754.3919455255154
 20
848.53612156838074
 30
0.0
 11
-5754.3919455255154
 21
895.03612156838074
 31
0.0
  0
LINE
  5
8105
  8
1
 10
-5748.3919455255154
 20
899.03612156838062
 30
0.0
 11
-5750.3919455255136
 21
899.03612156838062
 31
0.0
  0
LINE
  5
8106
  8
1
 10
-5748.3919455255154
 20
834.03612156838085
 30
0.0
 11
-5748.3919455255154
 21
899.03612156838062
 31
0.0
  0
LINE
  5
8107
  8
1
 10
-5813.3919455255136
 20
834.03612156838085
 30
0.0
 11
-5813.3919455255136
 21
836.03612156838074
 31
0.0
  0
LINE
  5
8108
  8
2
 10
-5782.8919455255136
 20
1963.3441587616251
 30
0.0
 11
-5782.8919455255136
 21
763.55317376136918
 31
0.0
  0
DIMENSION
  5
8109
  8
3
  2
*D6
 10
-2957.9014777753332
 20
2173.359095656655
 30
0.0
 11
-3569.8711350739759
 21
2173.359095656655
 31
0.0
 70
   128
 13
-4157.9014777753318
 23
1940.4087302645939
 33
0.0
 14
-2957.9014777753332
 24
1940.4087302645939
 34
0.0
1001
ACAD
1000
DSTYLE
1002
{
1070
   287
1070
     3
1070
   287
1070
     3
1070
    40
1040
20.0
1070
   143
1040
0.039
1070
   172
1070
     1
1070
   271
1070
     0
1070
   279
1070
     0
1070
   288
1070
     1
1002
}
  0
DIMENSION
  5
811F
  8
3
  2
*D7
 10
-5042.8919455255136
 20
2140.8632090542669
 30
0.0
 11
-5412.8919455255136
 21
2140.8632090542669
 31
0.0
 70
   128
 13
-5782.8919455255136
 23
1963.3441587616251
 33
0.0
 14
-5042.8919455255136
 24
1963.3441587616251
 34
0.0
1001
ACAD
1000
DSTYLE
1002
{
1070
   287
1070
     3
1070
   287
1070
     3
1070
    40
1040
20.0
1070
   143
1040
0.039
1070
   172
1070
     1
1070
   271
1070
     0
1070
   279
1070
     0
1070
   288
1070
     1
1002
}
  0
DIMENSION
  5
812C
  8
3
  2
*D8
 10
-5007.8919455255136
 20
2140.8632090542669
 30
0.0
 11
-4891.7237959873964
 21
2135.8497331163849
 31
0.0
 70
   128
 13
-5042.8919455255136
 23
1963.3441587616251
 33
0.0
 14
-5007.8919455255136
 24
1404.0361215683799
 34
0.0
1001
ACAD
1000
DSTYLE
1002
{
1070
   287
1070
     4
1070
   287
1070
     4
1070
    40
1040
20.0
1070
   143
1040
0.039
1070
   172
1070
     1
1070
   271
1070
     0
1070
   279
1070
     1
1070
   288
1070
     1
1002
}
  0
DIMENSION
  5
813E
  8
3
  2
*D9
 10
-5817.8919455255154
 20
2140.8632090542669
 30
0.0
 11
-5962.7071349086073
 21
2145.180450935135
 31
0.0
 70
   128
 13
-5782.8919455255136
 23
1963.3441587616251
 33
0.0
 14
-5817.8919455255154
 24
1404.0361215683799
 34
0.0
1001
ACAD
1000
DSTYLE
1002
{
1070
   287
1070
     4
1070
   287
1070
     4
1070
    40
1040
20.0
1070
   143
1040
0.039
1070
   172
1070
     1
1070
   271
1070
     0
1070
   279
1070
     1
1070
   288
1070
     1
1002
}
  0
ENDSEC
  0
EOF
