  0
SECTION
  2
HEADER
  9
$ACADVER
  1
AC1009
  9
$INSBASE
 10
0.0
 20
0.0
 30
0.0
  9
$EXTMIN
 10
-6746.4204398848642
 20
-1817.2033734408101
 30
0.0
  9
$EXTMAX
 10
-2546.4204398848628
 20
4082.796626559189
 30
0.0
  9
$LIMMIN
 10
0.0
 20
0.0
  9
$LIMMAX
 10
297.0
 20
210.0
  9
$ORTHOMODE
 70
     0
  9
$REGENMODE
 70
     1
  9
$FILLMODE
 70
     0
  9
$QTEXTMODE
 70
     0
  9
$MIRRTEXT
 70
     1
  9
$DRAGMODE
 70
     2
  9
$LTSCALE
 40
100.0
  9
$OSMODE
 70
    37
  9
$ATTMODE
 70
     1
  9
$TEXTSIZE
 40
180.0
  9
$TRACEWID
 40
0.05
  9
$TEXTSTYLE
  7
STANDARD
  9
$CLAYER
  8
4
  9
$CELTYPE
  6
BYLAYER
  9
$CECOLOR
 62
   256
  9
$DIMSCALE
 40
20.0
  9
$DIMASZ
 40
2.0
  9
$DIMEXO
 40
0.5
  9
$DIMDLI
 40
10.0
  9
$DIMRND
 40
0.0
  9
$DIMDLE
 40
0.0
  9
$DIMEXE
 40
1.0
  9
$DIMTP
 40
1.0
  9
$DIMTM
 40
1.0
  9
$DIMTXT
 40
3.0
  9
$DIMCEN
 40
0.0
  9
$DIMTSZ
 40
0.0
  9
$DIMTOL
 70
     0
  9
$DIMLIM
 70
     0
  9
$DIMTIH
 70
     0
  9
$DIMTOH
 70
     0
  9
$DIMSE1
 70
     0
  9
$DIMSE2
 70
     0
  9
$DIMTAD
 70
     1
  9
$DIMZIN
 70
     8
  9
$DIMBLK
  1

  9
$DIMASO
 70
     1
  9
$DIMSHO
 70
     1
  9
$DIMPOST
  1

  9
$DIMAPOST
  1

  9
$DIMALT
 70
     0
  9
$DIMALTD
 70
     2
  9
$DIMALTF
 40
0.039
  9
$DIMLFAC
 40
1.0
  9
$DIMTOFL
 70
     1
  9
$DIMTVP
 40
0.0
  9
$DIMTIX
 70
     0
  9
$DIMSOXD
 70
     0
  9
$DIMSAH
 70
     1
  9
$DIMBLK1
  1
OPEN
  9
$DIMBLK2
  1
OPEN
  9
$DIMSTYLE
  2
IGA
  9
$DIMCLRD
 70
     0
  9
$DIMCLRE
 70
     0
  9
$DIMCLRT
 70
     0
  9
$DIMTFAC
 40
10.0
  9
$DIMGAP
 40
1.0
  9
$LUNITS
 70
     2
  9
$LUPREC
 70
     3
  9
$SKETCHINC
 40
0.1
  9
$FILLETRAD
 40
50.0
  9
$AUNITS
 70
     0
  9
$AUPREC
 70
     0
  9
$MENU
  1
acad
  9
$ELEVATION
 40
0.0
  9
$PELEVATION
 40
0.0
  9
$THICKNESS
 40
0.0
  9
$LIMCHECK
 70
     0
  9
$BLIPMODE
 70
     0
  9
$CHAMFERA
 40
0.5
  9
$CHAMFERB
 40
0.5
  9
$SKPOLY
 70
     0
  9
$TDCREATE
 40
2453249.427640046
  9
$TDUPDATE
 40
2454953.6242071749
  9
$TDINDWG
 40
0.0300169097
  9
$TDUSRTIMER
 40
0.0300169097
  9
$USRTIMER
 70
     1
  9
$ANGBASE
 50
0.0
  9
$ANGDIR
 70
     0
  9
$PDMODE
 70
     0
  9
$PDSIZE
 40
0.0
  9
$PLINEWID
 40
0.0
  9
$COORDS
 70
     1
  9
$SPLFRAME
 70
     0
  9
$SPLINETYPE
 70
     6
  9
$SPLINESEGS
 70
     8
  9
$ATTDIA
 70
     0
  9
$ATTREQ
 70
     1
  9
$HANDLING
 70
 10241
  9
$HANDSEED
  5
8396
  9
$SURFTAB1
 70
     6
  9
$SURFTAB2
 70
     6
  9
$SURFTYPE
 70
     6
  9
$SURFU
 70
     6
  9
$SURFV
 70
     6
  9
$UCSNAME
  2

  9
$UCSORG
 10
0.0
 20
0.0
 30
0.0
  9
$UCSXDIR
 10
1.0
 20
0.0
 30
0.0
  9
$UCSYDIR
 10
0.0
 20
1.0
 30
0.0
  9
$PUCSNAME
  2

  9
$PUCSORG
 10
0.0
 20
0.0
 30
0.0
  9
$PUCSXDIR
 10
1.0
 20
0.0
 30
0.0
  9
$PUCSYDIR
 10
0.0
 20
1.0
 30
0.0
  9
$USERI1
 70
     0
  9
$USERI2
 70
     0
  9
$USERI3
 70
     0
  9
$USERI4
 70
     0
  9
$USERI5
 70
     0
  9
$USERR1
 40
0.0
  9
$USERR2
 40
0.0
  9
$USERR3
 40
0.0
  9
$USERR4
 40
0.0
  9
$USERR5
 40
0.0
  9
$WORLDVIEW
 70
     1
  9
$SHADEDGE
 70
     3
  9
$SHADEDIF
 70
    70
  9
$TILEMODE
 70
     1
  9
$MAXACTVP
 70
    16
  9
$PLIMCHECK
 70
     0
  9
$PEXTMIN
 10
1.0000000000000000E+020
 20
1.0000000000000000E+020
 30
1.0000000000000000E+020
  9
$PEXTMAX
 10
-1.0000000000000000E+020
 20
-1.0000000000000000E+020
 30
-1.0000000000000000E+020
  9
$PLIMMIN
 10
0.0
 20
0.0
  9
$PLIMMAX
 10
12.0
 20
9.0
  9
$UNITMODE
 70
     0
  9
$VISRETAIN
 70
     0
  9
$PLINEGEN
 70
     0
  9
$PSLTSCALE
 70
     1
  0
ENDSEC
  0
SECTION
  2
TABLES
  0
TABLE
  2
VPORT
 70
     2
  0
VPORT
  2
*ACTIVE
 70
     0
 10
0.0
 20
0.0
 11
1.0
 21
1.0
 12
-2773.381688003009
 22
-1181.6106445172579
 13
0.0
 23
0.0
 14
10.0
 24
10.0
 15
10.0
 25
10.0
 16
0.0
 26
0.0
 36
1.0
 17
0.0
 27
0.0
 37
0.0
 40
1780.794796894276
 41
3.1666666666666661
 42
50.0
 43
0.0
 44
0.0
 50
0.0
 51
0.0
 71
     0
 72
   100
 73
     1
 74
     0
 75
     0
 76
     0
 77
     0
 78
     0
  0
ENDTAB
  0
TABLE
  2
LTYPE
 70
     2
  0
LTYPE
  2
CONTINUOUS
 70
     0
  3
Solid line
 72
    65
 73
     0
 40
0.0
  0
LTYPE
  2
CENTER
 70
     0
  3
____ _ ____ _ ____ _ ____ _ ____ _ ____ _ ____ 
 72
    65
 73
     4
 40
2.0
 49
1.25
 49
-0.25
 49
0.25
 49
-0.25
  0
ENDTAB
  0
TABLE
  2
LAYER
 70
     6
  0
LAYER
  2
0
 70
     0
 62
     7
  6
CONTINUOUS
  0
LAYER
  2
3
 70
     0
 62
     2
  6
CONTINUOUS
  0
LAYER
  2
2
 70
     0
 62
     3
  6
CENTER
  0
LAYER
  2
1
 70
     0
 62
     4
  6
CONTINUOUS
  0
LAYER
  2
4
 70
     0
 62
     7
  6
CONTINUOUS
  0
LAYER
  2
DEFPOINTS
 70
     0
 62
     7
  6
CONTINUOUS
  0
ENDTAB
  0
TABLE
  2
STYLE
 70
     1
  0
STYLE
  2
STANDARD
 70
     0
 40
0.0
 41
1.0
 50
0.0
 71
     0
 42
180.0
  3
simplex.shx
  4
extfont.shx
  0
ENDTAB
  0
TABLE
  2
VIEW
 70
     0
  0
ENDTAB
  0
TABLE
  2
UCS
 70
     0
  0
ENDTAB
  0
TABLE
  2
APPID
 70
     1
  0
APPID
  2
ACAD
 70
     0
  0
ENDTAB
  0
TABLE
  2
DIMSTYLE
 70
     2
  0
DIMSTYLE
  2
IGA
 70
     0
  3

  4

  5

  6
OPEN
  7
OPEN
 40
2.0
 41
2.0
 42
0.5
 43
10.0
 44
1.0
 45
0.0
 46
0.0
 47
1.0
 48
1.0
140
3.0
141
0.0
142
0.0
143
0.03937
144
1.0
145
0.0
146
10.0
147
1.0
 71
     0
 72
     0
 73
     0
 74
     0
 75
     0
 76
     0
 77
     1
 78
     8
170
     0
171
     2
172
     0
173
     1
174
     0
175
     0
176
     0
177
     0
178
     0
  0
DIMSTYLE
  2
MATSU
 70
     0
  3

  4

  5

  6
OPEN
  7
OPEN
 40
12.0
 41
2.0
 42
1.0
 43
10.0
 44
1.0
 45
0.0
 46
0.0
 47
0.0
 48
0.0
140
3.0
141
0.0
142
0.0
143
0.03937
144
1.0
145
0.0
146
1.0
147
0.5
 71
     0
 72
     0
 73
     0
 74
     0
 75
     0
 76
     0
 77
     1
 78
     8
170
     0
171
     2
172
     1
173
     1
174
     0
175
     0
176
   256
177
   256
178
   256
  0
ENDTAB
  0
ENDSEC
  0
SECTION
  2
BLOCKS
  0
BLOCK
  8
0
  2
$MODEL_SPACE
 70
     0
 10
0.0
 20
0.0
 30
0.0
  3
$MODEL_SPACE
  1

  0
ENDBLK
  5
1B
  8
0
  0
BLOCK
 67
     1
  8
0
  2
$PAPER_SPACE
 70
     0
 10
0.0
 20
0.0
 30
0.0
  3
$PAPER_SPACE
  1

  0
ENDBLK
  5
18
 67
     1
  8
0
  0
BLOCK
  8
0
  2
_OPEN
 70
     0
 10
0.0
 20
0.0
 30
0.0
  3
_OPEN
  1

  0
LINE
  5
79FD
  8
0
  6
BYBLOCK
 62
     0
 10
-1.0
 20
0.1666666666666666
 30
0.0
 11
0.0
 21
0.0
 31
0.0
  0
LINE
  5
79FE
  8
0
  6
BYBLOCK
 62
     0
 10
0.0
 20
0.0
 30
0.0
 11
-1.0
 21
-0.1666666666666666
 31
0.0
  0
LINE
  5
79FF
  8
0
  6
BYBLOCK
 62
     0
 10
0.0
 20
0.0
 30
0.0
 11
-1.0
 21
0.0
 31
0.0
  0
ENDBLK
  5
7A01
  8
0
  0
BLOCK
  8
0
  2
*D1
 70
     1
 10
0.0
 20
0.0
 30
0.0
  3
*D1
  1

  0
LINE
  5
81A6
  8
3
 10
-5817.8919455255154
 20
1414.0361215683799
 30
0.0
 11
-5817.8919455255154
 21
1884.0873529643341
 31
0.0
  0
LINE
  5
81A7
  8
3
 10
-5007.8919455255136
 20
1414.0361215683799
 30
0.0
 11
-5007.8919455255136
 21
1884.0873529643341
 31
0.0
  0
LINE
  5
81A8
  8
3
 10
-5777.8919455255154
 20
1864.0873529643329
 30
0.0
 11
-5047.8919455255136
 21
1864.0873529643329
 31
0.0
  0
INSERT
  5
81A9
  8
3
  2
_OPEN
 10
-5817.8919455255154
 20
1864.0873529643329
 30
0.0
 41
40.0
 42
40.0
 43
40.0
 50
180.0
  0
INSERT
  5
81AA
  8
3
  2
_OPEN
 10
-5007.8919455255136
 20
1864.0873529643329
 30
0.0
 41
40.0
 42
40.0
 43
40.0
  0
TEXT
  5
81AB
  8
4
 10
-5484.3205169540861
 20
1874.0873529643341
 30
0.0
 40
60.0
  1
810
  0
POINT
  5
81AC
  8
DEFPOINTS
 62
     0
 10
-5817.8919455255154
 20
1404.0361215683799
 30
0.0
  0
POINT
  5
81AD
  8
DEFPOINTS
 62
     0
 10
-5007.8919455255136
 20
1404.0361215683799
 30
0.0
  0
POINT
  5
81AE
  8
DEFPOINTS
 62
     0
 10
-5007.8919455255136
 20
1864.0873529643329
 30
0.0
  0
ENDBLK
  5
7FB8
  8
0
  0
BLOCK
  8
0
  2
*D2
 70
     1
 10
0.0
 20
0.0
 30
0.0
  3
*D2
  1

  0
LINE
  5
7FBA
  8
0
  6
BYBLOCK
 10
2187.1551738233738
 20
1787.527780624303
 30
0.0
 11
2020.844827473539
 21
1787.527780624303
 31
0.0
  0
LINE
  5
7FBB
  8
0
  6
BYBLOCK
 10
2187.1551738233738
 20
787.52778062430309
 30
0.0
 11
2020.844827473539
 21
787.52778062430309
 31
0.0
  0
LINE
  5
7FBC
  8
0
  6
BYBLOCK
 10
2040.844827473539
 20
1747.527780624303
 30
0.0
 11
2040.844827473539
 21
827.5277806243032
 31
0.0
  0
INSERT
  5
7FBD
  8
0
  6
BYBLOCK
  2
_OPEN
 10
2040.844827473539
 20
1787.527780624303
 30
0.0
 41
40.0
 42
40.0
 43
40.0
 50
90.0
  0
INSERT
  5
7FBE
  8
0
  6
BYBLOCK
  2
_OPEN
 10
2040.844827473539
 20
787.52778062430309
 30
0.0
 41
40.0
 42
40.0
 43
40.0
 50
270.0
  0
TEXT
  5
7FBF
  8
4
 10
2030.8448274735399
 20
1157.5277806243021
 30
0.0
 40
60.0
  1
φ1000
 50
90.0
  0
POINT
  5
7FC0
  8
DEFPOINTS
  6
BYBLOCK
 62
     0
 10
2197.1551738233738
 20
1787.527780624303
 30
0.0
  0
POINT
  5
7FC1
  8
DEFPOINTS
  6
BYBLOCK
 62
     0
 10
2197.1551738233738
 20
787.52778062430309
 30
0.0
  0
POINT
  5
7FC2
  8
DEFPOINTS
  6
BYBLOCK
 62
     0
 10
2040.844827473539
 20
787.52778062430309
 30
0.0
  0
ENDBLK
  5
7FC3
  8
0
  0
BLOCK
  8
0
  2
*D3
 70
     1
 10
0.0
 20
0.0
 30
0.0
  3
*D3
  1

  0
LINE
  5
7FC5
  8
0
  6
BYBLOCK
 10
3117.1551738233738
 20
1787.527780624303
 30
0.0
 11
3303.2242584719111
 21
1787.527780624303
 31
0.0
  0
LINE
  5
7FC6
  8
0
  6
BYBLOCK
 10
3117.1551738233738
 20
787.52778062430332
 30
0.0
 11
3303.2242584719111
 21
787.52778062430332
 31
0.0
  0
LINE
  5
7FC7
  8
0
  6
BYBLOCK
 10
3283.2242584719111
 20
1747.527780624303
 30
0.0
 11
3283.2242584719111
 21
827.52778062430343
 31
0.0
  0
INSERT
  5
7FC8
  8
0
  6
BYBLOCK
  2
_OPEN
 10
3283.2242584719111
 20
1787.527780624303
 30
0.0
 41
40.0
 42
40.0
 43
40.0
 50
90.0
  0
INSERT
  5
7FC9
  8
0
  6
BYBLOCK
  2
_OPEN
 10
3283.2242584719111
 20
787.52778062430332
 30
0.0
 41
40.0
 42
40.0
 43
40.0
 50
270.0
  0
TEXT
  5
7FCA
  8
4
 10
3273.2242584719111
 20
1157.527780624303
 30
0.0
 40
60.0
  1
φ1000
 50
90.0
  0
POINT
  5
7FCB
  8
DEFPOINTS
  6
BYBLOCK
 62
     0
 10
3107.1551738233738
 20
1787.527780624303
 30
0.0
  0
POINT
  5
7FCC
  8
DEFPOINTS
  6
BYBLOCK
 62
     0
 10
3107.1551738233738
 20
787.52778062430332
 30
0.0
  0
POINT
  5
7FCD
  8
DEFPOINTS
  6
BYBLOCK
 62
     0
 10
3283.2242584719111
 20
787.52778062430332
 30
0.0
  0
ENDBLK
  5
7FCE
  8
0
  0
BLOCK
  8
0
  2
*D4
 70
     1
 10
0.0
 20
0.0
 30
0.0
  3
*D4
  1

  0
LINE
  5
81AF
  8
3
 10
-4107.9014777753328
 20
864.03612156838085
 30
0.0
 11
-4107.9014777753328
 21
1876.1876942025101
 31
0.0
  0
LINE
  5
81B0
  8
3
 10
-3007.9014777753332
 20
864.03612156838085
 30
0.0
 11
-3007.9014777753332
 21
1876.1876942025101
 31
0.0
  0
LINE
  5
81B1
  8
3
 10
-4067.9014777753332
 20
1856.1876942025101
 30
0.0
 11
-3047.9014777753332
 21
1856.1876942025101
 31
0.0
  0
INSERT
  5
81B2
  8
3
  2
_OPEN
 10
-4107.9014777753328
 20
1856.1876942025101
 30
0.0
 41
40.0
 42
40.0
 43
40.0
 50
180.0
  0
INSERT
  5
81B3
  8
3
  2
_OPEN
 10
-3007.9014777753332
 20
1856.1876942025101
 30
0.0
 41
40.0
 42
40.0
 43
40.0
  0
TEXT
  5
81B4
  8
4
 10
-3652.187192061047
 20
1866.1876942025101
 30
0.0
 40
60.0
  1
1100
  0
POINT
  5
81B5
  8
DEFPOINTS
 62
     0
 10
-4107.9014777753328
 20
854.03612156838085
 30
0.0
  0
POINT
  5
81B6
  8
DEFPOINTS
 62
     0
 10
-3007.9014777753332
 20
854.03612156838085
 30
0.0
  0
POINT
  5
81B7
  8
DEFPOINTS
 62
     0
 10
-3007.9014777753332
 20
1856.1876942025101
 30
0.0
  0
ENDBLK
  5
7FE4
  8
0
  0
BLOCK
  8
0
  2
*D5
 70
     1
 10
0.0
 20
0.0
 30
0.0
  3
*D5
  1

  0
LINE
  5
7FE6
  8
0
  6
BYBLOCK
 10
4047.1456415735552
 20
657.5277806243032
 30
0.0
 11
3680.7717812386009
 21
657.5277806243032
 31
0.0
  0
LINE
  5
7FE7
  8
0
  6
BYBLOCK
 10
3807.6774701140498
 20
1287.527780624303
 30
0.0
 11
3680.7717812386009
 21
1287.527780624303
 31
0.0
  0
LINE
  5
7FE8
  8
0
  6
BYBLOCK
 10
3700.7717812386009
 20
697.5277806243032
 30
0.0
 11
3700.7717812386009
 21
1247.527780624303
 31
0.0
  0
INSERT
  5
7FE9
  8
0
  6
BYBLOCK
  2
_OPEN
 10
3700.7717812386009
 20
657.5277806243032
 30
0.0
 41
40.0
 42
40.0
 43
40.0
 50
270.0
  0
INSERT
  5
7FEA
  8
0
  6
BYBLOCK
  2
_OPEN
 10
3700.7717812386009
 20
1287.527780624303
 30
0.0
 41
40.0
 42
40.0
 43
40.0
 50
90.0
  0
TEXT
  5
7FEB
  8
4
 10
3690.7717812386009
 20
895.38492348144609
 30
0.0
 40
60.0
  1
630
 50
90.0
  0
POINT
  5
7FEC
  8
DEFPOINTS
  6
BYBLOCK
 62
     0
 10
4057.1456415735552
 20
657.5277806243032
 30
0.0
  0
POINT
  5
7FED
  8
DEFPOINTS
  6
BYBLOCK
 62
     0
 10
3817.6774701140498
 20
1287.527780624303
 30
0.0
  0
POINT
  5
7FEE
  8
DEFPOINTS
  6
BYBLOCK
 62
     0
 10
3700.7717812386009
 20
1287.527780624303
 30
0.0
  0
ENDBLK
  5
7FEF
  8
0
  0
BLOCK
  8
0
  2
*D6
 70
     1
 10
0.0
 20
0.0
 30
0.0
  3
*D6
  1

  0
LINE
  5
8366
  8
3
 62
     0
 10
-4217.9014777753328
 20
129.03612156838079
 30
0.0
 11
-4384.2753381102866
 21
129.03612156838079
 31
0.0
  0
LINE
  5
8367
  8
3
 62
     0
 10
-4364.2753381102857
 20
264.03612156838091
 30
0.0
 11
-4364.2753381102857
 21
304.03612156838091
 31
0.0
  0
LINE
  5
8368
  8
3
 62
     0
 10
-4364.2753381102857
 20
89.036121568380821
 30
0.0
 11
-4364.2753381102857
 21
49.036121568380821
 31
0.0
  0
LINE
  5
8369
  8
3
 62
     0
 10
-4364.2753381102857
 20
176.53612156838079
 30
0.0
 11
-4444.2753381102857
 21
200.53612156838091
 31
0.0
  0
LINE
  5
836A
  8
3
 62
     0
 10
-4444.2753381102857
 20
200.53612156838091
 30
0.0
 11
-4444.2753381102857
 21
337.67897871123802
 31
0.0
  0
TEXT
  8
3
  40
60
  5
8392
  62
0
  72
0
  71
0
 10
-4614.28
 20
162.908
 30
0.000000
  1
95
  0
LINE
  5
836C
  8
3
 62
     0
 10
-4364.2753381102857
 20
224.03612156838091
 30
0.0
 11
-4364.2753381102857
 21
129.03612156838079
 31
0.0
  0
LINE
  5
836D
  8
3
 62
     0
 10
-4364.2753381102857
 20
224.03612156838091
 30
0.0
 11
-4364.2753381102857
 21
129.03612156838079
 31
0.0
  0
INSERT
  5
836E
  8
3
 62
     0
  2
_OPEN
 10
-4364.2753381102857
 20
224.03612156838091
 30
0.0
 41
40.0
 42
40.0
 43
40.0
 50
270.0
  0
INSERT
  5
836F
  8
3
 62
     0
  2
_DOT
 10
-4364.2753381102857
 20
129.03612156838079
 30
0.0
 41
40.0
 42
40.0
 43
40.0
 50
90.0
  0
POINT
  5
8370
  8
DEFPOINTS
 62
     0
 10
-4007.9014777753332
 20
224.03612156838079
 30
0.0
  0
POINT
  5
8371
  8
DEFPOINTS
 62
     0
 10
-4207.9014777753318
 20
129.03612156838079
 30
0.0
  0
POINT
  5
8372
  8
DEFPOINTS
 62
     0
 10
-4364.2753381102857
 20
129.03612156838079
 30
0.0
  0
ENDBLK
  5
80AF
  8
0
  0
BLOCK
  8
0
  2
*D7
 70
     1
 10
0.0
 20
0.0
 30
0.0
  3
*D7
  1

  0
LINE
  5
8373
  8
3
 62
     0
 10
-4217.9014777753328
 20
79.036121568380793
 30
0.0
 11
-4384.2753381102866
 21
79.03612156838085
 31
0.0
  0
LINE
  5
8374
  8
3
 62
     0
 10
-4364.2753381102857
 20
169.03612156838079
 30
0.0
 11
-4364.2753381102857
 21
209.03612156838079
 31
0.0
  0
LINE
  5
8375
  8
3
 62
     0
 10
-4364.2753381102857
 20
39.036121568380828
 30
0.0
 11
-4364.2753381102857
 21
-138.10673557447629
 31
0.0
  0
LINE
  5
8376
  8
3
 62
     0
 10
-4364.2753381102857
 20
129.03612156838079
 30
0.0
 11
-4364.2753381102857
 21
79.036121568380835
 31
0.0
  0
INSERT
  5
8377
  8
3
 62
     0
  2
_DOT
 10
-4364.2753381102857
 20
129.03612156838079
 30
0.0
 41
40.0
 42
40.0
 43
40.0
 50
270.0
  0
INSERT
  5
8378
  8
3
 62
     0
  2
_OPEN
 10
-4364.2753381102857
 20
79.036121568380835
 30
0.0
 41
40.0
 42
40.0
 43
40.0
 50
90.0
  0
TEXT
  8
3
  40
60
  5
8393
  62
0
  72
0
  71
0
 10
-4534.28
 20
-175.735
 30
0.000000
  1
50
  0
POINT
  5
837A
  8
DEFPOINTS
 62
     0
 10
-4207.9014777753318
 20
129.03612156838079
 30
0.0
  0
POINT
  5
837B
  8
DEFPOINTS
 62
     0
 10
-4207.9014777753318
 20
79.036121568380793
 30
0.0
  0
POINT
  5
837C
  8
DEFPOINTS
 62
     0
 10
-4364.2753381102857
 20
79.036121568380835
 30
0.0
  0
ENDBLK
  5
80A1
  8
0
  0
BLOCK
  8
0
  2
_DOT
 70
     0
 10
0.0
 20
0.0
 30
0.0
  3
_DOT
  1

  0
POLYLINE
  5
8078
  8
0
  6
BYBLOCK
 62
     0
 66
     1
 10
0.0
 20
0.0
 30
0.0
 70
     1
 40
0.5
 41
0.5
  0
VERTEX
  5
837D
  8
0
  6
BYBLOCK
 62
     0
 10
-0.25
 20
0.0
 30
0.0
 42
1.0
  0
VERTEX
  5
837E
  8
0
  6
BYBLOCK
 62
     0
 10
0.25
 20
0.0
 30
0.0
 42
1.0
  0
SEQEND
  5
837F
  8
0
  6
BYBLOCK
 62
     0
  0
LINE
  5
807C
  8
0
  6
BYBLOCK
 62
     0
 10
-0.5
 20
0.0
 30
0.0
 11
-1.0
 21
0.0
 31
0.0
  0
ENDBLK
  5
807D
  8
0
  0
BLOCK
  8
0
  2
*D9
 70
     1
 10
0.0
 20
0.0
 30
0.0
  3
*D9
  1

  0
LINE
  5
8380
  8
3
 62
     0
 10
-5867.8919455255136
 20
69.036121568380878
 30
0.0
 11
-5867.8919455255136
 21
-97.469736925166217
 31
0.0
  0
LINE
  5
8381
  8
3
 62
     0
 10
-4957.8919455255127
 20
69.036121568380793
 30
0.0
 11
-4957.8919455255127
 21
-97.469736925166217
 31
0.0
  0
LINE
  5
8382
  8
3
 62
     0
 10
-5827.8919455255136
 20
-77.469736925166217
 30
0.0
 11
-4997.8919455255127
 21
-77.469736925166217
 31
0.0
  0
INSERT
  5
8383
  8
3
 62
     0
  2
_OPEN
 10
-5867.8919455255136
 20
-77.469736925166217
 30
0.0
 41
40.0
 42
40.0
 43
40.0
 50
180.0
  0
INSERT
  5
8384
  8
3
 62
     0
  2
_OPEN
 10
-4957.8919455255127
 20
-77.469736925166217
 30
0.0
 41
40.0
 42
40.0
 43
40.0
  0
TEXT
  8
3
  40
60
  5
8394
  62
0
  72
0
  71
0
 10
-5543.43
 20
-133.670
 30
0.000000
  1
910
  0
POINT
  5
8386
  8
DEFPOINTS
 62
     0
 10
-5867.8919455255136
 20
79.036121568380878
 30
0.0
  0
POINT
  5
8387
  8
DEFPOINTS
 62
     0
 10
-4957.8919455255127
 20
79.036121568380793
 30
0.0
  0
POINT
  5
8388
  8
DEFPOINTS
 62
     0
 10
-4957.8919455255127
 20
-77.469736925166217
 30
0.0
  0
ENDBLK
  5
80BB
  8
0
  0
BLOCK
  8
0
  2
*D10
 70
     1
 10
0.0
 20
0.0
 30
0.0
  3
*D10
  1

  0
LINE
  5
8389
  8
3
 62
     0
 10
-4207.9014777753318
 20
69.036121568380793
 30
0.0
 11
-4207.9014777753318
 21
-102.5203045008092
 31
0.0
  0
LINE
  5
838A
  8
3
 62
     0
 10
-2907.9014777753318
 20
69.036121568380793
 30
0.0
 11
-2907.9014777753318
 21
-102.5203045008092
 31
0.0
  0
LINE
  5
838B
  8
3
 62
     0
 10
-4167.9014777753328
 20
-82.520304500809274
 30
0.0
 11
-2947.9014777753318
 21
-82.520304500809274
 31
0.0
  0
INSERT
  5
838C
  8
3
 62
     0
  2
_OPEN
 10
-4207.9014777753318
 20
-82.520304500809274
 30
0.0
 41
40.0
 42
40.0
 43
40.0
 50
180.0
  0
INSERT
  5
838D
  8
3
 62
     0
  2
_OPEN
 10
-2907.9014777753318
 20
-82.520304500809274
 30
0.0
 41
40.0
 42
40.0
 43
40.0
  0
TEXT
  8
3
  40
60
  5
8395
  62
0
  72
0
  71
0
 10
-3708.35
 20
-138.720
 30
0.000000
  1
1300
  0
POINT
  5
838F
  8
DEFPOINTS
 62
     0
 10
-4207.9014777753318
 20
79.036121568380793
 30
0.0
  0
POINT
  5
8390
  8
DEFPOINTS
 62
     0
 10
-2907.9014777753318
 20
79.036121568380793
 30
0.0
  0
POINT
  5
8391
  8
DEFPOINTS
 62
     0
 10
-2907.9014777753318
 20
-82.520304500809274
 30
0.0
  0
ENDBLK
  5
80C8
  8
0
  0
ENDSEC
  0
SECTION
  2
ENTITIES
  0
LINE
  5
7D82
  8
1
 10
-4007.9014777753332
 20
224.03612156838079
 30
0.0
 11
-3107.9014777753332
 21
224.03612156838079
 31
0.0
  0
CIRCLE
  5
7D83
  8
1
 10
-3557.9014777753332
 20
854.03612156838085
 30
0.0
 40
504.49999999999989
  0
CIRCLE
  5
7D84
  8
1
 10
-3557.9014777753332
 20
854.03612156838085
 30
0.0
 40
500.0
  0
CIRCLE
  5
7D85
  8
1
 10
-3557.9014777753332
 20
854.03612156838085
 30
0.0
 40
550.0
  0
LINE
  5
7D86
  8
2
 10
-4247.3696492348372
 20
854.03612156838085
 30
0.0
 11
-2854.1988597185391
 21
854.03612156838085
 31
0.0
  0
LINE
  5
7D87
  8
1
 10
-5747.8919455255136
 20
1350.0361215683799
 30
0.0
 11
-5797.8919455255136
 21
1104.0361215683799
 31
0.0
  0
LINE
  5
7D88
  8
1
 10
-5677.8919455255154
 20
1350.0361215683799
 30
0.0
 11
-5627.8919455255154
 21
1104.0361215683799
 31
0.0
  0
LINE
  5
7D8B
  8
1
 10
-5012.3919455255136
 20
1404.0361215683811
 30
0.0
 11
-5012.3919455255136
 21
304.03612156838079
 31
0.0
  0
LINE
  5
7D8C
  8
1
 10
-5813.3919455255136
 20
1404.0361215683811
 30
0.0
 11
-5813.3919455255136
 21
304.03612156838079
 31
0.0
  0
LINE
  5
7D8D
  8
1
 10
-5817.8919455255154
 20
1404.0361215683799
 30
0.0
 11
-5817.8919455255154
 21
304.03612156838079
 31
0.0
  0
LINE
  5
7D8E
  8
1
 10
-5007.8919455255136
 20
1404.0361215683799
 30
0.0
 11
-5007.8919455255136
 21
304.03612156838079
 31
0.0
  0
LINE
  5
7D8F
  8
1
 10
-4957.8919455255136
 20
1354.0361215683799
 30
0.0
 11
-4957.8919455255136
 21
354.03612156838079
 31
0.0
  0
LINE
  5
7D90
  8
1
 10
-5867.8919455255136
 20
1354.0361215683799
 30
0.0
 11
-5867.8919455255136
 21
354.03612156838079
 31
0.0
  0
LINE
  5
7D91
  8
1
 10
-5003.8919455255154
 20
307.03612156838079
 30
0.0
 11
-5003.8919455255154
 21
1401.0361215683799
 31
0.0
  0
LINE
  5
7D92
  8
1
 10
-5821.8919455255136
 20
307.03612156838079
 30
0.0
 11
-5821.8919455255136
 21
1401.0361215683799
 31
0.0
  0
LINE
  5
7D93
  8
1
 10
-5654.5728214524934
 20
349.53612156838079
 30
0.0
 11
-5171.2110695985357
 21
349.53612156838091
 31
0.0
  0
LINE
  5
7D94
  8
2
 10
-5934.0077274814557
 20
854.03612156838085
 30
0.0
 11
-4921.0544090327039
 21
854.03612156838085
 31
0.0
  0
LINE
  5
7D95
  8
1
 10
-5817.8919455255154
 20
354.03612156838079
 30
0.0
 11
-5867.8919455255136
 21
354.03612156838079
 31
0.0
  0
LINE
  5
7D96
  8
1
 10
-5828.3919455255136
 20
350.03612156838079
 30
0.0
 11
-5864.8919455255136
 21
350.03612156838079
 31
0.0
  0
LINE
  5
7D97
  8
1
 10
-5835.082930847374
 20
326.53612156838079
 30
0.0
 11
-5796.7552450241847
 21
326.53612156838079
 31
0.0
  0
LINE
  5
7D98
  8
1
 10
-5867.8919455255136
 20
354.03612156838079
 30
0.0
 11
-5867.8919455255136
 21
353.03612156838079
 31
0.0
  0
ARC
  5
7D99
  8
1
 10
-5864.8919455255136
 20
353.03612156838079
 30
0.0
 40
3.0
 50
180.0
 51
270.0
  0
LINE
  5
7D9A
  8
1
 10
-5727.8919455255154
 20
1089.0361215683811
 30
0.0
 11
-5727.8919455255154
 21
619.03612156838085
 31
0.0
  0
LINE
  5
7D9B
  8
1
 10
-5742.8919455255136
 20
1089.0361215683811
 30
0.0
 11
-5742.8919455255136
 21
619.03612156838085
 31
0.0
  0
LINE
  5
7D9C
  8
1
 10
-5627.8919455255154
 20
1104.0361215683799
 30
0.0
 11
-5627.8919455255154
 21
604.03612156838085
 31
0.0
  0
LINE
  5
7D9D
  8
1
 10
-5797.8919455255136
 20
1104.0361215683799
 30
0.0
 11
-5797.8919455255136
 21
604.03612156838085
 31
0.0
  0
LINE
  5
7D9E
  8
1
 10
-5797.8919455255136
 20
619.03612156838085
 30
0.0
 11
-5627.8919455255154
 21
619.03612156838085
 31
0.0
  0
LINE
  5
7D9F
  8
1
 10
-5797.8919455255136
 20
604.03612156838085
 30
0.0
 11
-5627.8919455255154
 21
604.03612156838085
 31
0.0
  0
LINE
  5
7DA0
  8
1
 10
-5677.8919455255154
 20
358.03612156838102
 30
0.0
 11
-5627.8919455255154
 21
604.03612156838085
 31
0.0
  0
LINE
  5
7DA1
  8
1
 10
-5747.8919455255136
 20
358.03612156838079
 30
0.0
 11
-5797.8919455255136
 21
604.03612156838085
 31
0.0
  0
LINE
  5
7DA2
  8
1
 10
-5747.8919455255136
 20
358.03612156838079
 30
0.0
 11
-5677.8919455255154
 21
358.03612156838102
 31
0.0
  0
ARC
  5
7DA3
  8
1
 10
-5828.3919455255136
 20
343.53612156838079
 30
0.0
 40
6.5
 50
0.0
 51
90.0
  0
LINE
  5
7DA4
  8
1
 10
-5813.3919455255136
 20
304.03612156838079
 30
0.0
 11
-5817.8919455255154
 21
304.03612156838079
 31
0.0
  0
LINE
  5
7DA5
  8
1
 10
-5817.8919455255154
 20
304.03612156838079
 30
0.0
 11
-5818.8919455255136
 21
304.03612156838079
 31
0.0
  0
ARC
  5
7DA6
  8
1
 10
-5818.8919455255136
 20
307.03612156838079
 30
0.0
 40
3.0
 50
180.00000000000031
 51
270.0
  0
LINE
  5
7DA7
  8
1
 10
-5817.8919455255154
 20
354.03612156838079
 30
0.0
 11
-5817.8919455255154
 21
304.03612156838079
 31
0.0
  0
LINE
  5
7DA8
  8
1
 10
-5797.8919455255136
 20
1089.0361215683811
 30
0.0
 11
-5627.8919455255154
 21
1089.0361215683811
 31
0.0
  0
LINE
  5
7DA9
  8
1
 10
-5797.8919455255136
 20
1104.0361215683799
 30
0.0
 11
-5627.8919455255154
 21
1104.0361215683799
 31
0.0
  0
LINE
  5
7DAA
  8
1
 10
-5762.8919455255136
 20
914.03612156838085
 30
0.0
 11
-5662.8919455255136
 21
914.03612156838085
 31
0.0
  0
LINE
  5
7DAB
  8
1
 10
-5762.8919455255136
 20
794.03612156838085
 30
0.0
 11
-5662.8919455255136
 21
794.03612156838085
 31
0.0
  0
LINE
  5
7DAC
  8
1
 10
-5762.8919455255136
 20
914.03612156838085
 30
0.0
 11
-5762.8919455255136
 21
794.03612156838085
 31
0.0
  0
LINE
  5
7DAD
  8
1
 10
-5662.8919455255136
 20
914.03612156838085
 30
0.0
 11
-5662.8919455255136
 21
794.03612156838085
 31
0.0
  0
LINE
  5
7DAE
  8
1
 10
-5030.2015884743232
 20
326.53612156838079
 30
0.0
 11
-4984.2083714778864
 21
326.53612156838079
 31
0.0
  0
LINE
  5
7DB1
  8
1
 10
-4997.3919455255154
 20
350.03612156838079
 30
0.0
 11
-4960.8919455255136
 21
350.03612156838079
 31
0.0
  0
LINE
  5
7DB2
  8
1
 10
-4957.8919455255136
 20
354.03612156838079
 30
0.0
 11
-4957.8919455255136
 21
353.03612156838079
 31
0.0
  0
ARC
  5
7DB3
  8
1
 10
-4960.8919455255136
 20
353.03612156838079
 30
0.0
 40
3.0
 50
270.0
 51
0.0
  0
LINE
  5
7DB4
  8
1
 10
-4957.8919455255136
 20
354.03612156838079
 30
0.0
 11
-4957.8919455255136
 21
353.03612156838079
 31
0.0
  0
LINE
  5
7DB5
  8
1
 10
-5012.3919455255136
 20
304.03612156838079
 30
0.0
 11
-5007.8919455255136
 21
304.03612156838079
 31
0.0
  0
LINE
  5
7DB6
  8
1
 10
-5007.8919455255136
 20
304.03612156838079
 30
0.0
 11
-5006.8919455255154
 21
304.03612156838079
 31
0.0
  0
ARC
  5
7DB7
  8
1
 10
-5006.8919455255154
 20
307.03612156838079
 30
0.0
 40
3.0
 50
270.0
 51
359.9999999999996
  0
LINE
  5
7DB8
  8
1
 10
-5007.8919455255136
 20
304.03612156838079
 30
0.0
 11
-5006.8919455255154
 21
304.03612156838079
 31
0.0
  0
LINE
  5
7DB9
  8
1
 10
-5007.8919455255136
 20
354.03612156838079
 30
0.0
 11
-5007.8919455255136
 21
304.03612156838079
 31
0.0
  0
LINE
  5
7DBA
  8
1
 10
-5007.8919455255136
 20
354.03612156838079
 30
0.0
 11
-5007.8919455255136
 21
304.03612156838079
 31
0.0
  0
LINE
  5
7DBB
  8
1
 10
-5007.8919455255136
 20
354.03612156838079
 30
0.0
 11
-4957.8919455255136
 21
354.03612156838079
 31
0.0
  0
ARC
  5
7DBC
  8
1
 10
-4997.3919455255154
 20
343.53612156838079
 30
0.0
 40
6.5
 50
90.0
 51
180.0
  0
LINE
  5
7DCC
  8
1
 10
-5813.3919455255136
 20
1358.5361215683811
 30
0.0
 11
-5012.3919455255136
 21
1358.5361215683811
 31
0.0
  0
LINE
  5
7DD0
  8
1
 10
-5828.3919455255136
 20
1358.0361215683799
 30
0.0
 11
-5864.8919455255136
 21
1358.0361215683799
 31
0.0
  0
LINE
  5
7DD1
  8
1
 10
-5835.082930847374
 20
1381.5361215683811
 30
0.0
 11
-5796.7552450241847
 21
1381.5361215683799
 31
0.0
  0
LINE
  5
7DD2
  8
1
 10
-5867.8919455255136
 20
1354.0361215683799
 30
0.0
 11
-5867.8919455255136
 21
1355.0361215683811
 31
0.0
  0
ARC
  5
7DD3
  8
1
 10
-5864.8919455255136
 20
1355.0361215683811
 30
0.0
 40
3.0
 50
90.0
 51
180.0
  0
LINE
  5
7DDD
  8
1
 10
-5747.8919455255136
 20
1350.0361215683799
 30
0.0
 11
-5677.8919455255154
 21
1350.0361215683799
 31
0.0
  0
LINE
  5
7DDF
  8
1
 10
-5813.3919455255136
 20
1404.0361215683811
 30
0.0
 11
-5817.8919455255154
 21
1404.0361215683799
 31
0.0
  0
LINE
  5
7DE0
  8
1
 10
-5817.8919455255154
 20
1404.0361215683799
 30
0.0
 11
-5818.8919455255136
 21
1404.0361215683799
 31
0.0
  0
ARC
  5
7DE1
  8
1
 10
-5818.8919455255136
 20
1401.0361215683799
 30
0.0
 40
3.0
 50
90.0
 51
179.9999999999996
  0
ARC
  5
7DE2
  8
1
 10
-5828.3919455255136
 20
1364.5361215683799
 30
0.0
 40
6.5
 50
270.0
 51
0.0
  0
LINE
  5
7DE3
  8
1
 10
-5817.8919455255154
 20
1354.0361215683799
 30
0.0
 11
-5817.8919455255154
 21
1404.0361215683799
 31
0.0
  0
LINE
  5
7E29
  8
1
 10
-5030.2015884743232
 20
1381.5361215683811
 30
0.0
 11
-4984.2083714778864
 21
1381.5361215683811
 31
0.0
  0
LINE
  5
7E88
  8
1
 10
-4997.3919455255154
 20
1358.0361215683799
 30
0.0
 11
-4960.8919455255136
 21
1358.0361215683799
 31
0.0
  0
LINE
  5
7E89
  8
1
 10
-4957.8919455255136
 20
1354.0361215683799
 30
0.0
 11
-4957.8919455255136
 21
1355.0361215683811
 31
0.0
  0
ARC
  5
7E8A
  8
1
 10
-4960.8919455255136
 20
1355.0361215683811
 30
0.0
 40
3.0
 50
0.0
 51
90.0
  0
LINE
  5
7E8B
  8
1
 10
-5012.3919455255136
 20
1404.0361215683811
 30
0.0
 11
-5007.8919455255136
 21
1404.0361215683799
 31
0.0
  0
LINE
  5
7E8C
  8
1
 10
-5007.8919455255136
 20
1404.0361215683799
 30
0.0
 11
-5006.8919455255154
 21
1404.0361215683799
 31
0.0
  0
ARC
  5
7E8D
  8
1
 10
-5006.8919455255154
 20
1401.0361215683799
 30
0.0
 40
3.0
 50
0.0000000000003053
 51
90.0
  0
LINE
  5
7E8E
  8
1
 10
-5007.8919455255136
 20
1354.0361215683799
 30
0.0
 11
-5007.8919455255136
 21
1404.0361215683799
 31
0.0
  0
ARC
  5
7E8F
  8
1
 10
-4997.3919455255154
 20
1364.5361215683799
 30
0.0
 40
6.5
 50
180.0
 51
270.0
  0
LINE
  5
7E90
  8
1
 10
-4007.9014777753332
 20
484.03612156838079
 30
0.0
 11
-4007.9014777753332
 21
224.03612156838079
 31
0.0
  0
LINE
  5
7E93
  8
1
 10
-3975.6633716814199
 20
504.03612156838079
 30
0.0
 11
-4007.9014777753332
 21
484.03612156838079
 31
0.0
  0
LINE
  5
7E94
  8
1
 10
-3827.9014777753318
 20
433.20361331836477
 30
0.0
 11
-3820.245609589399
 21
430.88247516659402
 31
0.0
  0
LINE
  5
7EC7
  8
2
 10
-3557.9014777753332
 20
29.484444975776789
 30
0.0
 11
-3557.9014777753332
 21
1620.559392157453
 31
0.0
  0
LINE
  5
7EC8
  8
1
 10
-3107.9014777753332
 20
484.03612156838079
 30
0.0
 11
-3107.9014777753332
 21
224.03612156838079
 31
0.0
  0
LINE
  5
7EF6
  8
1
 10
-3287.9014777753318
 20
433.20361331836477
 30
0.0
 11
-3295.5573459612651
 21
430.88247516659402
 31
0.0
  0
LINE
  5
7EF7
  8
1
 10
-3140.1395838692461
 20
504.03612156838079
 30
0.0
 11
-3107.9014777753332
 21
484.03612156838079
 31
0.0
  0
POINT
  5
7EF8
  8
1
 10
-2982.9014777753332
 20
854.03612156838085
 30
0.0
  0
LINE
  5
7F2C
  8
2
 10
-3977.901477775335
 20
107.0896599256084
 30
0.0
 11
-3977.9014777753332
 21
246.81069298867999
 31
0.0
  0
LINE
  5
7F2D
  8
2
 10
-3137.901477775335
 20
107.0896599256084
 30
0.0
 11
-3137.9014777753332
 21
246.81069298867999
 31
0.0
  0
LINE
  5
7F2E
  8
1
 10
-5813.3919455255136
 20
504.03612156838079
 30
0.0
 11
-5813.3919455255136
 21
224.03612156838079
 31
0.0
  0
LINE
  5
7F2F
  8
1
 10
-5813.3919455255136
 20
224.03612156838079
 30
0.0
 11
-5743.3919455255136
 21
224.03612156838079
 31
0.0
  0
LINE
  5
7F30
  8
1
 10
-5807.3919455255136
 20
504.03612156838079
 30
0.0
 11
-5807.3919455255127
 21
230.03612156838079
 31
0.0
  0
LINE
  5
7F31
  8
1
 10
-5807.3919455255127
 20
230.03612156838079
 30
0.0
 11
-5743.3919455255136
 21
230.03612156838079
 31
0.0
  0
LINE
  5
7F32
  8
1
 10
-5813.3919455255136
 20
504.03612156838079
 30
0.0
 11
-5807.3919455255136
 21
504.03612156838079
 31
0.0
  0
LINE
  5
7F33
  8
1
 10
-5743.3919455255136
 20
224.03612156838079
 30
0.0
 11
-5743.3919455255127
 21
230.03612156838079
 31
0.0
  0
LINE
  5
7F34
  8
1
 10
-5018.3919455255154
 20
504.03612156838079
 30
0.0
 11
-5018.3919455255154
 21
230.03612156838079
 31
0.0
  0
LINE
  5
7F35
  8
1
 10
-5012.3919455255136
 20
504.03612156838079
 30
0.0
 11
-5012.3919455255136
 21
224.03612156838079
 31
0.0
  0
LINE
  5
7F36
  8
1
 10
-5018.3919455255154
 20
230.03612156838079
 30
0.0
 11
-5082.3919455255154
 21
230.03612156838079
 31
0.0
  0
LINE
  5
7F37
  8
1
 10
-5012.3919455255136
 20
224.03612156838079
 30
0.0
 11
-5082.3919455255154
 21
224.03612156838079
 31
0.0
  0
LINE
  5
7F38
  8
1
 10
-5082.3919455255154
 20
224.03612156838079
 30
0.0
 11
-5082.3919455255154
 21
230.03612156838079
 31
0.0
  0
LINE
  5
7F39
  8
1
 10
-5012.3919455255136
 20
504.03612156838079
 30
0.0
 11
-5018.3919455255154
 21
504.03612156838079
 31
0.0
  0
LINE
  5
7F3A
  8
2
 10
-5767.8919455255154
 20
260.67349335554547
 30
0.0
 11
-5767.8919455255154
 21
108.8899069340586
 31
0.0
  0
LINE
  5
7F3B
  8
2
 10
-5057.8919455255154
 20
260.67349335554547
 30
0.0
 11
-5057.8919455255154
 21
104.9754142625206
 31
0.0
  0
LINE
  5
7F3C
  8
1
 10
-5607.3919455255136
 20
410.27914979216138
 30
0.0
 11
-5807.3919455255136
 21
410.27914979216138
 31
0.0
  0
LINE
  5
7F3D
  8
1
 10
-5607.3919455255136
 20
410.27914979216138
 30
0.0
 11
-5747.3919455255136
 21
230.03612156838079
 31
0.0
  0
LINE
  5
7F3E
  8
1
 10
-5218.3919455255136
 20
410.27914979216092
 30
0.0
 11
-5078.3919455255136
 21
230.03612156838031
 31
0.0
  0
LINE
  5
7F3F
  8
1
 10
-5218.3919455255136
 20
410.27914979216092
 30
0.0
 11
-5018.3919455255154
 21
410.27914979216092
 31
0.0
  0
DIMENSION
  5
7F43
  8
3
  2
*D1
 10
-5007.8919455255136
 20
1864.0873529643329
 30
0.0
 11
-5412.8919455255136
 21
1904.0873529643341
 31
0.0
 70
     0
 13
-5817.8919455255154
 23
1404.0361215683799
 33
0.0
 14
-5007.8919455255136
 24
1404.0361215683799
 34
0.0
1001
ACAD
1000
DSTYLE
1002
{
1070
    40
1040
20.0
1070
    42
1040
0.5
1070
   271
1070
     0
1002
}
  0
LINE
  5
7F44
  8
1
 10
-5867.8919455255136
 20
1354.0361215683799
 30
0.0
 11
-5817.8919455255154
 21
1354.0361215683799
 31
0.0
  0
LINE
  5
7F45
  8
1
 10
-5867.8919455255136
 20
354.03612156838079
 30
0.0
 11
-5817.8919455255154
 21
354.03612156838079
 31
0.0
  0
LINE
  5
7F46
  8
1
 10
-5007.8919455255136
 20
354.03612156838091
 30
0.0
 11
-4957.8919455255136
 21
354.03612156838091
 31
0.0
  0
LINE
  5
7F47
  8
1
 10
-5007.8919455255136
 20
1354.0361215683799
 30
0.0
 11
-4957.8919455255136
 21
1354.0361215683799
 31
0.0
  0
DIMENSION
  5
7F48
  8
3
  2
*D2
 10
-6024.2022918753482
 20
354.03612156838079
 30
0.0
 11
-6064.2022918753482
 21
854.03612156838051
 31
0.0
 12
-8065.0471193488866
 22
-433.4916590559223
 32
0.0
 70
     0
 13
-5867.8919455255136
 23
1354.0361215683799
 33
0.0
 14
-5867.8919455255136
 24
354.03612156838079
 34
0.0
 50
90.0
1001
ACAD
1000
DSTYLE
1002
{
1070
    40
1040
20.0
1070
     3
1000
φ<>
1070
    42
1040
0.5
1070
   271
1070
     0
1002
}
  0
DIMENSION
  5
7F49
  8
3
  2
*D3
 10
-4781.8228608769768
 20
354.03612156838091
 30
0.0
 11
-4821.8228608769768
 21
854.03612156838085
 31
0.0
 12
-8065.0471193488866
 22
-433.4916590559223
 32
0.0
 70
     0
 13
-4957.8919455255136
 23
1354.0361215683799
 33
0.0
 14
-4957.8919455255136
 24
354.03612156838091
 34
0.0
 50
90.0
1001
ACAD
1000
DSTYLE
1002
{
1070
    40
1040
20.0
1070
     3
1000
φ<>
1070
    42
1040
0.5
1070
   271
1070
     0
1002
}
  0
DIMENSION
  5
7F4B
  8
3
  2
*D4
 10
-3007.9014777753332
 20
1856.1876942025101
 30
0.0
 11
-3557.9014777753332
 21
1896.187694202509
 31
0.0
 70
     0
 13
-4107.9014777753328
 23
854.03612156838085
 33
0.0
 14
-3007.9014777753332
 24
854.03612156838085
 34
0.0
1001
ACAD
1000
DSTYLE
1002
{
1070
    40
1040
20.0
1070
    42
1040
0.5
1070
   271
1070
     0
1002
}
  0
DIMENSION
  5
7F4C
  8
3
  2
*D5
 10
-4364.2753381102857
 20
854.03612156838085
 30
0.0
 11
-4404.2753381102866
 21
539.03612156838085
 31
0.0
 12
-8065.0471193488866
 22
-433.4916590559223
 32
0.0
 70
     0
 13
-4007.9014777753332
 23
224.03612156838079
 33
0.0
 14
-4247.3696492348372
 24
854.03612156838085
 34
0.0
 50
90.0
1001
ACAD
1000
DSTYLE
1002
{
1070
    40
1040
20.0
1070
    42
1040
0.5
1070
   271
1070
     0
1002
}
  0
LINE
  5
8006
  8
4
 10
-3046.4204398848628
 20
-817.20337344081042
 30
0.0
 11
-3046.4204398848628
 21
-1217.2033734408101
 31
0.0
  0
LINE
  5
8007
  8
4
 10
-4446.4204398848633
 20
-817.20337344081042
 30
0.0
 11
-4446.4204398848642
 21
-1217.2033734408101
 31
0.0
  0
LINE
  5
8008
  8
4
 10
-5446.4204398848642
 20
-817.20337344081042
 30
0.0
 11
-5446.4204398848642
 21
-1217.2033734408101
 31
0.0
  0
LINE
  5
800B
  8
4
 10
-5446.4204398848642
 20
-1217.2033734408101
 30
0.0
 11
-3046.4204398848628
 21
-1217.2033734408101
 31
0.0
  0
LINE
  5
800C
  8
4
 10
-5446.4204398848642
 20
-1017.20337344081
 30
0.0
 11
-3046.4204398848628
 21
-1017.20337344081
 31
0.0
  0
TEXT
  5
800D
  8
4
 10
-5369.41627819106
 20
-954.11732170758467
 30
0.0
 40
100.0
  1
機器名称
  0
TEXT
  5
800E
  8
4
 10
-5373.9042278352681
 20
-1173.913059976788
 30
0.0
 40
100.0
  1
機器型番
  0
TEXT
  5
800F
  8
4
 10
-4391.0629489095327
 20
-972.05983552567341
 30
0.0
 40
100.0
  1
ミツヤ軸流ファン
  0
TEXT
  5
8010
  8
4
 10
-4373.1114487139021
 20
-1182.8842048809231
 30
0.0
 40
100.0
  1
AP＃1000-1
  0
TEXT
  5
8012
  8
4
 10
-5064.0605725408959
 20
2949.6543092242209
 30
0.0
 40
107.9999999999999
  1
床置防振ベット
  0
TEXT
  5
8013
  8
4
 10
-6114.0852532259714
 20
3250.5585789577849
 30
0.0
 40
144.0
  1
電動機直動式横型軸流ファン
  0
LINE
  5
8014
  8
4
 10
-6246.4204398848642
 20
3121.6141350887988
 30
0.0
 11
-3046.4204398848628
 21
3121.6141350887988
 31
0.0
  0
LINE
  5
8015
  8
4
 10
-6246.4204398848642
 20
3521.6141350887988
 30
0.0
 11
-3046.4204398848628
 21
3521.6141350887988
 31
0.0
  0
LINE
  5
8016
  8
4
 10
-5446.4204398848642
 20
-817.20337344081042
 30
0.0
 11
-3046.4204398848628
 21
-817.20337344081042
 31
0.0
  0
LINE
  5
8017
  8
4
 10
-6246.4204398848642
 20
3521.6141350887988
 30
0.0
 11
-6246.4204398848642
 21
3121.6141350887988
 31
0.0
  0
TEXT
  5
8018
  8
4
 10
-6105.4642621031298
 20
2947.4355816518769
 30
0.0
 40
107.9999999999999
  1
左回転後方吐出
  0
TEXT
  5
8019
  8
4
 10
-3808.4813213862831
 20
3594.9187895498071
 30
0.0
 40
112.0
  1
No.
  0
TEXT
  5
801A
  8
4
 10
-4123.8283146848371
 20
2949.6543092242209
 30
0.0
 40
107.9999999999999
  1
縮尺：1/20
  0
LINE
  5
801B
  8
4
 10
-3046.4204398848628
 20
3521.6141350887988
 30
0.0
 11
-3046.4204398848628
 21
3121.6141350887988
 31
0.0
  0
LINE
  5
801C
  8
4
 10
-2546.4204398848628
 20
4082.796626559189
 30
0.0
 11
-2546.4204398848628
 21
4082.796626559189
 31
0.0
  0
LINE
  5
801D
  8
4
 10
-3865.1855951651341
 20
3545.3237928099911
 30
0.0
 11
-3865.1855951651341
 21
3756.1011496586939
 31
0.0
  0
LINE
  5
801E
  8
4
 10
-3865.1855951651341
 20
3756.1011496586939
 30
0.0
 11
-3046.4204398848628
 21
3756.1011496586939
 31
0.0
  0
LINE
  5
801F
  8
4
 10
-3046.4204398848628
 20
3756.1011496586939
 30
0.0
 11
-3046.4204398848628
 21
3545.3237928099911
 31
0.0
  0
LINE
  5
8020
  8
4
 10
-3046.4204398848628
 20
3545.3237928099911
 30
0.0
 11
-3865.1855951651341
 21
3545.3237928099911
 31
0.0
  0
LINE
  5
8021
  8
4
 10
-6746.4204398848642
 20
-1817.2033734408101
 30
0.0
 11
-6746.4204398848642
 21
4082.796626559189
 31
0.0
  0
LINE
  5
8022
  8
4
 10
-6746.4204398848642
 20
4082.796626559189
 30
0.0
 11
-2546.4204398848628
 21
4082.796626559189
 31
0.0
  0
LINE
  5
8023
  8
4
 10
-2546.4204398848628
 20
4082.796626559189
 30
0.0
 11
-2546.4204398848628
 21
-1817.2033734408101
 31
0.0
  0
LINE
  5
8024
  8
4
 10
-2546.4204398848628
 20
-1817.2033734408101
 30
0.0
 11
-6746.4204398848642
 21
-1817.2033734408101
 31
0.0
  0
LINE
  5
802C
  8
1
 10
-5743.3919455255136
 20
224.03612156838079
 30
0.0
 11
-5082.3919455255154
 21
224.03612156838079
 31
0.0
  0
LINE
  5
802D
  8
1
 10
-5743.3919455255136
 20
233.03612156838079
 30
0.0
 11
-5082.3919455255154
 21
233.03612156838079
 31
0.0
  0
LINE
  5
802E
  8
1
 10
-5867.8919455255136
 20
129.03612156838079
 30
0.0
 11
-4957.8919455255136
 21
129.03612156838079
 31
0.0
  0
LINE
  5
8030
  8
1
 10
-5867.8919455255136
 20
129.03612156838091
 30
0.0
 11
-5867.8919455255136
 21
79.036121568380878
 31
0.0
  0
LINE
  5
8031
  8
1
 10
-4957.8919455255136
 20
129.03612156838079
 30
0.0
 11
-4957.8919455255127
 21
79.036121568380793
 31
0.0
  0
LINE
  5
8032
  8
1
 10
-5867.8919455255136
 20
79.036121568380878
 30
0.0
 11
-4957.8919455255136
 21
79.036121568380793
 31
0.0
  0
LINE
  5
8038
  8
1
 10
-4207.9014777753318
 20
79.036121568380793
 30
0.0
 11
-2907.9014777753332
 21
79.036121568380793
 31
0.0
  0
LINE
  5
8039
  8
1
 10
-4207.9014777753318
 20
129.03612156838079
 30
0.0
 11
-2907.9014777753332
 21
129.03612156838079
 31
0.0
  0
LINE
  5
803A
  8
1
 10
-4207.9014777753318
 20
79.036121568380793
 30
0.0
 11
-4207.9014777753318
 21
129.03612156838079
 31
0.0
  0
LINE
  5
803B
  8
1
 10
-2907.9014777753318
 20
79.036121568380793
 30
0.0
 11
-2907.9014777753332
 21
129.03612156838079
 31
0.0
  0
DIMENSION
  5
8059
  8
3
  2
*D6
 10
-4364.2753381102857
 20
129.03612156838079
 30
0.0
 11
-4494.2753381102866
 21
220.5361215683802
 31
0.0
 70
     0
 13
-4007.9014777753332
 23
224.03612156838079
 33
0.0
 14
-4207.9014777753318
 24
129.03612156838079
 34
0.0
 50
90.0
1001
ACAD
1000
DSTYLE
1002
{
1070
   287
1070
     4
1070
   287
1070
     4
1070
   287
1070
     4
1070
    40
1040
20.0
1070
    75
1070
     1
1070
   143
1040
0.039
1070
   172
1070
     1
1070
   271
1070
     0
1070
   279
1070
     1
1070
   288
1070
     1
1070
     7
1000
DOT
1002
}
  0
DIMENSION
  5
8069
  8
3
  2
*D7
 10
-4364.2753381102857
 20
79.036121568380835
 30
0.0
 11
-4414.2753381102857
 21
-69.535307003048416
 31
0.0
 70
     0
 13
-4207.9014777753318
 23
129.03612156838079
 33
0.0
 14
-4207.9014777753318
 24
79.036121568380793
 34
0.0
 50
90.0
1001
ACAD
1000
DSTYLE
1002
{
1070
   287
1070
     1
1070
   287
1070
     1
1070
   287
1070
     1
1070
    40
1040
20.0
1070
    75
1070
     1
1070
   143
1040
0.039
1070
   172
1070
     1
1070
   271
1070
     0
1070
   279
1070
     0
1070
   288
1070
     1
1070
   289
1070
     1
1070
     6
1000
DOT
1002
}
  0
DIMENSION
  5
80BC
  8
3
  2
*D9
 10
-4957.8919455255127
 20
-77.469736925166217
 30
0.0
 11
-5423.4282567646733
 21
-77.469736925166217
 31
0.0
 70
   128
 13
-5867.8919455255136
 23
79.036121568380878
 33
0.0
 14
-4957.8919455255127
 24
79.036121568380793
 34
0.0
1001
ACAD
1000
DSTYLE
1002
{
1070
   287
1070
     3
1070
   287
1070
     3
1070
   287
1070
     3
1070
    40
1040
20.0
1070
   143
1040
0.039
1070
   172
1070
     1
1070
   271
1070
     0
1070
   279
1070
     0
1070
   288
1070
     1
1002
}
  0
DIMENSION
  5
80C9
  8
3
  2
*D10
 10
-2907.9014777753318
 20
-82.520304500809274
 30
0.0
 11
-3588.3478518417028
 21
-82.520304500809274
 31
0.0
 70
   128
 13
-4207.9014777753318
 23
79.036121568380793
 33
0.0
 14
-2907.9014777753318
 24
79.036121568380793
 34
0.0
1001
ACAD
1000
DSTYLE
1002
{
1070
   287
1070
     3
1070
   287
1070
     3
1070
   287
1070
     3
1070
    40
1040
20.0
1070
   143
1040
0.039
1070
   172
1070
     1
1070
   271
1070
     0
1070
   279
1070
     0
1070
   288
1070
     1
1002
}
  0
ENDSEC
  0
EOF
