  0
SECTION
  2
HEADER
  9
$ACADVER
  1
AC1009
  9
$INSBASE
 10
0.0
 20
0.0
 30
0.0
  9
$EXTMIN
 10
-6746.4204398848642
 20
-1817.2033734408101
 30
0.0
  9
$EXTMAX
 10
-2546.4204398848628
 20
4082.796626559189
 30
0.0
  9
$LIMMIN
 10
0.0
 20
0.0
  9
$LIMMAX
 10
297.0
 20
210.0
  9
$ORTHOMODE
 70
     0
  9
$REGENMODE
 70
     1
  9
$FILLMODE
 70
     0
  9
$QTEXTMODE
 70
     0
  9
$MIRRTEXT
 70
     1
  9
$DRAGMODE
 70
     2
  9
$LTSCALE
 40
100.0
  9
$OSMODE
 70
    37
  9
$ATTMODE
 70
     1
  9
$TEXTSIZE
 40
180.0
  9
$TRACEWID
 40
0.05
  9
$TEXTSTYLE
  7
STANDARD
  9
$CLAYER
  8
3
  9
$CELTYPE
  6
BYLAYER
  9
$CECOLOR
 62
   256
  9
$DIMSCALE
 40
20.0
  9
$DIMASZ
 40
2.0
  9
$DIMEXO
 40
0.5
  9
$DIMDLI
 40
10.0
  9
$DIMRND
 40
0.0
  9
$DIMDLE
 40
0.0
  9
$DIMEXE
 40
1.0
  9
$DIMTP
 40
1.0
  9
$DIMTM
 40
1.0
  9
$DIMTXT
 40
3.0
  9
$DIMCEN
 40
0.0
  9
$DIMTSZ
 40
0.0
  9
$DIMTOL
 70
     0
  9
$DIMLIM
 70
     0
  9
$DIMTIH
 70
     0
  9
$DIMTOH
 70
     0
  9
$DIMSE1
 70
     0
  9
$DIMSE2
 70
     0
  9
$DIMTAD
 70
     1
  9
$DIMZIN
 70
     8
  9
$DIMBLK
  1

  9
$DIMASO
 70
     1
  9
$DIMSHO
 70
     1
  9
$DIMPOST
  1

  9
$DIMAPOST
  1

  9
$DIMALT
 70
     0
  9
$DIMALTD
 70
     2
  9
$DIMALTF
 40
0.039
  9
$DIMLFAC
 40
1.0
  9
$DIMTOFL
 70
     1
  9
$DIMTVP
 40
0.0
  9
$DIMTIX
 70
     0
  9
$DIMSOXD
 70
     0
  9
$DIMSAH
 70
     1
  9
$DIMBLK1
  1
OPEN
  9
$DIMBLK2
  1
OPEN
  9
$DIMSTYLE
  2
IGA
  9
$DIMCLRD
 70
     0
  9
$DIMCLRE
 70
     0
  9
$DIMCLRT
 70
     0
  9
$DIMTFAC
 40
10.0
  9
$DIMGAP
 40
1.0
  9
$LUNITS
 70
     2
  9
$LUPREC
 70
     3
  9
$SKETCHINC
 40
0.1
  9
$FILLETRAD
 40
50.0
  9
$AUNITS
 70
     0
  9
$AUPREC
 70
     0
  9
$MENU
  1
acad
  9
$ELEVATION
 40
0.0
  9
$PELEVATION
 40
0.0
  9
$THICKNESS
 40
0.0
  9
$LIMCHECK
 70
     0
  9
$BLIPMODE
 70
     0
  9
$CHAMFERA
 40
0.5
  9
$CHAMFERB
 40
0.5
  9
$SKPOLY
 70
     0
  9
$TDCREATE
 40
2453249.427640046
  9
$TDUPDATE
 40
2454953.6239579632
  9
$TDINDWG
 40
0.0410799306
  9
$TDUSRTIMER
 40
0.0410799306
  9
$USRTIMER
 70
     1
  9
$ANGBASE
 50
0.0
  9
$ANGDIR
 70
     0
  9
$PDMODE
 70
     0
  9
$PDSIZE
 40
0.0
  9
$PLINEWID
 40
0.0
  9
$COORDS
 70
     1
  9
$SPLFRAME
 70
     0
  9
$SPLINETYPE
 70
     6
  9
$SPLINESEGS
 70
     8
  9
$ATTDIA
 70
     0
  9
$ATTREQ
 70
     1
  9
$HANDLING
 70
 10241
  9
$HANDSEED
  5
8C5B
  9
$SURFTAB1
 70
     6
  9
$SURFTAB2
 70
     6
  9
$SURFTYPE
 70
     6
  9
$SURFU
 70
     6
  9
$SURFV
 70
     6
  9
$UCSNAME
  2

  9
$UCSORG
 10
0.0
 20
0.0
 30
0.0
  9
$UCSXDIR
 10
1.0
 20
0.0
 30
0.0
  9
$UCSYDIR
 10
0.0
 20
1.0
 30
0.0
  9
$PUCSNAME
  2

  9
$PUCSORG
 10
0.0
 20
0.0
 30
0.0
  9
$PUCSXDIR
 10
1.0
 20
0.0
 30
0.0
  9
$PUCSYDIR
 10
0.0
 20
1.0
 30
0.0
  9
$USERI1
 70
     0
  9
$USERI2
 70
     0
  9
$USERI3
 70
     0
  9
$USERI4
 70
     0
  9
$USERI5
 70
     0
  9
$USERR1
 40
0.0
  9
$USERR2
 40
0.0
  9
$USERR3
 40
0.0
  9
$USERR4
 40
0.0
  9
$USERR5
 40
0.0
  9
$WORLDVIEW
 70
     1
  9
$SHADEDGE
 70
     3
  9
$SHADEDIF
 70
    70
  9
$TILEMODE
 70
     1
  9
$MAXACTVP
 70
    16
  9
$PLIMCHECK
 70
     0
  9
$PEXTMIN
 10
1.0000000000000000E+020
 20
1.0000000000000000E+020
 30
1.0000000000000000E+020
  9
$PEXTMAX
 10
-1.0000000000000000E+020
 20
-1.0000000000000000E+020
 30
-1.0000000000000000E+020
  9
$PLIMMIN
 10
0.0
 20
0.0
  9
$PLIMMAX
 10
12.0
 20
9.0
  9
$UNITMODE
 70
     0
  9
$VISRETAIN
 70
     0
  9
$PLINEGEN
 70
     0
  9
$PSLTSCALE
 70
     1
  0
ENDSEC
  0
SECTION
  2
TABLES
  0
TABLE
  2
VPORT
 70
     2
  0
VPORT
  2
*ACTIVE
 70
     0
 10
0.0
 20
0.0
 11
1.0
 21
1.0
 12
-2869.503241544242
 22
-1122.7175637534799
 13
0.0
 23
0.0
 14
10.0
 24
10.0
 15
10.0
 25
10.0
 16
0.0
 26
0.0
 36
1.0
 17
0.0
 27
0.0
 37
0.0
 40
1780.631760261072
 41
3.1666666666666661
 42
50.0
 43
0.0
 44
0.0
 50
0.0
 51
0.0
 71
     0
 72
   100
 73
     1
 74
     0
 75
     0
 76
     0
 77
     0
 78
     0
  0
ENDTAB
  0
TABLE
  2
LTYPE
 70
     2
  0
LTYPE
  2
CONTINUOUS
 70
     0
  3
Solid line
 72
    65
 73
     0
 40
0.0
  0
LTYPE
  2
CENTER
 70
     0
  3
____ _ ____ _ ____ _ ____ _ ____ _ ____ _ ____ 
 72
    65
 73
     4
 40
2.0
 49
1.25
 49
-0.25
 49
0.25
 49
-0.25
  0
ENDTAB
  0
TABLE
  2
LAYER
 70
     6
  0
LAYER
  2
0
 70
     0
 62
     7
  6
CONTINUOUS
  0
LAYER
  2
3
 70
     0
 62
     2
  6
CONTINUOUS
  0
LAYER
  2
2
 70
     0
 62
     3
  6
CENTER
  0
LAYER
  2
1
 70
     0
 62
     4
  6
CONTINUOUS
  0
LAYER
  2
4
 70
     0
 62
     7
  6
CONTINUOUS
  0
LAYER
  2
DEFPOINTS
 70
     0
 62
     7
  6
CONTINUOUS
  0
ENDTAB
  0
TABLE
  2
STYLE
 70
     1
  0
STYLE
  2
STANDARD
 70
     0
 40
0.0
 41
1.0
 50
0.0
 71
     0
 42
180.0
  3
simplex.shx
  4
extfont.shx
  0
ENDTAB
  0
TABLE
  2
VIEW
 70
     0
  0
ENDTAB
  0
TABLE
  2
UCS
 70
     0
  0
ENDTAB
  0
TABLE
  2
APPID
 70
     1
  0
APPID
  2
ACAD
 70
     0
  0
ENDTAB
  0
TABLE
  2
DIMSTYLE
 70
     3
  0
DIMSTYLE
  2
IGA
 70
     0
  3

  4

  5

  6
OPEN
  7
OPEN
 40
2.0
 41
2.0
 42
0.5
 43
10.0
 44
1.0
 45
0.0
 46
0.0
 47
1.0
 48
1.0
140
3.0
141
0.0
142
0.0
143
0.03937
144
1.0
145
0.0
146
10.0
147
1.0
 71
     0
 72
     0
 73
     0
 74
     0
 75
     0
 76
     0
 77
     1
 78
     8
170
     0
171
     2
172
     0
173
     1
174
     0
175
     0
176
     0
177
     0
178
     0
  0
DIMSTYLE
  2
MATSU
 70
     0
  3

  4

  5

  6
OPEN
  7
OPEN
 40
12.0
 41
2.0
 42
1.0
 43
10.0
 44
1.0
 45
0.0
 46
0.0
 47
0.0
 48
0.0
140
3.0
141
0.0
142
0.0
143
0.03937
144
1.0
145
0.0
146
1.0
147
0.5
 71
     0
 72
     0
 73
     0
 74
     0
 75
     0
 76
     0
 77
     1
 78
     8
170
     0
171
     2
172
     1
173
     1
174
     0
175
     0
176
   256
177
   256
178
   256
  0
DIMSTYLE
  2
STANDARD
 70
     0
  3

  4

  5

  6

  7

 40
1.0
 41
0.18
 42
0.0625
 43
0.38
 44
0.18
 45
0.0
 46
0.0
 47
0.0
 48
0.0
140
0.18
141
0.09
142
0.0
143
25.399999999999999
144
1.0
145
0.0
146
1.0
147
0.09
 71
     0
 72
     0
 73
     1
 74
     1
 75
     0
 76
     0
 77
     0
 78
     0
170
     0
171
     2
172
     0
173
     0
174
     0
175
     0
176
     0
177
     0
178
     0
  0
ENDTAB
  0
ENDSEC
  0
SECTION
  2
BLOCKS
  0
BLOCK
  8
0
  2
$MODEL_SPACE
 70
     0
 10
0.0
 20
0.0
 30
0.0
  3
$MODEL_SPACE
  1

  0
ENDBLK
  5
1B
  8
0
  0
BLOCK
 67
     1
  8
0
  2
$PAPER_SPACE
 70
     0
 10
0.0
 20
0.0
 30
0.0
  3
$PAPER_SPACE
  1

  0
ENDBLK
  5
18
 67
     1
  8
0
  0
BLOCK
  8
0
  2
_OPEN
 70
     0
 10
0.0
 20
0.0
 30
0.0
  3
_OPEN
  1

  0
LINE
  5
79FD
  8
0
  6
BYBLOCK
 62
     0
 10
-1.0
 20
0.1666666666666666
 30
0.0
 11
0.0
 21
0.0
 31
0.0
  0
LINE
  5
79FE
  8
0
  6
BYBLOCK
 62
     0
 10
0.0
 20
0.0
 30
0.0
 11
-1.0
 21
-0.1666666666666666
 31
0.0
  0
LINE
  5
79FF
  8
0
  6
BYBLOCK
 62
     0
 10
0.0
 20
0.0
 30
0.0
 11
-1.0
 21
0.0
 31
0.0
  0
ENDBLK
  5
7A01
  8
0
  0
BLOCK
  8
0
  2
*D1
 70
     1
 10
0.0
 20
0.0
 30
0.0
  3
*D1
  1

  0
LINE
  5
7FBA
  8
0
  6
BYBLOCK
 10
2187.1551738233738
 20
1787.527780624303
 30
0.0
 11
2020.844827473539
 21
1787.527780624303
 31
0.0
  0
LINE
  5
7FBB
  8
0
  6
BYBLOCK
 10
2187.1551738233738
 20
787.52778062430309
 30
0.0
 11
2020.844827473539
 21
787.52778062430309
 31
0.0
  0
LINE
  5
7FBC
  8
0
  6
BYBLOCK
 10
2040.844827473539
 20
1747.527780624303
 30
0.0
 11
2040.844827473539
 21
827.5277806243032
 31
0.0
  0
INSERT
  5
7FBD
  8
0
  6
BYBLOCK
  2
_OPEN
 10
2040.844827473539
 20
1787.527780624303
 30
0.0
 41
40.0
 42
40.0
 43
40.0
 50
90.0
  0
INSERT
  5
7FBE
  8
0
  6
BYBLOCK
  2
_OPEN
 10
2040.844827473539
 20
787.52778062430309
 30
0.0
 41
40.0
 42
40.0
 43
40.0
 50
270.0
  0
TEXT
  5
7FBF
  8
3
 10
2030.8448274735399
 20
1157.5277806243021
 30
0.0
 40
60.0
  1
φ1000
 50
90.0
  0
POINT
  5
7FC0
  8
DEFPOINTS
  6
BYBLOCK
 62
     0
 10
2197.1551738233738
 20
1787.527780624303
 30
0.0
  0
POINT
  5
7FC1
  8
DEFPOINTS
  6
BYBLOCK
 62
     0
 10
2197.1551738233738
 20
787.52778062430309
 30
0.0
  0
POINT
  5
7FC2
  8
DEFPOINTS
  6
BYBLOCK
 62
     0
 10
2040.844827473539
 20
787.52778062430309
 30
0.0
  0
ENDBLK
  5
7FC3
  8
0
  0
BLOCK
  8
0
  2
*D2
 70
     1
 10
0.0
 20
0.0
 30
0.0
  3
*D2
  1

  0
LINE
  5
8C25
  8
3
 62
     0
 10
-4157.9014777753318
 20
1735.744527037617
 30
0.0
 11
-4157.9014777753318
 21
1991.1809707172031
 31
0.0
  0
LINE
  5
8C26
  8
3
 62
     0
 10
-2957.9014777753332
 20
1698.9064988764251
 30
0.0
 11
-2957.9014777753332
 21
1991.1809707172031
 31
0.0
  0
LINE
  5
8C27
  8
3
 62
     0
 10
-4117.9014777753318
 20
1971.1809707172031
 30
0.0
 11
-2997.9014777753318
 21
1971.1809707172031
 31
0.0
  0
INSERT
  5
8C28
  8
3
 62
     0
  2
_OPEN
 10
-4157.9014777753318
 20
1971.1809707172031
 30
0.0
 41
40.0
 42
40.0
 43
40.0
 50
180.0
  0
INSERT
  5
8C29
  8
3
 62
     0
  2
_OPEN
 10
-2957.9014777753332
 20
1971.1809707172031
 30
0.0
 41
40.0
 42
40.0
 43
40.0
  0
TEXT
  8
3
  40
60
  5
8C56
  62
0
  72
0
  71
0
 10
-3688.24
 20
1914.98
 30
0.000000
  1
1200
  0
POINT
  5
8C2B
  8
DEFPOINTS
 62
     0
 10
-4157.9014777753318
 20
1725.744527037617
 30
0.0
  0
POINT
  5
8C2C
  8
DEFPOINTS
 62
     0
 10
-2957.9014777753332
 20
1688.9064988764251
 30
0.0
  0
POINT
  5
8C2D
  8
DEFPOINTS
 62
     0
 10
-2957.9014777753332
 20
1971.1809707172031
 30
0.0
  0
ENDBLK
  5
8A8F
  8
0
  0
BLOCK
  8
0
  2
*D3
 70
     1
 10
0.0
 20
0.0
 30
0.0
  3
*D3
  1

  0
LINE
  5
8C2E
  8
3
 62
     0
 10
-5817.8919455255154
 20
1414.0361215683799
 30
0.0
 11
-5817.8919455255154
 21
2013.264714726922
 31
0.0
  0
LINE
  5
8C2F
  8
3
 62
     0
 10
-5007.8919455255136
 20
1414.0361215683799
 30
0.0
 11
-5007.8919455255136
 21
2013.264714726922
 31
0.0
  0
LINE
  5
8C30
  8
3
 62
     0
 10
-5777.8919455255154
 20
1993.264714726922
 30
0.0
 11
-5047.8919455255136
 21
1993.264714726922
 31
0.0
  0
INSERT
  5
8C31
  8
3
 62
     0
  2
_OPEN
 10
-5817.8919455255154
 20
1993.264714726922
 30
0.0
 41
40.0
 42
40.0
 43
40.0
 50
180.0
  0
INSERT
  5
8C32
  8
3
 62
     0
  2
_OPEN
 10
-5007.8919455255136
 20
1993.264714726922
 30
0.0
 41
40.0
 42
40.0
 43
40.0
  0
TEXT
  8
3
  40
60
  5
8C57
  62
0
  72
0
  71
0
 10
-5561.99
 20
1937.06
 30
0.000000
  1
810
  0
POINT
  5
8C34
  8
DEFPOINTS
 62
     0
 10
-5817.8919455255154
 20
1404.0361215683799
 30
0.0
  0
POINT
  5
8C35
  8
DEFPOINTS
 62
     0
 10
-5007.8919455255136
 20
1404.0361215683799
 30
0.0
  0
POINT
  5
8C36
  8
DEFPOINTS
 62
     0
 10
-5007.8919455255136
 20
1993.264714726922
 30
0.0
  0
ENDBLK
  5
8A9C
  8
0
  0
BLOCK
  8
0
  2
*D4
 70
     1
 10
0.0
 20
0.0
 30
0.0
  3
*D4
  1

  0
LINE
  5
8C37
  8
3
 62
     0
 10
-5782.8919455255136
 20
1740.799604276792
 30
0.0
 11
-5782.8919455255136
 21
1844.200399691322
 31
0.0
  0
LINE
  5
8C38
  8
3
 62
     0
 10
-5042.8919455255136
 20
1740.799604276792
 30
0.0
 11
-5042.8919455255136
 21
1844.200399691322
 31
0.0
  0
LINE
  5
8C39
  8
3
 62
     0
 10
-5742.8919455255136
 20
1824.200399691322
 30
0.0
 11
-5082.8919455255136
 21
1824.200399691322
 31
0.0
  0
INSERT
  5
8C3A
  8
3
 62
     0
  2
_OPEN
 10
-5782.8919455255136
 20
1824.200399691322
 30
0.0
 41
40.0
 42
40.0
 43
40.0
 50
180.0
  0
INSERT
  5
8C3B
  8
3
 62
     0
  2
_OPEN
 10
-5042.8919455255136
 20
1824.200399691322
 30
0.0
 41
40.0
 42
40.0
 43
40.0
  0
TEXT
  8
3
  40
60
  5
8C58
  62
0
  72
0
  71
0
 10
-5540.29
 20
1768.00
 30
0.000000
  1
740
  0
POINT
  5
8C3D
  8
DEFPOINTS
 62
     0
 10
-5782.8919455255136
 20
1730.7996042767909
 30
0.0
  0
POINT
  5
8C3E
  8
DEFPOINTS
 62
     0
 10
-5042.8919455255136
 20
1730.7996042767909
 30
0.0
  0
POINT
  5
8C3F
  8
DEFPOINTS
 62
     0
 10
-5042.8919455255136
 20
1824.200399691322
 30
0.0
  0
ENDBLK
  5
8AA9
  8
0
  0
BLOCK
  8
0
  2
*D5
 70
     1
 10
0.0
 20
0.0
 30
0.0
  3
*D5
  1

  0
LINE
  5
8C40
  8
3
 62
     0
 10
-5042.8919455255136
 20
1740.799604276792
 30
0.0
 11
-5042.8919455255136
 21
1844.200399691322
 31
0.0
  0
LINE
  5
8C41
  8
3
 62
     0
 10
-5007.8919455255136
 20
1414.0361215683799
 30
0.0
 11
-5007.8919455255136
 21
1844.200399691322
 31
0.0
  0
LINE
  5
8C42
  8
3
 62
     0
 10
-5082.8919455255136
 20
1824.200399691322
 30
0.0
 11
-5122.8919455255136
 21
1824.200399691322
 31
0.0
  0
LINE
  5
8C43
  8
3
 62
     0
 10
-4967.8919455255154
 20
1824.200399691322
 30
0.0
 11
-4927.8919455255154
 21
1824.200399691322
 31
0.0
  0
TEXT
  8
3
  40
60
  5
8C59
  62
0
  72
0
  71
0
 10
-5019.40
 20
1756.71
 30
0.000000
  1
35
  0
LINE
  5
8C45
  8
3
 62
     0
 10
-5042.8919455255136
 20
1824.200399691322
 30
0.0
 11
-5007.8919455255136
 21
1824.200399691322
 31
0.0
  0
INSERT
  5
8C46
  8
3
 62
     0
  2
_OPEN
 10
-5042.8919455255136
 20
1824.200399691322
 30
0.0
 41
40.0
 42
40.0
 43
40.0
  0
INSERT
  5
8C47
  8
3
 62
     0
  2
_OPEN
 10
-5007.8919455255136
 20
1824.200399691322
 30
0.0
 41
40.0
 42
40.0
 43
40.0
 50
180.0
  0
POINT
  5
8C48
  8
DEFPOINTS
 62
     0
 10
-5042.8919455255136
 20
1730.7996042767909
 30
0.0
  0
POINT
  5
8C49
  8
DEFPOINTS
 62
     0
 10
-5007.8919455255136
 20
1404.0361215683799
 30
0.0
  0
POINT
  5
8C4A
  8
DEFPOINTS
 62
     0
 10
-5007.8919455255136
 20
1824.200399691322
 30
0.0
  0
ENDBLK
  5
8ABB
  8
0
  0
BLOCK
  8
0
  2
*D6
 70
     1
 10
0.0
 20
0.0
 30
0.0
  3
*D6
  1

  0
LINE
  5
8C4B
  8
3
 62
     0
 10
-5782.8919455255136
 20
1740.799604276792
 30
0.0
 11
-5782.8919455255136
 21
1844.200399691322
 31
0.0
  0
LINE
  5
8C4C
  8
3
 62
     0
 10
-5817.8919455255154
 20
1414.0361215683799
 30
0.0
 11
-5817.8919455255154
 21
1844.200399691322
 31
0.0
  0
LINE
  5
8C4D
  8
3
 62
     0
 10
-5742.8919455255136
 20
1824.200399691322
 30
0.0
 11
-5702.8919455255136
 21
1824.200399691322
 31
0.0
  0
LINE
  5
8C4E
  8
3
 62
     0
 10
-5857.8919455255154
 20
1824.200399691322
 30
0.0
 11
-5897.8919455255154
 21
1824.200399691322
 31
0.0
  0
TEXT
  8
3
  40
60
  5
8C5A
  62
0
  72
0
  71
0
 10
-6054.78
 20
1756.71
 30
0.000000
  1
35
  0
LINE
  5
8C50
  8
3
 62
     0
 10
-5782.8919455255136
 20
1824.200399691322
 30
0.0
 11
-5817.8919455255154
 21
1824.200399691322
 31
0.0
  0
INSERT
  5
8C51
  8
3
 62
     0
  2
_OPEN
 10
-5782.8919455255136
 20
1824.200399691322
 30
0.0
 41
40.0
 42
40.0
 43
40.0
 50
180.0
  0
INSERT
  5
8C52
  8
3
 62
     0
  2
_OPEN
 10
-5817.8919455255154
 20
1824.200399691322
 30
0.0
 41
40.0
 42
40.0
 43
40.0
  0
POINT
  5
8C53
  8
DEFPOINTS
 62
     0
 10
-5782.8919455255136
 20
1730.7996042767909
 30
0.0
  0
POINT
  5
8C54
  8
DEFPOINTS
 62
     0
 10
-5817.8919455255154
 20
1404.0361215683799
 30
0.0
  0
POINT
  5
8C55
  8
DEFPOINTS
 62
     0
 10
-5817.8919455255154
 20
1824.200399691322
 30
0.0
  0
ENDBLK
  5
8ACD
  8
0
  0
ENDSEC
  0
SECTION
  2
ENTITIES
  0
CIRCLE
  5
7D83
  8
1
 10
-3557.9014777753332
 20
854.03612156838085
 30
0.0
 40
504.49999999999989
  0
CIRCLE
  5
7D84
  8
1
 10
-3557.9014777753332
 20
854.03612156838085
 30
0.0
 40
500.0
  0
CIRCLE
  5
7D85
  8
1
 10
-3557.9014777753332
 20
854.03612156838085
 30
0.0
 40
550.0
  0
LINE
  5
7D86
  8
2
 10
-4247.3696492348372
 20
854.03612156838085
 30
0.0
 11
-2854.1988597185391
 21
854.03612156838085
 31
0.0
  0
LINE
  5
7D87
  8
1
 10
-5747.8919455255136
 20
1350.0361215683799
 30
0.0
 11
-5797.8919455255136
 21
1104.0361215683799
 31
0.0
  0
LINE
  5
7D88
  8
1
 10
-5677.8919455255154
 20
1350.0361215683799
 30
0.0
 11
-5627.8919455255154
 21
1104.0361215683799
 31
0.0
  0
LINE
  5
7D8B
  8
1
 10
-5012.3919455255136
 20
1404.0361215683811
 30
0.0
 11
-5012.3919455255136
 21
304.03612156838079
 31
0.0
  0
LINE
  5
7D8C
  8
1
 10
-5813.3919455255136
 20
1404.0361215683811
 30
0.0
 11
-5813.3919455255136
 21
304.03612156838079
 31
0.0
  0
LINE
  5
7D8D
  8
1
 10
-5817.8919455255154
 20
1404.0361215683799
 30
0.0
 11
-5817.8919455255154
 21
304.03612156838079
 31
0.0
  0
LINE
  5
7D8E
  8
1
 10
-5007.8919455255136
 20
1404.0361215683799
 30
0.0
 11
-5007.8919455255136
 21
304.03612156838079
 31
0.0
  0
LINE
  5
7D8F
  8
1
 10
-4957.8919455255136
 20
1354.0361215683799
 30
0.0
 11
-4957.8919455255136
 21
354.03612156838079
 31
0.0
  0
LINE
  5
7D90
  8
1
 10
-5867.8919455255136
 20
1354.0361215683799
 30
0.0
 11
-5867.8919455255136
 21
354.03612156838079
 31
0.0
  0
LINE
  5
7D91
  8
1
 10
-5003.8919455255154
 20
307.03612156838079
 30
0.0
 11
-5003.8919455255154
 21
1401.0361215683799
 31
0.0
  0
LINE
  5
7D92
  8
1
 10
-5821.8919455255136
 20
307.03612156838079
 30
0.0
 11
-5821.8919455255136
 21
1401.0361215683799
 31
0.0
  0
LINE
  5
7D93
  8
1
 10
-5813.3919455255154
 20
349.53612156838079
 30
0.0
 11
-5012.3919455255136
 21
349.53612156838102
 31
0.0
  0
LINE
  5
7D94
  8
2
 10
-5934.0077274814557
 20
854.03612156838085
 30
0.0
 11
-4921.0544090327039
 21
854.03612156838085
 31
0.0
  0
LINE
  5
7D95
  8
1
 10
-5817.8919455255154
 20
354.03612156838079
 30
0.0
 11
-5867.8919455255136
 21
354.03612156838079
 31
0.0
  0
LINE
  5
7D96
  8
1
 10
-5828.3919455255136
 20
350.03612156838079
 30
0.0
 11
-5864.8919455255136
 21
350.03612156838079
 31
0.0
  0
LINE
  5
7D97
  8
1
 10
-5835.082930847374
 20
326.53612156838079
 30
0.0
 11
-5796.7552450241847
 21
326.53612156838079
 31
0.0
  0
LINE
  5
7D98
  8
1
 10
-5867.8919455255136
 20
354.03612156838079
 30
0.0
 11
-5867.8919455255136
 21
353.03612156838079
 31
0.0
  0
ARC
  5
7D99
  8
1
 10
-5864.8919455255136
 20
353.03612156838079
 30
0.0
 40
3.0
 50
180.0
 51
270.0
  0
LINE
  5
7D9A
  8
1
 10
-5727.8919455255154
 20
1089.0361215683811
 30
0.0
 11
-5727.8919455255154
 21
619.03612156838085
 31
0.0
  0
LINE
  5
7D9B
  8
1
 10
-5742.8919455255136
 20
1089.0361215683811
 30
0.0
 11
-5742.8919455255136
 21
619.03612156838085
 31
0.0
  0
LINE
  5
7D9C
  8
1
 10
-5627.8919455255154
 20
1104.0361215683799
 30
0.0
 11
-5627.8919455255154
 21
604.03612156838085
 31
0.0
  0
LINE
  5
7D9D
  8
1
 10
-5797.8919455255136
 20
1104.0361215683799
 30
0.0
 11
-5797.8919455255136
 21
604.03612156838085
 31
0.0
  0
LINE
  5
7D9E
  8
1
 10
-5797.8919455255136
 20
619.03612156838085
 30
0.0
 11
-5627.8919455255154
 21
619.03612156838085
 31
0.0
  0
LINE
  5
7D9F
  8
1
 10
-5797.8919455255136
 20
604.03612156838085
 30
0.0
 11
-5627.8919455255154
 21
604.03612156838085
 31
0.0
  0
LINE
  5
7DA0
  8
1
 10
-5677.8919455255154
 20
358.03612156838102
 30
0.0
 11
-5627.8919455255154
 21
604.03612156838085
 31
0.0
  0
LINE
  5
7DA1
  8
1
 10
-5747.8919455255136
 20
358.03612156838079
 30
0.0
 11
-5797.8919455255136
 21
604.03612156838085
 31
0.0
  0
LINE
  5
7DA2
  8
1
 10
-5747.8919455255136
 20
358.03612156838079
 30
0.0
 11
-5677.8919455255154
 21
358.03612156838102
 31
0.0
  0
ARC
  5
7DA3
  8
1
 10
-5828.3919455255136
 20
343.53612156838079
 30
0.0
 40
6.5
 50
0.0
 51
90.0
  0
LINE
  5
7DA4
  8
1
 10
-5813.3919455255136
 20
304.03612156838079
 30
0.0
 11
-5817.8919455255154
 21
304.03612156838079
 31
0.0
  0
LINE
  5
7DA5
  8
1
 10
-5817.8919455255154
 20
304.03612156838079
 30
0.0
 11
-5818.8919455255136
 21
304.03612156838079
 31
0.0
  0
ARC
  5
7DA6
  8
1
 10
-5818.8919455255136
 20
307.03612156838079
 30
0.0
 40
3.0
 50
180.00000000000031
 51
270.0
  0
LINE
  5
7DA7
  8
1
 10
-5817.8919455255154
 20
354.03612156838079
 30
0.0
 11
-5817.8919455255154
 21
304.03612156838079
 31
0.0
  0
LINE
  5
7DA8
  8
1
 10
-5797.8919455255136
 20
1089.0361215683811
 30
0.0
 11
-5627.8919455255154
 21
1089.0361215683811
 31
0.0
  0
LINE
  5
7DA9
  8
1
 10
-5797.8919455255136
 20
1104.0361215683799
 30
0.0
 11
-5627.8919455255154
 21
1104.0361215683799
 31
0.0
  0
LINE
  5
7DAA
  8
1
 10
-5762.8919455255136
 20
914.03612156838085
 30
0.0
 11
-5662.8919455255136
 21
914.03612156838085
 31
0.0
  0
LINE
  5
7DAB
  8
1
 10
-5762.8919455255136
 20
794.03612156838085
 30
0.0
 11
-5662.8919455255136
 21
794.03612156838085
 31
0.0
  0
LINE
  5
7DAC
  8
1
 10
-5762.8919455255136
 20
914.03612156838085
 30
0.0
 11
-5762.8919455255136
 21
794.03612156838085
 31
0.0
  0
LINE
  5
7DAD
  8
1
 10
-5662.8919455255136
 20
914.03612156838085
 30
0.0
 11
-5662.8919455255136
 21
794.03612156838085
 31
0.0
  0
LINE
  5
7DAE
  8
1
 10
-5030.2015884743232
 20
326.53612156838079
 30
0.0
 11
-4984.2083714778864
 21
326.53612156838079
 31
0.0
  0
LINE
  5
7DB1
  8
1
 10
-4997.3919455255154
 20
350.03612156838079
 30
0.0
 11
-4960.8919455255136
 21
350.03612156838079
 31
0.0
  0
LINE
  5
7DB2
  8
1
 10
-4957.8919455255136
 20
354.03612156838079
 30
0.0
 11
-4957.8919455255136
 21
353.03612156838079
 31
0.0
  0
ARC
  5
7DB3
  8
1
 10
-4960.8919455255136
 20
353.03612156838079
 30
0.0
 40
3.0
 50
270.0
 51
0.0
  0
LINE
  5
7DB4
  8
1
 10
-4957.8919455255136
 20
354.03612156838079
 30
0.0
 11
-4957.8919455255136
 21
353.03612156838079
 31
0.0
  0
LINE
  5
7DB5
  8
1
 10
-5012.3919455255136
 20
304.03612156838079
 30
0.0
 11
-5007.8919455255136
 21
304.03612156838079
 31
0.0
  0
LINE
  5
7DB6
  8
1
 10
-5007.8919455255136
 20
304.03612156838079
 30
0.0
 11
-5006.8919455255154
 21
304.03612156838079
 31
0.0
  0
ARC
  5
7DB7
  8
1
 10
-5006.8919455255154
 20
307.03612156838079
 30
0.0
 40
3.0
 50
270.0
 51
359.9999999999996
  0
LINE
  5
7DB8
  8
1
 10
-5007.8919455255136
 20
304.03612156838079
 30
0.0
 11
-5006.8919455255154
 21
304.03612156838079
 31
0.0
  0
LINE
  5
7DB9
  8
1
 10
-5007.8919455255136
 20
354.03612156838079
 30
0.0
 11
-5007.8919455255136
 21
304.03612156838079
 31
0.0
  0
LINE
  5
7DBA
  8
1
 10
-5007.8919455255136
 20
354.03612156838079
 30
0.0
 11
-5007.8919455255136
 21
304.03612156838079
 31
0.0
  0
LINE
  5
7DBB
  8
1
 10
-5007.8919455255136
 20
354.03612156838079
 30
0.0
 11
-4957.8919455255136
 21
354.03612156838079
 31
0.0
  0
ARC
  5
7DBC
  8
1
 10
-4997.3919455255154
 20
343.53612156838079
 30
0.0
 40
6.5
 50
90.0
 51
180.0
  0
LINE
  5
7DCC
  8
1
 10
-5813.3919455255136
 20
1358.5361215683811
 30
0.0
 11
-5012.3919455255136
 21
1358.5361215683811
 31
0.0
  0
LINE
  5
7DD0
  8
1
 10
-5828.3919455255136
 20
1358.0361215683799
 30
0.0
 11
-5864.8919455255136
 21
1358.0361215683799
 31
0.0
  0
LINE
  5
7DD1
  8
1
 10
-5835.082930847374
 20
1381.5361215683811
 30
0.0
 11
-5796.7552450241847
 21
1381.5361215683799
 31
0.0
  0
LINE
  5
7DD2
  8
1
 10
-5867.8919455255136
 20
1354.0361215683799
 30
0.0
 11
-5867.8919455255136
 21
1355.0361215683811
 31
0.0
  0
ARC
  5
7DD3
  8
1
 10
-5864.8919455255136
 20
1355.0361215683811
 30
0.0
 40
3.0
 50
90.0
 51
180.0
  0
LINE
  5
7DDD
  8
1
 10
-5747.8919455255136
 20
1350.0361215683799
 30
0.0
 11
-5677.8919455255154
 21
1350.0361215683799
 31
0.0
  0
LINE
  5
7DDF
  8
1
 10
-5813.3919455255136
 20
1404.0361215683811
 30
0.0
 11
-5817.8919455255154
 21
1404.0361215683799
 31
0.0
  0
LINE
  5
7DE0
  8
1
 10
-5817.8919455255154
 20
1404.0361215683799
 30
0.0
 11
-5818.8919455255136
 21
1404.0361215683799
 31
0.0
  0
ARC
  5
7DE1
  8
1
 10
-5818.8919455255136
 20
1401.0361215683799
 30
0.0
 40
3.0
 50
90.0
 51
179.9999999999996
  0
ARC
  5
7DE2
  8
1
 10
-5828.3919455255136
 20
1364.5361215683799
 30
0.0
 40
6.5
 50
270.0
 51
0.0
  0
LINE
  5
7DE3
  8
1
 10
-5817.8919455255154
 20
1354.0361215683799
 30
0.0
 11
-5817.8919455255154
 21
1404.0361215683799
 31
0.0
  0
LINE
  5
7E29
  8
1
 10
-5030.2015884743232
 20
1381.5361215683811
 30
0.0
 11
-4984.2083714778864
 21
1381.5361215683811
 31
0.0
  0
LINE
  5
7E88
  8
1
 10
-4997.3919455255154
 20
1358.0361215683799
 30
0.0
 11
-4960.8919455255136
 21
1358.0361215683799
 31
0.0
  0
LINE
  5
7E89
  8
1
 10
-4957.8919455255136
 20
1354.0361215683799
 30
0.0
 11
-4957.8919455255136
 21
1355.0361215683811
 31
0.0
  0
ARC
  5
7E8A
  8
1
 10
-4960.8919455255136
 20
1355.0361215683811
 30
0.0
 40
3.0
 50
0.0
 51
90.0
  0
LINE
  5
7E8B
  8
1
 10
-5012.3919455255136
 20
1404.0361215683811
 30
0.0
 11
-5007.8919455255136
 21
1404.0361215683799
 31
0.0
  0
LINE
  5
7E8C
  8
1
 10
-5007.8919455255136
 20
1404.0361215683799
 30
0.0
 11
-5006.8919455255154
 21
1404.0361215683799
 31
0.0
  0
ARC
  5
7E8D
  8
1
 10
-5006.8919455255154
 20
1401.0361215683799
 30
0.0
 40
3.0
 50
0.0000000000003053
 51
90.0
  0
LINE
  5
7E8E
  8
1
 10
-5007.8919455255136
 20
1354.0361215683799
 30
0.0
 11
-5007.8919455255136
 21
1404.0361215683799
 31
0.0
  0
ARC
  5
7E8F
  8
1
 10
-4997.3919455255154
 20
1364.5361215683799
 30
0.0
 40
6.5
 50
180.0
 51
270.0
  0
LINE
  5
7E94
  8
1
 10
-3827.9014777753318
 20
433.20361331836477
 30
0.0
 11
-3820.245609589399
 21
430.88247516659402
 31
0.0
  0
LINE
  5
7EC7
  8
2
 10
-3557.9014777753332
 20
79.484444975776796
 30
0.0
 11
-3557.9014777753332
 21
1620.559392157453
 31
0.0
  0
POINT
  5
7EF8
  8
1
 10
-2982.9014777753332
 20
854.03612156838085
 30
0.0
  0
LINE
  5
7F44
  8
1
 10
-5867.8919455255136
 20
1354.0361215683799
 30
0.0
 11
-5817.8919455255154
 21
1354.0361215683799
 31
0.0
  0
LINE
  5
7F45
  8
1
 10
-5867.8919455255136
 20
354.03612156838079
 30
0.0
 11
-5817.8919455255154
 21
354.03612156838079
 31
0.0
  0
LINE
  5
7F46
  8
1
 10
-5007.8919455255136
 20
354.03612156838091
 30
0.0
 11
-4957.8919455255136
 21
354.03612156838091
 31
0.0
  0
LINE
  5
7F47
  8
1
 10
-5007.8919455255136
 20
1354.0361215683799
 30
0.0
 11
-4957.8919455255136
 21
1354.0361215683799
 31
0.0
  0
DIMENSION
  5
7F48
  8
3
  2
*D1
 10
-6024.2022918753482
 20
354.03612156838079
 30
0.0
 11
-6064.2022918753482
 21
854.03612156838051
 31
0.0
 12
-8065.0471193488866
 22
-433.4916590559223
 32
0.0
 70
     0
 13
-5867.8919455255136
 23
1354.0361215683799
 33
0.0
 14
-5867.8919455255136
 24
354.03612156838079
 34
0.0
 50
90.0
1001
ACAD
1000
DSTYLE
1002
{
1070
    40
1040
20.0
1070
     3
1000
φ<>
1070
    42
1040
0.5
1070
   271
1070
     0
1002
}
  0
LINE
  5
8006
  8
4
 10
-3046.4204398848628
 20
-817.20337344081042
 30
0.0
 11
-3046.4204398848628
 21
-1217.2033734408101
 31
0.0
  0
LINE
  5
8007
  8
4
 10
-4446.4204398848633
 20
-817.20337344081042
 30
0.0
 11
-4446.4204398848642
 21
-1217.2033734408101
 31
0.0
  0
LINE
  5
8008
  8
4
 10
-5446.4204398848642
 20
-817.20337344081042
 30
0.0
 11
-5446.4204398848642
 21
-1217.2033734408101
 31
0.0
  0
LINE
  5
800B
  8
4
 10
-5446.4204398848642
 20
-1217.2033734408101
 30
0.0
 11
-3046.4204398848628
 21
-1217.2033734408101
 31
0.0
  0
LINE
  5
800C
  8
4
 10
-5446.4204398848642
 20
-1017.20337344081
 30
0.0
 11
-3046.4204398848628
 21
-1017.20337344081
 31
0.0
  0
TEXT
  5
800D
  8
4
 10
-5369.41627819106
 20
-954.11732170758467
 30
0.0
 40
100.0
  1
機器名称
  0
TEXT
  5
800E
  8
4
 10
-5373.9042278352681
 20
-1173.913059976788
 30
0.0
 40
100.0
  1
機器型番
  0
TEXT
  5
800F
  8
4
 10
-4391.0629489095327
 20
-972.05983552567341
 30
0.0
 40
100.0
  1
ミツヤ軸流ファン
  0
TEXT
  5
8010
  8
4
 10
-4373.1114487139021
 20
-1182.8842048809231
 30
0.0
 40
100.0
  1
AP＃1000-1
  0
TEXT
  5
8012
  8
4
 10
-5064.0605725408959
 20
2949.6543092242209
 30
0.0
 40
107.9999999999999
  1
天井吊本体形
  0
TEXT
  5
8013
  8
4
 10
-6114.0852532259714
 20
3250.5585789577849
 30
0.0
 40
144.0
  1
電動機直動式横型軸流ファン
  0
LINE
  5
8014
  8
4
 10
-6246.4204398848642
 20
3121.6141350887988
 30
0.0
 11
-3046.4204398848628
 21
3121.6141350887988
 31
0.0
  0
LINE
  5
8015
  8
4
 10
-6246.4204398848642
 20
3521.6141350887988
 30
0.0
 11
-3046.4204398848628
 21
3521.6141350887988
 31
0.0
  0
LINE
  5
8016
  8
4
 10
-5446.4204398848642
 20
-817.20337344081042
 30
0.0
 11
-3046.4204398848628
 21
-817.20337344081042
 31
0.0
  0
LINE
  5
8017
  8
4
 10
-6246.4204398848642
 20
3521.6141350887988
 30
0.0
 11
-6246.4204398848642
 21
3121.6141350887988
 31
0.0
  0
TEXT
  5
8018
  8
4
 10
-6105.4642621031298
 20
2947.4355816518769
 30
0.0
 40
107.9999999999999
  1
左回転後方吐出
  0
TEXT
  5
8019
  8
4
 10
-3808.4813213862831
 20
3594.9187895498071
 30
0.0
 40
112.0
  1
No.
  0
TEXT
  5
801A
  8
4
 10
-4123.8283146848371
 20
2949.6543092242209
 30
0.0
 40
107.9999999999999
  1
縮尺：1/20
  0
LINE
  5
801B
  8
4
 10
-3046.4204398848628
 20
3521.6141350887988
 30
0.0
 11
-3046.4204398848628
 21
3121.6141350887988
 31
0.0
  0
LINE
  5
801C
  8
4
 10
-2546.4204398848628
 20
4082.796626559189
 30
0.0
 11
-2546.4204398848628
 21
4082.796626559189
 31
0.0
  0
LINE
  5
801D
  8
4
 10
-3865.1855951651341
 20
3545.3237928099911
 30
0.0
 11
-3865.1855951651341
 21
3756.1011496586939
 31
0.0
  0
LINE
  5
801E
  8
4
 10
-3865.1855951651341
 20
3756.1011496586939
 30
0.0
 11
-3046.4204398848628
 21
3756.1011496586939
 31
0.0
  0
LINE
  5
801F
  8
4
 10
-3046.4204398848628
 20
3756.1011496586939
 30
0.0
 11
-3046.4204398848628
 21
3545.3237928099911
 31
0.0
  0
LINE
  5
8020
  8
4
 10
-3046.4204398848628
 20
3545.3237928099911
 30
0.0
 11
-3865.1855951651341
 21
3545.3237928099911
 31
0.0
  0
LINE
  5
8021
  8
4
 10
-6746.4204398848642
 20
-1817.2033734408101
 30
0.0
 11
-6746.4204398848642
 21
4082.796626559189
 31
0.0
  0
LINE
  5
8022
  8
4
 10
-6746.4204398848642
 20
4082.796626559189
 30
0.0
 11
-2546.4204398848628
 21
4082.796626559189
 31
0.0
  0
LINE
  5
8023
  8
4
 10
-2546.4204398848628
 20
4082.796626559189
 30
0.0
 11
-2546.4204398848628
 21
-1817.2033734408101
 31
0.0
  0
LINE
  5
8024
  8
4
 10
-2546.4204398848628
 20
-1817.2033734408101
 30
0.0
 11
-6746.4204398848642
 21
-1817.2033734408101
 31
0.0
  0
LINE
  5
849E
  8
1
 10
-5817.8919455255154
 20
1354.0361215683799
 30
0.0
 11
-5007.8919455255136
 21
1354.0361215683799
 31
0.0
  0
LINE
  5
849F
  8
1
 10
-5817.8919455255154
 20
354.03612156838079
 30
0.0
 11
-5007.8919455255136
 21
354.03612156838079
 31
0.0
  0
LINE
  5
89FB
  8
1
 10
-4192.4014777753328
 20
840.03612156838096
 30
0.0
 11
-4062.4014777753318
 21
840.03612156838085
 31
0.0
  0
LINE
  5
89FC
  8
1
 10
-4192.4014777753328
 20
899.03612156838085
 30
0.0
 11
-4062.4014777753318
 21
899.03612156838062
 31
0.0
  0
LINE
  5
89FD
  8
1
 10
-4192.4014777753328
 20
834.03612156838096
 30
0.0
 11
-4062.4014777753318
 21
834.03612156838085
 31
0.0
  0
LINE
  5
89FE
  8
1
 10
-4192.4014777753328
 20
834.03612156838085
 30
0.0
 11
-4192.4014777753328
 21
899.03612156838085
 31
0.0
  0
LINE
  5
89FF
  8
1
 10
-4062.4014777753332
 20
834.03612156838096
 30
0.0
 11
-4062.4014777753318
 21
899.03612156838085
 31
0.0
  0
LINE
  5
8A00
  8
1
 10
-3053.4014777753332
 20
834.03612156838096
 30
0.0
 11
-3053.4014777753332
 21
899.03612156838085
 31
0.0
  0
LINE
  5
8A01
  8
1
 10
-2923.4014777753318
 20
834.03612156838085
 30
0.0
 11
-2923.4014777753318
 21
899.03612156838085
 31
0.0
  0
LINE
  5
8A02
  8
1
 10
-2923.4014777753318
 20
834.03612156838096
 30
0.0
 11
-3053.4014777753332
 21
834.03612156838085
 31
0.0
  0
LINE
  5
8A03
  8
1
 10
-2923.4014777753318
 20
840.03612156838096
 30
0.0
 11
-3053.4014777753332
 21
840.03612156838085
 31
0.0
  0
POINT
  5
8A04
  8
1
 10
-2982.9014777753332
 20
854.03612156838085
 30
0.0
  0
LINE
  5
8A05
  8
1
 10
-2923.4014777753318
 20
899.03612156838085
 30
0.0
 11
-3053.4014777753332
 21
899.03612156838062
 31
0.0
  0
LINE
  5
8A06
  8
2
 10
-4157.9014777753318
 20
763.55317376136918
 30
0.0
 11
-4157.9014777753318
 21
1725.744527037617
 31
0.0
  0
LINE
  5
8A07
  8
2
 10
-2957.9014777753332
 20
763.55317376136918
 30
0.0
 11
-2957.9014777753332
 21
1688.9064988764251
 31
0.0
  0
LINE
  5
8A09
  8
1
 10
-5071.3919455255136
 20
848.53612156838074
 30
0.0
 11
-5071.3919455255136
 21
895.03612156838074
 31
0.0
  0
LINE
  5
8A0A
  8
1
 10
-5077.3919455255154
 20
834.03612156838085
 30
0.0
 11
-5077.3919455255154
 21
899.03612156838062
 31
0.0
  0
LINE
  5
8A0B
  8
1
 10
-5062.8919455255136
 20
840.03612156838074
 30
0.0
 11
-5016.3919455255154
 21
840.03612156838074
 31
0.0
  0
LINE
  5
8A0C
  8
1
 10
-5077.3919455255154
 20
834.03612156838085
 30
0.0
 11
-5012.3919455255136
 21
834.03612156838085
 31
0.0
  0
ARC
  5
8A0D
  8
1
 10
-5062.8919455255136
 20
848.53612156838074
 30
0.0
 40
8.5
 50
180.0
 51
270.0
  0
ARC
  5
8A0E
  8
1
 10
-5016.3919455255154
 20
836.03612156838074
 30
0.0
 40
4.0
 50
0.0
 51
90.0
  0
LINE
  5
8A0F
  8
1
 10
-5012.3919455255136
 20
834.03612156838085
 30
0.0
 11
-5012.3919455255136
 21
836.03612156838074
 31
0.0
  0
ARC
  5
8A10
  8
1
 10
-5075.3919455255136
 20
895.03612156838074
 30
0.0
 40
4.0
 50
0.0
 51
90.0
  0
LINE
  5
8A11
  8
1
 10
-5077.3919455255154
 20
899.03612156838062
 30
0.0
 11
-5075.3919455255136
 21
899.03612156838062
 31
0.0
  0
LINE
  5
8A12
  8
2
 10
-5042.8919455255136
 20
1730.7996042767909
 30
0.0
 11
-5042.8919455255136
 21
763.55317376136918
 31
0.0
  0
ARC
  5
8A13
  8
1
 10
-5809.3919455255154
 20
836.03612156838074
 30
0.0
 40
4.0
 50
90.0
 51
180.0
  0
LINE
  5
8A14
  8
1
 10
-5748.3919455255154
 20
834.03612156838085
 30
0.0
 11
-5813.3919455255136
 21
834.03612156838085
 31
0.0
  0
LINE
  5
8A15
  8
1
 10
-5748.3919455255154
 20
899.03612156838062
 30
0.0
 11
-5750.3919455255136
 21
899.03612156838062
 31
0.0
  0
ARC
  5
8A16
  8
1
 10
-5750.3919455255136
 20
895.03612156838074
 30
0.0
 40
4.0
 50
90.0
 51
180.0
  0
ARC
  5
8A17
  8
1
 10
-5762.8919455255136
 20
848.53612156838074
 30
0.0
 40
8.5
 50
270.0
 51
0.000000000000007
  0
LINE
  5
8A18
  8
1
 10
-5762.8919455255136
 20
840.03612156838074
 30
0.0
 11
-5809.3919455255154
 21
840.03612156838074
 31
0.0
  0
LINE
  5
8A19
  8
1
 10
-5748.3919455255154
 20
834.03612156838085
 30
0.0
 11
-5748.3919455255154
 21
899.03612156838062
 31
0.0
  0
LINE
  5
8A1A
  8
1
 10
-5754.3919455255154
 20
848.53612156838074
 30
0.0
 11
-5754.3919455255154
 21
895.03612156838074
 31
0.0
  0
LINE
  5
8A1B
  8
1
 10
-5813.3919455255136
 20
834.03612156838085
 30
0.0
 11
-5813.3919455255136
 21
836.03612156838074
 31
0.0
  0
LINE
  5
8A1C
  8
2
 10
-5782.8919455255136
 20
1730.7996042767909
 30
0.0
 11
-5782.8919455255136
 21
763.55317376136918
 31
0.0
  0
DIMENSION
  5
8A83
  8
3
  2
*D2
 10
-2957.9014777753332
 20
1971.1809707172031
 30
0.0
 11
-3568.2408569721729
 21
1971.1809707172031
 31
0.0
 70
   128
 13
-4157.9014777753318
 23
1725.744527037617
 33
0.0
 14
-2957.9014777753332
 24
1688.9064988764251
 34
0.0
1001
ACAD
1000
DSTYLE
1002
{
1070
   287
1070
     3
1070
   287
1070
     3
1070
    40
1040
20.0
1070
   143
1040
0.039
1070
   172
1070
     1
1070
   271
1070
     0
1070
   279
1070
     0
1070
   288
1070
     1
1002
}
  0
DIMENSION
  5
8A90
  8
3
  2
*D3
 10
-5007.8919455255136
 20
1993.264714726922
 30
0.0
 11
-5441.9902104752582
 21
1993.264714726922
 31
0.0
 70
   128
 13
-5817.8919455255154
 23
1404.0361215683799
 33
0.0
 14
-5007.8919455255136
 24
1404.0361215683799
 34
0.0
1001
ACAD
1000
DSTYLE
1002
{
1070
   287
1070
     3
1070
   287
1070
     3
1070
    40
1040
20.0
1070
   143
1040
0.039
1070
   172
1070
     1
1070
   271
1070
     0
1070
   279
1070
     0
1070
   288
1070
     1
1002
}
  0
DIMENSION
  5
8A9D
  8
3
  2
*D4
 10
-5042.8919455255136
 20
1824.200399691322
 30
0.0
 11
-5420.2938065219278
 21
1824.200399691322
 31
0.0
 70
   128
 13
-5782.8919455255136
 23
1730.7996042767909
 33
0.0
 14
-5042.8919455255136
 24
1730.7996042767909
 34
0.0
1001
ACAD
1000
DSTYLE
1002
{
1070
   287
1070
     3
1070
   287
1070
     3
1070
    40
1040
20.0
1070
   143
1040
0.039
1070
   172
1070
     1
1070
   271
1070
     0
1070
   279
1070
     0
1070
   288
1070
     1
1002
}
  0
DIMENSION
  5
8AAA
  8
3
  2
*D5
 10
-5007.8919455255136
 20
1824.200399691322
 30
0.0
 11
-4899.4026702731717
 21
1812.905464939043
 31
0.0
 70
   128
 13
-5042.8919455255136
 23
1730.7996042767909
 33
0.0
 14
-5007.8919455255136
 24
1404.0361215683799
 34
0.0
1001
ACAD
1000
DSTYLE
1002
{
1070
   287
1070
     4
1070
   287
1070
     4
1070
    40
1040
20.0
1070
   143
1040
0.039
1070
   172
1070
     1
1070
   271
1070
     0
1070
   279
1070
     1
1070
   288
1070
     1
1002
}
  0
DIMENSION
  5
8ABC
  8
3
  2
*D6
 10
-5817.8919455255154
 20
1824.200399691322
 30
0.0
 11
-5934.7827419689092
 21
1812.905464939043
 31
0.0
 70
   128
 13
-5782.8919455255136
 23
1730.7996042767909
 33
0.0
 14
-5817.8919455255154
 24
1404.0361215683799
 34
0.0
1001
ACAD
1000
DSTYLE
1002
{
1070
   287
1070
     4
1070
   287
1070
     4
1070
    40
1040
20.0
1070
   143
1040
0.039
1070
   172
1070
     1
1070
   271
1070
     0
1070
   279
1070
     1
1070
   288
1070
     1
1002
}
  0
ENDSEC
  0
EOF
