  0
SECTION
  2
HEADER
  9
$ACADVER
  1
AC1009
  9
$INSBASE
 10
0.0
 20
0.0
 30
0.0
  9
$EXTMIN
 10
963.28072390077796
 20
-150.91389429140659
 30
0.0
  9
$EXTMAX
 10
4113.280723900778
 20
4274.0861057085931
 30
0.0
  9
$LIMMIN
 10
0.0
 20
0.0
  9
$LIMMAX
 10
297.0
 20
210.0
  9
$ORTHOMODE
 70
     0
  9
$REGENMODE
 70
     1
  9
$FILLMODE
 70
     1
  9
$QTEXTMODE
 70
     0
  9
$MIRRTEXT
 70
     0
  9
$DRAGMODE
 70
     2
  9
$LTSCALE
 40
90.0
  9
$OSMODE
 70
    37
  9
$ATTMODE
 70
     1
  9
$TEXTSIZE
 40
75.0
  9
$TRACEWID
 40
0.05
  9
$TEXTSTYLE
  7
STANDARD
  9
$CLAYER
  8
3
  9
$CELTYPE
  6
BYLAYER
  9
$CECOLOR
 62
   256
  9
$DIMSCALE
 40
15.0
  9
$DIMASZ
 40
2.0
  9
$DIMEXO
 40
1.0
  9
$DIMDLI
 40
10.0
  9
$DIMRND
 40
0.0
  9
$DIMDLE
 40
0.0
  9
$DIMEXE
 40
1.0
  9
$DIMTP
 40
0.0
  9
$DIMTM
 40
0.0
  9
$DIMTXT
 40
3.0
  9
$DIMCEN
 40
0.0
  9
$DIMTSZ
 40
0.0
  9
$DIMTOL
 70
     0
  9
$DIMLIM
 70
     0
  9
$DIMTIH
 70
     0
  9
$DIMTOH
 70
     0
  9
$DIMSE1
 70
     0
  9
$DIMSE2
 70
     0
  9
$DIMTAD
 70
     1
  9
$DIMZIN
 70
     8
  9
$DIMBLK
  1

  9
$DIMASO
 70
     1
  9
$DIMSHO
 70
     1
  9
$DIMPOST
  1

  9
$DIMAPOST
  1

  9
$DIMALT
 70
     0
  9
$DIMALTD
 70
     2
  9
$DIMALTF
 40
0.03937
  9
$DIMLFAC
 40
1.0
  9
$DIMTOFL
 70
     1
  9
$DIMTVP
 40
0.0
  9
$DIMTIX
 70
     0
  9
$DIMSOXD
 70
     0
  9
$DIMSAH
 70
     1
  9
$DIMBLK1
  1
OPEN
  9
$DIMBLK2
  1
OPEN
  9
$DIMSTYLE
  2
MATSU
  9
$DIMCLRD
 70
   256
  9
$DIMCLRE
 70
   256
  9
$DIMCLRT
 70
   256
  9
$DIMTFAC
 40
1.0
  9
$DIMGAP
 40
0.5
  9
$LUNITS
 70
     2
  9
$LUPREC
 70
     3
  9
$SKETCHINC
 40
0.1
  9
$FILLETRAD
 40
10.0
  9
$AUNITS
 70
     0
  9
$AUPREC
 70
     2
  9
$MENU
  1
acad
  9
$ELEVATION
 40
0.0
  9
$PELEVATION
 40
0.0
  9
$THICKNESS
 40
0.0
  9
$LIMCHECK
 70
     0
  9
$BLIPMODE
 70
     0
  9
$CHAMFERA
 40
10.0
  9
$CHAMFERB
 40
10.0
  9
$SKPOLY
 70
     0
  9
$TDCREATE
 40
2451939.611564815
  9
$TDUPDATE
 40
2454953.632604884
  9
$TDINDWG
 40
0.1377087963
  9
$TDUSRTIMER
 40
0.1377087963
  9
$USRTIMER
 70
     1
  9
$ANGBASE
 50
0.0
  9
$ANGDIR
 70
     0
  9
$PDMODE
 70
     0
  9
$PDSIZE
 40
1.0
  9
$PLINEWID
 40
0.0
  9
$COORDS
 70
     1
  9
$SPLFRAME
 70
     0
  9
$SPLINETYPE
 70
     6
  9
$SPLINESEGS
 70
     8
  9
$ATTDIA
 70
     0
  9
$ATTREQ
 70
     1
  9
$HANDLING
 70
 10241
  9
$HANDSEED
  5
5C4C
  9
$SURFTAB1
 70
     6
  9
$SURFTAB2
 70
     6
  9
$SURFTYPE
 70
     6
  9
$SURFU
 70
     6
  9
$SURFV
 70
     6
  9
$UCSNAME
  2

  9
$UCSORG
 10
0.0
 20
0.0
 30
0.0
  9
$UCSXDIR
 10
1.0
 20
0.0
 30
0.0
  9
$UCSYDIR
 10
0.0
 20
1.0
 30
0.0
  9
$PUCSNAME
  2

  9
$PUCSORG
 10
0.0
 20
0.0
 30
0.0
  9
$PUCSXDIR
 10
1.0
 20
0.0
 30
0.0
  9
$PUCSYDIR
 10
0.0
 20
1.0
 30
0.0
  9
$USERI1
 70
     0
  9
$USERI2
 70
     0
  9
$USERI3
 70
     0
  9
$USERI4
 70
     0
  9
$USERI5
 70
     0
  9
$USERR1
 40
0.0
  9
$USERR2
 40
0.0
  9
$USERR3
 40
0.0
  9
$USERR4
 40
0.0
  9
$USERR5
 40
0.0
  9
$WORLDVIEW
 70
     1
  9
$SHADEDGE
 70
     3
  9
$SHADEDIF
 70
    70
  9
$TILEMODE
 70
     1
  9
$MAXACTVP
 70
    16
  9
$PLIMCHECK
 70
     0
  9
$PEXTMIN
 10
1.0000000000000000E+020
 20
1.0000000000000000E+020
 30
1.0000000000000000E+020
  9
$PEXTMAX
 10
-1.0000000000000000E+020
 20
-1.0000000000000000E+020
 30
-1.0000000000000000E+020
  9
$PLIMMIN
 10
0.0
 20
0.0
  9
$PLIMMAX
 10
12.0
 20
9.0
  9
$UNITMODE
 70
     0
  9
$VISRETAIN
 70
     0
  9
$PLINEGEN
 70
     0
  9
$PSLTSCALE
 70
     0
  0
ENDSEC
  0
SECTION
  2
TABLES
  0
TABLE
  2
VPORT
 70
     2
  0
VPORT
  2
*ACTIVE
 70
     0
 10
0.0
 20
0.0
 11
1.0
 21
1.0
 12
3922.8571817711281
 22
371.54374459998689
 13
0.0
 23
0.0
 14
5.0
 24
5.0
 15
0.0
 25
0.0
 16
0.0
 26
0.0
 36
1.0
 17
0.0
 27
0.0
 37
0.0
 40
1294.299075171072
 41
3.1666666666666661
 42
50.0
 43
0.0
 44
0.0
 50
0.0
 51
0.0
 71
     0
 72
   100
 73
     1
 74
     0
 75
     0
 76
     0
 77
     0
 78
     0
  0
ENDTAB
  0
TABLE
  2
LTYPE
 70
     2
  0
LTYPE
  2
CONTINUOUS
 70
     0
  3
Solid line
 72
    65
 73
     0
 40
0.0
  0
LTYPE
  2
CENTER
 70
     0
  3
____ _ ____ _ ____ _ ____ _ ____ _ ____ _ ____ 
 72
    65
 73
     4
 40
2.0
 49
1.25
 49
-0.25
 49
0.25
 49
-0.25
  0
ENDTAB
  0
TABLE
  2
LAYER
 70
     9
  0
LAYER
  2
0
 70
     0
 62
     7
  6
CONTINUOUS
  0
LAYER
  2
CT
 70
     0
 62
     3
  6
CENTER
  0
LAYER
  2
FUTO
 70
     0
 62
     4
  6
CONTINUOUS
  0
LAYER
  2
SP
 70
     0
 62
     2
  6
CONTINUOUS
  0
LAYER
  2
DEFPOINTS
 70
     0
 62
     7
  6
CONTINUOUS
  0
LAYER
  2
3
 70
     0
 62
     2
  6
CONTINUOUS
  0
LAYER
  2
2
 70
     0
 62
     3
  6
CENTER
  0
LAYER
  2
1
 70
     0
 62
     4
  6
CONTINUOUS
  0
LAYER
  2
4
 70
     0
 62
     7
  6
CONTINUOUS
  0
ENDTAB
  0
TABLE
  2
STYLE
 70
     2
  0
STYLE
  2
STANDARD
 70
     0
 40
0.0
 41
1.0
 50
15.0
 71
     0
 42
75.0
  3
C:\Program Files\AutoCAD LT\simplex.shx
  4
C:\Program Files\AutoCAD LT\extfont.shx
  0
STYLE
  2
SUNPOU
 70
     0
 40
0.0
 41
1.0
 50
15.0
 71
     0
 42
3.0
  3
simplex.shx
  4
extfont.shx
  0
ENDTAB
  0
TABLE
  2
VIEW
 70
     0
  0
ENDTAB
  0
TABLE
  2
UCS
 70
     0
  0
ENDTAB
  0
TABLE
  2
APPID
 70
     1
  0
APPID
  2
ACAD
 70
     0
  0
ENDTAB
  0
TABLE
  2
DIMSTYLE
 70
     2
  0
DIMSTYLE
  2
STANDARD
 70
     0
  3

  4

  5

  6

  7

 40
1.0
 41
0.18
 42
0.0625
 43
0.38
 44
0.18
 45
0.0
 46
0.0
 47
0.0
 48
0.0
140
0.18
141
0.09
142
0.0
143
25.399999999999999
144
1.0
145
0.0
146
1.0
147
0.09
 71
     0
 72
     0
 73
     1
 74
     1
 75
     0
 76
     0
 77
     0
 78
     0
170
     0
171
     2
172
     0
173
     0
174
     0
175
     0
176
     0
177
     0
178
     0
  0
DIMSTYLE
  2
MATSU
 70
     0
  3

  4

  5

  6
OPEN
  7
OPEN
 40
1.0
 41
2.0
 42
1.0
 43
10.0
 44
1.0
 45
0.0
 46
0.0
 47
0.0
 48
0.0
140
3.0
141
0.0
142
0.0
143
0.03937
144
1.0
145
0.0
146
1.0
147
0.5
 71
     0
 72
     0
 73
     0
 74
     0
 75
     0
 76
     0
 77
     1
 78
     8
170
     0
171
     2
172
     1
173
     1
174
     0
175
     0
176
   256
177
   256
178
   256
  0
ENDTAB
  0
ENDSEC
  0
SECTION
  2
BLOCKS
  0
BLOCK
  8
0
  2
$MODEL_SPACE
 70
     0
 10
0.0
 20
0.0
 30
0.0
  3
$MODEL_SPACE
  1

  0
ENDBLK
  5
1B
  8
0
  0
BLOCK
 67
     1
  8
0
  2
$PAPER_SPACE
 70
     0
 10
0.0
 20
0.0
 30
0.0
  3
$PAPER_SPACE
  1

  0
ENDBLK
  5
18
 67
     1
  8
0
  0
BLOCK
  8
0
  2
YA_N
 70
     0
 10
0.0
 20
0.0
 30
0.0
  3
YA_N
  1

  0
ENDBLK
  5
23AE
  8
0
  0
BLOCK
  8
0
  2
SAITOS
 70
     0
 10
0.0
 20
0.0
 30
0.0
  3
SAITOS
  1

  0
INSERT
  5
34D0
  8
0
  2
YA_N
 10
6.0
 20
5.0
 30
0.0
  0
ENDBLK
  5
34D2
  8
0
  0
BLOCK
  8
0
  2
_OPEN
 70
     0
 10
0.0
 20
0.0
 30
0.0
  3
_OPEN
  1

  0
LINE
  5
5102
  8
0
  6
BYBLOCK
 62
     0
 10
-1.0
 20
0.1666666666666666
 30
0.0
 11
0.0
 21
0.0
 31
0.0
  0
LINE
  5
5103
  8
0
  6
BYBLOCK
 62
     0
 10
0.0
 20
0.0
 30
0.0
 11
-1.0
 21
-0.1666666666666666
 31
0.0
  0
LINE
  5
5104
  8
0
  6
BYBLOCK
 62
     0
 10
0.0
 20
0.0
 30
0.0
 11
-1.0
 21
0.0
 31
0.0
  0
ENDBLK
  5
5105
  8
0
  0
BLOCK
  8
0
  2
*D3
 70
     1
 10
0.0
 20
0.0
 30
0.0
  3
*D3
  1

  0
LINE
  5
5BF0
  8
3
 10
2786.1144257323072
 20
1122.4409619546821
 30
0.0
 11
2786.1144257323072
 21
805.89529938579335
 31
0.0
  0
LINE
  5
5BF1
  8
3
 10
3986.1144257323072
 20
1122.4409619546821
 30
0.0
 11
3986.1144257323072
 21
805.89529938579335
 31
0.0
  0
LINE
  5
5BF2
  8
3
 10
2816.1144257323072
 20
820.89529938579324
 30
0.0
 11
3956.1144257323072
 21
820.89529938579324
 31
0.0
  0
INSERT
  5
5BF3
  8
3
  2
_OPEN
 10
2786.1144257323072
 20
820.89529938579324
 30
0.0
 41
30.0
 42
30.0
 43
30.0
 50
180.0
  0
INSERT
  5
5BF4
  8
3
  2
_OPEN
 10
3986.1144257323072
 20
820.89529938579324
 30
0.0
 41
30.0
 42
30.0
 43
30.0
  0
TEXT
  8
3
  40
45
  5
5C43
  72
0
  71
0
 10
3296.11
 20
771.245
 30
0.000000
  1
1200
  0
POINT
  5
5BF6
  8
DEFPOINTS
 62
     0
 10
2786.1144257323072
 20
1137.4409619546821
 30
0.0
  0
POINT
  5
5BF7
  8
DEFPOINTS
 62
     0
 10
3986.1144257323072
 20
1137.4409619546821
 30
0.0
  0
POINT
  5
5BF8
  8
DEFPOINTS
 62
     0
 10
3986.1144257323072
 20
820.89529938579324
 30
0.0
  0
ENDBLK
  5
5A1D
  8
0
  0
BLOCK
  8
0
  2
*D4
 70
     1
 10
0.0
 20
0.0
 30
0.0
  3
*D4
  1

  0
LINE
  5
5BF9
  8
3
 10
2102.1624700161792
 20
1122.4409619546821
 30
0.0
 11
2102.1624700161792
 21
804.7559719968699
 31
0.0
  0
LINE
  5
5BFA
  8
3
 10
1192.1624700161781
 20
1122.4409619546821
 30
0.0
 11
1192.1624700161781
 21
804.7559719968699
 31
0.0
  0
LINE
  5
5BFB
  8
3
 10
2072.1624700161792
 20
819.7559719968699
 30
0.0
 11
1222.1624700161781
 21
819.7559719968699
 31
0.0
  0
INSERT
  5
5BFC
  8
3
  2
_OPEN
 10
2102.1624700161792
 20
819.7559719968699
 30
0.0
 41
30.0
 42
30.0
 43
30.0
  0
INSERT
  5
5BFD
  8
3
  2
_OPEN
 10
1192.1624700161781
 20
819.7559719968699
 30
0.0
 41
30.0
 42
30.0
 43
30.0
 50
180.0
  0
TEXT
  8
3
  40
45
  5
5C44
  72
0
  71
0
 10
1557.16
 20
770.106
 30
0.000000
  1
910
  0
POINT
  5
5BFF
  8
DEFPOINTS
 62
     0
 10
2102.1624700161792
 20
1137.4409619546821
 30
0.0
  0
POINT
  5
5C00
  8
DEFPOINTS
 62
     0
 10
1192.1624700161781
 20
1137.4409619546821
 30
0.0
  0
POINT
  5
5C01
  8
DEFPOINTS
 62
     0
 10
1192.1624700161781
 20
819.7559719968699
 30
0.0
  0
ENDBLK
  5
5A2A
  8
0
  0
BLOCK
  8
0
  2
*D5
 70
     1
 10
0.0
 20
0.0
 30
0.0
  3
*D5
  1

  0
LINE
  5
5C02
  8
3
 10
1242.162470016179
 20
2347.4409619546832
 30
0.0
 11
1242.162470016179
 21
3070.2351080334361
 31
0.0
  0
LINE
  5
5C03
  8
3
 10
2052.1624700161778
 20
2347.4409619546832
 30
0.0
 11
2052.1624700161778
 21
3070.2351080334361
 31
0.0
  0
LINE
  5
5C04
  8
3
 10
1272.162470016179
 20
3055.2351080334361
 30
0.0
 11
2022.1624700161781
 21
3055.2351080334361
 31
0.0
  0
INSERT
  5
5C05
  8
3
  2
_OPEN
 10
1242.162470016179
 20
3055.2351080334361
 30
0.0
 41
30.0
 42
30.0
 43
30.0
 50
180.0
  0
INSERT
  5
5C06
  8
3
  2
_OPEN
 10
2052.1624700161778
 20
3055.2351080334361
 30
0.0
 41
30.0
 42
30.0
 43
30.0
  0
TEXT
  8
3
  40
45
  5
5C45
  72
0
  71
0
 10
1557.16
 20
3005.59
 30
0.000000
  1
810
  0
POINT
  5
5C08
  8
DEFPOINTS
 62
     0
 10
1242.162470016179
 20
2332.4409619546818
 30
0.0
  0
POINT
  5
5C09
  8
DEFPOINTS
 62
     0
 10
2052.1624700161778
 20
2332.4409619546818
 30
0.0
  0
POINT
  5
5C0A
  8
DEFPOINTS
 62
     0
 10
2052.1624700161778
 20
3055.2351080334361
 30
0.0
  0
ENDBLK
  5
5A37
  8
0
  0
BLOCK
  8
0
  2
*D6
 70
     1
 10
0.0
 20
0.0
 30
0.0
  3
*D6
  1

  0
LINE
  5
5C0B
  8
3
 10
1187.162470016179
 20
2292.4409619546832
 30
0.0
 11
1060.490548396351
 21
2292.4409619546832
 31
0.0
  0
LINE
  5
5C0C
  8
3
 10
1187.1624700161781
 20
1392.4409619546821
 30
0.0
 11
1060.4905483963501
 21
1392.4409619546821
 31
0.0
  0
LINE
  5
5C0D
  8
3
 10
1075.490548396351
 20
2262.4409619546818
 30
0.0
 11
1075.490548396351
 21
1422.4409619546821
 31
0.0
  0
INSERT
  5
5C0E
  8
3
  2
_OPEN
 10
1075.490548396351
 20
2292.4409619546832
 30
0.0
 41
30.0
 42
30.0
 43
30.0
 50
90.0
  0
INSERT
  5
5C0F
  8
3
  2
_OPEN
 10
1075.490548396351
 20
1392.4409619546821
 30
0.0
 41
30.0
 42
30.0
 43
30.0
 50
270.0
  0
TEXT
  8
3
  40
45
  5
5C46
  72
0
  71
0
 10
955.491
 20
1762.79
 30
0.000000
  1
%%c900
  0
POINT
  5
5C11
  8
DEFPOINTS
 62
     0
 10
1202.162470016179
 20
2292.4409619546832
 30
0.0
  0
POINT
  5
5C12
  8
DEFPOINTS
 62
     0
 10
1202.1624700161781
 20
1392.4409619546821
 30
0.0
  0
POINT
  5
5C13
  8
DEFPOINTS
 62
     0
 10
1075.490548396351
 20
1392.4409619546821
 30
0.0
  0
ENDBLK
  5
5A44
  8
0
  0
BLOCK
  8
0
  2
*D7
 70
     1
 10
0.0
 20
0.0
 30
0.0
  3
*D7
  1

  0
LINE
  5
5C14
  8
3
 10
2107.1624700161778
 20
2292.4409619546832
 30
0.0
 11
2293.2150751593058
 21
2292.4409619546832
 31
0.0
  0
LINE
  5
5C15
  8
3
 10
2107.1624700161792
 20
1392.4409619546821
 30
0.0
 11
2293.2150751593058
 21
1392.4409619546821
 31
0.0
  0
LINE
  5
5C16
  8
3
 10
2278.2150751593058
 20
2262.4409619546818
 30
0.0
 11
2278.2150751593058
 21
1422.4409619546821
 31
0.0
  0
INSERT
  5
5C17
  8
3
  2
_OPEN
 10
2278.2150751593058
 20
2292.4409619546832
 30
0.0
 41
30.0
 42
30.0
 43
30.0
 50
90.0
  0
INSERT
  5
5C18
  8
3
  2
_OPEN
 10
2278.2150751593058
 20
1392.4409619546821
 30
0.0
 41
30.0
 42
30.0
 43
30.0
 50
270.0
  0
TEXT
  8
3
  40
45
  5
5C47
  72
0
  71
0
 10
2158.22
 20
1762.79
 30
0.000000
  1
%%c900
  0
POINT
  5
5C1A
  8
DEFPOINTS
 62
     0
 10
2092.1624700161778
 20
2292.4409619546832
 30
0.0
  0
POINT
  5
5C1B
  8
DEFPOINTS
 62
     0
 10
2092.1624700161792
 20
1392.4409619546821
 30
0.0
  0
POINT
  5
5C1C
  8
DEFPOINTS
 62
     0
 10
2278.2150751593058
 20
1392.4409619546821
 30
0.0
  0
ENDBLK
  5
5A5A
  8
0
  0
BLOCK
  8
0
  2
*D8
 70
     1
 10
0.0
 20
0.0
 30
0.0
  3
*D8
  1

  0
LINE
  5
5C1D
  8
3
 10
2896.1144257323072
 20
1857.4409619546821
 30
0.0
 11
2896.1144257323072
 21
3085.6570291455819
 31
0.0
  0
LINE
  5
5C1E
  8
3
 10
3876.1144257323072
 20
1857.4409619546821
 30
0.0
 11
3876.1144257323072
 21
3085.6570291455819
 31
0.0
  0
LINE
  5
5C1F
  8
3
 10
2926.1144257323058
 20
3070.6570291455819
 30
0.0
 11
3846.1144257323072
 21
3070.6570291455819
 31
0.0
  0
INSERT
  5
5C20
  8
3
  2
_OPEN
 10
2896.1144257323072
 20
3070.6570291455819
 30
0.0
 41
30.0
 42
30.0
 43
30.0
 50
180.0
  0
INSERT
  5
5C21
  8
3
  2
_OPEN
 10
3876.1144257323072
 20
3070.6570291455819
 30
0.0
 41
30.0
 42
30.0
 43
30.0
  0
TEXT
  8
3
  40
45
  5
5C48
  72
0
  71
0
 10
3296.11
 20
3021.01
 30
0.000000
  1
980
  0
POINT
  5
5C23
  8
DEFPOINTS
 62
     0
 10
2896.1144257323072
 20
1842.4409619546821
 30
0.0
  0
POINT
  5
5C24
  8
DEFPOINTS
 62
     0
 10
3876.1144257323072
 20
1842.4409619546821
 30
0.0
  0
POINT
  5
5C25
  8
DEFPOINTS
 62
     0
 10
3876.1144257323072
 20
3070.6570291455819
 30
0.0
  0
ENDBLK
  5
5A70
  8
0
  0
BLOCK
  8
0
  2
*D9
 70
     1
 10
0.0
 20
0.0
 30
0.0
  3
*D9
  1

  0
LINE
  5
5C26
  8
3
 10
2845.1144257323058
 20
1842.4409619546821
 30
0.0
 11
2577.9265039845241
 21
1842.4409619546821
 31
0.0
  0
LINE
  5
5C27
  8
3
 10
2971.1144257323058
 20
1282.4409619546821
 30
0.0
 11
2577.9265039845241
 21
1282.4409619546821
 31
0.0
  0
LINE
  5
5C28
  8
3
 10
2592.9265039845241
 20
1812.4409619546821
 30
0.0
 11
2592.9265039845241
 21
1312.4409619546821
 31
0.0
  0
INSERT
  5
5C29
  8
3
  2
_OPEN
 10
2592.9265039845241
 20
1842.4409619546821
 30
0.0
 41
30.0
 42
30.0
 43
30.0
 50
90.0
  0
INSERT
  5
5C2A
  8
3
  2
_OPEN
 10
2592.9265039845241
 20
1282.4409619546821
 30
0.0
 41
30.0
 42
30.0
 43
30.0
 50
270.0
  0
TEXT
  8
3
  40
45
  5
5C49
  72
0
  71
0
 10
2472.93
 20
1482.79
 30
0.000000
  1
560
  0
POINT
  5
5C2C
  8
DEFPOINTS
 62
     0
 10
2860.1144257323072
 20
1842.4409619546821
 30
0.0
  0
POINT
  5
5C2D
  8
DEFPOINTS
 62
     0
 10
2986.1144257323058
 20
1282.4409619546821
 30
0.0
  0
POINT
  5
5C2E
  8
DEFPOINTS
 62
     0
 10
2592.9265039845241
 20
1282.4409619546821
 30
0.0
  0
ENDBLK
  5
5A7D
  8
0
  0
BLOCK
  8
0
  2
*D10
 70
     1
 10
0.0
 20
0.0
 30
0.0
  3
*D10
  1

  0
LINE
  5
5C2F
  8
3
 10
2971.1144257323058
 20
1282.4409619546821
 30
0.0
 11
2577.9265039845241
 21
1282.4409619546821
 31
0.0
  0
LINE
  5
5C30
  8
3
 10
2771.1144257323072
 20
1187.4409619546821
 30
0.0
 11
2577.9265039845241
 21
1187.4409619546821
 31
0.0
  0
LINE
  5
5C31
  8
3
 10
2592.9265039845241
 20
1252.440961954683
 30
0.0
 11
2592.9265039845241
 21
1217.4409619546821
 31
0.0
  0
TEXT
  8
3
  40
45
  5
5C4A
  72
0
  71
0
 10
2461.14
 20
1160.33
 30
0.000000
  1
(95)
  0
INSERT
  5
5C33
  8
3
  2
_OPEN
 10
2592.9265039845241
 20
1282.4409619546821
 30
0.0
 41
30.0
 42
30.0
 43
30.0
 50
90.0
  0
INSERT
  5
5C34
  8
3
  2
_OPEN
 10
2592.9265039845241
 20
1187.4409619546821
 30
0.0
 41
30.0
 42
30.0
 43
30.0
 50
270.0
  0
POINT
  5
5C35
  8
DEFPOINTS
 62
     0
 10
2986.1144257323058
 20
1282.4409619546821
 30
0.0
  0
POINT
  5
5C36
  8
DEFPOINTS
 62
     0
 10
2786.1144257323072
 20
1187.4409619546821
 30
0.0
  0
POINT
  5
5C37
  8
DEFPOINTS
 62
     0
 10
2592.9265039845241
 20
1187.4409619546821
 30
0.0
  0
ENDBLK
  5
5A8A
  8
0
  0
BLOCK
  8
0
  2
*D11
 70
     1
 10
0.0
 20
0.0
 30
0.0
  3
*D11
  1

  0
LINE
  5
5C38
  8
3
 10
2771.1144257323072
 20
1187.4409619546821
 30
0.0
 11
2577.9265039845241
 21
1187.4409619546821
 31
0.0
  0
LINE
  5
5C39
  8
3
 10
2771.1144257323072
 20
1137.4409619546821
 30
0.0
 11
2577.9265039845241
 21
1137.4409619546821
 31
0.0
  0
LINE
  5
5C3A
  8
3
 10
2592.9265039845241
 20
1217.4409619546821
 30
0.0
 11
2592.9265039845241
 21
1247.4409619546821
 31
0.0
  0
LINE
  5
5C3B
  8
3
 10
2592.9265039845241
 20
1107.4409619546821
 30
0.0
 11
2592.9265039845241
 21
1077.4409619546821
 31
0.0
  0
TEXT
  8
3
  40
45
  5
5C4B
  72
0
  71
0
 10
2476.61
 20
975.883
 30
0.000000
  1
50
  0
LINE
  5
5C3D
  8
3
 10
2592.9265039845241
 20
1187.4409619546821
 30
0.0
 11
2592.9265039845241
 21
1137.4409619546821
 31
0.0
  0
INSERT
  5
5C3E
  8
3
  2
_OPEN
 10
2592.9265039845241
 20
1187.4409619546821
 30
0.0
 41
30.0
 42
30.0
 43
30.0
 50
270.0
  0
INSERT
  5
5C3F
  8
3
  2
_OPEN
 10
2592.9265039845241
 20
1137.4409619546821
 30
0.0
 41
30.0
 42
30.0
 43
30.0
 50
90.0
  0
POINT
  5
5C40
  8
DEFPOINTS
 62
     0
 10
2786.1144257323072
 20
1187.4409619546821
 30
0.0
  0
POINT
  5
5C41
  8
DEFPOINTS
 62
     0
 10
2786.1144257323072
 20
1137.4409619546821
 30
0.0
  0
POINT
  5
5C42
  8
DEFPOINTS
 62
     0
 10
2592.9265039845241
 20
1137.4409619546821
 30
0.0
  0
ENDBLK
  5
5AAE
  8
0
  0
ENDSEC
  0
SECTION
  2
ENTITIES
  0
INSERT
  5
2A27
  8
0
  2
YA_N
 10
393.05665135975482
 20
221.63056065424499
 30
0.0
  0
CIRCLE
  5
2A28
  8
1
 10
3386.1144257323072
 20
1842.4409619546821
 30
0.0
 40
490.0
  0
LINE
  5
2A2A
  8
2
 10
2860.1144257323072
 20
1842.4409619546821
 30
0.0
 11
3912.1144257323072
 21
1842.4409619546821
 31
0.0
  0
CIRCLE
  5
2A2B
  8
1
 10
3386.1144257323072
 20
1842.4409619546821
 30
0.0
 40
450.0
  0
CIRCLE
  5
2A2C
  8
1
 10
3386.1144257323072
 20
1842.4409619546821
 30
0.0
 40
454.49999999999989
  0
LINE
  5
2A74
  8
1
 10
1262.162470016179
 20
2042.440961954683
 30
0.0
 11
1262.162470016179
 21
1642.440961954683
 31
0.0
  0
LINE
  5
2A76
  8
1
 10
1302.162470016179
 20
2288.4409619546818
 30
0.0
 11
1377.162470016179
 21
2288.4409619546818
 31
0.0
  0
LINE
  5
2A77
  8
1
 10
1262.162470016179
 20
2042.4409619546821
 30
0.0
 11
1417.162470016179
 21
2042.4409619546821
 31
0.0
  0
LINE
  5
2A78
  8
1
 10
1267.162470016179
 20
2042.440961954683
 30
0.0
 11
1302.162470016179
 21
2288.4409619546818
 31
0.0
  0
LINE
  5
2A79
  8
1
 10
1412.162470016179
 20
2042.440961954683
 30
0.0
 11
1377.162470016179
 21
2288.4409619546818
 31
0.0
  0
LINE
  5
2A7A
  8
1
 10
1387.162470016179
 20
1897.4409619546821
 30
0.0
 11
1387.162470016179
 21
1787.4409619546821
 31
0.0
  0
LINE
  5
2A7B
  8
1
 10
1287.162470016179
 20
1897.4409619546821
 30
0.0
 11
1287.162470016179
 21
1787.4409619546821
 31
0.0
  0
LINE
  5
2A7C
  8
1
 10
1287.162470016179
 20
1897.4409619546821
 30
0.0
 11
1387.162470016179
 21
1897.4409619546821
 31
0.0
  0
LINE
  5
2A7D
  8
1
 10
1287.162470016179
 20
1787.4409619546821
 30
0.0
 11
1387.162470016179
 21
1787.4409619546821
 31
0.0
  0
LINE
  5
2A7E
  8
1
 10
1412.162470016179
 20
1642.4409619546821
 30
0.0
 11
1377.162470016179
 21
1396.440961954683
 31
0.0
  0
LINE
  5
2A7F
  8
1
 10
1267.162470016179
 20
1642.4409619546821
 30
0.0
 11
1302.162470016179
 21
1396.440961954683
 31
0.0
  0
LINE
  5
2A80
  8
1
 10
1262.162470016179
 20
1642.440961954683
 30
0.0
 11
1417.162470016179
 21
1642.440961954683
 31
0.0
  0
LINE
  5
2A81
  8
1
 10
1302.162470016179
 20
1396.440961954683
 30
0.0
 11
1377.162470016179
 21
1396.440961954683
 31
0.0
  0
LINE
  5
2AB1
  8
1
 10
1242.162470016179
 20
2332.4409619546818
 30
0.0
 11
1242.1624700161781
 21
1352.4409619546821
 31
0.0
  0
LINE
  5
2AB2
  8
1
 10
1202.162470016179
 20
2292.4409619546832
 30
0.0
 11
1202.1624700161781
 21
1392.4409619546821
 31
0.0
  0
LINE
  5
2AB3
  8
1
 10
1242.162470016179
 20
2332.4409619546818
 30
0.0
 11
1241.162470016179
 21
2332.4409619546818
 31
0.0
  0
ARC
  5
2AB4
  8
1
 10
1241.162470016179
 20
2330.4409619546818
 30
0.0
 40
2.0
 50
90.0
 51
180.0
  0
ARC
  5
2AB5
  8
1
 10
1234.662470016179
 20
2299.9409619546818
 30
0.0
 40
4.5
 50
270.0
 51
0.0
  0
LINE
  5
2AB6
  8
1
 10
1234.662470016179
 20
2295.4409619546818
 30
0.0
 11
1204.162470016179
 21
2295.4409619546818
 31
0.0
  0
ARC
  5
2AB7
  8
1
 10
1204.162470016179
 20
2293.4409619546818
 30
0.0
 40
2.0
 50
90.0
 51
180.0
  0
LINE
  5
2AB8
  8
1
 10
1202.162470016179
 20
2293.4409619546818
 30
0.0
 11
1202.162470016179
 21
2292.4409619546832
 31
0.0
  0
LINE
  5
2AB9
  8
1
 10
1202.162470016179
 20
2292.4409619546832
 30
0.0
 11
1242.162470016179
 21
2292.4409619546832
 31
0.0
  0
LINE
  5
2ABA
  8
1
 10
1239.162470016179
 20
2330.4409619546818
 30
0.0
 11
1239.1624700161781
 21
1354.4409619546821
 31
0.0
  0
ARC
  5
2ABB
  8
1
 10
1241.162470016179
 20
1354.4409619546821
 30
0.0
 40
2.0
 50
180.0
 51
270.0
  0
LINE
  5
2ABC
  8
1
 10
1242.162470016179
 20
1352.4409619546821
 30
0.0
 11
1241.162470016179
 21
1352.4409619546821
 31
0.0
  0
LINE
  5
2ABD
  8
1
 10
1202.162470016179
 20
1392.4409619546821
 30
0.0
 11
1242.1624700161781
 21
1392.4409619546821
 31
0.0
  0
LINE
  5
2ABE
  8
1
 10
1202.162470016179
 20
1391.4409619546821
 30
0.0
 11
1202.162470016179
 21
1392.4409619546821
 31
0.0
  0
ARC
  5
2ABF
  8
1
 10
1204.162470016179
 20
1391.4409619546821
 30
0.0
 40
2.0
 50
180.0
 51
270.0
  0
LINE
  5
2AC0
  8
1
 10
1234.662470016179
 20
1389.4409619546821
 30
0.0
 11
1204.162470016179
 21
1389.4409619546821
 31
0.0
  0
ARC
  5
2AC1
  8
1
 10
1234.662470016179
 20
1384.9409619546821
 30
0.0
 40
4.5
 50
0.0
 51
90.0
  0
LINE
  5
2ACF
  8
1
 10
3190.1144257323072
 20
2292.0778098710339
 30
0.0
 11
3190.1144257323072
 21
2443.4409619546818
 31
0.0
  0
LINE
  5
2AD0
  8
1
 10
3146.1144257323072
 20
2264.0322313021179
 30
0.0
 11
3146.1144257323072
 21
2443.4409619546818
 31
0.0
  0
LINE
  5
2AD1
  8
1
 10
3196.1144257323058
 20
2295.411891204556
 30
0.0
 11
3196.1144257323058
 21
2443.4409619546818
 31
0.0
  0
LINE
  5
2AD2
  8
1
 10
3196.1144257323058
 20
2443.4409619546818
 30
0.0
 11
3146.1144257323072
 21
2443.4409619546818
 31
0.0
  0
LINE
  5
2AD8
  8
1
 10
3196.1144257323058
 20
2393.4409619546818
 30
0.0
 11
3576.1144257323072
 21
2393.4409619546818
 31
0.0
  0
LINE
  5
2AD9
  8
1
 10
3196.1144257323058
 20
2343.4409619546818
 30
0.0
 11
3576.1144257323058
 21
2343.4409619546818
 31
0.0
  0
LINE
  5
2ADB
  8
1
 10
3158.6144257323058
 20
2403.4409619546818
 30
0.0
 11
3158.6144257323058
 21
2323.4409619546818
 31
0.0
  0
LINE
  5
2ADC
  8
1
 10
3173.6144257323058
 20
2403.4409619546818
 30
0.0
 11
3173.6144257323058
 21
2323.4409619546818
 31
0.0
  0
ARC
  5
2ADD
  8
1
 10
3166.1144257323058
 20
2323.4409619546818
 30
0.0
 40
7.5
 50
180.0
 51
0.0
  0
ARC
  5
2ADE
  8
1
 10
3166.1144257323058
 20
2403.4409619546818
 30
0.0
 40
7.5
 50
0.0
 51
180.0
  0
LINE
  5
2B51
  8
1
 10
3626.1144257323072
 20
2264.0322313021179
 30
0.0
 11
3626.1144257323072
 21
2443.4409619546818
 31
0.0
  0
LINE
  5
2B52
  8
1
 10
3576.1144257323072
 20
2295.411891204556
 30
0.0
 11
3576.1144257323072
 21
2443.4409619546818
 31
0.0
  0
LINE
  5
2B53
  8
1
 10
3582.1144257323072
 20
2292.0778098710339
 30
0.0
 11
3582.1144257323072
 21
2443.4409619546818
 31
0.0
  0
LINE
  5
2B55
  8
1
 10
3598.6144257323072
 20
2403.4409619546818
 30
0.0
 11
3598.6144257323072
 21
2323.4409619546818
 31
0.0
  0
LINE
  5
2B56
  8
1
 10
3613.6144257323058
 20
2403.4409619546818
 30
0.0
 11
3613.6144257323058
 21
2323.4409619546818
 31
0.0
  0
ARC
  5
2B57
  8
1
 10
3606.1144257323058
 20
2323.4409619546818
 30
0.0
 40
7.5
 50
180.0
 51
0.0
  0
ARC
  5
2B58
  8
1
 10
3606.1144257323058
 20
2403.4409619546818
 30
0.0
 40
7.5
 50
0.0
 51
180.0
  0
LINE
  5
2B59
  8
1
 10
3576.1144257323072
 20
2443.4409619546818
 30
0.0
 11
3626.1144257323072
 21
2443.4409619546818
 31
0.0
  0
LINE
  5
2B69
  8
1
 10
1822.1624700161781
 20
2443.4409619546832
 30
0.0
 11
1822.1624700161781
 21
2263.4409619546818
 31
0.0
  0
LINE
  5
2B6A
  8
1
 10
1828.1624700161781
 20
2443.4409619546832
 30
0.0
 11
1828.1624700161781
 21
2263.4409619546818
 31
0.0
  0
LINE
  5
2B6B
  8
1
 10
1810.1624700161781
 20
2387.4409619546818
 30
0.0
 11
1434.1624700161781
 21
2387.4409619546818
 31
0.0
  0
LINE
  5
2B6C
  8
1
 10
1810.1624700161781
 20
2393.4409619546818
 30
0.0
 11
1434.1624700161781
 21
2393.4409619546818
 31
0.0
  0
LINE
  5
2B6D
  8
1
 10
2002.1624700161781
 20
2228.2740673042722
 30
0.0
 11
1282.1624700161781
 21
2228.2740673042722
 31
0.0
  0
LINE
  5
2B6E
  8
1
 10
2002.1624700161781
 20
2257.4409619546832
 30
0.0
 11
1282.1624700161781
 21
2257.4409619546818
 31
0.0
  0
LINE
  5
2B6F
  8
1
 10
2047.662470016179
 20
2263.4409619546832
 30
0.0
 11
1246.662470016179
 21
2263.4409619546818
 31
0.0
  0
LINE
  5
2B70
  8
1
 10
1242.162470016179
 20
1392.4409619546821
 30
0.0
 11
2052.1624700161792
 21
1392.4409619546821
 31
0.0
  0
LINE
  5
2B71
  8
1
 10
1242.162470016179
 20
1387.9409619546821
 30
0.0
 11
2052.1624700161792
 21
1387.9409619546821
 31
0.0
  0
LINE
  5
2B72
  8
CT
 10
1148.4355793749539
 20
1842.4409619546821
 30
0.0
 11
2154.4553517081272
 21
1842.4409619546821
 31
0.0
  0
LINE
  5
2B73
  8
1
 10
1242.162470016179
 20
2292.4409619546832
 30
0.0
 11
2052.1624700161792
 21
2292.4409619546832
 31
0.0
  0
LINE
  5
2B74
  8
1
 10
2047.662470016179
 20
2332.4409619546832
 30
0.0
 11
2047.662470016179
 21
1352.4409619546821
 31
0.0
  0
LINE
  5
2B75
  8
1
 10
2052.1624700161792
 20
2332.4409619546818
 30
0.0
 11
2052.1624700161792
 21
1352.4409619546821
 31
0.0
  0
LINE
  5
2B76
  8
1
 10
2047.662470016179
 20
1352.4409619546821
 30
0.0
 11
2052.1624700161792
 21
1352.4409619546821
 31
0.0
  0
LINE
  5
2B77
  8
1
 10
1833.9311021348269
 20
2363.4409619546818
 30
0.0
 11
1809.474042988149
 21
2363.4409619546818
 31
0.0
  0
LINE
  5
2B78
  8
1
 10
1979.8291366828439
 20
2296.9409619546818
 30
0.0
 11
1997.6624700161781
 21
2296.9409619546818
 31
0.0
  0
LINE
  5
2B79
  8
1
 10
2047.662470016179
 20
2332.4409619546832
 30
0.0
 11
2052.1624700161792
 21
2332.4409619546818
 31
0.0
  0
LINE
  5
2B7A
  8
1
 10
1816.1624700161781
 20
2381.4409619546832
 30
0.0
 11
1816.1624700161781
 21
2343.4409619546818
 31
0.0
  0
LINE
  5
2B7B
  8
1
 10
1822.1624700161781
 20
2343.4409619546818
 30
0.0
 11
1816.1624700161781
 21
2343.4409619546818
 31
0.0
  0
ARC
  5
2B7C
  8
1
 10
1810.1624700161781
 20
2381.4409619546832
 30
0.0
 40
12.0
 50
0.0
 51
90.0
  0
ARC
  5
2B7D
  8
1
 10
1810.1624700161781
 20
2381.4409619546832
 30
0.0
 40
6.0
 50
0.0
 51
90.0
  0
LINE
  5
2B7E
  8
1
 10
1242.162470016179
 20
2332.4409619546818
 30
0.0
 11
1242.162470016179
 21
1352.4409619546821
 31
0.0
  0
LINE
  5
2B7F
  8
1
 10
1246.662470016179
 20
2332.4409619546832
 30
0.0
 11
1246.662470016179
 21
1352.4409619546821
 31
0.0
  0
LINE
  5
2B80
  8
1
 10
1246.662470016179
 20
1352.4409619546821
 30
0.0
 11
1242.162470016179
 21
1352.4409619546821
 31
0.0
  0
LINE
  5
2B81
  8
1
 10
1246.662470016179
 20
2296.9409619546832
 30
0.0
 11
1296.662470016179
 21
2296.9409619546832
 31
0.0
  0
LINE
  5
2B82
  8
1
 10
1816.1624700161781
 20
2349.4409619546818
 30
0.0
 11
1782.1624700161781
 21
2349.4409619546818
 31
0.0
  0
LINE
  5
2B83
  8
1
 10
1428.1624700161781
 20
2381.4409619546832
 30
0.0
 11
1428.1624700161781
 21
2343.4409619546818
 31
0.0
  0
LINE
  5
2B84
  8
1
 10
1422.1624700161781
 20
2381.4409619546832
 30
0.0
 11
1422.1624700161781
 21
2343.4409619546818
 31
0.0
  0
LINE
  5
2B85
  8
1
 10
1428.1624700161781
 20
2343.4409619546818
 30
0.0
 11
1422.1624700161781
 21
2343.4409619546818
 31
0.0
  0
ARC
  5
2B86
  8
1
 10
1434.1624700161781
 20
2381.4409619546832
 30
0.0
 40
12.0
 50
90.0
 51
180.0
  0
ARC
  5
2B87
  8
1
 10
1434.1624700161781
 20
2381.4409619546832
 30
0.0
 40
6.0
 50
90.0
 51
180.0
  0
LINE
  5
2B88
  8
1
 10
1410.393837897529
 20
2363.4409619546818
 30
0.0
 11
1434.8508970442069
 21
2363.4409619546818
 31
0.0
  0
LINE
  5
2B89
  8
1
 10
1246.662470016179
 20
2332.4409619546832
 30
0.0
 11
1242.162470016179
 21
2332.4409619546818
 31
0.0
  0
LINE
  5
2B8A
  8
1
 10
1882.1624700161781
 20
2443.4409619546818
 30
0.0
 11
1822.1624700161781
 21
2443.4409619546818
 31
0.0
  0
LINE
  5
2BD2
  8
2
 10
3386.1144257323072
 20
1105.7983228142371
 30
0.0
 11
3386.1144257323072
 21
2783.4588858816742
 31
0.0
  0
LINE
  5
2C0B
  8
1
 10
2002.1624700161781
 20
2263.4409619546818
 30
0.0
 11
2002.1624700161781
 21
2228.2740673042722
 31
0.0
  0
LINE
  5
2C0C
  8
1
 10
1282.1624700161781
 20
2263.4409619546782
 30
0.0
 11
1282.1624700161781
 21
2228.2740673042722
 31
0.0
  0
LINE
  5
2C0D
  8
1
 10
2002.1624700161781
 20
2263.4409619546832
 30
0.0
 11
1882.1624700161781
 21
2443.4409619546818
 31
0.0
  0
LINE
  5
2C0E
  8
CT
 10
1772.1624700161781
 20
2458.4409619546832
 30
0.0
 11
1772.1624700161781
 21
2263.4409619546818
 31
0.0
  0
LINE
  5
2C0F
  8
CT
 10
1472.1624700161781
 20
2443.4409619546832
 30
0.0
 11
1472.1624700161781
 21
2263.4409619546818
 31
0.0
  0
POINT
  5
2C17
  8
1
 10
1387.162470016179
 20
1897.4409619546821
 30
0.0
  0
POINT
  5
2C21
  8
1
 10
1387.162470016179
 20
1897.4409619546821
 30
0.0
  0
LINE
  5
2C29
  8
1
 10
1417.162470016179
 20
2042.4409619546821
 30
0.0
 11
1417.162470016179
 21
1642.440961954683
 31
0.0
  0
LINE
  5
2C34
  8
1
 10
1296.662470016179
 20
2313.4409619546818
 30
0.0
 11
1296.662470016179
 21
2263.4409619546818
 31
0.0
  0
LINE
  5
2C35
  8
1
 10
1296.662470016179
 20
2313.4409619546818
 30
0.0
 11
1246.662470016179
 21
2313.4409619546818
 31
0.0
  0
LINE
  5
2C36
  8
1
 10
1296.662470016179
 20
2288.4409619546818
 30
0.0
 11
1246.662470016179
 21
2288.4409619546818
 31
0.0
  0
LINE
  5
2C37
  8
1
 10
1271.662470016179
 20
2313.4409619546818
 30
0.0
 11
1271.662470016179
 21
2263.4409619546818
 31
0.0
  0
CIRCLE
  5
2C38
  8
1
 10
1271.662470016179
 20
2288.4409619546818
 30
0.0
 40
10.0
  0
LINE
  5
2C47
  8
1
 10
1296.662470016179
 20
2296.9409619546832
 30
0.0
 11
1462.1624700161781
 21
2296.9409619546818
 31
0.0
  0
LINE
  5
2C7D
  8
1
 10
3582.1144257323058
 20
2403.4409619546818
 30
0.0
 11
3626.1144257323072
 21
2403.4409619546818
 31
0.0
  0
LINE
  5
2DC6
  8
1
 10
1224.6900744691891
 20
2314.9409619546818
 30
0.0
 11
1264.676224164999
 21
2314.9409619546818
 31
0.0
  0
LINE
  5
2DC7
  8
1
 10
1224.69007446919
 20
1369.9409619546821
 30
0.0
 11
1264.676224164999
 21
1369.940961954683
 31
0.0
  0
LINE
  5
2DC8
  8
1
 10
2031.4693186630591
 20
1369.9409619546821
 30
0.0
 11
2071.4554683588681
 21
1369.9409619546821
 31
0.0
  0
LINE
  5
2DC9
  8
1
 10
2031.4693186630591
 20
2314.9409619546818
 30
0.0
 11
2071.4554683588672
 21
2314.9409619546818
 31
0.0
  0
LINE
  5
2DD4
  8
1
 10
1997.662470016179
 20
2313.4409619546818
 30
0.0
 11
2047.662470016179
 21
2313.4409619546818
 31
0.0
  0
LINE
  5
2DD5
  8
1
 10
1997.662470016179
 20
2313.4409619546818
 30
0.0
 11
1997.662470016179
 21
2263.4409619546818
 31
0.0
  0
CIRCLE
  5
2DD6
  8
1
 10
2022.662470016179
 20
2288.4409619546818
 30
0.0
 40
10.0
  0
LINE
  5
2DD7
  8
1
 10
2022.662470016179
 20
2313.4409619546818
 30
0.0
 11
2022.662470016179
 21
2263.4409619546818
 31
0.0
  0
LINE
  5
2DD8
  8
1
 10
1997.662470016179
 20
2288.4409619546818
 30
0.0
 11
2047.662470016179
 21
2288.4409619546818
 31
0.0
  0
LINE
  5
2DD9
  8
1
 10
1997.6624700161781
 20
2296.9409619546818
 30
0.0
 11
2047.662470016179
 21
2296.9409619546818
 31
0.0
  0
LINE
  5
3310
  8
1
 10
2055.1624700161778
 20
2330.4409619546818
 30
0.0
 11
2055.1624700161792
 21
1354.4409619546821
 31
0.0
  0
LINE
  5
3311
  8
1
 10
2092.1624700161778
 20
2292.4409619546832
 30
0.0
 11
2092.1624700161792
 21
1392.4409619546821
 31
0.0
  0
LINE
  5
3312
  8
1
 10
2052.1624700161778
 20
2332.4409619546818
 30
0.0
 11
2052.1624700161792
 21
1352.4409619546821
 31
0.0
  0
LINE
  5
3313
  8
1
 10
2052.1624700161778
 20
1352.4409619546821
 30
0.0
 11
2053.1624700161778
 21
1352.4409619546821
 31
0.0
  0
ARC
  5
3314
  8
1
 10
2053.1624700161778
 20
1354.4409619546821
 30
0.0
 40
2.0
 50
270.0
 51
0.0
  0
ARC
  5
3315
  8
1
 10
2059.6624700161778
 20
1384.9409619546821
 30
0.0
 40
4.5
 50
90.0
 51
180.0
  0
LINE
  5
3316
  8
1
 10
2059.6624700161778
 20
1389.4409619546821
 30
0.0
 11
2090.1624700161778
 21
1389.4409619546821
 31
0.0
  0
ARC
  5
3317
  8
1
 10
2090.1624700161778
 20
1391.4409619546821
 30
0.0
 40
2.0
 50
270.0
 51
0.0
  0
LINE
  5
3318
  8
1
 10
2092.1624700161778
 20
1391.4409619546821
 30
0.0
 11
2092.1624700161778
 21
1392.4409619546821
 31
0.0
  0
LINE
  5
3319
  8
1
 10
2092.1624700161778
 20
1392.4409619546821
 30
0.0
 11
2052.1624700161792
 21
1392.4409619546821
 31
0.0
  0
LINE
  5
331B
  8
1
 10
2092.1624700161778
 20
2292.4409619546832
 30
0.0
 11
2052.1624700161778
 21
2292.4409619546832
 31
0.0
  0
LINE
  5
331C
  8
1
 10
2092.1624700161778
 20
2293.4409619546818
 30
0.0
 11
2092.1624700161778
 21
2292.4409619546832
 31
0.0
  0
ARC
  5
331D
  8
1
 10
2090.1624700161778
 20
2293.4409619546818
 30
0.0
 40
2.0
 50
0.0
 51
90.0
  0
LINE
  5
331E
  8
1
 10
2059.6624700161778
 20
2295.4409619546818
 30
0.0
 11
2090.1624700161778
 21
2295.4409619546818
 31
0.0
  0
ARC
  5
331F
  8
1
 10
2059.6624700161778
 20
2299.9409619546818
 30
0.0
 40
4.5
 50
180.0
 51
270.0
  0
ARC
  5
3320
  8
1
 10
2053.1624700161778
 20
2330.4409619546818
 30
0.0
 40
2.0
 50
0.0
 51
90.0
  0
LINE
  5
3321
  8
1
 10
2052.1624700161778
 20
2332.4409619546818
 30
0.0
 11
2053.1624700161778
 21
2332.4409619546818
 31
0.0
  0
LINE
  5
34CD
  8
1
 10
1317.162470016179
 20
2042.4409619546821
 30
0.0
 11
1317.162470016179
 21
1642.440961954683
 31
0.0
  0
LINE
  5
34CE
  8
1
 10
1327.162470016179
 20
2042.4409619546821
 30
0.0
 11
1327.162470016179
 21
1642.440961954683
 31
0.0
  0
INSERT
  5
38D6
  8
0
  2
YA_N
 10
2255.2823159727141
 20
4310.8610800938995
 30
0.0
  0
INSERT
  5
38D7
  8
FUTO
  2
SAITOS
 10
2249.2823159727141
 20
4305.8610800938995
 30
0.0
  0
LINE
  5
38F9
  8
1
 10
1240.662470016179
 20
1332.4409619546821
 30
0.0
 11
2053.6624700161778
 21
1332.4409619546821
 31
0.0
  0
LINE
  5
38FA
  8
1
 10
1182.1624700161781
 20
1282.4409619546821
 30
0.0
 11
1647.162470016179
 21
1282.440961954683
 31
0.0
  0
LINE
  5
38FB
  8
1
 10
2102.1624700161792
 20
1283.9409619546821
 30
0.0
 11
2102.1624700161792
 21
1282.4409619546821
 31
0.0
  0
LINE
  5
38FC
  8
1
 10
1192.1624700161781
 20
1283.9409619546821
 30
0.0
 11
1192.1624700161781
 21
1282.4409619546821
 31
0.0
  0
LINE
  5
38FD
  8
1
 10
1242.1624700161781
 20
1332.4409619546821
 30
0.0
 11
1242.1624700161781
 21
1282.4409619546821
 31
0.0
  0
LINE
  5
38FE
  8
1
 10
2052.1624700161792
 20
1332.4409619546821
 30
0.0
 11
2052.1624700161792
 21
1282.4409619546821
 31
0.0
  0
LINE
  5
38FF
  8
1
 10
2058.1624700161792
 20
1327.9409619546821
 30
0.0
 11
2058.1624700161792
 21
1294.9409619546821
 31
0.0
  0
LINE
  5
3900
  8
1
 10
1236.1624700161781
 20
1327.940961954683
 30
0.0
 11
1236.1624700161781
 21
1294.9409619546821
 31
0.0
  0
LINE
  5
3901
  8
1
 10
1196.6624700161781
 20
1288.4409619546821
 30
0.0
 11
1229.6624700161781
 21
1288.4409619546821
 31
0.0
  0
LINE
  5
3902
  8
1
 10
1242.1624700161781
 20
1288.4409619546821
 30
0.0
 11
2052.1624700161792
 21
1288.4409619546821
 31
0.0
  0
LINE
  5
3903
  8
1
 10
2064.6624700161778
 20
1288.4409619546821
 30
0.0
 11
2097.6624700161792
 21
1288.4409619546821
 31
0.0
  0
ARC
  5
3904
  8
1
 10
2064.6624700161778
 20
1294.9409619546821
 30
0.0
 40
6.5
 50
180.0
 51
270.0
  0
ARC
  5
3905
  8
1
 10
2053.6624700161778
 20
1327.9409619546821
 30
0.0
 40
4.5
 50
0.0
 51
90.0
  0
ARC
  5
3906
  8
1
 10
2097.6624700161792
 20
1283.9409619546821
 30
0.0
 40
4.5
 50
0.0
 51
90.0
  0
ARC
  5
3907
  8
1
 10
1240.662470016179
 20
1327.940961954683
 30
0.0
 40
4.5
 50
90.0
 51
180.00000000000071
  0
ARC
  5
3908
  8
1
 10
1196.6624700161781
 20
1283.9409619546821
 30
0.0
 40
4.5
 50
90.0
 51
180.0
  0
ARC
  5
3909
  8
1
 10
1229.6624700161781
 20
1294.9409619546821
 30
0.0
 40
6.5
 50
270.0
 51
0.0000000000005011
  0
INSERT
  5
3966
  8
0
  2
YA_N
 10
7755.2324490037663
 20
3055.7338312020579
 30
0.0
 41
0.75
 42
0.75
 43
0.75
  0
INSERT
  5
3967
  8
FUTO
  2
SAITOS
 10
7750.7324490037663
 20
3051.9838312020579
 30
0.0
 41
0.75
 42
0.75
 43
0.75
  0
INSERT
  5
3968
  8
0
  2
YA_N
 10
11147.69801996947
 20
4644.5642139784586
 30
0.0
 41
0.75
 42
0.75
 43
0.75
  0
INSERT
  5
3969
  8
FUTO
  2
SAITOS
 10
11143.19801996947
 20
4640.8142139784586
 30
0.0
 41
0.75
 42
0.75
 43
0.75
  0
TEXT
  5
39BA
  8
FUTO
 10
11387.7458353532
 20
4635.2586695132668
 30
0.0
 40
7.5
  1

 51
15.0
  0
TEXT
  5
39BB
  8
FUTO
 10
11586.53371433487
 20
4635.2586695132668
 30
0.0
 40
7.5
  1

 51
15.0
  0
TEXT
  5
39BC
  8
FUTO
 10
11386.273332492239
 20
4635.2586695132668
 30
0.0
 40
7.5
  1

 51
15.0
  0
INSERT
  5
39D3
  8
0
  2
YA_N
 10
6984.6043717091397
 20
2544.0285315017022
 30
0.0
 41
15.0
 42
15.0
 43
15.0
  0
INSERT
  5
39D4
  8
FUTO
  2
SAITOS
 10
6894.6043717091397
 20
2469.0285315017009
 30
0.0
 41
15.0
 42
15.0
 43
15.0
  0
INSERT
  5
39D5
  8
0
  2
YA_N
 10
72234.883541243107
 20
3669.0285315017022
 30
0.0
 41
225.0
 42
225.0
 43
225.0
  0
INSERT
  5
39D6
  8
FUTO
  2
SAITOS
 10
70884.883541243107
 20
2544.0285315017022
 30
0.0
 41
225.0
 42
225.0
 43
225.0
  0
INSERT
  5
39D7
  8
0
  2
YA_N
 10
103825.2584725763
 20
4967.1719664180564
 30
0.0
 41
225.0
 42
225.0
 43
225.0
  0
INSERT
  5
39D8
  8
FUTO
  2
SAITOS
 10
102475.2584725763
 20
3842.171966418055
 30
0.0
 41
225.0
 42
225.0
 43
225.0
  0
INSERT
  5
39D9
  8
0
  2
YA_N
 10
72234.883541243107
 20
3669.0285315017022
 30
0.0
 41
225.0
 42
225.0
 43
225.0
  0
INSERT
  5
39DA
  8
FUTO
  2
SAITOS
 10
70884.883541243107
 20
2544.0285315017022
 30
0.0
 41
225.0
 42
225.0
 43
225.0
  0
INSERT
  5
39DB
  8
0
  2
YA_N
 10
12446.2054571137
 20
2730.621937030714
 30
0.0
 41
15.0
 42
15.0
 43
15.0
  0
INSERT
  5
39DC
  8
FUTO
  2
SAITOS
 10
12356.2054571137
 20
2655.621937030714
 30
0.0
 41
15.0
 42
15.0
 43
15.0
  0
TEXT
  5
39DD
  8
SP
 10
13350.415310127781
 20
6082.7185190425926
 30
0.0
 40
37.5
  1

  0
TEXT
  5
39DE
  8
SP
 10
13350.415310127781
 20
6007.7185190425944
 30
0.0
 40
37.5
  1

  0
TEXT
  5
39DF
  8
SP
 10
13275.415310127781
 20
5857.7185190425926
 30
0.0
 40
37.5
  1

  0
TEXT
  5
39E0
  8
SP
 10
13350.415310127781
 20
5707.7185190425926
 30
0.0
 40
37.5
  1

  0
TEXT
  5
39E1
  8
SP
 10
13350.415310127781
 20
5782.7185190425926
 30
0.0
 40
37.5
  1

  0
INSERT
  5
39E2
  8
0
  2
YA_N
 10
-463.43440363243832
 20
3071.2928473547449
 30
0.0
 41
15.0
 42
15.0
 43
15.0
  0
INSERT
  5
39E3
  8
FUTO
  2
SAITOS
 10
-553.43440363243815
 20
2996.2928473547449
 30
0.0
 41
15.0
 42
15.0
 43
15.0
  0
INSERT
  5
3A1E
  8
0
  2
YA_N
 10
64786.844765901529
 20
4196.2928473547463
 30
0.0
 41
225.0
 42
225.0
 43
225.0
  0
INSERT
  5
3A1F
  8
FUTO
  2
SAITOS
 10
63436.844765901529
 20
3071.2928473547449
 30
0.0
 41
225.0
 42
225.0
 43
225.0
  0
INSERT
  5
3A20
  8
0
  2
YA_N
 10
96377.219697234788
 20
5494.4362822710973
 30
0.0
 41
225.0
 42
225.0
 43
225.0
  0
INSERT
  5
3A21
  8
FUTO
  2
SAITOS
 10
95027.219697234788
 20
4369.4362822710973
 30
0.0
 41
225.0
 42
225.0
 43
225.0
  0
INSERT
  5
3A22
  8
0
  2
YA_N
 10
64786.844765901529
 20
4196.2928473547463
 30
0.0
 41
225.0
 42
225.0
 43
225.0
  0
INSERT
  5
3A23
  8
FUTO
  2
SAITOS
 10
63436.844765901529
 20
3071.2928473547449
 30
0.0
 41
225.0
 42
225.0
 43
225.0
  0
INSERT
  5
3AF1
  8
0
  2
YA_N
 10
4998.1666817721261
 20
3257.8862528837558
 30
0.0
 41
15.0
 42
15.0
 43
15.0
  0
INSERT
  5
3AF2
  8
FUTO
  2
SAITOS
 10
4908.1666817721261
 20
3182.8862528837558
 30
0.0
 41
15.0
 42
15.0
 43
15.0
  0
TEXT
  5
3B15
  8
SP
 10
5902.3765347862081
 20
6609.982834895638
 30
0.0
 40
37.5
  1

  0
TEXT
  5
3B16
  8
SP
 10
5902.3765347862081
 20
6534.982834895638
 30
0.0
 40
37.5
  1

  0
TEXT
  5
3B1A
  8
SP
 10
5827.3765347862081
 20
6384.9828348956371
 30
0.0
 40
37.5
  1

  0
TEXT
  5
3B2E
  8
SP
 10
5902.3765347862081
 20
6234.9828348956371
 30
0.0
 40
37.5
  1

  0
TEXT
  5
3B2F
  8
SP
 10
5902.3765347862081
 20
6309.9828348956371
 30
0.0
 40
37.5
  1

  0
LINE
  5
3B62
  8
1
 10
2037.662470016179
 20
1472.12189762245
 30
0.0
 11
1256.6624700161781
 21
1472.12189762245
 31
0.0
  0
LINE
  5
3B63
  8
1
 10
2047.662470016179
 20
1462.12189762245
 30
0.0
 11
2037.662470016179
 21
1472.12189762245
 31
0.0
  0
LINE
  5
3B64
  8
1
 10
1256.6624700161781
 20
1472.12189762245
 30
0.0
 11
1246.6624700161781
 21
1462.12189762245
 31
0.0
  0
LINE
  5
3D92
  8
1
 10
2986.1144257323058
 20
1288.4409619546821
 30
0.0
 11
3786.1144257323072
 21
1288.4409619546821
 31
0.0
  0
LINE
  5
3D93
  8
1
 10
2986.1144257323058
 20
1332.4409619546821
 30
0.0
 11
3786.1144257323072
 21
1332.4409619546821
 31
0.0
  0
LINE
  5
3D94
  8
1
 10
2986.1144257323058
 20
1282.4409619546821
 30
0.0
 11
3186.1144257323072
 21
1282.440961954683
 31
0.0
  0
LINE
  5
3D97
  8
1
 10
2986.1144257323058
 20
1332.4409619546821
 30
0.0
 11
2986.1144257323058
 21
1282.4409619546821
 31
0.0
  0
LINE
  5
3D9A
  8
1
 10
3669.2783247779289
 20
1442.543217178245
 30
0.0
 11
3739.8772191202202
 21
1334.9090352760979
 31
0.0
  0
LINE
  5
3D9B
  8
1
 10
3665.592113216459
 20
1439.958388172276
 30
0.0
 11
3736.1144257323058
 21
1332.4409619546821
 31
0.0
  0
LINE
  5
3D9E
  8
1
 10
3786.1144257323072
 20
1332.4409619546821
 30
0.0
 11
3786.1144257323072
 21
1282.4409619546821
 31
0.0
  0
LINE
  5
3DA1
  8
1
 10
2047.662470016179
 20
1462.12189762245
 30
0.0
 11
2047.662470016179
 21
1332.4409619546821
 31
0.0
  0
LINE
  5
3DA2
  8
1
 10
1246.662470016179
 20
1462.1218976224509
 30
0.0
 11
1246.662470016179
 21
1332.4409619546821
 31
0.0
  0
LINE
  5
4152
  8
1
 10
3209.9163257323071
 20
2673.3869619546822
 30
0.0
 11
3111.1332257323061
 21
2508.7489619546818
 31
0.0
  0
LINE
  5
4153
  8
1
 10
3113.5341257323062
 20
2504.9759619546821
 30
0.0
 11
3214.3753257323069
 21
2673.0439619546819
 31
0.0
  0
ARC
  5
4154
  8
1
 10
3145.412425732306
 20
2640.6009619546821
 30
0.0
 40
26.0
 50
92.353199999999987
 51
176.10830000000001
  0
LINE
  5
4155
  8
1
 10
3118.6130257323061
 20
2513.4409619546818
 30
0.0
 11
3198.9340257323061
 21
2513.4409619546818
 31
0.0
  0
LINE
  5
4156
  8
1
 10
3540.1144257323072
 20
2409.4409619546818
 30
0.0
 11
3520.6819257323059
 21
2462.8309619546822
 31
0.0
  0
LINE
  5
4157
  8
1
 10
3232.1144257323072
 20
2409.4409619546818
 30
0.0
 11
3251.5470257323059
 21
2462.8309619546822
 31
0.0
  0
ARC
  5
415A
  8
1
 10
3386.1144257323072
 20
2553.4409619546818
 30
0.0
 40
162.0
 50
285.6481
 51
0.0
  0
ARC
  5
415D
  8
1
 10
3386.1144257323072
 20
2553.4409619546818
 30
0.0
 40
162.0
 50
0.0
 51
254.5427
  0
LINE
  5
4160
  8
1
 10
3342.4338257323061
 20
2397.4409619546818
 30
0.0
 11
3429.7951257323061
 21
2397.4409619546818
 31
0.0
  0
LINE
  5
4161
  8
1
 10
3301.170525732306
 20
2415.4969619546819
 30
0.0
 11
3292.9931257323069
 21
2407.318961954682
 31
0.0
  0
LINE
  5
4164
  8
1
 10
3278.9012257323061
 20
2411.4409619546818
 30
0.0
 11
3234.1144257323058
 21
2411.4409619546818
 31
0.0
  0
LINE
  5
4165
  8
1
 10
3232.1144257323072
 20
2393.4409619546818
 30
0.0
 11
3292.1144257323058
 21
2393.4409619546818
 31
0.0
  0
ARC
  5
4167
  8
1
 10
3234.1144257323058
 20
2409.4409619546818
 30
0.0
 40
2.0
 50
90.0
 51
180.0
  0
LINE
  5
4168
  8
2
 10
3259.1144257323058
 20
2416.169961954683
 30
0.0
 11
3259.1144257323058
 21
2385.9119619546818
 31
0.0
  0
LINE
  5
4169
  8
1
 10
3232.1144257323072
 20
2393.4409619546818
 30
0.0
 11
3232.1144257323072
 21
2409.4409619546818
 31
0.0
  0
ARC
  5
416C
  8
1
 10
3295.1144257323058
 20
2405.1979619546819
 30
0.0
 40
3.0
 50
135.0
 51
180.0
  0
LINE
  5
416D
  8
1
 10
3292.1144257323058
 20
2393.4409619546818
 30
0.0
 11
3292.1144257323058
 21
2405.1979619546819
 31
0.0
  0
LINE
  5
416F
  8
1
 10
3291.003225732306
 20
2422.2999619546822
 30
0.0
 11
3281.0226257323061
 21
2412.318961954682
 31
0.0
  0
ARC
  5
4170
  8
1
 10
3278.9012257323061
 20
2414.4409619546818
 30
0.0
 40
3.0
 50
270.0
 51
315.0
  0
LINE
  5
4173
  8
1
 10
3493.3276257323068
 20
2411.4409619546818
 30
0.0
 11
3538.1144257323058
 21
2411.4409619546818
 31
0.0
  0
LINE
  5
4174
  8
1
 10
3540.1144257323072
 20
2393.4409619546818
 30
0.0
 11
3480.1144257323058
 21
2393.4409619546818
 31
0.0
  0
LINE
  5
4175
  8
1
 10
3471.0583257323069
 20
2415.4969619546819
 30
0.0
 11
3479.2358257323058
 21
2407.318961954682
 31
0.0
  0
ARC
  5
4176
  8
1
 10
3477.1144257323058
 20
2405.1979619546819
 30
0.0
 40
3.0
 50
0.0
 51
45.0
  0
LINE
  5
4177
  8
1
 10
3480.1144257323058
 20
2393.4409619546818
 30
0.0
 11
3480.1144257323058
 21
2405.1979619546819
 31
0.0
  0
LINE
  5
4179
  8
1
 10
3491.1529257323059
 20
2412.3729619546821
 30
0.0
 11
3481.2256257323061
 21
2422.2999619546822
 31
0.0
  0
ARC
  5
417A
  8
1
 10
3493.3276257323068
 20
2414.4409619546818
 30
0.0
 40
3.0
 50
225.0
 51
270.0
  0
ARC
  5
417B
  8
1
 10
3538.1144257323058
 20
2409.4409619546818
 30
0.0
 40
2.0
 50
0.0
 51
90.0
  0
LINE
  5
417E
  8
2
 10
3513.1144257323058
 20
2416.169961954683
 30
0.0
 11
3513.1144257323058
 21
2385.9119619546818
 31
0.0
  0
LINE
  5
4180
  8
1
 10
3540.1144257323072
 20
2393.4409619546818
 30
0.0
 11
3540.1144257323072
 21
2409.4409619546818
 31
0.0
  0
LINE
  5
4191
  8
1
 10
3236.7696257323068
 20
2658.133961954682
 30
0.0
 11
3275.5530257323062
 21
2676.2189619546821
 31
0.0
  0
LINE
  5
4193
  8
1
 10
3275.5530257323062
 20
2676.2189619546821
 30
0.0
 11
3277.7062257323059
 21
2673.6729619546818
 31
0.0
  0
LINE
  5
4194
  8
1
 10
3220.1144257323058
 20
2544.1489619546819
 30
0.0
 11
3220.1144257323058
 21
2659.2069619546819
 31
0.0
  0
LINE
  5
4195
  8
1
 10
3220.1144257323058
 20
2658.4409619546818
 30
0.0
 11
3220.1144257323058
 21
2548.4409619546818
 31
0.0
  0
LINE
  5
4196
  8
1
 10
3221.1144257323072
 20
2658.4409619546818
 30
0.0
 11
3221.1144257323072
 21
2548.4409619546818
 31
0.0
  0
ARC
  5
41A4
  8
1
 10
3217.1144257323058
 20
2544.1489619546819
 30
0.0
 40
3.0
 50
333.43439999999998
 51
0.0
  0
LINE
  5
41A5
  8
1
 10
3219.7977257323059
 20
2542.8069619546818
 30
0.0
 11
3207.8783257323062
 21
2518.9679619546819
 31
0.0
  0
ARC
  5
41A6
  8
1
 10
3198.9340257323061
 20
2523.4409619546818
 30
0.0
 40
10.0
 50
270.0
 51
333.43479999999988
  0
LINE
  5
41A7
  8
1
 10
3221.1144257323072
 20
2548.4409619546818
 30
0.0
 11
3220.1144257323058
 21
2548.4409619546818
 31
0.0
  0
LINE
  5
41A8
  8
1
 10
3223.9236257323068
 20
2548.4409619546818
 30
0.0
 11
3221.1144257323072
 21
2548.4409619546818
 31
0.0
  0
LINE
  5
41A9
  8
1
 10
3160.1144257323058
 20
2518.0999619546819
 30
0.0
 11
3160.1144257323058
 21
2506.2059619546822
 31
0.0
  0
LINE
  5
41AA
  8
1
 10
3207.0555257323058
 20
2669.155961954682
 30
0.0
 11
3144.3449257323068
 21
2666.5789619546822
 31
0.0
  0
LINE
  5
41AB
  8
1
 10
3213.5973257323062
 20
2603.4409619546818
 30
0.0
 11
3223.7073257323068
 21
2603.4409619546818
 31
0.0
  0
LINE
  5
41AC
  8
1
 10
3227.1529257323068
 20
2603.4409619546818
 30
0.0
 11
3213.1876257323061
 21
2603.4409619546818
 31
0.0
  0
LINE
  5
41AD
  8
1
 10
3262.0771257323072
 20
2658.4409619546818
 30
0.0
 11
3221.1144257323072
 21
2658.4409619546818
 31
0.0
  0
LINE
  5
41AE
  8
1
 10
3217.2014257323071
 20
2664.3519619546819
 30
0.0
 11
3213.0033257323062
 21
2666.8699619546819
 31
0.0
  0
ARC
  5
41AF
  8
1
 10
3214.1144257323072
 20
2659.2069619546819
 30
0.0
 40
5.9999000000000002
 50
0.0
 51
59.035899999999991
  0
LINE
  5
41B0
  8
1
 10
3221.1144257323072
 20
2658.4409619546818
 30
0.0
 11
3220.1144257323058
 21
2658.4409619546818
 31
0.0
  0
ARC
  5
41B1
  8
1
 10
3214.0324257323059
 20
2668.5849619546821
 30
0.0
 40
2.0
 50
149.03529999999989
 51
239.03449999999989
  0
LINE
  5
41B2
  8
1
 10
3214.3753257323069
 20
2673.0439619546819
 30
0.0
 11
3212.6603257323059
 21
2674.0729619546819
 31
0.0
  0
ARC
  5
41B3
  8
1
 10
3211.6314257323061
 20
2672.3589619546819
 30
0.0
 40
2.0
 50
59.035899999999991
 51
149.03829999999999
  0
LINE
  5
41B4
  8
1
 10
3390.1144257323058
 20
2719.8209619546819
 30
0.0
 11
3390.1144257323058
 21
2757.4409619546818
 31
0.0
  0
LINE
  5
41B5
  8
1
 10
3382.1144257323072
 20
2719.8209619546819
 30
0.0
 11
3382.1144257323072
 21
2757.4409619546818
 31
0.0
  0
LINE
  5
41B6
  8
1
 10
3381.169425732307
 20
2719.8209619546819
 30
0.0
 11
3391.059425732306
 21
2719.8209619546819
 31
0.0
  0
LINE
  5
41B7
  8
1
 10
3380.6694257323061
 20
2715.4409619546818
 30
0.0
 11
3391.559425732306
 21
2715.4409619546818
 31
0.0
  0
LINE
  5
41B8
  8
1
 10
3382.9426257323062
 20
2715.4409619546818
 30
0.0
 11
3382.9426257323062
 21
2719.3209619546819
 31
0.0
  0
LINE
  5
41B9
  8
1
 10
3382.9426257323062
 20
2719.3209619546819
 30
0.0
 11
3383.4426257323062
 21
2719.8209619546819
 31
0.0
  0
LINE
  5
41BA
  8
1
 10
3382.9426257323062
 20
2719.3209619546819
 30
0.0
 11
3382.4426257323071
 21
2719.8209619546819
 31
0.0
  0
LINE
  5
41BB
  8
1
 10
3381.169425732307
 20
2719.8209619546819
 30
0.0
 11
3380.6694257323061
 21
2719.3209619546819
 31
0.0
  0
LINE
  5
41BC
  8
1
 10
3380.6694257323061
 20
2719.3209619546819
 30
0.0
 11
3380.6694257323061
 21
2715.4409619546818
 31
0.0
  0
LINE
  5
41BD
  8
1
 10
3389.2862257323059
 20
2715.4409619546818
 30
0.0
 11
3389.2862257323059
 21
2719.3209619546819
 31
0.0
  0
LINE
  5
41BE
  8
1
 10
3386.1144257323072
 20
2714.4969619546819
 30
0.0
 11
3386.1144257323072
 21
2720.3539619546818
 31
0.0
  0
LINE
  5
41BF
  8
1
 10
3391.559425732306
 20
2719.3209619546819
 30
0.0
 11
3391.059425732306
 21
2719.8209619546819
 31
0.0
  0
LINE
  5
41C0
  8
1
 10
3389.2862257323059
 20
2719.3209619546819
 30
0.0
 11
3388.7862257323068
 21
2719.8209619546819
 31
0.0
  0
LINE
  5
41C1
  8
1
 10
3391.559425732306
 20
2719.3209619546819
 30
0.0
 11
3391.559425732306
 21
2715.4409619546818
 31
0.0
  0
LINE
  5
41C2
  8
1
 10
3389.2862257323059
 20
2719.3209619546819
 30
0.0
 11
3389.7862257323068
 21
2719.8209619546819
 31
0.0
  0
ARC
  5
41C3
  8
1
 10
3386.114525732306
 20
2757.4399619546821
 30
0.0
 40
4.0000999999999989
 50
90.000900000000016
 51
179.99819999999991
  0
ARC
  5
41C4
  8
1
 10
3386.114325732306
 20
2757.4399619546821
 30
0.0
 40
4.0000999999999989
 50
0.0017
 51
89.998300000000015
  0
LINE
  5
41C5
  8
1
 10
1609.098470016178
 20
2515.5139619546821
 30
0.0
 11
1649.1624700161769
 21
2515.5139619546821
 31
0.0
  0
LINE
  5
41C6
  8
1
 10
1613.6934700161769
 20
2521.6839619546822
 30
0.0
 11
1649.1624700161769
 21
2521.6839619546822
 31
0.0
  0
LINE
  5
41C7
  8
1
 10
1551.1624700161769
 20
2657.430961954683
 30
0.0
 11
1649.1624700161769
 21
2657.430961954683
 31
0.0
  0
LINE
  5
41C8
  8
1
 10
1551.1624700161769
 20
2668.742961954682
 30
0.0
 11
1649.1624700161769
 21
2668.742961954682
 31
0.0
  0
LINE
  5
41C9
  8
1
 10
1556.1624700161781
 20
2505.229961954682
 30
0.0
 11
1644.1624700161769
 21
2505.229961954682
 31
0.0
  0
LINE
  5
41CA
  8
1
 10
1556.1624700161781
 20
2673.8849619546818
 30
0.0
 11
1644.1624700161769
 21
2673.8849619546818
 31
0.0
  0
LINE
  5
41CB
  8
CT
 10
1291.446470016178
 20
2553.4409619546832
 30
0.0
 11
1984.272311713986
 21
2553.4409619546832
 31
0.0
  0
LINE
  5
41D0
  8
1
 10
1618.596470016178
 20
2413.2779619546818
 30
0.0
 11
1745.196470016178
 21
2411.4739619546822
 31
0.0
  0
LINE
  5
41D1
  8
1
 10
1747.1624700161781
 20
2393.4409619546818
 30
0.0
 11
1600.1624700161769
 21
2393.4409619546818
 31
0.0
  0
LINE
  5
41D2
  8
1
 10
1677.4074700161771
 20
2603.4409619546818
 30
0.0
 11
1536.8114700161771
 21
2603.4409619546818
 31
0.0
  0
LINE
  5
41D3
  8
1
 10
1740.7024700161769
 20
2715.4409619546832
 30
0.0
 11
1600.1624700161769
 21
2715.4409619546832
 31
0.0
  0
LINE
  5
41D4
  8
1
 10
1428.1624700161769
 20
2442.4409619546818
 30
0.0
 11
1448.1624700161769
 21
2462.4409619546818
 31
0.0
  0
LINE
  5
41D5
  8
1
 10
1378.1624700161769
 20
2713.4409619546832
 30
0.0
 11
1378.1624700161769
 21
2399.4409619546818
 31
0.0
  0
LINE
  5
41D6
  8
1
 10
1298.1624700161781
 20
2701.6079619546822
 30
0.0
 11
1298.1624700161781
 21
2405.3669619546822
 31
0.0
  0
LINE
  5
41D7
  8
1
 10
1592.9494700161781
 20
2457.149961954683
 30
0.0
 11
1591.5474700161781
 21
2422.8679619546829
 31
0.0
  0
LINE
  5
41D9
  8
CT
 10
1600.1624700161769
 20
2764.4359619546831
 30
0.0
 11
1600.1624700161769
 21
2384.941961954682
 31
0.0
  0
LINE
  5
41DA
  8
1
 10
1607.375470016178
 20
2457.149961954683
 30
0.0
 11
1608.7774700161781
 21
2422.8679619546829
 31
0.0
  0
LINE
  5
41DB
  8
1
 10
1378.1624700161769
 20
2400.4409619546818
 30
0.0
 11
1300.087470016178
 21
2403.3679619546829
 31
0.0
  0
ARC
  5
41DC
  8
1
 10
1300.1624700161781
 20
2405.3669619546822
 30
0.0
 40
2.0
 50
180.0
 51
267.85219999999998
  0
LINE
  5
41DE
  8
1
 10
1581.7284700161781
 20
2413.2779619546818
 30
0.0
 11
1482.1624700161781
 21
2411.8591857777478
 31
0.0
  0
LINE
  5
41DF
  8
1
 10
1453.1624700161769
 20
2393.4409619546818
 30
0.0
 11
1600.1624700161769
 21
2393.4409619546818
 31
0.0
  0
LINE
  5
41E0
  8
1
 10
1428.1624700161769
 20
2397.4409619546832
 30
0.0
 11
1380.1624700161781
 21
2397.4409619546832
 31
0.0
  0
ARC
  5
41E1
  8
1
 10
1380.1624700161781
 20
2399.4409619546818
 30
0.0
 40
2.0001000000000002
 50
180.0
 51
269.99650000000003
  0
LINE
  5
41E2
  8
1
 10
1428.1624700161769
 20
2442.4409619546818
 30
0.0
 11
1428.1624700161769
 21
2397.4409619546832
 31
0.0
  0
ARC
  5
41E3
  8
1
 10
1455.1624700161781
 20
2409.4749619546819
 30
0.0
 40
2.0001000000000002
 50
90.986199999999997
 51
180.0
  0
LINE
  5
41E4
  8
1
 10
1453.1624700161769
 20
2393.4409619546818
 30
0.0
 11
1453.1624700161769
 21
2413.4409619546832
 31
0.0
  0
LINE
  5
41E5
  8
1
 10
1428.1624700161769
 20
2413.4409619546832
 30
0.0
 11
1438.1624700161781
 21
2413.4409619546832
 31
0.0
  0
LINE
  5
41E7
  8
1
 10
1453.1624700161769
 20
2413.4409619546832
 30
0.0
 11
1438.1624700161781
 21
2413.4409619546832
 31
0.0
  0
LINE
  5
41EA
  8
1
 10
1473.1624700161781
 20
2415.2159619546819
 30
0.0
 11
1473.1624700161781
 21
2387.256961954683
 31
0.0
  0
ARC
  5
41EC
  8
1
 10
1581.5564700161781
 20
2423.2759619546832
 30
0.0
 40
10.0
 50
270.98759999999999
 51
357.65910000000002
  0
ARC
  5
41EE
  8
1
 10
1618.7684700161781
 20
2423.2759619546832
 30
0.0
 40
10.0
 50
182.34089999999989
 51
269.01240000000001
  0
LINE
  5
41EF
  8
1
 10
1378.1624700161769
 20
2710.4409619546832
 30
0.0
 11
1299.988470016177
 21
2703.5999619546828
 31
0.0
  0
LINE
  5
41F0
  8
1
 10
3119.4724257323069
 20
2642.3649619546818
 30
0.0
 11
3111.3474257323069
 21
2522.9289619546821
 31
0.0
  0
LINE
  5
41F1
  8
1
 10
3113.5341257323062
 20
2504.9759619546821
 30
0.0
 11
3111.8192257323062
 21
2506.0049619546821
 31
0.0
  0
ARC
  5
41F2
  8
1
 10
3112.848125732306
 20
2507.7199619546818
 30
0.0
 40
2.0
 50
149.03829999999999
 51
239.0359
  0
ARC
  5
41F3
  8
1
 10
3117.3336257323072
 20
2522.5209619546822
 30
0.0
 40
6.0000999999999989
 50
176.10830000000001
 51
239.03649999999999
  0
LINE
  5
41F4
  8
1
 10
3115.7636257323061
 20
2516.4659619546819
 30
0.0
 11
3114.2466257323058
 21
2517.3759619546822
 31
0.0
  0
ARC
  5
41F5
  8
1
 10
1300.1624700161781
 20
2701.6079619546822
 30
0.0
 40
1.9998
 50
94.997200000000007
 51
180.00700000000001
  0
LINE
  5
41F6
  8
1
 10
1448.1624700161769
 20
2462.4409619546818
 30
0.0
 11
1448.1624700161769
 21
2715.4409619546832
 31
0.0
  0
LINE
  5
41F7
  8
1
 10
1448.1624700161769
 20
2701.7829619546828
 30
0.0
 11
1459.622470016177
 21
2715.4409619546832
 31
0.0
  0
LINE
  5
4209
  8
1
 10
1536.1624700161781
 20
2653.742961954682
 30
0.0
 11
1536.1624700161781
 21
2530.5139619546821
 31
0.0
  0
LINE
  5
420A
  8
1
 10
1529.1624700161769
 20
2646.8849619546831
 30
0.0
 11
1529.1624700161769
 21
2532.2299619546829
 31
0.0
  0
LINE
  5
420B
  8
1
 10
1551.1624700161769
 20
2515.5139619546821
 30
0.0
 11
1591.261470016178
 21
2515.5139619546821
 31
0.0
  0
LINE
  5
420C
  8
1
 10
1551.1624700161769
 20
2521.6839619546822
 30
0.0
 11
1586.6654700161771
 21
2521.6839619546822
 31
0.0
  0
ARC
  5
420D
  8
1
 10
1556.1624700161781
 20
2532.2299619546829
 30
0.0
 40
27.0
 50
180.0
 51
270.0
  0
ARC
  5
420E
  8
1
 10
1551.1624700161769
 20
2530.5139619546821
 30
0.0
 40
15.0
 50
180.0
 51
270.0
  0
ARC
  5
420F
  8
1
 10
1551.1624700161769
 20
2536.6839619546831
 30
0.0
 40
15.0
 50
180.0
 51
270.0
  0
ARC
  5
4214
  8
1
 10
1591.261470016178
 20
2519.5139619546821
 30
0.0
 40
4.0
 50
270.0
 51
318.00459999999993
  0
ARC
  5
4215
  8
1
 10
1600.1794700161779
 20
2513.7939619546819
 30
0.0
 40
14.0
 50
41.341700000000003
 51
138.65829999999991
  0
ARC
  5
4216
  8
1
 10
1586.6654700161771
 20
2525.6839619546822
 30
0.0
 40
4.0
 50
270.0
 51
318.65980000000002
  0
ARC
  5
4217
  8
1
 10
1609.098470016178
 20
2519.5139619546821
 30
0.0
 40
4.0000999999999989
 50
221.99420000000001
 51
270.0
  0
ARC
  5
4218
  8
1
 10
1600.1794700161779
 20
2511.4849619546831
 30
0.0
 40
8.0
 50
41.994199999999992
 51
138.00579999999999
  0
ARC
  5
4219
  8
1
 10
1613.6934700161769
 20
2525.6839619546822
 30
0.0
 40
4.0
 50
221.34020000000001
 51
270.0
  0
ARC
  5
421A
  8
1
 10
1551.1624700161769
 20
2642.430961954683
 30
0.0
 40
15.0
 50
90.0
 51
180.0
  0
ARC
  5
421B
  8
1
 10
1556.1624700161781
 20
2646.8849619546831
 30
0.0
 40
27.0
 50
90.0
 51
180.0
  0
ARC
  5
421C
  8
1
 10
1551.1624700161769
 20
2653.742961954682
 30
0.0
 40
15.0
 50
90.0
 51
180.0
  0
LINE
  5
421D
  8
1
 10
1459.622470016177
 20
2715.4409619546832
 30
0.0
 11
1600.1624700161769
 21
2715.4409619546832
 31
0.0
  0
LINE
  5
421E
  8
1
 10
1448.1624700161769
 20
2715.4409619546832
 30
0.0
 11
1380.1624700161781
 21
2715.4409619546832
 31
0.0
  0
ARC
  5
421F
  8
1
 10
1380.1624700161781
 20
2713.439961954683
 30
0.0
 40
2.0001000000000002
 50
90.0
 51
179.9965
  0
CIRCLE
  5
422D
  8
1
 10
1600.1624700161769
 20
2740.9409619546832
 30
0.0
 40
12.5
  0
LINE
  5
422E
  8
1
 10
1578.464470016178
 20
2740.9409619546832
 30
0.0
 11
1623.244470016178
 21
2740.9409619546832
 31
0.0
  0
ARC
  5
422F
  8
1
 10
1600.1624700161769
 20
2740.9409619546832
 30
0.0
 40
20.5
 50
0.0
 51
256.40589999999992
  0
ARC
  5
4230
  8
1
 10
1600.1624700161769
 20
2740.9409619546832
 30
0.0
 40
20.5
 50
284.60939999999988
 51
0.0
  0
LINE
  5
4231
  8
1
 10
1605.1624700161769
 20
2715.4409619546832
 30
0.0
 11
1605.1624700161769
 21
2721.0599619546829
 31
0.0
  0
LINE
  5
4232
  8
1
 10
1595.1624700161769
 20
2715.4409619546832
 30
0.0
 11
1595.1624700161769
 21
2721.0599619546829
 31
0.0
  0
LINE
  5
4233
  8
1
 10
1817.1624700161769
 20
2416.4409619546818
 30
0.0
 11
1817.1624700161769
 21
2690.4409619546832
 31
0.0
  0
LINE
  5
4234
  8
1
 10
1762.1624700161769
 20
2693.4409619546818
 30
0.0
 11
1762.1624700161769
 21
2413.4409619546832
 31
0.0
  0
LINE
  5
4235
  8
1
 10
1782.1624700161781
 20
2413.4409619546832
 30
0.0
 11
1814.1624700161769
 21
2413.4409619546832
 31
0.0
  0
LINE
  5
4237
  8
1
 10
1727.1624700161781
 20
2415.2159619546819
 30
0.0
 11
1727.1624700161781
 21
2387.256961954683
 31
0.0
  0
ARC
  5
4239
  8
1
 10
1745.1624700161781
 20
2409.4749619546819
 30
0.0
 40
2.0
 50
0.0
 51
89.013800000000003
  0
LINE
  5
423A
  8
1
 10
1747.1624700161781
 20
2393.4409619546818
 30
0.0
 11
1747.1624700161781
 21
2413.4409619546832
 31
0.0
  0
LINE
  5
423C
  8
1
 10
1747.1624700161781
 20
2413.4409619546832
 30
0.0
 11
1762.1624700161769
 21
2413.4409619546832
 31
0.0
  0
ARC
  5
423D
  8
1
 10
1814.1624700161769
 20
2416.4409619546818
 30
0.0
 40
3.0
 50
270.0
 51
0.0
  0
LINE
  5
423F
  8
1
 10
1835.1624700161769
 20
2532.4409619546818
 30
0.0
 11
1882.1624700161781
 21
2532.4409619546832
 31
0.0
  0
LINE
  5
4240
  8
1
 10
1835.1624700161769
 20
2574.4409619546832
 30
0.0
 11
1882.1624700161781
 21
2574.4409619546832
 31
0.0
  0
LINE
  5
4245
  8
1
 10
1740.7024700161769
 20
2715.4409619546832
 30
0.0
 11
1759.1624700161781
 21
2693.4409619546818
 31
0.0
  0
LINE
  5
424B
  8
1
 10
1762.1624700161769
 20
2693.4409619546818
 30
0.0
 11
1814.1624700161769
 21
2693.4409619546818
 31
0.0
  0
LINE
  5
424C
  8
1
 10
1664.1624700161769
 20
2653.742961954682
 30
0.0
 11
1664.1624700161769
 21
2530.5139619546821
 31
0.0
  0
LINE
  5
424D
  8
1
 10
1671.1624700161769
 20
2532.2299619546829
 30
0.0
 11
1671.1624700161769
 21
2646.8849619546831
 31
0.0
  0
ARC
  5
4252
  8
1
 10
1644.1624700161769
 20
2532.2299619546829
 30
0.0
 40
27.0
 50
270.0
 51
0.0
  0
ARC
  5
4253
  8
1
 10
1649.1624700161769
 20
2530.5139619546821
 30
0.0
 40
15.0
 50
270.0
 51
0.0
  0
ARC
  5
4254
  8
1
 10
1649.1624700161769
 20
2536.6839619546831
 30
0.0
 40
15.0
 50
270.0
 51
0.0
  0
ARC
  5
425C
  8
1
 10
1649.1624700161769
 20
2642.430961954683
 30
0.0
 40
15.0
 50
0.0
 51
90.0
  0
ARC
  5
425D
  8
1
 10
1649.1624700161769
 20
2653.742961954682
 30
0.0
 40
15.0
 50
0.0
 51
90.0
  0
ARC
  5
425E
  8
1
 10
1644.1624700161769
 20
2646.8849619546831
 30
0.0
 40
27.0
 50
0.0
 51
90.0
  0
LINE
  5
4266
  8
1
 10
1827.1624700161781
 20
2485.4409619546832
 30
0.0
 11
1827.1624700161781
 21
2621.4409619546818
 31
0.0
  0
LINE
  5
4267
  8
1
 10
1835.1624700161769
 20
2530.9409619546818
 30
0.0
 11
1827.1624700161781
 21
2530.9409619546818
 31
0.0
  0
LINE
  5
4268
  8
1
 10
1835.1624700161769
 20
2575.9409619546832
 30
0.0
 11
1827.1624700161781
 21
2575.9409619546832
 31
0.0
  0
LINE
  5
4276
  8
1
 10
1817.1624700161769
 20
2483.4409619546818
 30
0.0
 11
1825.1624700161781
 21
2483.4409619546818
 31
0.0
  0
ARC
  5
4277
  8
1
 10
1825.1624700161781
 20
2485.4409619546832
 30
0.0
 40
2.0001000000000002
 50
270.0
 51
359.99650000000003
  0
LINE
  5
4278
  8
1
 10
1835.1624700161769
 20
2530.9409619546818
 30
0.0
 11
1835.1624700161769
 21
2575.9409619546832
 31
0.0
  0
ARC
  5
4279
  8
1
 10
1825.1624700161781
 20
2621.4409619546818
 30
0.0
 40
2.0001000000000002
 50
0.0
 51
89.996499999999997
  0
LINE
  5
427A
  8
1
 10
1817.1624700161769
 20
2623.4409619546832
 30
0.0
 11
1825.1624700161781
 21
2623.4409619546832
 31
0.0
  0
ARC
  5
4283
  8
1
 10
1814.1624700161769
 20
2690.4409619546832
 30
0.0
 40
3.0
 50
0.0
 51
90.0
  0
LINE
  5
4289
  8
2
 10
3192.1250036761171
 20
2553.4409619546818
 30
0.0
 11
3580.1038477884958
 21
2553.4409619546832
 31
0.0
  0
LINE
  5
428B
  8
1
 10
1182.1624700161781
 20
1187.4409619546821
 30
0.0
 11
1647.162470016179
 21
1187.4409619546821
 31
0.0
  0
LINE
  5
428C
  8
1
 10
1242.1624700161781
 20
1181.4409619546821
 30
0.0
 11
2052.1624700161792
 21
1181.4409619546821
 31
0.0
  0
LINE
  5
428D
  8
1
 10
1192.1624700161781
 20
1137.4409619546821
 30
0.0
 11
2102.1624700161792
 21
1137.4409619546821
 31
0.0
  0
ARC
  5
428E
  8
1
 10
1240.662470016179
 20
1182.940961954683
 30
0.0
 40
4.5
 50
90.0
 51
180.00000000000071
  0
ARC
  5
428F
  8
1
 10
1229.6624700161781
 20
1149.9409619546821
 30
0.0
 40
6.5
 50
270.0
 51
0.0000000000005011
  0
LINE
  5
4290
  8
1
 10
1242.1624700161781
 20
1187.4409619546821
 30
0.0
 11
1242.1624700161781
 21
1137.4409619546821
 31
0.0
  0
LINE
  5
4291
  8
1
 10
1236.1624700161781
 20
1182.940961954683
 30
0.0
 11
1236.1624700161781
 21
1149.9409619546821
 31
0.0
  0
LINE
  5
4292
  8
1
 10
1192.1624700161781
 20
1138.9409619546821
 30
0.0
 11
1192.1624700161781
 21
1137.4409619546821
 31
0.0
  0
ARC
  5
4293
  8
1
 10
1196.6624700161781
 20
1138.9409619546821
 30
0.0
 40
4.5
 50
90.0
 51
180.0
  0
LINE
  5
4294
  8
1
 10
1196.6624700161781
 20
1143.4409619546821
 30
0.0
 11
1229.6624700161781
 21
1143.4409619546821
 31
0.0
  0
LINE
  5
4295
  8
1
 10
2064.6624700161778
 20
1143.4409619546821
 30
0.0
 11
2097.6624700161792
 21
1143.4409619546821
 31
0.0
  0
ARC
  5
4296
  8
1
 10
2053.6624700161778
 20
1182.9409619546821
 30
0.0
 40
4.5
 50
0.0
 51
90.0
  0
ARC
  5
4297
  8
1
 10
2064.6624700161778
 20
1149.9409619546821
 30
0.0
 40
6.5
 50
180.0
 51
270.0
  0
LINE
  5
4298
  8
1
 10
2052.1624700161792
 20
1187.4409619546821
 30
0.0
 11
2052.1624700161792
 21
1137.4409619546821
 31
0.0
  0
LINE
  5
4299
  8
1
 10
2058.1624700161792
 20
1182.9409619546821
 30
0.0
 11
2058.1624700161792
 21
1149.9409619546821
 31
0.0
  0
LINE
  5
429A
  8
1
 10
2102.1624700161792
 20
1138.9409619546821
 30
0.0
 11
2102.1624700161792
 21
1137.4409619546821
 31
0.0
  0
ARC
  5
429B
  8
1
 10
2097.6624700161792
 20
1138.9409619546821
 30
0.0
 40
4.5
 50
0.0
 51
90.0
  0
LINE
  5
429E
  8
1
 10
3986.1144257323072
 20
1137.4409619546821
 30
0.0
 11
3986.1144257323072
 21
1187.4409619546821
 31
0.0
  0
LINE
  5
429F
  8
1
 10
3986.1144257323072
 20
1187.4409619546821
 30
0.0
 11
3586.1144257323072
 21
1187.4409619546821
 31
0.0
  0
LINE
  5
42A0
  8
1
 10
2786.1144257323072
 20
1187.4409619546821
 30
0.0
 11
2786.1144257323072
 21
1137.4409619546821
 31
0.0
  0
LINE
  5
42A1
  8
1
 10
2786.1144257323072
 20
1137.4409619546821
 30
0.0
 11
3986.1144257323072
 21
1137.4409619546821
 31
0.0
  0
LINE
  5
42A2
  8
1
 10
2786.1144257323072
 20
1143.4409619546821
 30
0.0
 11
3986.1144257323072
 21
1143.4409619546821
 31
0.0
  0
LINE
  5
42A3
  8
1
 10
3766.1144257323081
 20
1187.4409619546821
 30
0.0
 11
3766.1144257323081
 21
1147.4409619546821
 31
0.0
  0
LINE
  5
42A4
  8
1
 10
3766.1144257323081
 20
1147.4409619546821
 30
0.0
 11
3006.1144257323072
 21
1147.4409619546821
 31
0.0
  0
LINE
  5
42A5
  8
1
 10
3006.1144257323072
 20
1147.4409619546821
 30
0.0
 11
3006.1144257323072
 21
1187.4409619546821
 31
0.0
  0
LINE
  5
42A7
  8
1
 10
3766.1144257323081
 20
1181.4409619546821
 30
0.0
 11
3006.1144257323072
 21
1181.4409619546821
 31
0.0
  0
LINE
  5
42A8
  8
2
 10
3936.1144257323072
 20
1162.4409619546821
 30
0.0
 11
3936.1144257323072
 21
1112.4409619546821
 31
0.0
  0
LINE
  5
42A9
  8
2
 10
2836.1144257323072
 20
1162.4409619546821
 30
0.0
 11
2836.1144257323072
 21
1112.4409619546821
 31
0.0
  0
LINE
  5
42AA
  8
1
 10
3106.6367382481549
 20
1439.958388172276
 30
0.0
 11
3036.1144257323081
 21
1332.4409619546821
 31
0.0
  0
LINE
  5
42AB
  8
1
 10
3102.950526686685
 20
1442.543217178245
 30
0.0
 11
3032.3516323443951
 21
1334.9090352760979
 31
0.0
  0
CIRCLE
  5
448A
  8
1
 10
3386.1144257323072
 20
2553.4409619546818
 30
0.0
 40
110.0
  0
CIRCLE
  5
448B
  8
1
 10
3386.1144257323072
 20
1842.4409619546821
 30
0.0
 40
100.0
  0
LINE
  5
448C
  8
1
 10
3486.1045344571789
 20
1841.0344921937819
 30
0.0
 11
3496.1035453296649
 21
2551.8938452176922
 31
0.0
  0
LINE
  5
448D
  8
1
 10
3286.124317007434
 20
1841.0344921937819
 30
0.0
 11
3276.125306134948
 21
2551.8938452176922
 31
0.0
  0
LINE
  5
4490
  8
1
 10
3226.1144257323058
 20
2733.4409619546818
 30
0.0
 11
3546.1144257323058
 21
2733.4409619546818
 31
0.0
  0
LINE
  5
4491
  8
1
 10
3546.1144257323072
 20
2263.0357788509441
 30
0.0
 11
3546.1144257323058
 21
2733.4409619546818
 31
0.0
  0
LINE
  5
4492
  8
1
 10
3226.1144257323049
 20
2263.0357788509441
 30
0.0
 11
3226.1144257323058
 21
2733.4409619546818
 31
0.0
  0
LINE
  5
449F
  8
1
 10
1972.162470016179
 20
1742.4409619546821
 30
0.0
 11
1882.1624700161781
 21
1742.4409619546821
 31
0.0
  0
LINE
  5
44A0
  8
1
 10
1882.162470016179
 20
2663.4409619546818
 30
0.0
 11
1882.1624700161781
 21
1742.4409619546821
 31
0.0
  0
LINE
  5
44A1
  8
1
 10
1972.162470016179
 20
2663.4409619546818
 30
0.0
 11
1972.162470016179
 21
1742.440961954683
 31
0.0
  0
LINE
  5
44A2
  8
1
 10
1972.162470016179
 20
2663.4409619546818
 30
0.0
 11
1882.162470016179
 21
2663.4409619546818
 31
0.0
  0
LINE
  5
44A3
  8
1
 10
1972.162470016179
 20
2443.4409619546832
 30
0.0
 11
1882.162470016179
 21
2443.4409619546832
 31
0.0
  0
LINE
  5
44A4
  8
1
 10
1972.162470016179
 20
1942.440961954683
 30
0.0
 11
1882.1624700161781
 21
1942.440961954683
 31
0.0
  0
LINE
  5
44A5
  8
1
 10
2002.1624700161781
 20
2733.4409619546809
 30
0.0
 11
1852.162470016179
 21
2733.4409619546809
 31
0.0
  0
LINE
  5
44A6
  8
1
 10
1852.162470016179
 20
2733.4409619546809
 30
0.0
 11
1852.162470016179
 21
2263.0357788509441
 31
0.0
  0
LINE
  5
44A7
  8
1
 10
2002.162470016179
 20
2733.4409619546809
 30
0.0
 11
2002.162470016179
 21
2263.0357788509441
 31
0.0
  0
LINE
  5
44A9
  8
1
 10
2082.1624700161792
 20
1162.4409619546821
 30
0.0
 11
2082.1624700161792
 21
1112.4409619546821
 31
0.0
  0
LINE
  5
44AA
  8
1
 10
1212.1624700161781
 20
1162.4409619546821
 30
0.0
 11
1212.1624700161781
 21
1112.4409619546821
 31
0.0
  0
INSERT
  5
4C69
  8
0
  2
YA_N
 10
15414.187036091551
 20
231.19560140773501
 30
0.0
  0
INSERT
  5
4C6A
  8
FUTO
  2
SAITOS
 10
15408.187036091551
 20
226.19560140773501
 30
0.0
  0
INSERT
  5
4C6C
  8
0
  2
YA_N
 10
15793.520490020261
 20
-45.03743415266581
 30
0.0
  0
INSERT
  5
4C6D
  8
FUTO
  2
SAITOS
 10
15787.520490020261
 20
-50.03743415266581
 30
0.0
  0
TEXT
  5
4C6E
  8
FUTO
 10
16113.58424386524
 20
-57.444826772921942
 30
0.0
 40
10.0
  1

 51
15.0
  0
TEXT
  5
4C6F
  8
FUTO
 10
16378.634749174131
 20
-57.444826772921942
 30
0.0
 40
10.0
  1

 51
15.0
  0
TEXT
  5
4C70
  8
FUTO
 10
16111.62090671728
 20
-57.444826772921942
 30
0.0
 40
10.0
  1

 51
15.0
  0
INSERT
  5
4C71
  8
0
  2
YA_N
 10
14253.18237035817
 20
1185.4110910688571
 30
0.0
  0
INSERT
  5
4C72
  8
FUTO
  2
SAITOS
 10
14247.18237035817
 20
1180.4110910688571
 30
0.0
  0
INSERT
  5
4D72
  8
0
  2
YA_N
 10
22880.307603213711
 20
-1420.293032472264
 30
0.0
 41
15.0
 42
15.0
 43
15.0
  0
INSERT
  5
4D73
  8
FUTO
  2
SAITOS
 10
22790.307603213711
 20
-1495.293032472264
 30
0.0
 41
15.0
 42
15.0
 43
15.0
  0
INSERT
  5
4D74
  8
0
  2
YA_N
 10
28379.234009786629
 20
13015.54074852654
 30
0.0
 41
15.0
 42
15.0
 43
15.0
 50
338.68194356374551
  0
INSERT
  5
4D75
  8
FUTO
  2
SAITOS
 10
28268.126244138239
 20
12978.391530329871
 30
0.0
 41
15.0
 42
15.0
 43
15.0
 50
338.68194356374551
  0
INSERT
  5
4D76
  8
0
  2
YA_N
 10
58707.58361863641
 20
11186.29981419479
 30
0.0
 41
15.0
 42
15.0
 43
15.0
  0
INSERT
  5
4D77
  8
FUTO
  2
SAITOS
 10
58617.58361863641
 20
11111.29981419479
 30
0.0
 41
15.0
 42
15.0
 43
15.0
  0
INSERT
  5
4D78
  8
0
  2
YA_N
 10
58707.58361863641
 20
11186.29981419479
 30
0.0
 41
15.0
 42
15.0
 43
15.0
  0
INSERT
  5
4D79
  8
FUTO
  2
SAITOS
 10
58617.58361863641
 20
11111.29981419479
 30
0.0
 41
15.0
 42
15.0
 43
15.0
  0
INSERT
  5
4D7A
  8
0
  2
YA_N
 10
123957.8627881703
 20
12311.29981419479
 30
0.0
 41
225.0
 42
225.0
 43
225.0
  0
INSERT
  5
4D7B
  8
FUTO
  2
SAITOS
 10
122607.8627881703
 20
11186.29981419479
 30
0.0
 41
225.0
 42
225.0
 43
225.0
  0
INSERT
  5
4D7C
  8
0
  2
YA_N
 10
155548.23771950361
 20
13609.44324911114
 30
0.0
 41
225.0
 42
225.0
 43
225.0
  0
INSERT
  5
4D7D
  8
FUTO
  2
SAITOS
 10
154198.23771950361
 20
12484.44324911114
 30
0.0
 41
225.0
 42
225.0
 43
225.0
  0
INSERT
  5
4D7E
  8
0
  2
YA_N
 10
123957.8627881703
 20
12311.29981419479
 30
0.0
 41
225.0
 42
225.0
 43
225.0
  0
INSERT
  5
4D7F
  8
FUTO
  2
SAITOS
 10
122607.8627881703
 20
11186.29981419479
 30
0.0
 41
225.0
 42
225.0
 43
225.0
  0
INSERT
  5
4D80
  8
0
  2
YA_N
 10
52103.07432166177
 20
12301.45201989521
 30
0.0
 41
15.0
 42
15.0
 43
15.0
 50
195.25337295025619
  0
INSERT
  5
4D81
  8
FUTO
  2
SAITOS
 10
52170.172186297859
 20
12397.48782864006
 30
0.0
 41
15.0
 42
15.0
 43
15.0
 50
195.25337295025619
  0
INSERT
  5
4DC4
  8
0
  2
YA_N
 10
11077.65502098551
 20
-1133.4656625422319
 30
0.0
  0
INSERT
  5
4DC5
  8
FUTO
  2
SAITOS
 10
11071.65502098552
 20
-1138.4656625422319
 30
0.0
  0
TEXT
  5
4E15
  8
FUTO
 10
11397.7187748305
 20
-1145.8730551624881
 30
0.0
 40
10.0
  1

 51
15.0
  0
TEXT
  5
4E16
  8
FUTO
 10
11662.76928013938
 20
-1145.8730551624881
 30
0.0
 40
10.0
  1

 51
15.0
  0
TEXT
  5
4E17
  8
FUTO
 10
11395.755437682539
 20
-1145.8730551624881
 30
0.0
 40
10.0
  1

 51
15.0
  0
LINE
  5
50D5
  8
1
 10
1647.162470016179
 20
1187.4409619546821
 30
0.0
 11
2112.1624700161792
 21
1187.4409619546821
 31
0.0
  0
LINE
  5
50D6
  8
1
 10
1647.162470016179
 20
1282.4409619546821
 30
0.0
 11
2112.1624700161792
 21
1282.440961954683
 31
0.0
  0
LINE
  5
50DC
  8
1
 10
3181.1144257323072
 20
1267.4409619546821
 30
0.0
 11
3181.1144257323072
 21
1211.4409619546821
 31
0.0
  0
LINE
  5
50DD
  8
1
 10
3091.1144257323072
 20
1267.4409619546821
 30
0.0
 11
3091.1144257323072
 21
1211.4409619546821
 31
0.0
  0
LINE
  5
50DF
  8
1
 10
3173.6144257323072
 20
1211.4409619546821
 30
0.0
 11
3173.6144257323072
 21
1193.4409619546821
 31
0.0
  0
LINE
  5
50E0
  8
1
 10
3166.1144257323072
 20
1193.4409619546821
 30
0.0
 11
3166.1144257323072
 21
1187.440961954683
 31
0.0
  0
LINE
  5
50E1
  8
1
 10
3106.1144257323072
 20
1193.4409619546821
 30
0.0
 11
3106.1144257323072
 21
1187.4409619546821
 31
0.0
  0
LINE
  5
50E2
  8
1
 10
3098.6144257323072
 20
1211.4409619546821
 30
0.0
 11
3098.6144257323072
 21
1193.4409619546821
 31
0.0
  0
LINE
  5
50E4
  8
1
 10
3098.6144257323072
 20
1193.4409619546821
 30
0.0
 11
3173.6144257323072
 21
1193.4409619546821
 31
0.0
  0
LINE
  5
50E5
  8
1
 10
3091.1144257323072
 20
1211.4409619546821
 30
0.0
 11
3181.1144257323072
 21
1211.4409619546821
 31
0.0
  0
LINE
  5
50E6
  8
1
 10
3166.1144257323072
 20
1282.440961954683
 30
0.0
 11
3166.1144257323072
 21
1276.4409619546821
 31
0.0
  0
ARC
  5
50E7
  8
1
 10
3172.1144257323072
 20
1267.4409619546821
 30
0.0
 40
9.0
 50
359.99999999999977
 51
90.0
  0
LINE
  5
50E8
  8
1
 10
3106.1144257323072
 20
1282.440961954683
 30
0.0
 11
3106.1144257323072
 21
1276.4409619546821
 31
0.0
  0
LINE
  5
50EA
  8
1
 10
3100.1144257323072
 20
1276.4409619546821
 30
0.0
 11
3172.1144257323072
 21
1276.4409619546821
 31
0.0
  0
ARC
  5
50EB
  8
1
 10
3100.1144257323072
 20
1267.4409619546821
 30
0.0
 40
9.0
 50
90.0
 51
180.0
  0
LINE
  5
50EC
  8
1
 10
3600.1144257323072
 20
1276.4409619546821
 30
0.0
 11
3672.1144257323072
 21
1276.4409619546821
 31
0.0
  0
LINE
  5
50EE
  8
1
 10
3591.1144257323081
 20
1211.4409619546821
 30
0.0
 11
3681.1144257323081
 21
1211.4409619546821
 31
0.0
  0
LINE
  5
50EF
  8
1
 10
3598.6144257323072
 20
1193.4409619546821
 30
0.0
 11
3673.6144257323072
 21
1193.4409619546821
 31
0.0
  0
LINE
  5
50F1
  8
1
 10
3591.1144257323081
 20
1267.4409619546821
 30
0.0
 11
3591.1144257323081
 21
1211.4409619546821
 31
0.0
  0
LINE
  5
50F2
  8
1
 10
3598.6144257323072
 20
1211.4409619546821
 30
0.0
 11
3598.6144257323072
 21
1193.4409619546821
 31
0.0
  0
LINE
  5
50F3
  8
1
 10
3606.1144257323072
 20
1193.4409619546821
 30
0.0
 11
3606.1144257323072
 21
1187.4409619546821
 31
0.0
  0
ARC
  5
50F4
  8
1
 10
3600.1144257323072
 20
1267.4409619546821
 30
0.0
 40
9.0
 50
90.0
 51
180.0
  0
LINE
  5
50F5
  8
1
 10
3606.1144257323072
 20
1282.4409619546821
 30
0.0
 11
3606.1144257323072
 21
1276.4409619546821
 31
0.0
  0
LINE
  5
50F6
  8
1
 10
3681.1144257323081
 20
1267.4409619546821
 30
0.0
 11
3681.1144257323081
 21
1211.4409619546821
 31
0.0
  0
LINE
  5
50F7
  8
1
 10
3666.1144257323081
 20
1193.4409619546821
 30
0.0
 11
3666.1144257323081
 21
1187.4409619546809
 31
0.0
  0
LINE
  5
50F8
  8
1
 10
3673.6144257323072
 20
1211.4409619546821
 30
0.0
 11
3673.6144257323072
 21
1193.4409619546821
 31
0.0
  0
ARC
  5
50F9
  8
1
 10
3672.1144257323072
 20
1267.4409619546821
 30
0.0
 40
9.0
 50
359.99999999999977
 51
90.0
  0
LINE
  5
50FA
  8
1
 10
3666.1144257323081
 20
1282.4409619546821
 30
0.0
 11
3666.1144257323081
 21
1276.4409619546821
 31
0.0
  0
LINE
  5
50FC
  8
1
 10
3586.1144257323072
 20
1187.4409619546821
 30
0.0
 11
3186.1144257323072
 21
1187.440961954683
 31
0.0
  0
LINE
  5
50FD
  8
1
 10
3586.1144257323072
 20
1282.4409619546821
 30
0.0
 11
3786.1144257323072
 21
1282.4409619546821
 31
0.0
  0
LINE
  5
50FE
  8
1
 10
3186.1144257323072
 20
1282.440961954683
 30
0.0
 11
3586.1144257323072
 21
1282.4409619546821
 31
0.0
  0
LINE
  5
50FF
  8
1
 10
3186.1144257323072
 20
1187.440961954683
 30
0.0
 11
2786.1144257323072
 21
1187.4409619546821
 31
0.0
  0
LINE
  5
545A
  8
1
 10
1782.1624700161781
 20
2443.4409619546832
 30
0.0
 11
1782.1624700161781
 21
2409.4409619546832
 31
0.0
  0
LINE
  5
545F
  8
1
 10
1782.1624700161781
 20
2443.4409619546832
 30
0.0
 11
1762.1624700161781
 21
2443.4409619546832
 31
0.0
  0
LINE
  5
5461
  8
1
 10
1782.1624700161781
 20
2371.4409619546818
 30
0.0
 11
1782.1624700161781
 21
2263.4409619546818
 31
0.0
  0
LINE
  5
5462
  8
1
 10
1762.1624700161781
 20
2443.4409619546832
 30
0.0
 11
1762.1624700161781
 21
2409.4409619546832
 31
0.0
  0
LINE
  5
5463
  8
1
 10
1762.1624700161781
 20
2371.4409619546818
 30
0.0
 11
1762.1624700161781
 21
2263.4409619546818
 31
0.0
  0
LINE
  5
5466
  8
1
 10
1482.1624700161781
 20
2371.4409619546818
 30
0.0
 11
1482.1624700161781
 21
2263.4409619546818
 31
0.0
  0
LINE
  5
5467
  8
1
 10
1462.1624700161781
 20
2371.4409619546818
 30
0.0
 11
1462.1624700161781
 21
2263.4409619546818
 31
0.0
  0
LINE
  5
5468
  8
1
 10
1482.1624700161781
 20
2443.4409619546832
 30
0.0
 11
1482.1624700161781
 21
2409.4409619546832
 31
0.0
  0
LINE
  5
5469
  8
1
 10
1482.1624700161781
 20
2443.4409619546832
 30
0.0
 11
1462.1624700161781
 21
2443.4409619546832
 31
0.0
  0
LINE
  5
546A
  8
1
 10
1462.1624700161781
 20
2443.4409619546832
 30
0.0
 11
1462.1624700161781
 21
2409.4409619546832
 31
0.0
  0
LINE
  5
546B
  8
1
 10
1462.1624700161781
 20
2349.4409619546818
 30
0.0
 11
1428.1624700161781
 21
2349.4409619546818
 31
0.0
  0
LINE
  5
546C
  8
1
 10
1462.1624700161781
 20
2411.5741936766422
 30
0.0
 11
1455.1284700161771
 21
2411.4739619546822
 31
0.0
  0
LINE
  5
546D
  8
1
 10
1762.1624700161781
 20
2349.4409619546818
 30
0.0
 11
1482.1624700161781
 21
2349.4409619546818
 31
0.0
  0
LINE
  5
549E
  8
1
 10
1782.1624700161781
 20
2296.9409619546818
 30
0.0
 11
1822.1624700161781
 21
2296.9409619546818
 31
0.0
  0
LINE
  5
549F
  8
1
 10
1482.1624700161781
 20
2296.9409619546818
 30
0.0
 11
1762.1624700161781
 21
2296.9409619546818
 31
0.0
  0
LINE
  5
58C8
  8
1
 10
1257.1624700161781
 20
1267.4409619546821
 30
0.0
 11
1257.1624700161781
 21
1211.4409619546821
 31
0.0
  0
LINE
  5
58C9
  8
1
 10
1167.1624700161781
 20
1267.4409619546821
 30
0.0
 11
1167.1624700161781
 21
1211.4409619546821
 31
0.0
  0
LINE
  5
58CA
  8
1
 10
1167.1624700161781
 20
1211.4409619546821
 30
0.0
 11
1257.1624700161781
 21
1211.4409619546821
 31
0.0
  0
LINE
  5
58CC
  8
1
 10
1174.6624700161781
 20
1193.4409619546821
 30
0.0
 11
1249.6624700161781
 21
1193.4409619546821
 31
0.0
  0
LINE
  5
58CD
  8
1
 10
1182.1624700161781
 20
1193.4409619546821
 30
0.0
 11
1182.1624700161781
 21
1187.4409619546821
 31
0.0
  0
LINE
  5
58CE
  8
1
 10
1174.6624700161781
 20
1211.4409619546821
 30
0.0
 11
1174.6624700161781
 21
1193.4409619546821
 31
0.0
  0
LINE
  5
58CF
  8
1
 10
1249.6624700161781
 20
1211.4409619546821
 30
0.0
 11
1249.6624700161781
 21
1193.4409619546821
 31
0.0
  0
LINE
  5
58D0
  8
1
 10
1242.1624700161781
 20
1193.4409619546821
 30
0.0
 11
1242.1624700161781
 21
1182.4409619546821
 31
0.0
  0
ARC
  5
58D1
  8
1
 10
1176.1624700161781
 20
1267.4409619546821
 30
0.0
 40
9.0
 50
90.0
 51
180.0
  0
LINE
  5
58D3
  8
1
 10
1176.1624700161781
 20
1276.4409619546821
 30
0.0
 11
1248.1624700161781
 21
1276.4409619546821
 31
0.0
  0
LINE
  5
58D4
  8
1
 10
1182.1624700161781
 20
1282.4409619546821
 30
0.0
 11
1182.1624700161781
 21
1276.4409619546821
 31
0.0
  0
LINE
  5
58D5
  8
1
 10
1242.1624700161781
 20
1287.4409619546821
 30
0.0
 11
1242.1624700161781
 21
1276.4409619546821
 31
0.0
  0
ARC
  5
58D6
  8
1
 10
1248.1624700161781
 20
1267.4409619546821
 30
0.0
 40
9.0
 50
359.99999999999977
 51
90.0
  0
LINE
  5
58D8
  8
1
 10
2127.1624700161792
 20
1267.4409619546821
 30
0.0
 11
2127.1624700161792
 21
1211.4409619546821
 31
0.0
  0
LINE
  5
58D9
  8
1
 10
2037.162470016179
 20
1267.4409619546821
 30
0.0
 11
2037.162470016179
 21
1211.4409619546821
 31
0.0
  0
LINE
  5
58DA
  8
1
 10
2037.162470016179
 20
1211.4409619546821
 30
0.0
 11
2127.1624700161792
 21
1211.4409619546821
 31
0.0
  0
LINE
  5
58DB
  8
1
 10
2044.662470016179
 20
1193.4409619546821
 30
0.0
 11
2119.6624700161792
 21
1193.4409619546821
 31
0.0
  0
LINE
  5
58DC
  8
1
 10
2052.1624700161792
 20
1193.4409619546821
 30
0.0
 11
2052.1624700161792
 21
1187.4409619546821
 31
0.0
  0
LINE
  5
58DD
  8
1
 10
2044.662470016179
 20
1211.4409619546821
 30
0.0
 11
2044.662470016179
 21
1193.4409619546821
 31
0.0
  0
LINE
  5
58DE
  8
1
 10
2112.1624700161792
 20
1193.4409619546821
 30
0.0
 11
2112.1624700161792
 21
1187.4409619546821
 31
0.0
  0
LINE
  5
58DF
  8
1
 10
2119.6624700161792
 20
1211.4409619546821
 30
0.0
 11
2119.6624700161792
 21
1193.4409619546821
 31
0.0
  0
ARC
  5
58E0
  8
1
 10
2046.162470016179
 20
1267.4409619546821
 30
0.0
 40
9.0
 50
90.0
 51
180.0
  0
LINE
  5
58E1
  8
1
 10
2046.162470016179
 20
1276.4409619546821
 30
0.0
 11
2118.1624700161792
 21
1276.4409619546821
 31
0.0
  0
LINE
  5
58E2
  8
1
 10
2052.1624700161792
 20
1282.440961954683
 30
0.0
 11
2052.1624700161792
 21
1276.4409619546821
 31
0.0
  0
LINE
  5
58E3
  8
1
 10
2112.1624700161792
 20
1282.4409619546821
 30
0.0
 11
2112.1624700161792
 21
1276.4409619546821
 31
0.0
  0
ARC
  5
58E4
  8
1
 10
2118.1624700161792
 20
1267.4409619546821
 30
0.0
 40
9.0
 50
359.99999999999977
 51
90.0
  0
LINE
  5
58FA
  8
1
 10
3036.1144257323081
 20
1332.4409619546821
 30
0.0
 11
3032.3516323443951
 21
1334.9090352760979
 31
0.0
  0
LINE
  5
58FB
  8
1
 10
3736.1144257323058
 20
1332.4409619546821
 30
0.0
 11
3739.8772191202202
 21
1334.9090352760979
 31
0.0
  0
LINE
  5
599B
  8
FUTO
 10
1236.1624700161781
 20
1187.4409619546821
 30
0.0
 11
1196.1624700161781
 21
1187.4409619546821
 31
0.0
  0
LINE
  5
599C
  8
FUTO
 10
1236.1624700161781
 20
1187.4409619546821
 30
0.0
 11
1236.1624700161781
 21
1147.4409619546821
 31
0.0
  0
LINE
  5
599D
  8
FUTO
 10
1196.1624700161781
 20
1187.4409619546821
 30
0.0
 11
1196.1624700161781
 21
1185.4409619546821
 31
0.0
  0
LINE
  5
599E
  8
FUTO
 10
1236.1624700161781
 20
1147.4409619546821
 30
0.0
 11
1234.1624700161781
 21
1147.4409619546821
 31
0.0
  0
LINE
  5
599F
  8
FUTO
 10
1231.1624700161781
 20
1177.9409619546821
 30
0.0
 11
1231.1624700161781
 21
1150.4409619546821
 31
0.0
  0
LINE
  5
59A0
  8
FUTO
 10
1226.6624700161781
 20
1182.4409619546821
 30
0.0
 11
1199.1624700161781
 21
1182.4409619546821
 31
0.0
  0
ARC
  5
59A1
  8
FUTO
 10
1199.1624700161781
 20
1185.4409619546821
 30
0.0
 40
3.0
 50
180.0
 51
270.0
  0
ARC
  5
59A2
  8
FUTO
 10
1234.1624700161781
 20
1150.4409619546821
 30
0.0
 40
3.0
 50
180.0
 51
270.0
  0
ARC
  5
59A3
  8
FUTO
 10
1226.6624700161781
 20
1177.9409619546821
 30
0.0
 40
4.5
 50
0.0
 51
90.0
  0
LINE
  5
59A4
  8
FUTO
 10
1454.841961940489
 20
2393.4409619546818
 30
0.0
 11
1489.4829780918669
 21
2393.4409619546818
 31
0.0
  0
LINE
  5
59A5
  8
FUTO
 10
1457.1624700161781
 20
2409.4409619546832
 30
0.0
 11
1487.1624700161781
 21
2409.4409619546832
 31
0.0
  0
ARC
  5
59A6
  8
FUTO
 10
1472.1624700161781
 20
2380.7807079168379
 30
0.0
 40
28.66025403784414
 50
72.412046226011483
 51
107.5879537739885
  0
LINE
  5
59A7
  8
FUTO
 10
1463.502215978333
 20
2408.1012159925272
 30
0.0
 11
1463.502215978333
 21
2393.4409619546818
 31
0.0
  0
LINE
  5
59A8
  8
FUTO
 10
1454.841961940489
 20
2408.1012159925272
 30
0.0
 11
1454.841961940489
 21
2393.4409619546818
 31
0.0
  0
ARC
  5
59A9
  8
FUTO
 10
1459.172088959411
 20
2401.7734937094142
 30
0.0
 40
7.6674682452691139
 50
55.615752531957618
 51
124.3842474680423
  0
LINE
  5
59AA
  8
FUTO
 10
1457.1624700161781
 20
2409.4409619546832
 30
0.0
 11
1454.841961940489
 21
2408.1012159925272
 31
0.0
  0
LINE
  5
59AB
  8
FUTO
 10
1489.4829780918669
 20
2408.1012159925272
 30
0.0
 11
1489.4829780918669
 21
2393.4409619546818
 31
0.0
  0
LINE
  5
59AC
  8
FUTO
 10
1480.822724054022
 20
2408.1012159925272
 30
0.0
 11
1480.822724054022
 21
2393.4409619546818
 31
0.0
  0
LINE
  5
59AD
  8
CT
 10
1472.1624700161781
 20
2416.4409138445558
 30
0.0
 11
1472.1624700161781
 21
2386.6332532825249
 31
0.0
  0
ARC
  5
59AE
  8
FUTO
 10
1485.152851072944
 20
2401.7734937094142
 30
0.0
 40
7.6674682452691139
 50
55.615752531957618
 51
124.3842474680423
  0
LINE
  5
59AF
  8
FUTO
 10
1487.1624700161781
 20
2409.4409619546832
 30
0.0
 11
1489.4829780918669
 21
2408.1012159925272
 31
0.0
  0
LINE
  5
59B0
  8
FUTO
 10
1489.4829780918669
 20
2387.4409619546818
 30
0.0
 11
1454.841961940489
 21
2387.4409619546818
 31
0.0
  0
LINE
  5
59B1
  8
FUTO
 10
1487.1624700161781
 20
2371.4409619546818
 30
0.0
 11
1457.1624700161781
 21
2371.4409619546818
 31
0.0
  0
ARC
  5
59B2
  8
FUTO
 10
1472.1624700161781
 20
2400.1012159925258
 30
0.0
 40
28.66025403784414
 50
252.4120462260114
 51
287.58795377398837
  0
LINE
  5
59B3
  8
FUTO
 10
1480.822724054022
 20
2372.7807079168379
 30
0.0
 11
1480.822724054022
 21
2387.4409619546818
 31
0.0
  0
LINE
  5
59B4
  8
FUTO
 10
1489.4829780918669
 20
2372.7807079168379
 30
0.0
 11
1489.4829780918669
 21
2387.4409619546818
 31
0.0
  0
ARC
  5
59B5
  8
FUTO
 10
1485.152851072944
 20
2379.1084301999499
 30
0.0
 40
7.6674682452691139
 50
235.6157525319575
 51
304.3842474680423
  0
LINE
  5
59B6
  8
FUTO
 10
1487.1624700161781
 20
2371.4409619546818
 30
0.0
 11
1489.4829780918669
 21
2372.7807079168379
 31
0.0
  0
LINE
  5
59B7
  8
FUTO
 10
1454.841961940489
 20
2372.7807079168379
 30
0.0
 11
1454.841961940489
 21
2387.4409619546818
 31
0.0
  0
LINE
  5
59B8
  8
FUTO
 10
1463.502215978333
 20
2372.7807079168379
 30
0.0
 11
1463.502215978333
 21
2387.4409619546818
 31
0.0
  0
LINE
  5
59B9
  8
CT
 10
1472.1624700161781
 20
2364.4410100648088
 30
0.0
 11
1472.1624700161781
 21
2394.2486706268392
 31
0.0
  0
ARC
  5
59BA
  8
FUTO
 10
1459.172088959411
 20
2379.1084301999499
 30
0.0
 40
7.6674682452691139
 50
235.6157525319575
 51
304.3842474680423
  0
LINE
  5
59BB
  8
FUTO
 10
1457.1624700161781
 20
2371.4409619546818
 30
0.0
 11
1454.841961940489
 21
2372.7807079168379
 31
0.0
  0
LINE
  5
59BC
  8
FUTO
 10
1754.841961940489
 20
2393.4409619546818
 30
0.0
 11
1789.4829780918669
 21
2393.4409619546818
 31
0.0
  0
LINE
  5
59BD
  8
FUTO
 10
1757.1624700161781
 20
2409.4409619546832
 30
0.0
 11
1787.1624700161781
 21
2409.4409619546832
 31
0.0
  0
ARC
  5
59BE
  8
FUTO
 10
1772.1624700161781
 20
2380.7807079168379
 30
0.0
 40
28.66025403784414
 50
72.412046226011483
 51
107.5879537739885
  0
LINE
  5
59BF
  8
FUTO
 10
1763.502215978333
 20
2408.1012159925272
 30
0.0
 11
1763.502215978333
 21
2393.4409619546818
 31
0.0
  0
LINE
  5
59C0
  8
FUTO
 10
1754.841961940489
 20
2408.1012159925272
 30
0.0
 11
1754.841961940489
 21
2393.4409619546818
 31
0.0
  0
ARC
  5
59C1
  8
FUTO
 10
1759.172088959411
 20
2401.7734937094142
 30
0.0
 40
7.6674682452691139
 50
55.615752531957618
 51
124.3842474680423
  0
LINE
  5
59C2
  8
FUTO
 10
1757.1624700161781
 20
2409.4409619546832
 30
0.0
 11
1754.841961940489
 21
2408.1012159925272
 31
0.0
  0
LINE
  5
59C3
  8
FUTO
 10
1789.4829780918669
 20
2408.1012159925272
 30
0.0
 11
1789.4829780918669
 21
2393.4409619546818
 31
0.0
  0
LINE
  5
59C4
  8
FUTO
 10
1780.822724054022
 20
2408.1012159925272
 30
0.0
 11
1780.822724054022
 21
2393.4409619546818
 31
0.0
  0
LINE
  5
59C5
  8
CT
 10
1772.1624700161781
 20
2416.4409138445558
 30
0.0
 11
1772.1624700161781
 21
2386.6332532825249
 31
0.0
  0
ARC
  5
59C6
  8
FUTO
 10
1785.152851072944
 20
2401.7734937094142
 30
0.0
 40
7.6674682452691139
 50
55.615752531957618
 51
124.3842474680423
  0
LINE
  5
59C7
  8
FUTO
 10
1787.1624700161781
 20
2409.4409619546832
 30
0.0
 11
1789.4829780918669
 21
2408.1012159925272
 31
0.0
  0
LINE
  5
59C8
  8
FUTO
 10
1789.4829780918669
 20
2387.4409619546818
 30
0.0
 11
1754.8419619404881
 21
2387.4409619546818
 31
0.0
  0
LINE
  5
59C9
  8
FUTO
 10
1787.1624700161781
 20
2371.4409619546818
 30
0.0
 11
1757.1624700161781
 21
2371.4409619546818
 31
0.0
  0
ARC
  5
59CA
  8
FUTO
 10
1772.1624700161781
 20
2400.1012159925258
 30
0.0
 40
28.66025403784414
 50
252.4120462260114
 51
287.58795377398837
  0
LINE
  5
59CB
  8
FUTO
 10
1780.822724054022
 20
2372.7807079168379
 30
0.0
 11
1780.822724054022
 21
2387.4409619546818
 31
0.0
  0
LINE
  5
59CC
  8
FUTO
 10
1789.4829780918669
 20
2372.7807079168379
 30
0.0
 11
1789.4829780918669
 21
2387.4409619546818
 31
0.0
  0
ARC
  5
59CD
  8
FUTO
 10
1785.152851072944
 20
2379.1084301999499
 30
0.0
 40
7.6674682452691139
 50
235.6157525319575
 51
304.3842474680423
  0
LINE
  5
59CE
  8
FUTO
 10
1787.1624700161781
 20
2371.4409619546818
 30
0.0
 11
1789.4829780918669
 21
2372.7807079168379
 31
0.0
  0
LINE
  5
59CF
  8
FUTO
 10
1754.841961940489
 20
2372.7807079168379
 30
0.0
 11
1754.841961940489
 21
2387.4409619546818
 31
0.0
  0
LINE
  5
59D0
  8
FUTO
 10
1763.502215978333
 20
2372.7807079168379
 30
0.0
 11
1763.502215978333
 21
2387.4409619546818
 31
0.0
  0
LINE
  5
59D1
  8
CT
 10
1772.1624700161781
 20
2364.4410100648088
 30
0.0
 11
1772.1624700161781
 21
2394.2486706268392
 31
0.0
  0
ARC
  5
59D2
  8
FUTO
 10
1759.172088959411
 20
2379.1084301999499
 30
0.0
 40
7.6674682452691139
 50
235.6157525319575
 51
304.3842474680423
  0
LINE
  5
59D3
  8
FUTO
 10
1757.1624700161781
 20
2371.4409619546818
 30
0.0
 11
1754.841961940489
 21
2372.7807079168379
 31
0.0
  0
LINE
  5
59D4
  8
FUTO
 10
2058.1624700161792
 20
1187.4409619546821
 30
0.0
 11
2098.1624700161792
 21
1187.4409619546821
 31
0.0
  0
LINE
  5
59D5
  8
FUTO
 10
2058.1624700161792
 20
1187.4409619546821
 30
0.0
 11
2058.1624700161792
 21
1147.4409619546821
 31
0.0
  0
LINE
  5
59D6
  8
FUTO
 10
2098.1624700161792
 20
1187.4409619546821
 30
0.0
 11
2098.1624700161792
 21
1185.4409619546821
 31
0.0
  0
LINE
  5
59D7
  8
FUTO
 10
2058.1624700161792
 20
1147.4409619546821
 30
0.0
 11
2060.1624700161792
 21
1147.4409619546821
 31
0.0
  0
LINE
  5
59D8
  8
FUTO
 10
2063.1624700161792
 20
1177.9409619546821
 30
0.0
 11
2063.1624700161792
 21
1150.4409619546821
 31
0.0
  0
LINE
  5
59D9
  8
FUTO
 10
2067.6624700161792
 20
1182.4409619546821
 30
0.0
 11
2095.1624700161792
 21
1182.4409619546821
 31
0.0
  0
ARC
  5
59DA
  8
FUTO
 10
2095.1624700161792
 20
1185.4409619546821
 30
0.0
 40
3.0
 50
270.0
 51
0.0
  0
ARC
  5
59DB
  8
FUTO
 10
2060.1624700161792
 20
1150.4409619546821
 30
0.0
 40
3.0
 50
270.0
 51
0.0
  0
ARC
  5
59DC
  8
FUTO
 10
2067.6624700161792
 20
1177.9409619546821
 30
0.0
 40
4.5
 50
90.0
 51
180.0
  0
LINE
  5
59F1
  8
4
 10
3738.280723900778
 20
599.08610570859332
 30
0.0
 11
3738.280723900778
 21
299.08610570859332
 31
0.0
  0
LINE
  5
59F2
  8
4
 10
2688.280723900778
 20
599.08610570859332
 30
0.0
 11
2688.280723900778
 21
299.08610570859332
 31
0.0
  0
LINE
  5
59F3
  8
4
 10
1938.280723900778
 20
599.08610570859332
 30
0.0
 11
1938.280723900778
 21
299.08610570859332
 31
0.0
  0
LINE
  5
59F6
  8
4
 10
1938.280723900778
 20
299.08610570859332
 30
0.0
 11
3738.280723900778
 21
299.08610570859332
 31
0.0
  0
LINE
  5
59F7
  8
4
 10
1938.280723900778
 20
449.08610570859332
 30
0.0
 11
3738.280723900778
 21
449.08610570859332
 31
0.0
  0
TEXT
  5
59F8
  8
4
 10
1996.03384517113
 20
496.40064450851258
 30
0.0
 40
75.0
  1
機器名称
  0
TEXT
  5
59F9
  8
4
 10
1992.6678829379739
 20
331.55384080660968
 30
0.0
 40
75.0
  1
機器型番
  0
TEXT
  5
59FA
  8
4
 10
2729.7988421322748
 20
482.94375914494611
 30
0.0
 40
75.0
  1
ミツヤ軸流ファン
  0
TEXT
  5
59FB
  8
4
 10
2743.2624672789989
 20
324.82548212850833
 30
0.0
 40
75.0
  1
AP＃900-2
  0
TEXT
  5
59FD
  8
4
 10
2261.9295251945409
 20
3424.2293677073671
 30
0.0
 40
80.999999999999986
  1
床置防振ベット
  0
TEXT
  5
59FE
  8
4
 10
1437.5321138949471
 20
3649.90757000754
 30
0.0
 40
108.0
  1
ベルト駆動式横型軸流ファン
  0
LINE
  5
59FF
  8
4
 10
1338.280723900778
 20
3553.1992371058
 30
0.0
 11
3738.280723900778
 21
3553.1992371058
 31
0.0
  0
LINE
  5
5A00
  8
4
 10
1338.280723900778
 20
3853.1992371058
 30
0.0
 11
3738.280723900778
 21
3853.1992371058
 31
0.0
  0
LINE
  5
5A01
  8
4
 10
1938.280723900778
 20
599.08610570859332
 30
0.0
 11
3738.280723900778
 21
599.08610570859332
 31
0.0
  0
LINE
  5
5A02
  8
4
 10
1338.280723900778
 20
3853.1992371058
 30
0.0
 11
1338.280723900778
 21
3553.1992371058
 31
0.0
  0
TEXT
  5
5A03
  8
4
 10
1380.5252030315501
 20
3422.5653220281079
 30
0.0
 40
80.999999999999986
  1
左回転後方吐出
  0
TEXT
  5
5A04
  8
4
 10
3166.7350627747128
 20
3908.1777279515559
 30
0.0
 40
84.000000000000014
  1
No.
  0
TEXT
  5
5A05
  8
4
 10
3164.3442054217662
 20
3424.2293677073671
 30
0.0
 40
80.999999999999986
  1
縮尺：1/15
  0
LINE
  5
5A06
  8
4
 10
3738.280723900778
 20
3853.1992371058
 30
0.0
 11
3738.280723900778
 21
3553.1992371058
 31
0.0
  0
LINE
  5
5A07
  8
4
 10
4113.280723900778
 20
4274.0861057085931
 30
0.0
 11
4113.280723900778
 21
4274.0861057085931
 31
0.0
  0
LINE
  5
5A08
  8
4
 10
3124.2068574405748
 20
3870.9814803966951
 30
0.0
 11
3124.2068574405748
 21
4029.0644980332208
 31
0.0
  0
LINE
  5
5A09
  8
4
 10
3124.2068574405748
 20
4029.0644980332208
 30
0.0
 11
3738.280723900778
 21
4029.0644980332208
 31
0.0
  0
LINE
  5
5A0A
  8
4
 10
3738.280723900778
 20
4029.0644980332208
 30
0.0
 11
3738.280723900778
 21
3870.9814803966951
 31
0.0
  0
LINE
  5
5A0B
  8
4
 10
3738.280723900778
 20
3870.9814803966951
 30
0.0
 11
3124.2068574405748
 21
3870.9814803966951
 31
0.0
  0
LINE
  5
5A0C
  8
4
 10
963.28072390077796
 20
-150.91389429140659
 30
0.0
 11
963.28072390077796
 21
4274.0861057085931
 31
0.0
  0
LINE
  5
5A0D
  8
4
 10
963.28072390077796
 20
4274.0861057085931
 30
0.0
 11
4113.280723900778
 21
4274.0861057085931
 31
0.0
  0
LINE
  5
5A0E
  8
4
 10
4113.280723900778
 20
4274.0861057085931
 30
0.0
 11
4113.280723900778
 21
-150.91389429140659
 31
0.0
  0
LINE
  5
5A0F
  8
4
 10
4113.280723900778
 20
-150.91389429140659
 30
0.0
 11
963.28072390077796
 21
-150.91389429140659
 31
0.0
  0
DIMENSION
  5
5A11
  8
3
  2
*D3
 10
3986.1144257323072
 20
820.89529938579324
 30
0.0
 11
3386.1144257323072
 21
850.89529938579335
 31
0.0
 70
     0
 13
2786.1144257323072
 23
1137.4409619546821
 33
0.0
 14
3986.1144257323072
 24
1137.4409619546821
 34
0.0
1001
ACAD
1000
DSTYLE
1002
{
1070
   287
1070
     3
1070
   287
1070
     3
1070
    40
1040
15.0
1070
   289
1070
     3
1002
}
  0
DIMENSION
  5
5A1E
  8
3
  2
*D4
 10
1192.1624700161781
 20
819.7559719968699
 30
0.0
 11
1647.1624700161781
 21
849.75597199686979
 31
0.0
 70
     0
 13
2102.1624700161792
 23
1137.4409619546821
 33
0.0
 14
1192.1624700161781
 24
1137.4409619546821
 34
0.0
1001
ACAD
1000
DSTYLE
1002
{
1070
   287
1070
     3
1070
   287
1070
     3
1070
    40
1040
15.0
1070
   289
1070
     3
1002
}
  0
DIMENSION
  5
5A2B
  8
3
  2
*D5
 10
2052.1624700161778
 20
3055.2351080334361
 30
0.0
 11
1647.1624700161781
 21
3085.2351080334361
 31
0.0
 70
     0
 13
1242.162470016179
 23
2332.4409619546818
 33
0.0
 14
2052.1624700161778
 24
2332.4409619546818
 34
0.0
1001
ACAD
1000
DSTYLE
1002
{
1070
   287
1070
     3
1070
   287
1070
     3
1070
    40
1040
15.0
1070
   289
1070
     3
1002
}
  0
DIMENSION
  5
5A38
  8
3
  2
*D6
 10
1075.490548396351
 20
1392.4409619546821
 30
0.0
 11
1045.4905483963501
 21
1842.440961954683
 31
0.0
 70
     0
  1
%%c<>
 13
1202.162470016179
 23
2292.4409619546832
 33
0.0
 14
1202.1624700161781
 24
1392.4409619546821
 34
0.0
 50
90.0
1001
ACAD
1000
DSTYLE
1002
{
1070
   287
1070
     3
1070
   287
1070
     3
1070
    40
1040
15.0
1070
   289
1070
     3
1002
}
  0
DIMENSION
  5
5A4E
  8
3
  2
*D7
 10
2278.2150751593058
 20
1392.4409619546821
 30
0.0
 11
2248.2150751593049
 21
1842.4409619546821
 31
0.0
 70
     0
  1
%%c<>
 13
2092.1624700161778
 23
2292.4409619546832
 33
0.0
 14
2092.1624700161792
 24
1392.4409619546821
 34
0.0
 50
90.0
1001
ACAD
1000
DSTYLE
1002
{
1070
   287
1070
     3
1070
   287
1070
     3
1070
    40
1040
15.0
1070
   289
1070
     3
1002
}
  0
DIMENSION
  5
5A64
  8
3
  2
*D8
 10
3876.1144257323072
 20
3070.6570291455819
 30
0.0
 11
3386.1144257323072
 21
3100.6570291455819
 31
0.0
 70
     0
 13
2896.1144257323072
 23
1842.4409619546821
 33
0.0
 14
3876.1144257323072
 24
1842.4409619546821
 34
0.0
1001
ACAD
1000
DSTYLE
1002
{
1070
   287
1070
     3
1070
   287
1070
     3
1070
    40
1040
15.0
1070
   289
1070
     3
1002
}
  0
DIMENSION
  5
5A71
  8
3
  2
*D9
 10
2592.9265039845241
 20
1282.4409619546821
 30
0.0
 11
2562.9265039845232
 21
1562.440961954683
 31
0.0
 70
     0
 13
2860.1144257323072
 23
1842.4409619546821
 33
0.0
 14
2986.1144257323058
 24
1282.4409619546821
 34
0.0
 50
90.0
1001
ACAD
1000
DSTYLE
1002
{
1070
   287
1070
     3
1070
   287
1070
     3
1070
    40
1040
15.0
1070
   289
1070
     3
1002
}
  0
DIMENSION
  5
5A7E
  8
3
  2
*D10
 10
2592.9265039845241
 20
1187.4409619546821
 30
0.0
 11
2592.9265039845241
 21
1239.9825794373919
 31
0.0
 70
   128
  1
(<>)
 13
2986.1144257323058
 23
1282.4409619546821
 33
0.0
 14
2786.1144257323072
 24
1187.4409619546821
 34
0.0
 50
90.0
1001
ACAD
1000
DSTYLE
1002
{
1070
   287
1070
     4
1070
   287
1070
     4
1070
   279
1070
     1
1070
    40
1040
15.0
1070
   289
1070
     3
1002
}
  0
DIMENSION
  5
5A9D
  8
3
  2
*D11
 10
2592.9265039845241
 20
1137.4409619546821
 30
0.0
 11
2596.606671088392
 21
1055.5328245348201
 31
0.0
 70
   128
 13
2786.1144257323072
 23
1187.4409619546821
 33
0.0
 14
2786.1144257323072
 24
1137.4409619546821
 34
0.0
 50
90.0
1001
ACAD
1000
DSTYLE
1002
{
1070
   287
1070
     4
1070
   287
1070
     4
1070
   279
1070
     1
1070
    40
1040
15.0
1070
   289
1070
     3
1002
}
  0
ENDSEC
  0
EOF
