  0
SECTION
  2
HEADER
  9
$ACADVER
  1
AC1009
  9
$INSBASE
 10
0.0
 20
0.0
 30
0.0
  9
$EXTMIN
 10
963.28072390077796
 20
-150.91389429140659
 30
0.0
  9
$EXTMAX
 10
4113.280723900778
 20
4274.0861057085931
 30
0.0
  9
$LIMMIN
 10
0.0
 20
0.0
  9
$LIMMAX
 10
297.0
 20
210.0
  9
$ORTHOMODE
 70
     0
  9
$REGENMODE
 70
     1
  9
$FILLMODE
 70
     1
  9
$QTEXTMODE
 70
     0
  9
$MIRRTEXT
 70
     0
  9
$DRAGMODE
 70
     2
  9
$LTSCALE
 40
90.0
  9
$OSMODE
 70
    37
  9
$ATTMODE
 70
     1
  9
$TEXTSIZE
 40
75.0
  9
$TRACEWID
 40
0.05
  9
$TEXTSTYLE
  7
STANDARD
  9
$CLAYER
  8
3
  9
$CELTYPE
  6
BYLAYER
  9
$CECOLOR
 62
   256
  9
$DIMSCALE
 40
15.0
  9
$DIMASZ
 40
2.0
  9
$DIMEXO
 40
1.0
  9
$DIMDLI
 40
10.0
  9
$DIMRND
 40
0.0
  9
$DIMDLE
 40
0.0
  9
$DIMEXE
 40
1.0
  9
$DIMTP
 40
0.0
  9
$DIMTM
 40
0.0
  9
$DIMTXT
 40
3.0
  9
$DIMCEN
 40
0.0
  9
$DIMTSZ
 40
0.0
  9
$DIMTOL
 70
     0
  9
$DIMLIM
 70
     0
  9
$DIMTIH
 70
     0
  9
$DIMTOH
 70
     0
  9
$DIMSE1
 70
     0
  9
$DIMSE2
 70
     0
  9
$DIMTAD
 70
     1
  9
$DIMZIN
 70
     8
  9
$DIMBLK
  1

  9
$DIMASO
 70
     1
  9
$DIMSHO
 70
     1
  9
$DIMPOST
  1

  9
$DIMAPOST
  1

  9
$DIMALT
 70
     0
  9
$DIMALTD
 70
     2
  9
$DIMALTF
 40
0.03937
  9
$DIMLFAC
 40
1.0
  9
$DIMTOFL
 70
     1
  9
$DIMTVP
 40
0.0
  9
$DIMTIX
 70
     0
  9
$DIMSOXD
 70
     0
  9
$DIMSAH
 70
     1
  9
$DIMBLK1
  1
OPEN
  9
$DIMBLK2
  1
OPEN
  9
$DIMSTYLE
  2
MATSU
  9
$DIMCLRD
 70
   256
  9
$DIMCLRE
 70
   256
  9
$DIMCLRT
 70
   256
  9
$DIMTFAC
 40
1.0
  9
$DIMGAP
 40
0.5
  9
$LUNITS
 70
     2
  9
$LUPREC
 70
     3
  9
$SKETCHINC
 40
0.1
  9
$FILLETRAD
 40
10.0
  9
$AUNITS
 70
     0
  9
$AUPREC
 70
     2
  9
$MENU
  1
acad
  9
$ELEVATION
 40
0.0
  9
$PELEVATION
 40
0.0
  9
$THICKNESS
 40
0.0
  9
$LIMCHECK
 70
     0
  9
$BLIPMODE
 70
     0
  9
$CHAMFERA
 40
10.0
  9
$CHAMFERB
 40
10.0
  9
$SKPOLY
 70
     0
  9
$TDCREATE
 40
2451939.611564815
  9
$TDUPDATE
 40
2454953.6324994559
  9
$TDINDWG
 40
0.1736009028
  9
$TDUSRTIMER
 40
0.1736009028
  9
$USRTIMER
 70
     1
  9
$ANGBASE
 50
0.0
  9
$ANGDIR
 70
     0
  9
$PDMODE
 70
     0
  9
$PDSIZE
 40
1.0
  9
$PLINEWID
 40
0.0
  9
$COORDS
 70
     1
  9
$SPLFRAME
 70
     0
  9
$SPLINETYPE
 70
     6
  9
$SPLINESEGS
 70
     8
  9
$ATTDIA
 70
     0
  9
$ATTREQ
 70
     1
  9
$HANDLING
 70
 10241
  9
$HANDSEED
  5
4E5
  9
$SURFTAB1
 70
     6
  9
$SURFTAB2
 70
     6
  9
$SURFTYPE
 70
     6
  9
$SURFU
 70
     6
  9
$SURFV
 70
     6
  9
$UCSNAME
  2

  9
$UCSORG
 10
0.0
 20
0.0
 30
0.0
  9
$UCSXDIR
 10
1.0
 20
0.0
 30
0.0
  9
$UCSYDIR
 10
0.0
 20
1.0
 30
0.0
  9
$PUCSNAME
  2

  9
$PUCSORG
 10
0.0
 20
0.0
 30
0.0
  9
$PUCSXDIR
 10
1.0
 20
0.0
 30
0.0
  9
$PUCSYDIR
 10
0.0
 20
1.0
 30
0.0
  9
$USERI1
 70
     0
  9
$USERI2
 70
     0
  9
$USERI3
 70
     0
  9
$USERI4
 70
     0
  9
$USERI5
 70
     0
  9
$USERR1
 40
0.0
  9
$USERR2
 40
0.0
  9
$USERR3
 40
0.0
  9
$USERR4
 40
0.0
  9
$USERR5
 40
0.0
  9
$WORLDVIEW
 70
     1
  9
$SHADEDGE
 70
     3
  9
$SHADEDIF
 70
    70
  9
$TILEMODE
 70
     1
  9
$MAXACTVP
 70
    16
  9
$PLIMCHECK
 70
     0
  9
$PEXTMIN
 10
1.0000000000000000E+020
 20
1.0000000000000000E+020
 30
1.0000000000000000E+020
  9
$PEXTMAX
 10
-1.0000000000000000E+020
 20
-1.0000000000000000E+020
 30
-1.0000000000000000E+020
  9
$PLIMMIN
 10
0.0
 20
0.0
  9
$PLIMMAX
 10
12.0
 20
9.0
  9
$UNITMODE
 70
     0
  9
$VISRETAIN
 70
     0
  9
$PLINEGEN
 70
     0
  9
$PSLTSCALE
 70
     0
  0
ENDSEC
  0
SECTION
  2
TABLES
  0
TABLE
  2
VPORT
 70
     2
  0
VPORT
  2
*ACTIVE
 70
     0
 10
0.0
 20
0.0
 11
1.0
 21
1.0
 12
3968.4962038090698
 22
401.90769702107258
 13
0.0
 23
0.0
 14
5.0
 24
5.0
 15
0.0
 25
0.0
 16
0.0
 26
0.0
 36
1.0
 17
0.0
 27
0.0
 37
0.0
 40
1325.0399590945101
 41
3.1666666666666661
 42
50.0
 43
0.0
 44
0.0
 50
0.0
 51
0.0
 71
     0
 72
   100
 73
     1
 74
     0
 75
     0
 76
     0
 77
     0
 78
     0
  0
ENDTAB
  0
TABLE
  2
LTYPE
 70
     2
  0
LTYPE
  2
CONTINUOUS
 70
     0
  3
Solid line
 72
    65
 73
     0
 40
0.0
  0
LTYPE
  2
CENTER
 70
     0
  3
____ _ ____ _ ____ _ ____ _ ____ _ ____ _ ____ 
 72
    65
 73
     4
 40
2.0
 49
1.25
 49
-0.25
 49
0.25
 49
-0.25
  0
ENDTAB
  0
TABLE
  2
LAYER
 70
     6
  0
LAYER
  2
0
 70
     0
 62
     7
  6
CONTINUOUS
  0
LAYER
  2
DEFPOINTS
 70
     0
 62
     7
  6
CONTINUOUS
  0
LAYER
  2
3
 70
     0
 62
     2
  6
CONTINUOUS
  0
LAYER
  2
2
 70
     0
 62
     3
  6
CENTER
  0
LAYER
  2
1
 70
     0
 62
     4
  6
CONTINUOUS
  0
LAYER
  2
4
 70
     0
 62
     7
  6
CONTINUOUS
  0
ENDTAB
  0
TABLE
  2
STYLE
 70
     1
  0
STYLE
  2
STANDARD
 70
     0
 40
0.0
 41
1.0
 50
15.0
 71
     0
 42
75.0
  3
TXT
  4
bigfont.shx
  0
ENDTAB
  0
TABLE
  2
VIEW
 70
     0
  0
ENDTAB
  0
TABLE
  2
UCS
 70
     0
  0
ENDTAB
  0
TABLE
  2
APPID
 70
     1
  0
APPID
  2
ACAD
 70
     0
  0
ENDTAB
  0
TABLE
  2
DIMSTYLE
 70
     1
  0
DIMSTYLE
  2
MATSU
 70
     0
  3

  4

  5

  6
OPEN
  7
OPEN
 40
1.0
 41
2.0
 42
1.0
 43
10.0
 44
1.0
 45
0.0
 46
0.0
 47
0.0
 48
0.0
140
3.0
141
0.0
142
0.0
143
0.03937
144
1.0
145
0.0
146
1.0
147
0.5
 71
     0
 72
     0
 73
     0
 74
     0
 75
     0
 76
     0
 77
     1
 78
     8
170
     0
171
     2
172
     1
173
     1
174
     0
175
     0
176
   256
177
   256
178
   256
  0
ENDTAB
  0
ENDSEC
  0
SECTION
  2
BLOCKS
  0
BLOCK
  8
0
  2
$MODEL_SPACE
 70
     0
 10
0.0
 20
0.0
 30
0.0
  3
$MODEL_SPACE
  1

  0
ENDBLK
  5
A
  8
0
  0
BLOCK
 67
     1
  8
0
  2
$PAPER_SPACE
 70
     0
 10
0.0
 20
0.0
 30
0.0
  3
$PAPER_SPACE
  1

  0
ENDBLK
  5
F
 67
     1
  8
0
  0
BLOCK
  8
0
  2
_OPEN
 70
     0
 10
0.0
 20
0.0
 30
0.0
  3
_OPEN
  1

  0
LINE
  5
30
  8
0
  6
BYBLOCK
 62
     0
 10
-1.0
 20
0.1666666666666666
 30
0.0
 11
0.0
 21
0.0
 31
0.0
  0
LINE
  5
31
  8
0
  6
BYBLOCK
 62
     0
 10
0.0
 20
0.0
 30
0.0
 11
-1.0
 21
-0.1666666666666666
 31
0.0
  0
LINE
  5
32
  8
0
  6
BYBLOCK
 62
     0
 10
0.0
 20
0.0
 30
0.0
 11
-1.0
 21
0.0
 31
0.0
  0
ENDBLK
  5
34
  8
0
  0
BLOCK
  8
0
  2
*D1
 70
     1
 10
0.0
 20
0.0
 30
0.0
  3
*D1
  1

  0
LINE
  5
465
  8
3
 10
2012.162470016181
 20
1236.985727223009
 30
0.0
 11
2012.162470016181
 21
1102.2978862973571
 31
0.0
  0
LINE
  5
466
  8
3
 10
2052.1624700161778
 20
1337.4409619546821
 30
0.0
 11
2052.1624700161778
 21
1102.2978862973571
 31
0.0
  0
LINE
  5
467
  8
3
 10
1982.162470016181
 20
1117.2978862973571
 30
0.0
 11
1952.162470016181
 21
1117.2978862973571
 31
0.0
  0
LINE
  5
468
  8
3
 10
2082.1624700161778
 20
1117.2978862973571
 30
0.0
 11
2112.1624700161778
 21
1117.2978862973571
 31
0.0
  0
TEXT
  8
3
  40
45
  5
4D9
  72
0
  71
0
 10
2026.57
 20
1070.26
 30
0.000000
  1
40
  0
LINE
  5
46A
  8
3
 10
2012.162470016181
 20
1117.2978862973571
 30
0.0
 11
2052.1624700161778
 21
1117.2978862973571
 31
0.0
  0
INSERT
  5
46B
  8
3
  2
_OPEN
 10
2012.162470016181
 20
1117.2978862973571
 30
0.0
 41
30.0
 42
30.0
 43
30.0
  0
INSERT
  5
46C
  8
3
  2
_OPEN
 10
2052.1624700161778
 20
1117.2978862973571
 30
0.0
 41
30.0
 42
30.0
 43
30.0
 50
180.0
  0
POINT
  5
46D
  8
DEFPOINTS
 62
     0
 10
2012.162470016181
 20
1251.985727223009
 30
0.0
  0
POINT
  5
46E
  8
DEFPOINTS
 62
     0
 10
2052.1624700161778
 20
1352.4409619546821
 30
0.0
  0
POINT
  5
46F
  8
DEFPOINTS
 62
     0
 10
2052.1624700161778
 20
1117.2978862973571
 30
0.0
  0
ENDBLK
  5
29D
  8
0
  0
BLOCK
  8
0
  2
*D2
 70
     1
 10
0.0
 20
0.0
 30
0.0
  3
*D2
  1

  0
LINE
  5
470
  8
3
 10
1187.162470016179
 20
2292.4409619546832
 30
0.0
 11
1060.490548396351
 21
2292.4409619546832
 31
0.0
  0
LINE
  5
471
  8
3
 10
1187.1624700161781
 20
1392.4409619546821
 30
0.0
 11
1060.4905483963501
 21
1392.4409619546821
 31
0.0
  0
LINE
  5
472
  8
3
 10
1075.490548396351
 20
2262.4409619546818
 30
0.0
 11
1075.490548396351
 21
1422.4409619546821
 31
0.0
  0
INSERT
  5
473
  8
3
  2
_OPEN
 10
1075.490548396351
 20
2292.4409619546832
 30
0.0
 41
30.0
 42
30.0
 43
30.0
 50
90.0
  0
INSERT
  5
474
  8
3
  2
_OPEN
 10
1075.490548396351
 20
1392.4409619546821
 30
0.0
 41
30.0
 42
30.0
 43
30.0
 50
270.0
  0
TEXT
  8
3
  40
45
  5
4DA
  72
0
  71
0
 10
955.491
 20
1762.79
 30
0.000000
  1
%%c900
  0
POINT
  5
476
  8
DEFPOINTS
 62
     0
 10
1202.162470016179
 20
2292.4409619546832
 30
0.0
  0
POINT
  5
477
  8
DEFPOINTS
 62
     0
 10
1202.1624700161781
 20
1392.4409619546821
 30
0.0
  0
POINT
  5
478
  8
DEFPOINTS
 62
     0
 10
1075.490548396351
 20
1392.4409619546821
 30
0.0
  0
ENDBLK
  5
2A9
  8
0
  0
BLOCK
  8
0
  2
*D3
 70
     1
 10
0.0
 20
0.0
 30
0.0
  3
*D3
  1

  0
LINE
  5
482
  8
3
 10
1282.1624700161781
 20
1236.985727223009
 30
0.0
 11
1282.1624700161781
 21
1102.2978862973571
 31
0.0
  0
LINE
  5
483
  8
3
 10
2012.162470016181
 20
1236.985727223009
 30
0.0
 11
2012.162470016181
 21
1102.2978862973571
 31
0.0
  0
LINE
  5
484
  8
3
 10
1312.1624700161781
 20
1117.2978862973571
 30
0.0
 11
1982.162470016181
 21
1117.2978862973571
 31
0.0
  0
INSERT
  5
485
  8
3
  2
_OPEN
 10
1282.1624700161781
 20
1117.2978862973571
 30
0.0
 41
30.0
 42
30.0
 43
30.0
 50
180.0
  0
INSERT
  5
486
  8
3
  2
_OPEN
 10
2012.162470016181
 20
1117.2978862973571
 30
0.0
 41
30.0
 42
30.0
 43
30.0
  0
TEXT
  8
3
  40
45
  5
4DB
  72
0
  71
0
 10
1557.16
 20
1067.65
 30
0.000000
  1
730
  0
POINT
  5
488
  8
DEFPOINTS
 62
     0
 10
1282.1624700161781
 20
1251.985727223009
 30
0.0
  0
POINT
  5
489
  8
DEFPOINTS
 62
     0
 10
2012.162470016181
 20
1251.985727223009
 30
0.0
  0
POINT
  5
48A
  8
DEFPOINTS
 62
     0
 10
2012.162470016181
 20
1117.2978862973571
 30
0.0
  0
ENDBLK
  5
2B5
  8
0
  0
BLOCK
  8
0
  2
*D4
 70
     1
 10
0.0
 20
0.0
 30
0.0
  3
*D4
  1

  0
LINE
  5
479
  8
3
 10
1242.162470016179
 20
1337.4409619546821
 30
0.0
 11
1242.162470016179
 21
965.81883098181413
 31
0.0
  0
LINE
  5
47A
  8
3
 10
2052.1624700161778
 20
1337.4409619546821
 30
0.0
 11
2052.1624700161778
 21
965.81883098181413
 31
0.0
  0
LINE
  5
47B
  8
3
 10
1272.162470016179
 20
980.81883098181424
 30
0.0
 11
2022.1624700161781
 21
980.81883098181424
 31
0.0
  0
INSERT
  5
47C
  8
3
  2
_OPEN
 10
1242.162470016179
 20
980.81883098181424
 30
0.0
 41
30.0
 42
30.0
 43
30.0
 50
180.0
  0
INSERT
  5
47D
  8
3
  2
_OPEN
 10
2052.1624700161778
 20
980.81883098181424
 30
0.0
 41
30.0
 42
30.0
 43
30.0
  0
TEXT
  8
3
  40
45
  5
4DC
  72
0
  71
0
 10
1557.16
 20
931.169
 30
0.000000
  1
810
  0
POINT
  5
47F
  8
DEFPOINTS
 62
     0
 10
1242.162470016179
 20
1352.4409619546821
 30
0.0
  0
POINT
  5
480
  8
DEFPOINTS
 62
     0
 10
2052.1624700161778
 20
1352.4409619546821
 30
0.0
  0
POINT
  5
481
  8
DEFPOINTS
 62
     0
 10
2052.1624700161778
 20
980.81883098181424
 30
0.0
  0
ENDBLK
  5
2C1
  8
0
  0
BLOCK
  8
0
  2
*D5
 70
     1
 10
0.0
 20
0.0
 30
0.0
  3
*D5
  1

  0
LINE
  5
48B
  8
3
 10
1282.1624700161781
 20
1236.985727223009
 30
0.0
 11
1282.1624700161781
 21
1102.2978862973571
 31
0.0
  0
LINE
  5
48C
  8
3
 10
1242.162470016179
 20
1337.4409619546821
 30
0.0
 11
1242.162470016179
 21
1102.2978862973571
 31
0.0
  0
LINE
  5
48D
  8
3
 10
1312.1624700161781
 20
1117.2978862973571
 30
0.0
 11
1342.1624700161781
 21
1117.2978862973571
 31
0.0
  0
LINE
  5
48E
  8
3
 10
1212.162470016179
 20
1117.2978862973571
 30
0.0
 11
1182.162470016179
 21
1117.2978862973571
 31
0.0
  0
TEXT
  8
3
  40
45
  5
4DD
  72
0
  71
0
 10
1088.60
 20
1070.26
 30
0.000000
  1
40
  0
LINE
  5
490
  8
3
 10
1282.1624700161781
 20
1117.2978862973571
 30
0.0
 11
1242.162470016179
 21
1117.2978862973571
 31
0.0
  0
INSERT
  5
491
  8
3
  2
_OPEN
 10
1282.1624700161781
 20
1117.2978862973571
 30
0.0
 41
30.0
 42
30.0
 43
30.0
 50
180.0
  0
INSERT
  5
492
  8
3
  2
_OPEN
 10
1242.162470016179
 20
1117.2978862973571
 30
0.0
 41
30.0
 42
30.0
 43
30.0
  0
POINT
  5
493
  8
DEFPOINTS
 62
     0
 10
1282.1624700161781
 20
1251.985727223009
 30
0.0
  0
POINT
  5
494
  8
DEFPOINTS
 62
     0
 10
1242.162470016179
 20
1352.4409619546821
 30
0.0
  0
POINT
  5
495
  8
DEFPOINTS
 62
     0
 10
1242.162470016179
 20
1117.2978862973571
 30
0.0
  0
ENDBLK
  5
2CF
  8
0
  0
BLOCK
  8
0
  2
*D6
 70
     1
 10
0.0
 20
0.0
 30
0.0
  3
*D6
  1

  0
LINE
  5
49F
  8
3
 10
2107.1624700161778
 20
2292.4409619546832
 30
0.0
 11
2293.2150751593058
 21
2292.4409619546832
 31
0.0
  0
LINE
  5
4A0
  8
3
 10
2107.1624700161792
 20
1392.4409619546821
 30
0.0
 11
2293.2150751593058
 21
1392.4409619546821
 31
0.0
  0
LINE
  5
4A1
  8
3
 10
2278.2150751593058
 20
2262.4409619546818
 30
0.0
 11
2278.2150751593058
 21
1422.4409619546821
 31
0.0
  0
INSERT
  5
4A2
  8
3
  2
_OPEN
 10
2278.2150751593058
 20
2292.4409619546832
 30
0.0
 41
30.0
 42
30.0
 43
30.0
 50
90.0
  0
INSERT
  5
4A3
  8
3
  2
_OPEN
 10
2278.2150751593058
 20
1392.4409619546821
 30
0.0
 41
30.0
 42
30.0
 43
30.0
 50
270.0
  0
TEXT
  8
3
  40
45
  5
4DE
  72
0
  71
0
 10
2158.22
 20
1762.79
 30
0.000000
  1
%%c900
  0
POINT
  5
4A5
  8
DEFPOINTS
 62
     0
 10
2092.1624700161778
 20
2292.4409619546832
 30
0.0
  0
POINT
  5
4A6
  8
DEFPOINTS
 62
     0
 10
2092.1624700161792
 20
1392.4409619546821
 30
0.0
  0
POINT
  5
4A7
  8
DEFPOINTS
 62
     0
 10
2278.2150751593058
 20
1392.4409619546821
 30
0.0
  0
ENDBLK
  5
2DB
  8
0
  0
BLOCK
  8
0
  2
*D7
 70
     1
 10
0.0
 20
0.0
 30
0.0
  3
*D7
  1

  0
LINE
  5
496
  8
3
 10
2896.1144257323072
 20
1857.4409619546821
 30
0.0
 11
2896.1144257323072
 21
3085.6570291455819
 31
0.0
  0
LINE
  5
497
  8
3
 10
3876.1144257323072
 20
1857.4409619546821
 30
0.0
 11
3876.1144257323072
 21
3085.6570291455819
 31
0.0
  0
LINE
  5
498
  8
3
 10
2926.1144257323058
 20
3070.6570291455819
 30
0.0
 11
3846.1144257323072
 21
3070.6570291455819
 31
0.0
  0
INSERT
  5
499
  8
3
  2
_OPEN
 10
2896.1144257323072
 20
3070.6570291455819
 30
0.0
 41
30.0
 42
30.0
 43
30.0
 50
180.0
  0
INSERT
  5
49A
  8
3
  2
_OPEN
 10
3876.1144257323072
 20
3070.6570291455819
 30
0.0
 41
30.0
 42
30.0
 43
30.0
  0
TEXT
  8
3
  40
45
  5
4DF
  72
0
  71
0
 10
3296.11
 20
3021.01
 30
0.000000
  1
980
  0
POINT
  5
49C
  8
DEFPOINTS
 62
     0
 10
2896.1144257323072
 20
1842.4409619546821
 30
0.0
  0
POINT
  5
49D
  8
DEFPOINTS
 62
     0
 10
3876.1144257323072
 20
1842.4409619546821
 30
0.0
  0
POINT
  5
49E
  8
DEFPOINTS
 62
     0
 10
3876.1144257323072
 20
3070.6570291455819
 30
0.0
  0
ENDBLK
  5
2E7
  8
0
  0
BLOCK
  8
0
  2
*D8
 70
     1
 10
0.0
 20
0.0
 30
0.0
  3
*D8
  1

  0
LINE
  5
4B1
  8
3
 10
2986.1144257323058
 20
1267.4409619546821
 30
0.0
 11
2986.1144257323058
 21
951.93469007675958
 31
0.0
  0
LINE
  5
4B2
  8
3
 10
3786.1144257323072
 20
1267.4409619546841
 30
0.0
 11
3786.1144257323072
 21
951.93469007675958
 31
0.0
  0
LINE
  5
4B3
  8
3
 10
3016.1144257323058
 20
966.93469007675958
 30
0.0
 11
3756.1144257323072
 21
966.93469007675958
 31
0.0
  0
INSERT
  5
4B4
  8
3
  2
_OPEN
 10
2986.1144257323058
 20
966.93469007675958
 30
0.0
 41
30.0
 42
30.0
 43
30.0
 50
180.0
  0
INSERT
  5
4B5
  8
3
  2
_OPEN
 10
3786.1144257323072
 20
966.93469007675958
 30
0.0
 41
30.0
 42
30.0
 43
30.0
  0
TEXT
  8
3
  40
45
  5
4E0
  72
0
  71
0
 10
3296.11
 20
917.285
 30
0.000000
  1
800
  0
POINT
  5
4B7
  8
DEFPOINTS
 62
     0
 10
2986.1144257323058
 20
1282.4409619546821
 30
0.0
  0
POINT
  5
4B8
  8
DEFPOINTS
 62
     0
 10
3786.1144257323072
 20
1282.4409619546841
 30
0.0
  0
POINT
  5
4B9
  8
DEFPOINTS
 62
     0
 10
3786.1144257323072
 20
966.93469007675958
 30
0.0
  0
ENDBLK
  5
2F3
  8
0
  0
BLOCK
  8
0
  2
*D9
 70
     1
 10
0.0
 20
0.0
 30
0.0
  3
*D9
  1

  0
LINE
  5
4A8
  8
3
 10
3016.1144257323081
 20
1236.985727223009
 30
0.0
 11
3016.1144257323081
 21
1066.497232571053
 31
0.0
  0
LINE
  5
4A9
  8
3
 10
3756.1144257323081
 20
1236.985727223009
 30
0.0
 11
3756.1144257323081
 21
1066.497232571053
 31
0.0
  0
LINE
  5
4AA
  8
3
 10
3046.1144257323072
 20
1081.497232571053
 30
0.0
 11
3726.1144257323072
 21
1081.497232571053
 31
0.0
  0
INSERT
  5
4AB
  8
3
  2
_OPEN
 10
3016.1144257323081
 20
1081.497232571053
 30
0.0
 41
30.0
 42
30.0
 43
30.0
 50
180.0
  0
INSERT
  5
4AC
  8
3
  2
_OPEN
 10
3756.1144257323081
 20
1081.497232571053
 30
0.0
 41
30.0
 42
30.0
 43
30.0
  0
TEXT
  8
3
  40
45
  5
4E1
  72
0
  71
0
 10
3296.11
 20
1031.85
 30
0.000000
  1
740
  0
POINT
  5
4AE
  8
DEFPOINTS
 62
     0
 10
3016.1144257323081
 20
1251.985727223009
 30
0.0
  0
POINT
  5
4AF
  8
DEFPOINTS
 62
     0
 10
3756.1144257323081
 20
1251.985727223009
 30
0.0
  0
POINT
  5
4B0
  8
DEFPOINTS
 62
     0
 10
3756.1144257323081
 20
1081.497232571053
 30
0.0
  0
ENDBLK
  5
2FF
  8
0
  0
BLOCK
  8
0
  2
*D10
 70
     1
 10
0.0
 20
0.0
 30
0.0
  3
*D10
  1

  0
LINE
  5
4BA
  8
3
 10
2845.1144257323058
 20
1842.4409619546821
 30
0.0
 11
2577.9265039845241
 21
1842.4409619546821
 31
0.0
  0
LINE
  5
4BB
  8
3
 10
2971.1144257323058
 20
1282.4409619546821
 30
0.0
 11
2577.9265039845241
 21
1282.4409619546821
 31
0.0
  0
LINE
  5
4BC
  8
3
 10
2592.9265039845241
 20
1812.4409619546821
 30
0.0
 11
2592.9265039845241
 21
1312.4409619546821
 31
0.0
  0
INSERT
  5
4BD
  8
3
  2
_OPEN
 10
2592.9265039845241
 20
1842.4409619546821
 30
0.0
 41
30.0
 42
30.0
 43
30.0
 50
90.0
  0
INSERT
  5
4BE
  8
3
  2
_OPEN
 10
2592.9265039845241
 20
1282.4409619546821
 30
0.0
 41
30.0
 42
30.0
 43
30.0
 50
270.0
  0
TEXT
  8
3
  40
45
  5
4E2
  72
0
  71
0
 10
2472.93
 20
1482.79
 30
0.000000
  1
560
  0
POINT
  5
4C0
  8
DEFPOINTS
 62
     0
 10
2860.1144257323072
 20
1842.4409619546821
 30
0.0
  0
POINT
  5
4C1
  8
DEFPOINTS
 62
     0
 10
2986.1144257323058
 20
1282.4409619546821
 30
0.0
  0
POINT
  5
4C2
  8
DEFPOINTS
 62
     0
 10
2592.9265039845241
 20
1282.4409619546821
 30
0.0
  0
ENDBLK
  5
30B
  8
0
  0
BLOCK
  8
0
  2
*D11
 70
     1
 10
0.0
 20
0.0
 30
0.0
  3
*D11
  1

  0
LINE
  5
4C3
  8
3
 10
3016.1144257323081
 20
1236.985727223009
 30
0.0
 11
3016.1144257323081
 21
1066.497232571053
 31
0.0
  0
LINE
  5
4C4
  8
3
 10
2986.1144257323058
 20
1267.4409619546821
 30
0.0
 11
2986.1144257323058
 21
1066.497232571053
 31
0.0
  0
LINE
  5
4C5
  8
3
 10
3046.1144257323072
 20
1081.497232571053
 30
0.0
 11
3076.1144257323081
 21
1081.497232571053
 31
0.0
  0
LINE
  5
4C6
  8
3
 10
2956.1144257323072
 20
1081.497232571053
 30
0.0
 11
2926.1144257323058
 21
1081.497232571053
 31
0.0
  0
TEXT
  8
3
  40
45
  5
4E3
  72
0
  71
0
 10
2824.52
 20
1031.85
 30
0.000000
  1
30
  0
LINE
  5
4C8
  8
3
 10
3016.1144257323081
 20
1081.497232571053
 30
0.0
 11
2986.1144257323058
 21
1081.497232571053
 31
0.0
  0
INSERT
  5
4C9
  8
3
  2
_OPEN
 10
3016.1144257323081
 20
1081.497232571053
 30
0.0
 41
30.0
 42
30.0
 43
30.0
 50
180.0
  0
INSERT
  5
4CA
  8
3
  2
_OPEN
 10
2986.1144257323058
 20
1081.497232571053
 30
0.0
 41
30.0
 42
30.0
 43
30.0
  0
POINT
  5
4CB
  8
DEFPOINTS
 62
     0
 10
3016.1144257323081
 20
1251.985727223009
 30
0.0
  0
POINT
  5
4CC
  8
DEFPOINTS
 62
     0
 10
2986.1144257323058
 20
1282.4409619546821
 30
0.0
  0
POINT
  5
4CD
  8
DEFPOINTS
 62
     0
 10
2986.1144257323058
 20
1081.497232571053
 30
0.0
  0
ENDBLK
  5
319
  8
0
  0
BLOCK
  8
0
  2
*D12
 70
     1
 10
0.0
 20
0.0
 30
0.0
  3
*D12
  1

  0
LINE
  5
4CE
  8
3
 10
3756.1144257323081
 20
1236.985727223009
 30
0.0
 11
3756.1144257323081
 21
1066.497232571053
 31
0.0
  0
LINE
  5
4CF
  8
3
 10
3786.1144257323072
 20
1267.4409619546841
 30
0.0
 11
3786.1144257323072
 21
1066.497232571053
 31
0.0
  0
LINE
  5
4D0
  8
3
 10
3726.1144257323072
 20
1081.497232571053
 30
0.0
 11
3696.1144257323072
 21
1081.497232571053
 31
0.0
  0
LINE
  5
4D1
  8
3
 10
3816.1144257323072
 20
1081.497232571053
 30
0.0
 11
3846.1144257323072
 21
1081.497232571053
 31
0.0
  0
TEXT
  8
3
  40
45
  5
4E4
  72
0
  71
0
 10
3774.69
 20
1029.12
 30
0.000000
  1
30
  0
LINE
  5
4D3
  8
3
 10
3756.1144257323081
 20
1081.497232571053
 30
0.0
 11
3786.1144257323072
 21
1081.497232571053
 31
0.0
  0
INSERT
  5
4D4
  8
3
  2
_OPEN
 10
3756.1144257323081
 20
1081.497232571053
 30
0.0
 41
30.0
 42
30.0
 43
30.0
  0
INSERT
  5
4D5
  8
3
  2
_OPEN
 10
3786.1144257323072
 20
1081.497232571053
 30
0.0
 41
30.0
 42
30.0
 43
30.0
 50
180.0
  0
POINT
  5
4D6
  8
DEFPOINTS
 62
     0
 10
3756.1144257323081
 20
1251.985727223009
 30
0.0
  0
POINT
  5
4D7
  8
DEFPOINTS
 62
     0
 10
3786.1144257323072
 20
1282.4409619546841
 30
0.0
  0
POINT
  5
4D8
  8
DEFPOINTS
 62
     0
 10
3786.1144257323072
 20
1081.497232571053
 30
0.0
  0
ENDBLK
  5
327
  8
0
  0
ENDSEC
  0
SECTION
  2
ENTITIES
  0
DIMENSION
  5
26
  8
3
  2
*D1
 10
2052.1624700161778
 20
1117.2978862973571
 30
0.0
 11
2116.570616861186
 21
1119.911724909816
 31
0.0
 70
   128
 13
2012.162470016181
 23
1251.985727223009
 33
0.0
 14
2052.1624700161778
 24
1352.4409619546821
 34
0.0
1001
ACAD
1000
DSTYLE
1002
{
1070
   287
1070
     4
1070
   287
1070
     4
1070
   287
1070
     4
1070
   279
1070
     1
1070
    40
1040
15.0
1070
   289
1070
     3
1002
}
  0
LINE
  5
3E
  8
4
 10
4113.280723900778
 20
-150.91389429140659
 30
0.0
 11
963.28072390077796
 21
-150.91389429140659
 31
0.0
  0
LINE
  5
40
  8
4
 10
963.28072390077796
 20
4274.0861057085931
 30
0.0
 11
4113.280723900778
 21
4274.0861057085931
 31
0.0
  0
LINE
  5
41
  8
4
 10
1938.280723900778
 20
599.08610570859332
 30
0.0
 11
3738.280723900778
 21
599.08610570859332
 31
0.0
  0
LINE
  5
42
  8
4
 10
1338.280723900778
 20
3853.1992371058
 30
0.0
 11
3738.280723900778
 21
3853.1992371058
 31
0.0
  0
LINE
  5
43
  8
4
 10
1338.280723900778
 20
3553.1992371058
 30
0.0
 11
3738.280723900778
 21
3553.1992371058
 31
0.0
  0
TEXT
  5
44
  8
4
 10
1437.5321138949471
 20
3649.90757000754
 30
0.0
 40
108.0
  1
ベルト駆動式横型軸流ファン
  0
TEXT
  5
45
  8
4
 10
1992.6678829379739
 20
331.55384080660968
 30
0.0
 40
75.0
  1
機器型番
  0
TEXT
  5
46
  8
4
 10
1996.03384517113
 20
496.40064450851258
 30
0.0
 40
75.0
  1
機器名称
  0
LINE
  5
47
  8
4
 10
1938.280723900778
 20
449.08610570859332
 30
0.0
 11
3738.280723900778
 21
449.08610570859332
 31
0.0
  0
LINE
  5
48
  8
4
 10
1938.280723900778
 20
299.08610570859332
 30
0.0
 11
3738.280723900778
 21
299.08610570859332
 31
0.0
  0
ARC
  5
4B
  8
1
 10
2059.6624700161778
 20
2299.9409619546818
 30
0.0
 40
4.5
 50
180.0
 51
270.0
  0
LINE
  5
4D
  8
1
 10
2092.1624700161778
 20
2292.4409619546832
 30
0.0
 11
2052.1624700161778
 21
2292.4409619546832
 31
0.0
  0
LINE
  5
4E
  8
1
 10
2092.1624700161778
 20
1392.4409619546821
 30
0.0
 11
2052.1624700161792
 21
1392.4409619546821
 31
0.0
  0
ARC
  5
4F
  8
1
 10
2059.6624700161778
 20
1384.9409619546821
 30
0.0
 40
4.5
 50
90.0
 51
180.0
  0
LINE
  5
50
  8
1
 10
2031.4693186630591
 20
2314.9409619546818
 30
0.0
 11
2071.4554683588672
 21
2314.9409619546818
 31
0.0
  0
LINE
  5
51
  8
1
 10
2031.4693186630591
 20
1369.9409619546821
 30
0.0
 11
2071.4554683588681
 21
1369.9409619546821
 31
0.0
  0
LINE
  5
52
  8
2
 10
1148.4355793749539
 20
1842.4409619546821
 30
0.0
 11
2154.4553517081272
 21
1842.4409619546821
 31
0.0
  0
DIMENSION
  5
55
  8
3
  2
*D2
 10
1075.490548396351
 20
1392.4409619546821
 30
0.0
 11
1045.4905483963501
 21
1842.440961954683
 31
0.0
 70
     0
  1
%%c<>
 13
1202.162470016179
 23
2292.4409619546832
 33
0.0
 14
1202.1624700161781
 24
1392.4409619546821
 34
0.0
 50
90.0
1001
ACAD
1000
DSTYLE
1002
{
1070
   287
1070
     3
1070
   287
1070
     3
1070
   287
1070
     3
1070
   287
1070
     3
1070
   287
1070
     3
1070
    40
1040
15.0
1070
   289
1070
     3
1002
}
  0
LINE
  5
62
  8
4
 10
963.28072390077796
 20
-150.91389429140659
 30
0.0
 11
963.28072390077796
 21
4274.0861057085931
 31
0.0
  0
LINE
  5
63
  8
1
 10
1972.162470016179
 20
2663.4409619546818
 30
0.0
 11
1972.162470016179
 21
1742.440961954683
 31
0.0
  0
LINE
  5
64
  8
1
 10
1882.162470016179
 20
2663.4409619546818
 30
0.0
 11
1882.1624700161781
 21
1742.4409619546821
 31
0.0
  0
LINE
  5
65
  8
1
 10
2052.1624700161778
 20
2332.4409619546818
 30
0.0
 11
2052.1624700161792
 21
1352.4409619546821
 31
0.0
  0
LINE
  5
66
  8
1
 10
2055.1624700161778
 20
2330.4409619546818
 30
0.0
 11
2055.1624700161792
 21
1354.4409619546821
 31
0.0
  0
LINE
  5
67
  8
1
 10
1246.662470016179
 20
2332.4409619546832
 30
0.0
 11
1246.662470016179
 21
1352.4409619546821
 31
0.0
  0
LINE
  5
68
  8
1
 10
1242.162470016179
 20
2332.4409619546818
 30
0.0
 11
1242.162470016179
 21
1352.4409619546821
 31
0.0
  0
LINE
  5
69
  8
1
 10
2052.1624700161792
 20
2332.4409619546818
 30
0.0
 11
2052.1624700161792
 21
1352.4409619546821
 31
0.0
  0
LINE
  5
6A
  8
1
 10
2047.662470016179
 20
2332.4409619546832
 30
0.0
 11
2047.662470016179
 21
1352.4409619546821
 31
0.0
  0
LINE
  5
6B
  8
1
 10
1239.162470016179
 20
2330.4409619546818
 30
0.0
 11
1239.1624700161781
 21
1354.4409619546821
 31
0.0
  0
LINE
  5
6C
  8
1
 10
1202.162470016179
 20
2292.4409619546832
 30
0.0
 11
1202.1624700161781
 21
1392.4409619546821
 31
0.0
  0
LINE
  5
6D
  8
1
 10
1242.162470016179
 20
2332.4409619546818
 30
0.0
 11
1242.1624700161781
 21
1352.4409619546821
 31
0.0
  0
LINE
  5
6E
  8
1
 10
1412.162470016179
 20
2042.440961954683
 30
0.0
 11
1377.162470016179
 21
2288.4409619546818
 31
0.0
  0
LINE
  5
6F
  8
1
 10
1267.162470016179
 20
2042.440961954683
 30
0.0
 11
1302.162470016179
 21
2288.4409619546818
 31
0.0
  0
LINE
  5
70
  8
4
 10
1938.280723900778
 20
599.08610570859332
 30
0.0
 11
1938.280723900778
 21
299.08610570859332
 31
0.0
  0
DIMENSION
  5
71
  8
3
  2
*D4
 10
2052.1624700161778
 20
980.81883098181424
 30
0.0
 11
1647.1624700161781
 21
1010.818830981814
 31
0.0
 70
     0
 13
1242.162470016179
 23
1352.4409619546821
 33
0.0
 14
2052.1624700161778
 24
1352.4409619546821
 34
0.0
1001
ACAD
1000
DSTYLE
1002
{
1070
   287
1070
     3
1070
   287
1070
     3
1070
   287
1070
     3
1070
    40
1040
15.0
1070
   289
1070
     3
1002
}
  0
DIMENSION
  5
7E
  8
3
  2
*D3
 10
2012.162470016181
 20
1117.2978862973571
 30
0.0
 11
1647.1624700161799
 21
1147.2978862973571
 31
0.0
 70
     0
 13
1282.1624700161781
 23
1251.985727223009
 33
0.0
 14
2012.162470016181
 24
1251.985727223009
 34
0.0
1001
ACAD
1000
DSTYLE
1002
{
1070
   287
1070
     3
1070
   287
1070
     3
1070
   287
1070
     3
1070
    40
1040
15.0
1070
   289
1070
     3
1002
}
  0
LINE
  5
8B
  8
1
 10
1242.162470016179
 20
1387.9409619546821
 30
0.0
 11
2052.1624700161792
 21
1387.9409619546821
 31
0.0
  0
LINE
  5
8C
  8
1
 10
1242.162470016179
 20
1392.4409619546821
 30
0.0
 11
2052.1624700161792
 21
1392.4409619546821
 31
0.0
  0
LINE
  5
8D
  8
1
 10
1262.162470016179
 20
1642.440961954683
 30
0.0
 11
1417.162470016179
 21
1642.440961954683
 31
0.0
  0
LINE
  5
8E
  8
1
 10
1262.162470016179
 20
2042.4409619546821
 30
0.0
 11
1417.162470016179
 21
2042.4409619546821
 31
0.0
  0
LINE
  5
8F
  8
1
 10
1251.162470016179
 20
1542.4409619546821
 30
0.0
 11
1251.162470016179
 21
1286.9409619546821
 31
0.0
  0
DIMENSION
  5
90
  8
3
  2
*D5
 10
1242.162470016179
 20
1117.2978862973571
 30
0.0
 11
1178.5953769217231
 21
1119.911724909816
 31
0.0
 70
   128
 13
1282.1624700161781
 23
1251.985727223009
 33
0.0
 14
1242.162470016179
 24
1352.4409619546821
 34
0.0
1001
ACAD
1000
DSTYLE
1002
{
1070
   287
1070
     4
1070
   287
1070
     4
1070
   287
1070
     4
1070
   279
1070
     1
1070
    40
1040
15.0
1070
   289
1070
     3
1002
}
  0
LINE
  5
9F
  8
1
 10
1251.162470016179
 20
1286.9409619546821
 30
0.0
 11
1306.662470016179
 21
1286.9409619546821
 31
0.0
  0
LINE
  5
A0
  8
1
 10
1246.662470016179
 20
1282.4409619546821
 30
0.0
 11
1306.662470016179
 21
1282.4409619546821
 31
0.0
  0
LINE
  5
A1
  8
1
 10
1224.69007446919
 20
1369.9409619546821
 30
0.0
 11
1264.676224164999
 21
1369.940961954683
 31
0.0
  0
LINE
  5
A2
  8
1
 10
1246.662470016179
 20
1352.4409619546821
 30
0.0
 11
1246.662470016179
 21
1282.4409619546821
 31
0.0
  0
LINE
  5
A3
  8
1
 10
1246.662470016179
 20
1352.4409619546821
 30
0.0
 11
1242.162470016179
 21
1352.4409619546821
 31
0.0
  0
LINE
  5
A4
  8
1
 10
1242.162470016179
 20
1352.4409619546821
 30
0.0
 11
1241.162470016179
 21
1352.4409619546821
 31
0.0
  0
ARC
  5
A5
  8
1
 10
1241.162470016179
 20
1354.4409619546821
 30
0.0
 40
2.0
 50
180.0
 51
270.0
  0
LINE
  5
A6
  8
1
 10
1282.1624700161781
 20
1251.985727223009
 30
0.0
 11
1282.1624700161781
 21
1313.7558137091851
 31
0.0
  0
LINE
  5
A7
  8
1
 10
1306.662470016179
 20
1286.9409619546821
 30
0.0
 11
1306.662470016179
 21
1282.4409619546821
 31
0.0
  0
LINE
  5
A8
  8
1
 10
1327.162470016179
 20
2042.4409619546821
 30
0.0
 11
1327.162470016179
 21
1642.440961954683
 31
0.0
  0
LINE
  5
A9
  8
1
 10
1317.162470016179
 20
2042.4409619546821
 30
0.0
 11
1317.162470016179
 21
1642.440961954683
 31
0.0
  0
LINE
  5
AA
  8
1
 10
1262.162470016179
 20
2042.440961954683
 30
0.0
 11
1262.162470016179
 21
1642.440961954683
 31
0.0
  0
LINE
  5
AB
  8
1
 10
1234.662470016179
 20
1389.4409619546821
 30
0.0
 11
1204.162470016179
 21
1389.4409619546821
 31
0.0
  0
LINE
  5
AC
  8
1
 10
1202.162470016179
 20
1392.4409619546821
 30
0.0
 11
1242.1624700161781
 21
1392.4409619546821
 31
0.0
  0
ARC
  5
AD
  8
1
 10
1204.162470016179
 20
1391.4409619546821
 30
0.0
 40
2.0
 50
180.0
 51
270.0
  0
LINE
  5
AE
  8
1
 10
1202.162470016179
 20
1391.4409619546821
 30
0.0
 11
1202.162470016179
 21
1392.4409619546821
 31
0.0
  0
ARC
  5
AF
  8
1
 10
1234.662470016179
 20
1384.9409619546821
 30
0.0
 40
4.5
 50
0.0
 51
90.0
  0
LINE
  5
B0
  8
1
 10
1246.662470016179
 20
1542.4409619546821
 30
0.0
 11
1251.162470016179
 21
1542.4409619546821
 31
0.0
  0
LINE
  5
B1
  8
1
 10
1267.162470016179
 20
1642.4409619546821
 30
0.0
 11
1302.162470016179
 21
1396.440961954683
 31
0.0
  0
LINE
  5
B2
  8
1
 10
1412.162470016179
 20
1642.4409619546821
 30
0.0
 11
1377.162470016179
 21
1396.440961954683
 31
0.0
  0
LINE
  5
B3
  8
1
 10
1302.162470016179
 20
1396.440961954683
 30
0.0
 11
1377.162470016179
 21
1396.440961954683
 31
0.0
  0
LINE
  5
B4
  8
1
 10
1287.162470016179
 20
1897.4409619546821
 30
0.0
 11
1287.162470016179
 21
1787.4409619546821
 31
0.0
  0
LINE
  5
B5
  8
1
 10
1387.162470016179
 20
1897.4409619546821
 30
0.0
 11
1387.162470016179
 21
1787.4409619546821
 31
0.0
  0
LINE
  5
B6
  8
1
 10
1287.162470016179
 20
1787.4409619546821
 30
0.0
 11
1387.162470016179
 21
1787.4409619546821
 31
0.0
  0
LINE
  5
B7
  8
1
 10
1287.162470016179
 20
1897.4409619546821
 30
0.0
 11
1387.162470016179
 21
1897.4409619546821
 31
0.0
  0
POINT
  5
B8
  8
1
 10
1387.162470016179
 20
1897.4409619546821
 30
0.0
  0
POINT
  5
B9
  8
1
 10
1387.162470016179
 20
1897.4409619546821
 30
0.0
  0
LINE
  5
BA
  8
1
 10
2043.1624700161781
 20
1542.440961954685
 30
0.0
 11
2043.1624700161799
 21
1286.9409619546859
 31
0.0
  0
LINE
  5
BB
  8
1
 10
1987.6624700161799
 20
1286.940961954685
 30
0.0
 11
1987.6624700161799
 21
1282.440961954685
 31
0.0
  0
LINE
  5
BC
  8
1
 10
2012.162470016181
 20
1251.985727223009
 30
0.0
 11
2012.162470016181
 21
1313.7558137091851
 31
0.0
  0
LINE
  5
BD
  8
1
 10
2047.6624700161799
 20
1352.440961954685
 30
0.0
 11
2047.6624700161799
 21
1282.440961954685
 31
0.0
  0
LINE
  5
BE
  8
1
 10
2047.6624700161799
 20
1282.440961954685
 30
0.0
 11
1987.6624700161799
 21
1282.440961954685
 31
0.0
  0
LINE
  5
BF
  8
1
 10
2043.1624700161799
 20
1286.9409619546859
 30
0.0
 11
1987.6624700161799
 21
1286.940961954685
 31
0.0
  0
ARC
  5
C0
  8
1
 10
2053.1624700161778
 20
1354.4409619546821
 30
0.0
 40
2.0
 50
270.0
 51
0.0
  0
LINE
  5
C1
  8
1
 10
2052.1624700161778
 20
1352.4409619546821
 30
0.0
 11
2053.1624700161778
 21
1352.4409619546821
 31
0.0
  0
LINE
  5
C2
  8
1
 10
2047.662470016179
 20
1352.4409619546821
 30
0.0
 11
2052.1624700161792
 21
1352.4409619546821
 31
0.0
  0
LINE
  5
C3
  8
1
 10
1417.162470016179
 20
2042.4409619546821
 30
0.0
 11
1417.162470016179
 21
1642.440961954683
 31
0.0
  0
LINE
  5
C4
  8
1
 10
2047.6624700161781
 20
1542.440961954685
 30
0.0
 11
2043.1624700161781
 21
1542.440961954685
 31
0.0
  0
LINE
  5
C5
  8
1
 10
1972.162470016179
 20
1942.440961954683
 30
0.0
 11
1882.1624700161781
 21
1942.440961954683
 31
0.0
  0
LINE
  5
C6
  8
1
 10
1972.162470016179
 20
1742.4409619546821
 30
0.0
 11
1882.1624700161781
 21
1742.4409619546821
 31
0.0
  0
TEXT
  5
C7
  8
4
 10
1380.5252030315501
 20
3422.5653220281079
 30
0.0
 40
80.999999999999986
  1
左回転後方吐出
  0
LINE
  5
C8
  8
1
 10
1448.1624700161769
 20
2715.4409619546832
 30
0.0
 11
1380.1624700161781
 21
2715.4409619546832
 31
0.0
  0
LINE
  5
C9
  8
1
 10
1428.1624700161769
 20
2397.4409619546832
 30
0.0
 11
1380.1624700161781
 21
2397.4409619546832
 31
0.0
  0
LINE
  5
CA
  8
2
 10
1291.446470016178
 20
2553.4409619546832
 30
0.0
 11
1984.272311713986
 21
2553.4409619546832
 31
0.0
  0
LINE
  5
CB
  8
1
 10
1296.662470016179
 20
2296.9409619546832
 30
0.0
 11
1462.1624700161781
 21
2296.9409619546818
 31
0.0
  0
LINE
  5
CC
  8
1
 10
1410.393837897529
 20
2363.4409619546818
 30
0.0
 11
1434.8508970442069
 21
2363.4409619546818
 31
0.0
  0
LINE
  5
CD
  8
1
 10
1242.162470016179
 20
2292.4409619546832
 30
0.0
 11
2052.1624700161792
 21
2292.4409619546832
 31
0.0
  0
LINE
  5
CE
  8
1
 10
2047.662470016179
 20
2263.4409619546832
 30
0.0
 11
1246.662470016179
 21
2263.4409619546818
 31
0.0
  0
LINE
  5
CF
  8
1
 10
2002.1624700161781
 20
2257.4409619546832
 30
0.0
 11
1282.1624700161781
 21
2257.4409619546818
 31
0.0
  0
LINE
  5
D0
  8
1
 10
2002.1624700161781
 20
2228.2740673042722
 30
0.0
 11
1282.1624700161781
 21
2228.2740673042722
 31
0.0
  0
LINE
  5
D1
  8
1
 10
1298.1624700161781
 20
2701.6079619546822
 30
0.0
 11
1298.1624700161781
 21
2405.3669619546822
 31
0.0
  0
LINE
  5
D2
  8
1
 10
1378.1624700161769
 20
2713.4409619546832
 30
0.0
 11
1378.1624700161769
 21
2399.4409619546818
 31
0.0
  0
LINE
  5
D3
  8
1
 10
1224.6900744691891
 20
2314.9409619546818
 30
0.0
 11
1264.676224164999
 21
2314.9409619546818
 31
0.0
  0
LINE
  5
D4
  8
1
 10
1296.662470016179
 20
2288.4409619546818
 30
0.0
 11
1246.662470016179
 21
2288.4409619546818
 31
0.0
  0
LINE
  5
D5
  8
1
 10
1296.662470016179
 20
2313.4409619546818
 30
0.0
 11
1246.662470016179
 21
2313.4409619546818
 31
0.0
  0
LINE
  5
D6
  8
1
 10
1246.662470016179
 20
2296.9409619546832
 30
0.0
 11
1296.662470016179
 21
2296.9409619546832
 31
0.0
  0
LINE
  5
D7
  8
1
 10
1202.162470016179
 20
2292.4409619546832
 30
0.0
 11
1242.162470016179
 21
2292.4409619546832
 31
0.0
  0
LINE
  5
D8
  8
1
 10
1234.662470016179
 20
2295.4409619546818
 30
0.0
 11
1204.162470016179
 21
2295.4409619546818
 31
0.0
  0
LINE
  5
D9
  8
1
 10
1202.162470016179
 20
2293.4409619546818
 30
0.0
 11
1202.162470016179
 21
2292.4409619546832
 31
0.0
  0
ARC
  5
DA
  8
1
 10
1204.162470016179
 20
2293.4409619546818
 30
0.0
 40
2.0
 50
90.0
 51
180.0
  0
ARC
  5
DB
  8
1
 10
1234.662470016179
 20
2299.9409619546818
 30
0.0
 40
4.5
 50
270.0
 51
0.0
  0
LINE
  5
DC
  8
1
 10
1246.662470016179
 20
2332.4409619546832
 30
0.0
 11
1242.162470016179
 21
2332.4409619546818
 31
0.0
  0
ARC
  5
DD
  8
1
 10
1241.162470016179
 20
2330.4409619546818
 30
0.0
 40
2.0
 50
90.0
 51
180.0
  0
LINE
  5
DE
  8
1
 10
1242.162470016179
 20
2332.4409619546818
 30
0.0
 11
1241.162470016179
 21
2332.4409619546818
 31
0.0
  0
LINE
  5
DF
  8
1
 10
1282.1624700161781
 20
2263.4409619546782
 30
0.0
 11
1282.1624700161781
 21
2228.2740673042722
 31
0.0
  0
LINE
  5
E0
  8
1
 10
1378.1624700161769
 20
2400.4409619546818
 30
0.0
 11
1300.087470016178
 21
2403.3679619546829
 31
0.0
  0
LINE
  5
E1
  8
1
 10
1302.162470016179
 20
2288.4409619546818
 30
0.0
 11
1377.162470016179
 21
2288.4409619546818
 31
0.0
  0
CIRCLE
  5
E2
  8
1
 10
1271.662470016179
 20
2288.4409619546818
 30
0.0
 40
10.0
  0
LINE
  5
E3
  8
1
 10
1271.662470016179
 20
2313.4409619546818
 30
0.0
 11
1271.662470016179
 21
2263.4409619546818
 31
0.0
  0
LINE
  5
E4
  8
1
 10
1296.662470016179
 20
2313.4409619546818
 30
0.0
 11
1296.662470016179
 21
2263.4409619546818
 31
0.0
  0
ARC
  5
E5
  8
1
 10
1300.1624700161781
 20
2405.3669619546822
 30
0.0
 40
2.0
 50
180.0
 51
267.85219999999998
  0
ARC
  5
E6
  8
1
 10
1380.1624700161781
 20
2399.4409619546818
 30
0.0
 40
2.0001000000000002
 50
180.0
 51
269.99650000000003
  0
LINE
  5
E7
  8
1
 10
1378.1624700161769
 20
2710.4409619546832
 30
0.0
 11
1299.988470016177
 21
2703.5999619546828
 31
0.0
  0
ARC
  5
E8
  8
1
 10
1300.1624700161781
 20
2701.6079619546822
 30
0.0
 40
1.9998
 50
94.997200000000007
 51
180.00700000000001
  0
ARC
  5
E9
  8
1
 10
1380.1624700161781
 20
2713.439961954683
 30
0.0
 40
2.0001000000000002
 50
90.0
 51
179.9965
  0
ARC
  5
EA
  8
1
 10
1600.1624700161769
 20
2740.9409619546832
 30
0.0
 40
20.5
 50
0.0
 51
256.40589999999992
  0
CIRCLE
  5
EB
  8
1
 10
1600.1624700161769
 20
2740.9409619546832
 30
0.0
 40
12.5
  0
LINE
  5
EC
  8
2
 10
1600.1624700161769
 20
2764.4359619546831
 30
0.0
 11
1600.1624700161769
 21
2384.941961954682
 31
0.0
  0
LINE
  5
ED
  8
1
 10
1482.1624700161781
 20
2296.9409619546818
 30
0.0
 11
1762.1624700161781
 21
2296.9409619546818
 31
0.0
  0
LINE
  5
EE
  8
1
 10
1762.1624700161781
 20
2349.4409619546818
 30
0.0
 11
1482.1624700161781
 21
2349.4409619546818
 31
0.0
  0
LINE
  5
EF
  8
1
 10
1740.7024700161769
 20
2715.4409619546832
 30
0.0
 11
1600.1624700161769
 21
2715.4409619546832
 31
0.0
  0
LINE
  5
F0
  8
1
 10
1747.1624700161781
 20
2393.4409619546818
 30
0.0
 11
1600.1624700161769
 21
2393.4409619546818
 31
0.0
  0
LINE
  5
F1
  8
1
 10
1618.596470016178
 20
2413.2779619546818
 30
0.0
 11
1745.196470016178
 21
2411.4739619546822
 31
0.0
  0
LINE
  5
F2
  8
1
 10
1810.1624700161781
 20
2393.4409619546818
 30
0.0
 11
1434.1624700161781
 21
2393.4409619546818
 31
0.0
  0
LINE
  5
F3
  8
1
 10
1810.1624700161781
 20
2387.4409619546818
 30
0.0
 11
1434.1624700161781
 21
2387.4409619546818
 31
0.0
  0
LINE
  5
F4
  8
1
 10
1472.1624700161781
 20
2416.4409138445558
 30
0.0
 11
1472.1624700161781
 21
2386.6332532825249
 31
0.0
  0
LINE
  5
F5
  8
1
 10
1480.822724054022
 20
2408.1012159925272
 30
0.0
 11
1480.822724054022
 21
2393.4409619546818
 31
0.0
  0
LINE
  5
F7
  8
1
 10
1489.4829780918669
 20
2408.1012159925272
 30
0.0
 11
1489.4829780918669
 21
2393.4409619546818
 31
0.0
  0
LINE
  5
F8
  8
1
 10
1454.841961940489
 20
2408.1012159925272
 30
0.0
 11
1454.841961940489
 21
2393.4409619546818
 31
0.0
  0
LINE
  5
F9
  8
1
 10
1463.502215978333
 20
2408.1012159925272
 30
0.0
 11
1463.502215978333
 21
2393.4409619546818
 31
0.0
  0
LINE
  5
FA
  8
1
 10
1727.1624700161781
 20
2415.2159619546819
 30
0.0
 11
1727.1624700161781
 21
2387.256961954683
 31
0.0
  0
LINE
  5
FB
  8
1
 10
1473.1624700161781
 20
2415.2159619546819
 30
0.0
 11
1473.1624700161781
 21
2387.256961954683
 31
0.0
  0
LINE
  5
FC
  8
1
 10
1453.1624700161769
 20
2393.4409619546818
 30
0.0
 11
1453.1624700161769
 21
2413.4409619546832
 31
0.0
  0
LINE
  5
FD
  8
1
 10
1428.1624700161769
 20
2442.4409619546818
 30
0.0
 11
1428.1624700161769
 21
2397.4409619546832
 31
0.0
  0
LINE
  5
FE
  8
2
 10
1472.1624700161781
 20
2443.4409619546832
 30
0.0
 11
1472.1624700161781
 21
2263.4409619546818
 31
0.0
  0
LINE
  5
FF
  8
1
 10
1453.1624700161769
 20
2393.4409619546818
 30
0.0
 11
1600.1624700161769
 21
2393.4409619546818
 31
0.0
  0
LINE
  5
100
  8
1
 10
1462.1624700161781
 20
2371.4409619546818
 30
0.0
 11
1462.1624700161781
 21
2263.4409619546818
 31
0.0
  0
LINE
  5
101
  8
1
 10
1482.1624700161781
 20
2371.4409619546818
 30
0.0
 11
1482.1624700161781
 21
2263.4409619546818
 31
0.0
  0
LINE
  5
102
  8
1
 10
1462.1624700161781
 20
2349.4409619546818
 30
0.0
 11
1428.1624700161781
 21
2349.4409619546818
 31
0.0
  0
ARC
  5
103
  8
1
 10
1434.1624700161781
 20
2381.4409619546832
 30
0.0
 40
6.0
 50
90.0
 51
180.0
  0
ARC
  5
104
  8
1
 10
1434.1624700161781
 20
2381.4409619546832
 30
0.0
 40
12.0
 50
90.0
 51
180.0
  0
LINE
  5
105
  8
1
 10
1428.1624700161781
 20
2343.4409619546818
 30
0.0
 11
1422.1624700161781
 21
2343.4409619546818
 31
0.0
  0
LINE
  5
106
  8
1
 10
1422.1624700161781
 20
2381.4409619546832
 30
0.0
 11
1422.1624700161781
 21
2343.4409619546818
 31
0.0
  0
LINE
  5
107
  8
1
 10
1428.1624700161781
 20
2381.4409619546832
 30
0.0
 11
1428.1624700161781
 21
2343.4409619546818
 31
0.0
  0
LINE
  5
108
  8
1
 10
1457.1624700161781
 20
2371.4409619546818
 30
0.0
 11
1454.841961940489
 21
2372.7807079168379
 31
0.0
  0
ARC
  5
109
  8
1
 10
1459.172088959411
 20
2379.1084301999499
 30
0.0
 40
7.6674682452691139
 50
235.6157525319575
 51
304.3842474680423
  0
LINE
  5
10A
  8
1
 10
1472.1624700161781
 20
2364.4410100648088
 30
0.0
 11
1472.1624700161781
 21
2394.2486706268392
 31
0.0
  0
LINE
  5
10B
  8
1
 10
1463.502215978333
 20
2372.7807079168379
 30
0.0
 11
1463.502215978333
 21
2387.4409619546818
 31
0.0
  0
LINE
  5
10C
  8
1
 10
1454.841961940489
 20
2372.7807079168379
 30
0.0
 11
1454.841961940489
 21
2387.4409619546818
 31
0.0
  0
LINE
  5
10D
  8
1
 10
1487.1624700161781
 20
2371.4409619546818
 30
0.0
 11
1489.4829780918669
 21
2372.7807079168379
 31
0.0
  0
ARC
  5
10E
  8
1
 10
1485.152851072944
 20
2379.1084301999499
 30
0.0
 40
7.6674682452691139
 50
235.6157525319575
 51
304.3842474680423
  0
LINE
  5
10F
  8
1
 10
1489.4829780918669
 20
2372.7807079168379
 30
0.0
 11
1489.4829780918669
 21
2387.4409619546818
 31
0.0
  0
LINE
  5
110
  8
1
 10
1480.822724054022
 20
2372.7807079168379
 30
0.0
 11
1480.822724054022
 21
2387.4409619546818
 31
0.0
  0
ARC
  5
111
  8
1
 10
1472.1624700161781
 20
2400.1012159925258
 30
0.0
 40
28.66025403784414
 50
252.4120462260114
 51
287.58795377398837
  0
LINE
  5
112
  8
1
 10
1487.1624700161781
 20
2371.4409619546818
 30
0.0
 11
1457.1624700161781
 21
2371.4409619546818
 31
0.0
  0
LINE
  5
113
  8
1
 10
1489.4829780918669
 20
2387.4409619546818
 30
0.0
 11
1454.841961940489
 21
2387.4409619546818
 31
0.0
  0
LINE
  5
114
  8
1
 10
1454.841961940489
 20
2393.4409619546818
 30
0.0
 11
1489.4829780918669
 21
2393.4409619546818
 31
0.0
  0
LINE
  5
115
  8
1
 10
1459.622470016177
 20
2715.4409619546832
 30
0.0
 11
1600.1624700161769
 21
2715.4409619546832
 31
0.0
  0
LINE
  5
116
  8
1
 10
1551.1624700161769
 20
2521.6839619546822
 30
0.0
 11
1586.6654700161771
 21
2521.6839619546822
 31
0.0
  0
LINE
  5
117
  8
1
 10
1551.1624700161769
 20
2515.5139619546821
 30
0.0
 11
1591.261470016178
 21
2515.5139619546821
 31
0.0
  0
LINE
  5
118
  8
1
 10
1581.7284700161781
 20
2413.2779619546818
 30
0.0
 11
1482.1624700161781
 21
2411.8591857777478
 31
0.0
  0
LINE
  5
119
  8
1
 10
1677.4074700161771
 20
2603.4409619546818
 30
0.0
 11
1536.8114700161771
 21
2603.4409619546818
 31
0.0
  0
LINE
  5
11A
  8
1
 10
1556.1624700161781
 20
2673.8849619546818
 30
0.0
 11
1644.1624700161769
 21
2673.8849619546818
 31
0.0
  0
LINE
  5
11B
  8
1
 10
1556.1624700161781
 20
2505.229961954682
 30
0.0
 11
1644.1624700161769
 21
2505.229961954682
 31
0.0
  0
LINE
  5
11C
  8
1
 10
1551.1624700161769
 20
2668.742961954682
 30
0.0
 11
1649.1624700161769
 21
2668.742961954682
 31
0.0
  0
LINE
  5
11D
  8
1
 10
1551.1624700161769
 20
2657.430961954683
 30
0.0
 11
1649.1624700161769
 21
2657.430961954683
 31
0.0
  0
LINE
  5
11E
  8
1
 10
1529.1624700161769
 20
2646.8849619546831
 30
0.0
 11
1529.1624700161769
 21
2532.2299619546829
 31
0.0
  0
LINE
  5
11F
  8
1
 10
1536.1624700161781
 20
2653.742961954682
 30
0.0
 11
1536.1624700161781
 21
2530.5139619546821
 31
0.0
  0
LINE
  5
120
  8
1
 10
1448.1624700161769
 20
2462.4409619546818
 30
0.0
 11
1448.1624700161769
 21
2715.4409619546832
 31
0.0
  0
ARC
  5
121
  8
1
 10
1455.1624700161781
 20
2409.4749619546819
 30
0.0
 40
2.0001000000000002
 50
90.986199999999997
 51
180.0
  0
LINE
  5
122
  8
1
 10
1453.1624700161769
 20
2413.4409619546832
 30
0.0
 11
1438.1624700161781
 21
2413.4409619546832
 31
0.0
  0
LINE
  5
123
  8
1
 10
1428.1624700161769
 20
2413.4409619546832
 30
0.0
 11
1438.1624700161781
 21
2413.4409619546832
 31
0.0
  0
LINE
  5
124
  8
1
 10
1428.1624700161769
 20
2442.4409619546818
 30
0.0
 11
1448.1624700161769
 21
2462.4409619546818
 31
0.0
  0
LINE
  5
125
  8
1
 10
1487.1624700161781
 20
2409.4409619546832
 30
0.0
 11
1489.4829780918669
 21
2408.1012159925272
 31
0.0
  0
ARC
  5
126
  8
1
 10
1485.152851072944
 20
2401.7734937094142
 30
0.0
 40
7.6674682452691139
 50
55.615752531957618
 51
124.3842474680423
  0
LINE
  5
127
  8
1
 10
1457.1624700161781
 20
2409.4409619546832
 30
0.0
 11
1454.841961940489
 21
2408.1012159925272
 31
0.0
  0
ARC
  5
128
  8
1
 10
1459.172088959411
 20
2401.7734937094142
 30
0.0
 40
7.6674682452691139
 50
55.615752531957618
 51
124.3842474680423
  0
ARC
  5
129
  8
1
 10
1472.1624700161781
 20
2380.7807079168379
 30
0.0
 40
28.66025403784414
 50
72.412046226011483
 51
107.5879537739885
  0
LINE
  5
12A
  8
1
 10
1457.1624700161781
 20
2409.4409619546832
 30
0.0
 11
1487.1624700161781
 21
2409.4409619546832
 31
0.0
  0
LINE
  5
12B
  8
1
 10
1462.1624700161781
 20
2411.5741936766422
 30
0.0
 11
1455.1284700161771
 21
2411.4739619546822
 31
0.0
  0
LINE
  5
12C
  8
1
 10
1462.1624700161781
 20
2443.4409619546832
 30
0.0
 11
1462.1624700161781
 21
2409.4409619546832
 31
0.0
  0
LINE
  5
12D
  8
1
 10
1482.1624700161781
 20
2443.4409619546832
 30
0.0
 11
1462.1624700161781
 21
2443.4409619546832
 31
0.0
  0
LINE
  5
12E
  8
1
 10
1482.1624700161781
 20
2443.4409619546832
 30
0.0
 11
1482.1624700161781
 21
2409.4409619546832
 31
0.0
  0
ARC
  5
12F
  8
1
 10
1551.1624700161769
 20
2536.6839619546831
 30
0.0
 40
15.0
 50
180.0
 51
270.0
  0
ARC
  5
130
  8
1
 10
1551.1624700161769
 20
2530.5139619546821
 30
0.0
 40
15.0
 50
180.0
 51
270.0
  0
ARC
  5
131
  8
1
 10
1556.1624700161781
 20
2532.2299619546829
 30
0.0
 40
27.0
 50
180.0
 51
270.0
  0
LINE
  5
132
  8
1
 10
1448.1624700161769
 20
2701.7829619546828
 30
0.0
 11
1459.622470016177
 21
2715.4409619546832
 31
0.0
  0
ARC
  5
133
  8
1
 10
1551.1624700161769
 20
2653.742961954682
 30
0.0
 40
15.0
 50
90.0
 51
180.0
  0
ARC
  5
134
  8
1
 10
1556.1624700161781
 20
2646.8849619546831
 30
0.0
 40
27.0
 50
90.0
 51
180.0
  0
ARC
  5
135
  8
1
 10
1551.1624700161769
 20
2642.430961954683
 30
0.0
 40
15.0
 50
90.0
 51
180.0
  0
LINE
  5
136
  8
1
 10
1671.1624700161769
 20
2532.2299619546829
 30
0.0
 11
1671.1624700161769
 21
2646.8849619546831
 31
0.0
  0
LINE
  5
137
  8
1
 10
1664.1624700161769
 20
2653.742961954682
 30
0.0
 11
1664.1624700161769
 21
2530.5139619546821
 31
0.0
  0
ARC
  5
138
  8
1
 10
1649.1624700161769
 20
2536.6839619546831
 30
0.0
 40
15.0
 50
270.0
 51
0.0
  0
ARC
  5
139
  8
1
 10
1649.1624700161769
 20
2530.5139619546821
 30
0.0
 40
15.0
 50
270.0
 51
0.0
  0
ARC
  5
13A
  8
1
 10
1644.1624700161769
 20
2532.2299619546829
 30
0.0
 40
27.0
 50
270.0
 51
0.0
  0
ARC
  5
13B
  8
1
 10
1618.7684700161781
 20
2423.2759619546832
 30
0.0
 40
10.0
 50
182.34089999999989
 51
269.01240000000001
  0
ARC
  5
13C
  8
1
 10
1581.5564700161781
 20
2423.2759619546832
 30
0.0
 40
10.0
 50
270.98759999999999
 51
357.65910000000002
  0
LINE
  5
13D
  8
1
 10
1607.375470016178
 20
2457.149961954683
 30
0.0
 11
1608.7774700161781
 21
2422.8679619546829
 31
0.0
  0
LINE
  5
13E
  8
1
 10
1592.9494700161781
 20
2457.149961954683
 30
0.0
 11
1591.5474700161781
 21
2422.8679619546829
 31
0.0
  0
LINE
  5
13F
  8
1
 10
1613.6934700161769
 20
2521.6839619546822
 30
0.0
 11
1649.1624700161769
 21
2521.6839619546822
 31
0.0
  0
LINE
  5
140
  8
1
 10
1609.098470016178
 20
2515.5139619546821
 30
0.0
 11
1649.1624700161769
 21
2515.5139619546821
 31
0.0
  0
ARC
  5
141
  8
1
 10
1613.6934700161769
 20
2525.6839619546822
 30
0.0
 40
4.0
 50
221.34020000000001
 51
270.0
  0
ARC
  5
142
  8
1
 10
1600.1794700161779
 20
2511.4849619546831
 30
0.0
 40
8.0
 50
41.994199999999992
 51
138.00579999999999
  0
ARC
  5
143
  8
1
 10
1609.098470016178
 20
2519.5139619546821
 30
0.0
 40
4.0000999999999989
 50
221.99420000000001
 51
270.0
  0
ARC
  5
144
  8
1
 10
1586.6654700161771
 20
2525.6839619546822
 30
0.0
 40
4.0
 50
270.0
 51
318.65980000000002
  0
ARC
  5
145
  8
1
 10
1600.1794700161779
 20
2513.7939619546819
 30
0.0
 40
14.0
 50
41.341700000000003
 51
138.65829999999991
  0
ARC
  5
146
  8
1
 10
1591.261470016178
 20
2519.5139619546821
 30
0.0
 40
4.0
 50
270.0
 51
318.00459999999993
  0
ARC
  5
147
  8
1
 10
1644.1624700161769
 20
2646.8849619546831
 30
0.0
 40
27.0
 50
0.0
 51
90.0
  0
ARC
  5
148
  8
1
 10
1649.1624700161769
 20
2653.742961954682
 30
0.0
 40
15.0
 50
0.0
 51
90.0
  0
ARC
  5
149
  8
1
 10
1649.1624700161769
 20
2642.430961954683
 30
0.0
 40
15.0
 50
0.0
 51
90.0
  0
ARC
  5
14A
  8
1
 10
1600.1624700161769
 20
2740.9409619546832
 30
0.0
 40
20.5
 50
284.60939999999988
 51
0.0
  0
LINE
  5
14B
  8
1
 10
1578.464470016178
 20
2740.9409619546832
 30
0.0
 11
1623.244470016178
 21
2740.9409619546832
 31
0.0
  0
LINE
  5
14C
  8
1
 10
1595.1624700161769
 20
2715.4409619546832
 30
0.0
 11
1595.1624700161769
 21
2721.0599619546829
 31
0.0
  0
LINE
  5
14D
  8
1
 10
1605.1624700161769
 20
2715.4409619546832
 30
0.0
 11
1605.1624700161769
 21
2721.0599619546829
 31
0.0
  0
LINE
  5
14E
  8
1
 10
1772.1624700161781
 20
2416.4409138445558
 30
0.0
 11
1772.1624700161781
 21
2386.6332532825249
 31
0.0
  0
LINE
  5
14F
  8
1
 10
1780.822724054022
 20
2408.1012159925272
 30
0.0
 11
1780.822724054022
 21
2393.4409619546818
 31
0.0
  0
LINE
  5
150
  8
1
 10
1789.4829780918669
 20
2408.1012159925272
 30
0.0
 11
1789.4829780918669
 21
2393.4409619546818
 31
0.0
  0
LINE
  5
151
  8
1
 10
1754.841961940489
 20
2408.1012159925272
 30
0.0
 11
1754.841961940489
 21
2393.4409619546818
 31
0.0
  0
LINE
  5
152
  8
1
 10
1763.502215978333
 20
2408.1012159925272
 30
0.0
 11
1763.502215978333
 21
2393.4409619546818
 31
0.0
  0
LINE
  5
153
  8
1
 10
2002.162470016179
 20
2733.4409619546809
 30
0.0
 11
2002.162470016179
 21
2263.0357788509441
 31
0.0
  0
LINE
  5
154
  8
1
 10
1852.162470016179
 20
2733.4409619546809
 30
0.0
 11
1852.162470016179
 21
2263.0357788509441
 31
0.0
  0
LINE
  5
155
  8
1
 10
1747.1624700161781
 20
2393.4409619546818
 30
0.0
 11
1747.1624700161781
 21
2413.4409619546832
 31
0.0
  0
LINE
  5
156
  8
2
 10
1772.1624700161781
 20
2458.4409619546832
 30
0.0
 11
1772.1624700161781
 21
2263.4409619546818
 31
0.0
  0
LINE
  5
157
  8
1
 10
2002.1624700161781
 20
2263.4409619546832
 30
0.0
 11
1882.1624700161781
 21
2443.4409619546818
 31
0.0
  0
LINE
  5
158
  8
1
 10
1828.1624700161781
 20
2443.4409619546832
 30
0.0
 11
1828.1624700161781
 21
2263.4409619546818
 31
0.0
  0
LINE
  5
159
  8
1
 10
1822.1624700161781
 20
2443.4409619546832
 30
0.0
 11
1822.1624700161781
 21
2263.4409619546818
 31
0.0
  0
LINE
  5
15A
  8
1
 10
1782.1624700161781
 20
2296.9409619546818
 30
0.0
 11
1822.1624700161781
 21
2296.9409619546818
 31
0.0
  0
LINE
  5
15B
  8
1
 10
1816.1624700161781
 20
2349.4409619546818
 30
0.0
 11
1782.1624700161781
 21
2349.4409619546818
 31
0.0
  0
ARC
  5
15C
  8
1
 10
1810.1624700161781
 20
2381.4409619546832
 30
0.0
 40
6.0
 50
0.0
 51
90.0
  0
ARC
  5
15D
  8
1
 10
1810.1624700161781
 20
2381.4409619546832
 30
0.0
 40
12.0
 50
0.0
 51
90.0
  0
LINE
  5
15E
  8
1
 10
1833.9311021348269
 20
2363.4409619546818
 30
0.0
 11
1809.474042988149
 21
2363.4409619546818
 31
0.0
  0
LINE
  5
15F
  8
1
 10
1762.1624700161781
 20
2371.4409619546818
 30
0.0
 11
1762.1624700161781
 21
2263.4409619546818
 31
0.0
  0
LINE
  5
160
  8
1
 10
1782.1624700161781
 20
2371.4409619546818
 30
0.0
 11
1782.1624700161781
 21
2263.4409619546818
 31
0.0
  0
ARC
  5
161
  8
1
 10
1772.1624700161781
 20
2400.1012159925258
 30
0.0
 40
28.66025403784414
 50
252.4120462260114
 51
287.58795377398837
  0
LINE
  5
162
  8
1
 10
1787.1624700161781
 20
2371.4409619546818
 30
0.0
 11
1757.1624700161781
 21
2371.4409619546818
 31
0.0
  0
LINE
  5
163
  8
1
 10
1789.4829780918669
 20
2387.4409619546818
 30
0.0
 11
1754.8419619404881
 21
2387.4409619546818
 31
0.0
  0
LINE
  5
164
  8
1
 10
1754.841961940489
 20
2393.4409619546818
 30
0.0
 11
1789.4829780918669
 21
2393.4409619546818
 31
0.0
  0
LINE
  5
165
  8
1
 10
1757.1624700161781
 20
2371.4409619546818
 30
0.0
 11
1754.841961940489
 21
2372.7807079168379
 31
0.0
  0
ARC
  5
166
  8
1
 10
1759.172088959411
 20
2379.1084301999499
 30
0.0
 40
7.6674682452691139
 50
235.6157525319575
 51
304.3842474680423
  0
LINE
  5
167
  8
1
 10
1772.1624700161781
 20
2364.4410100648088
 30
0.0
 11
1772.1624700161781
 21
2394.2486706268392
 31
0.0
  0
LINE
  5
168
  8
1
 10
1763.502215978333
 20
2372.7807079168379
 30
0.0
 11
1763.502215978333
 21
2387.4409619546818
 31
0.0
  0
LINE
  5
169
  8
1
 10
1754.841961940489
 20
2372.7807079168379
 30
0.0
 11
1754.841961940489
 21
2387.4409619546818
 31
0.0
  0
LINE
  5
16A
  8
1
 10
1787.1624700161781
 20
2371.4409619546818
 30
0.0
 11
1789.4829780918669
 21
2372.7807079168379
 31
0.0
  0
ARC
  5
16B
  8
1
 10
1785.152851072944
 20
2379.1084301999499
 30
0.0
 40
7.6674682452691139
 50
235.6157525319575
 51
304.3842474680423
  0
LINE
  5
16C
  8
1
 10
1789.4829780918669
 20
2372.7807079168379
 30
0.0
 11
1789.4829780918669
 21
2387.4409619546818
 31
0.0
  0
LINE
  5
16D
  8
1
 10
1780.822724054022
 20
2372.7807079168379
 30
0.0
 11
1780.822724054022
 21
2387.4409619546818
 31
0.0
  0
LINE
  5
16E
  8
1
 10
1822.1624700161781
 20
2343.4409619546818
 30
0.0
 11
1816.1624700161781
 21
2343.4409619546818
 31
0.0
  0
LINE
  5
16F
  8
1
 10
1816.1624700161781
 20
2381.4409619546832
 30
0.0
 11
1816.1624700161781
 21
2343.4409619546818
 31
0.0
  0
LINE
  5
170
  8
1
 10
2002.1624700161781
 20
2263.4409619546818
 30
0.0
 11
2002.1624700161781
 21
2228.2740673042722
 31
0.0
  0
LINE
  5
171
  8
1
 10
1997.6624700161781
 20
2296.9409619546818
 30
0.0
 11
2047.662470016179
 21
2296.9409619546818
 31
0.0
  0
LINE
  5
172
  8
1
 10
1997.662470016179
 20
2288.4409619546818
 30
0.0
 11
2047.662470016179
 21
2288.4409619546818
 31
0.0
  0
CIRCLE
  5
173
  8
1
 10
2022.662470016179
 20
2288.4409619546818
 30
0.0
 40
10.0
  0
LINE
  5
174
  8
1
 10
1997.662470016179
 20
2313.4409619546818
 30
0.0
 11
2047.662470016179
 21
2313.4409619546818
 31
0.0
  0
LINE
  5
175
  8
1
 10
1997.662470016179
 20
2313.4409619546818
 30
0.0
 11
1997.662470016179
 21
2263.4409619546818
 31
0.0
  0
LINE
  5
176
  8
1
 10
1979.8291366828439
 20
2296.9409619546818
 30
0.0
 11
1997.6624700161781
 21
2296.9409619546818
 31
0.0
  0
LINE
  5
177
  8
1
 10
2022.662470016179
 20
2313.4409619546818
 30
0.0
 11
2022.662470016179
 21
2263.4409619546818
 31
0.0
  0
LINE
  5
178
  8
1
 10
2052.1624700161778
 20
2332.4409619546818
 30
0.0
 11
2053.1624700161778
 21
2332.4409619546818
 31
0.0
  0
ARC
  5
179
  8
1
 10
2053.1624700161778
 20
2330.4409619546818
 30
0.0
 40
2.0
 50
0.0
 51
90.0
  0
LINE
  5
17A
  8
1
 10
2047.662470016179
 20
2332.4409619546832
 30
0.0
 11
2052.1624700161792
 21
2332.4409619546818
 31
0.0
  0
LINE
  5
17B
  8
1
 10
2002.1624700161781
 20
2733.4409619546809
 30
0.0
 11
1852.162470016179
 21
2733.4409619546809
 31
0.0
  0
LINE
  5
17C
  8
1
 10
1972.162470016179
 20
2443.4409619546832
 30
0.0
 11
1882.162470016179
 21
2443.4409619546832
 31
0.0
  0
LINE
  5
17D
  8
1
 10
1972.162470016179
 20
2663.4409619546818
 30
0.0
 11
1882.162470016179
 21
2663.4409619546818
 31
0.0
  0
LINE
  5
17E
  8
1
 10
1827.1624700161781
 20
2485.4409619546832
 30
0.0
 11
1827.1624700161781
 21
2621.4409619546818
 31
0.0
  0
LINE
  5
17F
  8
1
 10
1762.1624700161769
 20
2693.4409619546818
 30
0.0
 11
1762.1624700161769
 21
2413.4409619546832
 31
0.0
  0
LINE
  5
180
  8
1
 10
1817.1624700161769
 20
2416.4409619546818
 30
0.0
 11
1817.1624700161769
 21
2690.4409619546832
 31
0.0
  0
ARC
  5
181
  8
1
 10
1814.1624700161769
 20
2416.4409619546818
 30
0.0
 40
3.0
 50
270.0
 51
0.0
  0
ARC
  5
182
  8
1
 10
1772.1624700161781
 20
2380.7807079168379
 30
0.0
 40
28.66025403784414
 50
72.412046226011483
 51
107.5879537739885
  0
LINE
  5
183
  8
1
 10
1757.1624700161781
 20
2409.4409619546832
 30
0.0
 11
1787.1624700161781
 21
2409.4409619546832
 31
0.0
  0
LINE
  5
184
  8
1
 10
1782.1624700161781
 20
2443.4409619546832
 30
0.0
 11
1762.1624700161781
 21
2443.4409619546832
 31
0.0
  0
LINE
  5
185
  8
1
 10
1757.1624700161781
 20
2409.4409619546832
 30
0.0
 11
1754.841961940489
 21
2408.1012159925272
 31
0.0
  0
ARC
  5
186
  8
1
 10
1759.172088959411
 20
2401.7734937094142
 30
0.0
 40
7.6674682452691139
 50
55.615752531957618
 51
124.3842474680423
  0
LINE
  5
187
  8
1
 10
1762.1624700161781
 20
2443.4409619546832
 30
0.0
 11
1762.1624700161781
 21
2409.4409619546832
 31
0.0
  0
LINE
  5
188
  8
1
 10
1747.1624700161781
 20
2413.4409619546832
 30
0.0
 11
1762.1624700161769
 21
2413.4409619546832
 31
0.0
  0
ARC
  5
189
  8
1
 10
1745.1624700161781
 20
2409.4749619546819
 30
0.0
 40
2.0
 50
0.0
 51
89.013800000000003
  0
LINE
  5
18A
  8
1
 10
1787.1624700161781
 20
2409.4409619546832
 30
0.0
 11
1789.4829780918669
 21
2408.1012159925272
 31
0.0
  0
ARC
  5
18B
  8
1
 10
1785.152851072944
 20
2401.7734937094142
 30
0.0
 40
7.6674682452691139
 50
55.615752531957618
 51
124.3842474680423
  0
LINE
  5
18C
  8
1
 10
1782.1624700161781
 20
2443.4409619546832
 30
0.0
 11
1782.1624700161781
 21
2409.4409619546832
 31
0.0
  0
LINE
  5
18D
  8
1
 10
1782.1624700161781
 20
2413.4409619546832
 30
0.0
 11
1814.1624700161769
 21
2413.4409619546832
 31
0.0
  0
LINE
  5
18E
  8
1
 10
1882.1624700161781
 20
2443.4409619546818
 30
0.0
 11
1822.1624700161781
 21
2443.4409619546818
 31
0.0
  0
ARC
  5
18F
  8
1
 10
1825.1624700161781
 20
2485.4409619546832
 30
0.0
 40
2.0001000000000002
 50
270.0
 51
359.99650000000003
  0
LINE
  5
190
  8
1
 10
1817.1624700161769
 20
2483.4409619546818
 30
0.0
 11
1825.1624700161781
 21
2483.4409619546818
 31
0.0
  0
LINE
  5
191
  8
1
 10
1835.1624700161769
 20
2574.4409619546832
 30
0.0
 11
1882.1624700161781
 21
2574.4409619546832
 31
0.0
  0
LINE
  5
192
  8
1
 10
1835.1624700161769
 20
2532.4409619546818
 30
0.0
 11
1882.1624700161781
 21
2532.4409619546832
 31
0.0
  0
LINE
  5
193
  8
1
 10
1835.1624700161769
 20
2530.9409619546818
 30
0.0
 11
1835.1624700161769
 21
2575.9409619546832
 31
0.0
  0
LINE
  5
194
  8
1
 10
1835.1624700161769
 20
2575.9409619546832
 30
0.0
 11
1827.1624700161781
 21
2575.9409619546832
 31
0.0
  0
LINE
  5
195
  8
1
 10
1835.1624700161769
 20
2530.9409619546818
 30
0.0
 11
1827.1624700161781
 21
2530.9409619546818
 31
0.0
  0
ARC
  5
196
  8
1
 10
1814.1624700161769
 20
2690.4409619546832
 30
0.0
 40
3.0
 50
0.0
 51
90.0
  0
LINE
  5
197
  8
1
 10
1762.1624700161769
 20
2693.4409619546818
 30
0.0
 11
1814.1624700161769
 21
2693.4409619546818
 31
0.0
  0
LINE
  5
198
  8
1
 10
1740.7024700161769
 20
2715.4409619546832
 30
0.0
 11
1759.1624700161781
 21
2693.4409619546818
 31
0.0
  0
LINE
  5
199
  8
1
 10
1817.1624700161769
 20
2623.4409619546832
 30
0.0
 11
1825.1624700161781
 21
2623.4409619546832
 31
0.0
  0
ARC
  5
19A
  8
1
 10
1825.1624700161781
 20
2621.4409619546818
 30
0.0
 40
2.0001000000000002
 50
0.0
 51
89.996499999999997
  0
LINE
  5
19B
  8
4
 10
1338.280723900778
 20
3853.1992371058
 30
0.0
 11
1338.280723900778
 21
3553.1992371058
 31
0.0
  0
DIMENSION
  5
19C
  8
3
  2
*D7
 10
3876.1144257323072
 20
3070.6570291455819
 30
0.0
 11
3386.1144257323072
 21
3100.6570291455819
 31
0.0
 70
     0
 13
2896.1144257323072
 23
1842.4409619546821
 33
0.0
 14
3876.1144257323072
 24
1842.4409619546821
 34
0.0
1001
ACAD
1000
DSTYLE
1002
{
1070
   287
1070
     3
1070
   287
1070
     3
1070
   287
1070
     3
1070
   287
1070
     3
1070
   287
1070
     3
1070
    40
1040
15.0
1070
   289
1070
     3
1002
}
  0
DIMENSION
  5
1A9
  8
3
  2
*D6
 10
2278.2150751593058
 20
1392.4409619546821
 30
0.0
 11
2248.2150751593049
 21
1842.4409619546821
 31
0.0
 70
     0
  1
%%c<>
 13
2092.1624700161778
 23
2292.4409619546832
 33
0.0
 14
2092.1624700161792
 24
1392.4409619546821
 34
0.0
 50
90.0
1001
ACAD
1000
DSTYLE
1002
{
1070
   287
1070
     3
1070
   287
1070
     3
1070
   287
1070
     3
1070
   287
1070
     3
1070
   287
1070
     3
1070
    40
1040
15.0
1070
   289
1070
     3
1002
}
  0
LINE
  5
1B6
  8
4
 10
4113.280723900778
 20
4274.0861057085931
 30
0.0
 11
4113.280723900778
 21
-150.91389429140659
 31
0.0
  0
LINE
  5
1B7
  8
1
 10
3286.124317007434
 20
1841.0344921937819
 30
0.0
 11
3276.125306134948
 21
2551.8938452176922
 31
0.0
  0
LINE
  5
1B8
  8
1
 10
3486.1045344571789
 20
1841.0344921937819
 30
0.0
 11
3496.1035453296649
 21
2551.8938452176922
 31
0.0
  0
LINE
  5
1B9
  8
1
 10
2092.1624700161778
 20
2292.4409619546832
 30
0.0
 11
2092.1624700161792
 21
1392.4409619546821
 31
0.0
  0
LINE
  5
1BA
  8
2
 10
3386.1144257323072
 20
1155.7983228142371
 30
0.0
 11
3386.1144257323072
 21
2783.4588858816742
 31
0.0
  0
CIRCLE
  5
1BC
  8
1
 10
3386.1144257323072
 20
1842.4409619546821
 30
0.0
 40
454.49999999999989
  0
CIRCLE
  5
1BD
  8
1
 10
3386.1144257323072
 20
1842.4409619546821
 30
0.0
 40
450.0
  0
CIRCLE
  5
1BE
  8
1
 10
3386.1144257323072
 20
1842.4409619546821
 30
0.0
 40
490.0
  0
DIMENSION
  5
1BF
  8
3
  2
*D9
 10
3756.1144257323081
 20
1081.497232571053
 30
0.0
 11
3386.1144257323072
 21
1111.497232571053
 31
0.0
 70
     0
 13
3016.1144257323081
 23
1251.985727223009
 33
0.0
 14
3756.1144257323081
 24
1251.985727223009
 34
0.0
1001
ACAD
1000
DSTYLE
1002
{
1070
   287
1070
     3
1070
   287
1070
     3
1070
   287
1070
     3
1070
    40
1040
15.0
1070
   289
1070
     3
1002
}
  0
DIMENSION
  5
1CC
  8
3
  2
*D8
 10
3786.1144257323072
 20
966.93469007675958
 30
0.0
 11
3386.1144257323072
 21
996.93469007675947
 31
0.0
 70
     0
 13
2986.1144257323058
 23
1282.4409619546821
 33
0.0
 14
3786.1144257323072
 24
1282.4409619546841
 34
0.0
1001
ACAD
1000
DSTYLE
1002
{
1070
   287
1070
     3
1070
   287
1070
     3
1070
   287
1070
     3
1070
    40
1040
15.0
1070
   289
1070
     3
1002
}
  0
TEXT
  5
1DA
  8
4
 10
2729.7988421322748
 20
482.94375914494611
 30
0.0
 40
75.0
  1
ミツヤ軸流ファン
  0
CIRCLE
  5
1DB
  8
1
 10
3386.1144257323072
 20
1842.4409619546821
 30
0.0
 40
100.0
  0
LINE
  5
1DC
  8
1
 10
2986.1144257323058
 20
1282.4409619546821
 30
0.0
 11
3786.1144257323072
 21
1282.4409619546841
 31
0.0
  0
LINE
  5
1DD
  8
2
 10
2860.1144257323072
 20
1842.4409619546821
 30
0.0
 11
3912.1144257323072
 21
1842.4409619546821
 31
0.0
  0
LINE
  5
1DE
  8
4
 10
2688.280723900778
 20
599.08610570859332
 30
0.0
 11
2688.280723900778
 21
299.08610570859332
 31
0.0
  0
TEXT
  5
1DF
  8
4
 10
2743.2624672789989
 20
324.82548212850833
 30
0.0
 40
75.0
  1
AP＃900-2
  0
DIMENSION
  5
1E0
  8
3
  2
*D10
 10
2592.9265039845241
 20
1282.4409619546821
 30
0.0
 11
2562.9265039845232
 21
1562.440961954683
 31
0.0
 70
     0
 13
2860.1144257323072
 23
1842.4409619546821
 33
0.0
 14
2986.1144257323058
 24
1282.4409619546821
 34
0.0
 50
90.0
1001
ACAD
1000
DSTYLE
1002
{
1070
   287
1070
     3
1070
   287
1070
     3
1070
   287
1070
     3
1070
   287
1070
     3
1070
   287
1070
     3
1070
    40
1040
15.0
1070
   289
1070
     3
1002
}
  0
LINE
  5
1ED
  8
1
 10
2092.1624700161778
 20
1391.4409619546821
 30
0.0
 11
2092.1624700161778
 21
1392.4409619546821
 31
0.0
  0
ARC
  5
1EE
  8
1
 10
2090.1624700161778
 20
1391.4409619546821
 30
0.0
 40
2.0
 50
270.0
 51
0.0
  0
LINE
  5
1EF
  8
1
 10
2059.6624700161778
 20
1389.4409619546821
 30
0.0
 11
2090.1624700161778
 21
1389.4409619546821
 31
0.0
  0
LINE
  5
1F0
  8
1
 10
2986.1144257323058
 20
1559.421527992984
 30
0.0
 11
2986.1144257323058
 21
1282.4409619546821
 31
0.0
  0
DIMENSION
  5
1F1
  8
3
  2
*D11
 10
2986.1144257323058
 20
1081.497232571053
 30
0.0
 11
2914.5215144357062
 21
1081.497232571053
 31
0.0
 70
   128
 13
3016.1144257323081
 23
1251.985727223009
 33
0.0
 14
2986.1144257323058
 24
1282.4409619546821
 34
0.0
1001
ACAD
1000
DSTYLE
1002
{
1070
   287
1070
     4
1070
   287
1070
     4
1070
   287
1070
     4
1070
   279
1070
     1
1070
    40
1040
15.0
1070
   289
1070
     3
1002
}
  0
LINE
  5
200
  8
1
 10
3016.1144257323081
 20
1251.985727223009
 30
0.0
 11
3016.1144257323081
 21
1313.7558137091851
 31
0.0
  0
LINE
  5
201
  8
4
 10
3738.280723900778
 20
599.08610570859332
 30
0.0
 11
3738.280723900778
 21
299.08610570859332
 31
0.0
  0
LINE
  5
202
  8
1
 10
3786.1144257323072
 20
1559.421527992984
 30
0.0
 11
3786.1144257323072
 21
1282.4409619546821
 31
0.0
  0
DIMENSION
  5
203
  8
3
  2
*D12
 10
3786.1144257323072
 20
1081.497232571053
 30
0.0
 11
3864.6945181125661
 21
1078.769551994535
 31
0.0
 70
   128
 13
3756.1144257323081
 23
1251.985727223009
 33
0.0
 14
3786.1144257323072
 24
1282.4409619546841
 34
0.0
1001
ACAD
1000
DSTYLE
1002
{
1070
   287
1070
     4
1070
   287
1070
     4
1070
   287
1070
     4
1070
   279
1070
     1
1070
    40
1040
15.0
1070
   289
1070
     3
1002
}
  0
LINE
  5
212
  8
1
 10
3756.1144257323081
 20
1251.985727223009
 30
0.0
 11
3756.1144257323081
 21
1313.7558137091851
 31
0.0
  0
LINE
  5
213
  8
4
 10
3738.280723900778
 20
3870.9814803966951
 30
0.0
 11
3124.2068574405748
 21
3870.9814803966951
 31
0.0
  0
LINE
  5
214
  8
4
 10
3124.2068574405748
 20
4029.0644980332208
 30
0.0
 11
3738.280723900778
 21
4029.0644980332208
 31
0.0
  0
TEXT
  5
215
  8
4
 10
3164.3442054217662
 20
3424.2293677073671
 30
0.0
 40
80.999999999999986
  1
縮尺：1/15
  0
LINE
  5
216
  8
1
 10
3226.1144257323058
 20
2733.4409619546818
 30
0.0
 11
3546.1144257323058
 21
2733.4409619546818
 31
0.0
  0
CIRCLE
  5
217
  8
1
 10
3386.1144257323072
 20
2553.4409619546818
 30
0.0
 40
110.0
  0
LINE
  5
218
  8
2
 10
3192.1250036761171
 20
2553.4409619546818
 30
0.0
 11
3580.1038477884958
 21
2553.4409619546832
 31
0.0
  0
ARC
  5
219
  8
1
 10
3386.1144257323072
 20
2553.4409619546818
 30
0.0
 40
162.0
 50
0.0
 51
254.5427
  0
LINE
  5
21A
  8
1
 10
3196.1144257323058
 20
2343.4409619546818
 30
0.0
 11
3576.1144257323058
 21
2343.4409619546818
 31
0.0
  0
LINE
  5
21B
  8
1
 10
3196.1144257323058
 20
2393.4409619546818
 30
0.0
 11
3576.1144257323072
 21
2393.4409619546818
 31
0.0
  0
TEXT
  5
21C
  8
4
 10
2261.9295251945409
 20
3424.2293677073671
 30
0.0
 40
80.999999999999986
  1
床置ベット
  0
LINE
  5
21D
  8
1
 10
2059.6624700161778
 20
2295.4409619546818
 30
0.0
 11
2090.1624700161778
 21
2295.4409619546818
 31
0.0
  0
ARC
  5
21E
  8
1
 10
2090.1624700161778
 20
2293.4409619546818
 30
0.0
 40
2.0
 50
0.0
 51
90.0
  0
LINE
  5
21F
  8
1
 10
2092.1624700161778
 20
2293.4409619546818
 30
0.0
 11
2092.1624700161778
 21
2292.4409619546832
 31
0.0
  0
LINE
  5
220
  8
1
 10
3226.1144257323049
 20
2263.0357788509441
 30
0.0
 11
3226.1144257323058
 21
2733.4409619546818
 31
0.0
  0
ARC
  5
221
  8
1
 10
3295.1144257323058
 20
2405.1979619546819
 30
0.0
 40
3.0
 50
135.0
 51
180.0
  0
LINE
  5
222
  8
1
 10
3232.1144257323072
 20
2393.4409619546818
 30
0.0
 11
3232.1144257323072
 21
2409.4409619546818
 31
0.0
  0
LINE
  5
223
  8
1
 10
3259.1144257323058
 20
2416.169961954683
 30
0.0
 11
3259.1144257323058
 21
2385.9119619546818
 31
0.0
  0
ARC
  5
224
  8
1
 10
3166.1144257323058
 20
2403.4409619546818
 30
0.0
 40
7.5
 50
0.0
 51
180.0
  0
LINE
  5
225
  8
1
 10
3196.1144257323058
 20
2295.411891204556
 30
0.0
 11
3196.1144257323058
 21
2443.4409619546818
 31
0.0
  0
LINE
  5
226
  8
1
 10
3146.1144257323072
 20
2264.0322313021179
 30
0.0
 11
3146.1144257323072
 21
2443.4409619546818
 31
0.0
  0
LINE
  5
227
  8
1
 10
3190.1144257323072
 20
2292.0778098710339
 30
0.0
 11
3190.1144257323072
 21
2443.4409619546818
 31
0.0
  0
ARC
  5
228
  8
1
 10
3166.1144257323058
 20
2323.4409619546818
 30
0.0
 40
7.5
 50
180.0
 51
0.0
  0
LINE
  5
229
  8
1
 10
3173.6144257323058
 20
2403.4409619546818
 30
0.0
 11
3173.6144257323058
 21
2323.4409619546818
 31
0.0
  0
LINE
  5
22A
  8
1
 10
3158.6144257323058
 20
2403.4409619546818
 30
0.0
 11
3158.6144257323058
 21
2323.4409619546818
 31
0.0
  0
LINE
  5
22B
  8
1
 10
3232.1144257323072
 20
2393.4409619546818
 30
0.0
 11
3292.1144257323058
 21
2393.4409619546818
 31
0.0
  0
LINE
  5
22C
  8
1
 10
3292.1144257323058
 20
2393.4409619546818
 30
0.0
 11
3292.1144257323058
 21
2405.1979619546819
 31
0.0
  0
LINE
  5
22D
  8
1
 10
3207.0555257323058
 20
2669.155961954682
 30
0.0
 11
3144.3449257323068
 21
2666.5789619546822
 31
0.0
  0
LINE
  5
22E
  8
1
 10
3118.6130257323061
 20
2513.4409619546818
 30
0.0
 11
3198.9340257323061
 21
2513.4409619546818
 31
0.0
  0
LINE
  5
22F
  8
1
 10
3113.5341257323062
 20
2504.9759619546821
 30
0.0
 11
3214.3753257323069
 21
2673.0439619546819
 31
0.0
  0
LINE
  5
230
  8
1
 10
3209.9163257323071
 20
2673.3869619546822
 30
0.0
 11
3111.1332257323061
 21
2508.7489619546818
 31
0.0
  0
LINE
  5
231
  8
1
 10
3196.1144257323058
 20
2443.4409619546818
 30
0.0
 11
3146.1144257323072
 21
2443.4409619546818
 31
0.0
  0
LINE
  5
232
  8
1
 10
3119.4724257323069
 20
2642.3649619546818
 30
0.0
 11
3111.3474257323069
 21
2522.9289619546821
 31
0.0
  0
LINE
  5
233
  8
1
 10
3115.7636257323061
 20
2516.4659619546819
 30
0.0
 11
3114.2466257323058
 21
2517.3759619546822
 31
0.0
  0
ARC
  5
234
  8
1
 10
3117.3336257323072
 20
2522.5209619546822
 30
0.0
 40
6.0000999999999989
 50
176.10830000000001
 51
239.03649999999999
  0
ARC
  5
235
  8
1
 10
3112.848125732306
 20
2507.7199619546818
 30
0.0
 40
2.0
 50
149.03829999999999
 51
239.0359
  0
LINE
  5
236
  8
1
 10
3113.5341257323062
 20
2504.9759619546821
 30
0.0
 11
3111.8192257323062
 21
2506.0049619546821
 31
0.0
  0
LINE
  5
237
  8
1
 10
3160.1144257323058
 20
2518.0999619546819
 30
0.0
 11
3160.1144257323058
 21
2506.2059619546822
 31
0.0
  0
ARC
  5
238
  8
1
 10
3145.412425732306
 20
2640.6009619546821
 30
0.0
 40
26.0
 50
92.353199999999987
 51
176.10830000000001
  0
LINE
  5
239
  8
1
 10
3221.1144257323072
 20
2658.4409619546818
 30
0.0
 11
3221.1144257323072
 21
2548.4409619546818
 31
0.0
  0
LINE
  5
23A
  8
1
 10
3220.1144257323058
 20
2658.4409619546818
 30
0.0
 11
3220.1144257323058
 21
2548.4409619546818
 31
0.0
  0
LINE
  5
23B
  8
1
 10
3220.1144257323058
 20
2544.1489619546819
 30
0.0
 11
3220.1144257323058
 21
2659.2069619546819
 31
0.0
  0
LINE
  5
23C
  8
1
 10
3278.9012257323061
 20
2411.4409619546818
 30
0.0
 11
3234.1144257323058
 21
2411.4409619546818
 31
0.0
  0
ARC
  5
23D
  8
1
 10
3234.1144257323058
 20
2409.4409619546818
 30
0.0
 40
2.0
 50
90.0
 51
180.0
  0
LINE
  5
23E
  8
1
 10
3232.1144257323072
 20
2409.4409619546818
 30
0.0
 11
3251.5470257323059
 21
2462.8309619546822
 31
0.0
  0
LINE
  5
23F
  8
1
 10
3223.9236257323068
 20
2548.4409619546818
 30
0.0
 11
3221.1144257323072
 21
2548.4409619546818
 31
0.0
  0
LINE
  5
240
  8
1
 10
3221.1144257323072
 20
2548.4409619546818
 30
0.0
 11
3220.1144257323058
 21
2548.4409619546818
 31
0.0
  0
ARC
  5
241
  8
1
 10
3198.9340257323061
 20
2523.4409619546818
 30
0.0
 40
10.0
 50
270.0
 51
333.43479999999988
  0
LINE
  5
242
  8
1
 10
3219.7977257323059
 20
2542.8069619546818
 30
0.0
 11
3207.8783257323062
 21
2518.9679619546819
 31
0.0
  0
ARC
  5
243
  8
1
 10
3217.1144257323058
 20
2544.1489619546819
 30
0.0
 40
3.0
 50
333.43439999999998
 51
0.0
  0
ARC
  5
244
  8
1
 10
3278.9012257323061
 20
2414.4409619546818
 30
0.0
 40
3.0
 50
270.0
 51
315.0
  0
LINE
  5
245
  8
1
 10
3291.003225732306
 20
2422.2999619546822
 30
0.0
 11
3281.0226257323061
 21
2412.318961954682
 31
0.0
  0
LINE
  5
246
  8
1
 10
3301.170525732306
 20
2415.4969619546819
 30
0.0
 11
3292.9931257323069
 21
2407.318961954682
 31
0.0
  0
LINE
  5
247
  8
1
 10
3262.0771257323072
 20
2658.4409619546818
 30
0.0
 11
3221.1144257323072
 21
2658.4409619546818
 31
0.0
  0
LINE
  5
248
  8
1
 10
3236.7696257323068
 20
2658.133961954682
 30
0.0
 11
3275.5530257323062
 21
2676.2189619546821
 31
0.0
  0
LINE
  5
249
  8
1
 10
3217.2014257323071
 20
2664.3519619546819
 30
0.0
 11
3213.0033257323062
 21
2666.8699619546819
 31
0.0
  0
LINE
  5
24A
  8
1
 10
3227.1529257323068
 20
2603.4409619546818
 30
0.0
 11
3213.1876257323061
 21
2603.4409619546818
 31
0.0
  0
LINE
  5
24B
  8
1
 10
3213.5973257323062
 20
2603.4409619546818
 30
0.0
 11
3223.7073257323068
 21
2603.4409619546818
 31
0.0
  0
LINE
  5
24C
  8
1
 10
3221.1144257323072
 20
2658.4409619546818
 30
0.0
 11
3220.1144257323058
 21
2658.4409619546818
 31
0.0
  0
ARC
  5
24D
  8
1
 10
3214.1144257323072
 20
2659.2069619546819
 30
0.0
 40
5.9999000000000002
 50
0.0
 51
59.035899999999991
  0
ARC
  5
24E
  8
1
 10
3211.6314257323061
 20
2672.3589619546819
 30
0.0
 40
2.0
 50
59.035899999999991
 51
149.03829999999999
  0
LINE
  5
24F
  8
1
 10
3214.3753257323069
 20
2673.0439619546819
 30
0.0
 11
3212.6603257323059
 21
2674.0729619546819
 31
0.0
  0
ARC
  5
250
  8
1
 10
3214.0324257323059
 20
2668.5849619546821
 30
0.0
 40
2.0
 50
149.03529999999989
 51
239.03449999999989
  0
LINE
  5
251
  8
1
 10
3275.5530257323062
 20
2676.2189619546821
 30
0.0
 11
3277.7062257323059
 21
2673.6729619546818
 31
0.0
  0
TEXT
  5
252
  8
4
 10
3166.7350627747128
 20
3908.1777279515559
 30
0.0
 40
84.000000000000014
  1
No.
  0
LINE
  5
253
  8
4
 10
3124.2068574405748
 20
3870.9814803966951
 30
0.0
 11
3124.2068574405748
 21
4029.0644980332208
 31
0.0
  0
LINE
  5
254
  8
1
 10
3382.1144257323072
 20
2719.8209619546819
 30
0.0
 11
3382.1144257323072
 21
2757.4409619546818
 31
0.0
  0
LINE
  5
255
  8
1
 10
3390.1144257323058
 20
2719.8209619546819
 30
0.0
 11
3390.1144257323058
 21
2757.4409619546818
 31
0.0
  0
LINE
  5
256
  8
1
 10
3546.1144257323072
 20
2263.0357788509441
 30
0.0
 11
3546.1144257323058
 21
2733.4409619546818
 31
0.0
  0
LINE
  5
257
  8
1
 10
3540.1144257323072
 20
2393.4409619546818
 30
0.0
 11
3540.1144257323072
 21
2409.4409619546818
 31
0.0
  0
LINE
  5
258
  8
2
 10
3513.1144257323058
 20
2416.169961954683
 30
0.0
 11
3513.1144257323058
 21
2385.9119619546818
 31
0.0
  0
ARC
  5
259
  8
1
 10
3477.1144257323058
 20
2405.1979619546819
 30
0.0
 40
3.0
 50
0.0
 51
45.0
  0
ARC
  5
25A
  8
1
 10
3386.1144257323072
 20
2553.4409619546818
 30
0.0
 40
162.0
 50
285.6481
 51
0.0
  0
ARC
  5
25B
  8
1
 10
3606.1144257323058
 20
2403.4409619546818
 30
0.0
 40
7.5
 50
0.0
 51
180.0
  0
LINE
  5
25C
  8
1
 10
3582.1144257323072
 20
2292.0778098710339
 30
0.0
 11
3582.1144257323072
 21
2443.4409619546818
 31
0.0
  0
LINE
  5
25D
  8
1
 10
3576.1144257323072
 20
2295.411891204556
 30
0.0
 11
3576.1144257323072
 21
2443.4409619546818
 31
0.0
  0
LINE
  5
25E
  8
1
 10
3626.1144257323072
 20
2264.0322313021179
 30
0.0
 11
3626.1144257323072
 21
2443.4409619546818
 31
0.0
  0
LINE
  5
25F
  8
1
 10
3540.1144257323072
 20
2393.4409619546818
 30
0.0
 11
3480.1144257323058
 21
2393.4409619546818
 31
0.0
  0
LINE
  5
260
  8
1
 10
3342.4338257323061
 20
2397.4409619546818
 30
0.0
 11
3429.7951257323061
 21
2397.4409619546818
 31
0.0
  0
LINE
  5
261
  8
1
 10
3480.1144257323058
 20
2393.4409619546818
 30
0.0
 11
3480.1144257323058
 21
2405.1979619546819
 31
0.0
  0
LINE
  5
262
  8
1
 10
3582.1144257323058
 20
2403.4409619546818
 30
0.0
 11
3626.1144257323072
 21
2403.4409619546818
 31
0.0
  0
ARC
  5
263
  8
1
 10
3606.1144257323058
 20
2323.4409619546818
 30
0.0
 40
7.5
 50
180.0
 51
0.0
  0
LINE
  5
264
  8
1
 10
3613.6144257323058
 20
2403.4409619546818
 30
0.0
 11
3613.6144257323058
 21
2323.4409619546818
 31
0.0
  0
LINE
  5
265
  8
1
 10
3598.6144257323072
 20
2403.4409619546818
 30
0.0
 11
3598.6144257323072
 21
2323.4409619546818
 31
0.0
  0
LINE
  5
266
  8
1
 10
3493.3276257323068
 20
2411.4409619546818
 30
0.0
 11
3538.1144257323058
 21
2411.4409619546818
 31
0.0
  0
ARC
  5
267
  8
1
 10
3493.3276257323068
 20
2414.4409619546818
 30
0.0
 40
3.0
 50
225.0
 51
270.0
  0
LINE
  5
268
  8
1
 10
3491.1529257323059
 20
2412.3729619546821
 30
0.0
 11
3481.2256257323061
 21
2422.2999619546822
 31
0.0
  0
LINE
  5
269
  8
1
 10
3471.0583257323069
 20
2415.4969619546819
 30
0.0
 11
3479.2358257323058
 21
2407.318961954682
 31
0.0
  0
LINE
  5
26A
  8
1
 10
3380.6694257323061
 20
2715.4409619546818
 30
0.0
 11
3391.559425732306
 21
2715.4409619546818
 31
0.0
  0
LINE
  5
26B
  8
1
 10
3381.169425732307
 20
2719.8209619546819
 30
0.0
 11
3391.059425732306
 21
2719.8209619546819
 31
0.0
  0
LINE
  5
26C
  8
1
 10
3380.6694257323061
 20
2719.3209619546819
 30
0.0
 11
3380.6694257323061
 21
2715.4409619546818
 31
0.0
  0
LINE
  5
26D
  8
1
 10
3381.169425732307
 20
2719.8209619546819
 30
0.0
 11
3380.6694257323061
 21
2719.3209619546819
 31
0.0
  0
LINE
  5
26E
  8
1
 10
3389.2862257323059
 20
2719.3209619546819
 30
0.0
 11
3389.7862257323068
 21
2719.8209619546819
 31
0.0
  0
LINE
  5
26F
  8
1
 10
3391.559425732306
 20
2719.3209619546819
 30
0.0
 11
3391.559425732306
 21
2715.4409619546818
 31
0.0
  0
LINE
  5
270
  8
1
 10
3389.2862257323059
 20
2719.3209619546819
 30
0.0
 11
3388.7862257323068
 21
2719.8209619546819
 31
0.0
  0
LINE
  5
271
  8
1
 10
3391.559425732306
 20
2719.3209619546819
 30
0.0
 11
3391.059425732306
 21
2719.8209619546819
 31
0.0
  0
LINE
  5
272
  8
1
 10
3386.1144257323072
 20
2714.4969619546819
 30
0.0
 11
3386.1144257323072
 21
2720.3539619546818
 31
0.0
  0
LINE
  5
273
  8
1
 10
3389.2862257323059
 20
2715.4409619546818
 30
0.0
 11
3389.2862257323059
 21
2719.3209619546819
 31
0.0
  0
LINE
  5
274
  8
1
 10
3382.9426257323062
 20
2719.3209619546819
 30
0.0
 11
3382.4426257323071
 21
2719.8209619546819
 31
0.0
  0
LINE
  5
275
  8
1
 10
3382.9426257323062
 20
2719.3209619546819
 30
0.0
 11
3383.4426257323062
 21
2719.8209619546819
 31
0.0
  0
LINE
  5
276
  8
1
 10
3382.9426257323062
 20
2715.4409619546818
 30
0.0
 11
3382.9426257323062
 21
2719.3209619546819
 31
0.0
  0
LINE
  5
277
  8
1
 10
3576.1144257323072
 20
2443.4409619546818
 30
0.0
 11
3626.1144257323072
 21
2443.4409619546818
 31
0.0
  0
ARC
  5
278
  8
1
 10
3538.1144257323058
 20
2409.4409619546818
 30
0.0
 40
2.0
 50
0.0
 51
90.0
  0
LINE
  5
279
  8
1
 10
3540.1144257323072
 20
2409.4409619546818
 30
0.0
 11
3520.6819257323059
 21
2462.8309619546822
 31
0.0
  0
ARC
  5
27A
  8
1
 10
3386.114525732306
 20
2757.4399619546821
 30
0.0
 40
4.0000999999999989
 50
90.000900000000016
 51
179.99819999999991
  0
ARC
  5
27B
  8
1
 10
3386.114325732306
 20
2757.4399619546821
 30
0.0
 40
4.0000999999999989
 50
0.0017
 51
89.998300000000015
  0
LINE
  5
27C
  8
4
 10
3738.280723900778
 20
3853.1992371058
 30
0.0
 11
3738.280723900778
 21
3553.1992371058
 31
0.0
  0
LINE
  5
27D
  8
4
 10
3738.280723900778
 20
4029.0644980332208
 30
0.0
 11
3738.280723900778
 21
3870.9814803966951
 31
0.0
  0
LINE
  5
27E
  8
4
 10
4113.280723900778
 20
4274.0861057085931
 30
0.0
 11
4113.280723900778
 21
4274.0861057085931
 31
0.0
  0
ENDSEC
  0
EOF
