  0
SECTION
  2
HEADER
  9
$ACADVER
  1
AC1009
  9
$INSBASE
 10
0.0
 20
0.0
 30
0.0
  9
$EXTMIN
 10
963.28072390077796
 20
-150.91389429140659
 30
0.0
  9
$EXTMAX
 10
4113.280723900778
 20
4274.0861057085931
 30
0.0
  9
$LIMMIN
 10
0.0
 20
0.0
  9
$LIMMAX
 10
297.0
 20
210.0
  9
$ORTHOMODE
 70
     0
  9
$REGENMODE
 70
     1
  9
$FILLMODE
 70
     1
  9
$QTEXTMODE
 70
     0
  9
$MIRRTEXT
 70
     0
  9
$DRAGMODE
 70
     2
  9
$LTSCALE
 40
90.0
  9
$OSMODE
 70
    37
  9
$ATTMODE
 70
     1
  9
$TEXTSIZE
 40
75.0
  9
$TRACEWID
 40
0.05
  9
$TEXTSTYLE
  7
STANDARD
  9
$CLAYER
  8
3
  9
$CELTYPE
  6
BYLAYER
  9
$CECOLOR
 62
   256
  9
$DIMSCALE
 40
15.0
  9
$DIMASZ
 40
2.0
  9
$DIMEXO
 40
1.0
  9
$DIMDLI
 40
10.0
  9
$DIMRND
 40
0.0
  9
$DIMDLE
 40
0.0
  9
$DIMEXE
 40
1.0
  9
$DIMTP
 40
0.0
  9
$DIMTM
 40
0.0
  9
$DIMTXT
 40
3.0
  9
$DIMCEN
 40
0.0
  9
$DIMTSZ
 40
0.0
  9
$DIMTOL
 70
     0
  9
$DIMLIM
 70
     0
  9
$DIMTIH
 70
     0
  9
$DIMTOH
 70
     0
  9
$DIMSE1
 70
     0
  9
$DIMSE2
 70
     0
  9
$DIMTAD
 70
     1
  9
$DIMZIN
 70
     8
  9
$DIMBLK
  1

  9
$DIMASO
 70
     1
  9
$DIMSHO
 70
     1
  9
$DIMPOST
  1

  9
$DIMAPOST
  1

  9
$DIMALT
 70
     0
  9
$DIMALTD
 70
     2
  9
$DIMALTF
 40
0.03937
  9
$DIMLFAC
 40
1.0
  9
$DIMTOFL
 70
     1
  9
$DIMTVP
 40
0.0
  9
$DIMTIX
 70
     0
  9
$DIMSOXD
 70
     0
  9
$DIMSAH
 70
     1
  9
$DIMBLK1
  1
OPEN
  9
$DIMBLK2
  1
OPEN
  9
$DIMSTYLE
  2
MATSU
  9
$DIMCLRD
 70
   256
  9
$DIMCLRE
 70
   256
  9
$DIMCLRT
 70
   256
  9
$DIMTFAC
 40
1.0
  9
$DIMGAP
 40
0.5
  9
$LUNITS
 70
     2
  9
$LUPREC
 70
     3
  9
$SKETCHINC
 40
0.1
  9
$FILLETRAD
 40
10.0
  9
$AUNITS
 70
     0
  9
$AUPREC
 70
     2
  9
$MENU
  1
acad
  9
$ELEVATION
 40
0.0
  9
$PELEVATION
 40
0.0
  9
$THICKNESS
 40
0.0
  9
$LIMCHECK
 70
     0
  9
$BLIPMODE
 70
     0
  9
$CHAMFERA
 40
10.0
  9
$CHAMFERB
 40
10.0
  9
$SKPOLY
 70
     0
  9
$TDCREATE
 40
2451939.611564815
  9
$TDUPDATE
 40
2454953.6238055089
  9
$TDINDWG
 40
0.1736782986
  9
$TDUSRTIMER
 40
0.1736782986
  9
$USRTIMER
 70
     1
  9
$ANGBASE
 50
0.0
  9
$ANGDIR
 70
     0
  9
$PDMODE
 70
     0
  9
$PDSIZE
 40
1.0
  9
$PLINEWID
 40
0.0
  9
$COORDS
 70
     1
  9
$SPLFRAME
 70
     0
  9
$SPLINETYPE
 70
     6
  9
$SPLINESEGS
 70
     8
  9
$ATTDIA
 70
     0
  9
$ATTREQ
 70
     1
  9
$HANDLING
 70
 10241
  9
$HANDSEED
  5
42B
  9
$SURFTAB1
 70
     6
  9
$SURFTAB2
 70
     6
  9
$SURFTYPE
 70
     6
  9
$SURFU
 70
     6
  9
$SURFV
 70
     6
  9
$UCSNAME
  2

  9
$UCSORG
 10
0.0
 20
0.0
 30
0.0
  9
$UCSXDIR
 10
1.0
 20
0.0
 30
0.0
  9
$UCSYDIR
 10
0.0
 20
1.0
 30
0.0
  9
$PUCSNAME
  2

  9
$PUCSORG
 10
0.0
 20
0.0
 30
0.0
  9
$PUCSXDIR
 10
1.0
 20
0.0
 30
0.0
  9
$PUCSYDIR
 10
0.0
 20
1.0
 30
0.0
  9
$USERI1
 70
     0
  9
$USERI2
 70
     0
  9
$USERI3
 70
     0
  9
$USERI4
 70
     0
  9
$USERI5
 70
     0
  9
$USERR1
 40
0.0
  9
$USERR2
 40
0.0
  9
$USERR3
 40
0.0
  9
$USERR4
 40
0.0
  9
$USERR5
 40
0.0
  9
$WORLDVIEW
 70
     1
  9
$SHADEDGE
 70
     3
  9
$SHADEDIF
 70
    70
  9
$TILEMODE
 70
     1
  9
$MAXACTVP
 70
    16
  9
$PLIMCHECK
 70
     0
  9
$PEXTMIN
 10
1.0000000000000000E+020
 20
1.0000000000000000E+020
 30
1.0000000000000000E+020
  9
$PEXTMAX
 10
-1.0000000000000000E+020
 20
-1.0000000000000000E+020
 30
-1.0000000000000000E+020
  9
$PLIMMIN
 10
0.0
 20
0.0
  9
$PLIMMAX
 10
12.0
 20
9.0
  9
$UNITMODE
 70
     0
  9
$VISRETAIN
 70
     0
  9
$PLINEGEN
 70
     0
  9
$PSLTSCALE
 70
     0
  0
ENDSEC
  0
SECTION
  2
TABLES
  0
TABLE
  2
VPORT
 70
     2
  0
VPORT
  2
*ACTIVE
 70
     0
 10
0.0
 20
0.0
 11
1.0
 21
1.0
 12
3976.6710870261231
 22
389.9043614045367
 13
0.0
 23
0.0
 14
5.0
 24
5.0
 15
0.0
 25
0.0
 16
0.0
 26
0.0
 36
1.0
 17
0.0
 27
0.0
 37
0.0
 40
1366.9384600336059
 41
3.1666666666666661
 42
50.0
 43
0.0
 44
0.0
 50
0.0
 51
0.0
 71
     0
 72
   100
 73
     1
 74
     0
 75
     0
 76
     0
 77
     0
 78
     0
  0
ENDTAB
  0
TABLE
  2
LTYPE
 70
     2
  0
LTYPE
  2
CONTINUOUS
 70
     0
  3
Solid line
 72
    65
 73
     0
 40
0.0
  0
LTYPE
  2
CENTER
 70
     0
  3
____ _ ____ _ ____ _ ____ _ ____ _ ____ _ ____ 
 72
    65
 73
     4
 40
2.0
 49
1.25
 49
-0.25
 49
0.25
 49
-0.25
  0
ENDTAB
  0
TABLE
  2
LAYER
 70
     6
  0
LAYER
  2
0
 70
     0
 62
     7
  6
CONTINUOUS
  0
LAYER
  2
DEFPOINTS
 70
     0
 62
     7
  6
CONTINUOUS
  0
LAYER
  2
3
 70
     0
 62
     2
  6
CONTINUOUS
  0
LAYER
  2
2
 70
     0
 62
     3
  6
CENTER
  0
LAYER
  2
1
 70
     0
 62
     4
  6
CONTINUOUS
  0
LAYER
  2
4
 70
     0
 62
     7
  6
CONTINUOUS
  0
ENDTAB
  0
TABLE
  2
STYLE
 70
     1
  0
STYLE
  2
STANDARD
 70
     0
 40
0.0
 41
1.0
 50
15.0
 71
     0
 42
75.0
  3
TXT
  4
extfont.shx
  0
ENDTAB
  0
TABLE
  2
VIEW
 70
     0
  0
ENDTAB
  0
TABLE
  2
UCS
 70
     0
  0
ENDTAB
  0
TABLE
  2
APPID
 70
     1
  0
APPID
  2
ACAD
 70
     0
  0
ENDTAB
  0
TABLE
  2
DIMSTYLE
 70
     1
  0
DIMSTYLE
  2
MATSU
 70
     0
  3

  4

  5

  6
OPEN
  7
OPEN
 40
1.0
 41
2.0
 42
1.0
 43
10.0
 44
1.0
 45
0.0
 46
0.0
 47
0.0
 48
0.0
140
3.0
141
0.0
142
0.0
143
0.03937
144
1.0
145
0.0
146
1.0
147
0.5
 71
     0
 72
     0
 73
     0
 74
     0
 75
     0
 76
     0
 77
     1
 78
     8
170
     0
171
     2
172
     1
173
     1
174
     0
175
     0
176
   256
177
   256
178
   256
  0
ENDTAB
  0
ENDSEC
  0
SECTION
  2
BLOCKS
  0
BLOCK
  8
0
  2
$MODEL_SPACE
 70
     0
 10
0.0
 20
0.0
 30
0.0
  3
$MODEL_SPACE
  1

  0
ENDBLK
  5
A
  8
0
  0
BLOCK
 67
     1
  8
0
  2
$PAPER_SPACE
 70
     0
 10
0.0
 20
0.0
 30
0.0
  3
$PAPER_SPACE
  1

  0
ENDBLK
  5
F
 67
     1
  8
0
  0
BLOCK
  8
0
  2
_OPEN
 70
     0
 10
0.0
 20
0.0
 30
0.0
  3
_OPEN
  1

  0
LINE
  5
44
  8
0
  6
BYBLOCK
 62
     0
 10
-1.0
 20
0.1666666666666666
 30
0.0
 11
0.0
 21
0.0
 31
0.0
  0
LINE
  5
45
  8
0
  6
BYBLOCK
 62
     0
 10
0.0
 20
0.0
 30
0.0
 11
-1.0
 21
-0.1666666666666666
 31
0.0
  0
LINE
  5
46
  8
0
  6
BYBLOCK
 62
     0
 10
0.0
 20
0.0
 30
0.0
 11
-1.0
 21
0.0
 31
0.0
  0
ENDBLK
  5
48
  8
0
  0
BLOCK
  8
0
  2
*D1
 70
     1
 10
0.0
 20
0.0
 30
0.0
  3
*D1
  1

  0
LINE
  5
3BD
  8
3
 10
2896.1144257323072
 20
1857.4409619546821
 30
0.0
 11
2896.1144257323072
 21
2700.1183360116988
 31
0.0
  0
LINE
  5
3BE
  8
3
 10
3876.1144257323072
 20
1857.4409619546821
 30
0.0
 11
3876.1144257323072
 21
2700.1183360116988
 31
0.0
  0
LINE
  5
3BF
  8
3
 10
2926.1144257323058
 20
2685.1183360116988
 30
0.0
 11
3846.1144257323072
 21
2685.1183360116988
 31
0.0
  0
INSERT
  5
3C0
  8
3
  2
_OPEN
 10
2896.1144257323072
 20
2685.1183360116988
 30
0.0
 41
30.0
 42
30.0
 43
30.0
 50
180.0
  0
INSERT
  5
3C1
  8
3
  2
_OPEN
 10
3876.1144257323072
 20
2685.1183360116988
 30
0.0
 41
30.0
 42
30.0
 43
30.0
  0
TEXT
  8
3
  40
45
  5
41F
  72
0
  71
0
 10
3296.11
 20
2635.47
 30
0.000000
  1
980
  0
POINT
  5
3C3
  8
DEFPOINTS
 62
     0
 10
2896.1144257323072
 20
1842.4409619546821
 30
0.0
  0
POINT
  5
3C4
  8
DEFPOINTS
 62
     0
 10
3876.1144257323072
 20
1842.4409619546821
 30
0.0
  0
POINT
  5
3C5
  8
DEFPOINTS
 62
     0
 10
3876.1144257323072
 20
2685.1183360116988
 30
0.0
  0
ENDBLK
  5
15A
  8
0
  0
BLOCK
  8
0
  2
*D2
 70
     1
 10
0.0
 20
0.0
 30
0.0
  3
*D2
  1

  0
LINE
  5
3C6
  8
3
 10
2971.1144257323081
 20
1282.440961954683
 30
0.0
 11
2610.3383327086772
 21
1282.440961954683
 31
0.0
  0
LINE
  5
3C7
  8
3
 10
2845.1144257323058
 20
1842.4409619546821
 30
0.0
 11
2610.3383327086772
 21
1842.4409619546821
 31
0.0
  0
LINE
  5
3C8
  8
3
 10
2625.3383327086772
 20
1312.440961954683
 30
0.0
 11
2625.3383327086772
 21
1812.4409619546821
 31
0.0
  0
INSERT
  5
3C9
  8
3
  2
_OPEN
 10
2625.3383327086772
 20
1282.440961954683
 30
0.0
 41
30.0
 42
30.0
 43
30.0
 50
270.0
  0
INSERT
  5
3CA
  8
3
  2
_OPEN
 10
2625.3383327086772
 20
1842.4409619546821
 30
0.0
 41
30.0
 42
30.0
 43
30.0
 50
90.0
  0
TEXT
  8
3
  40
45
  5
420
  72
0
  71
0
 10
2505.34
 20
1482.79
 30
0.000000
  1
560
  0
POINT
  5
3CC
  8
DEFPOINTS
 62
     0
 10
2986.1144257323072
 20
1282.440961954683
 30
0.0
  0
POINT
  5
3CD
  8
DEFPOINTS
 62
     0
 10
2860.1144257323072
 20
1842.4409619546821
 30
0.0
  0
POINT
  5
3CE
  8
DEFPOINTS
 62
     0
 10
2625.3383327086772
 20
1842.4409619546821
 30
0.0
  0
ENDBLK
  5
166
  8
0
  0
BLOCK
  8
0
  2
*D3
 70
     1
 10
0.0
 20
0.0
 30
0.0
  3
*D3
  1

  0
LINE
  5
3B4
  8
3
 10
1242.162470016179
 20
2347.4409619546832
 30
0.0
 11
1242.162470016179
 21
2684.6964148995521
 31
0.0
  0
LINE
  5
3B5
  8
3
 10
2052.1624700161778
 20
2347.4409619546832
 30
0.0
 11
2052.1624700161778
 21
2684.6964148995521
 31
0.0
  0
LINE
  5
3B6
  8
3
 10
1272.162470016179
 20
2669.696414899553
 30
0.0
 11
2022.1624700161781
 21
2669.696414899553
 31
0.0
  0
INSERT
  5
3B7
  8
3
  2
_OPEN
 10
1242.162470016179
 20
2669.696414899553
 30
0.0
 41
30.0
 42
30.0
 43
30.0
 50
180.0
  0
INSERT
  5
3B8
  8
3
  2
_OPEN
 10
2052.1624700161778
 20
2669.696414899553
 30
0.0
 41
30.0
 42
30.0
 43
30.0
  0
TEXT
  8
3
  40
45
  5
421
  72
0
  71
0
 10
1557.16
 20
2620.05
 30
0.000000
  1
810
  0
POINT
  5
3BA
  8
DEFPOINTS
 62
     0
 10
1242.162470016179
 20
2332.4409619546818
 30
0.0
  0
POINT
  5
3BB
  8
DEFPOINTS
 62
     0
 10
2052.1624700161778
 20
2332.4409619546818
 30
0.0
  0
POINT
  5
3BC
  8
DEFPOINTS
 62
     0
 10
2052.1624700161778
 20
2669.696414899553
 30
0.0
  0
ENDBLK
  5
172
  8
0
  0
BLOCK
  8
0
  2
*D4
 70
     1
 10
0.0
 20
0.0
 30
0.0
  3
*D4
  1

  0
LINE
  5
3AB
  8
3
 10
1187.162470016179
 20
2292.4409619546832
 30
0.0
 11
1060.490548396351
 21
2292.4409619546832
 31
0.0
  0
LINE
  5
3AC
  8
3
 10
1187.1624700161781
 20
1392.4409619546821
 30
0.0
 11
1060.4905483963501
 21
1392.4409619546821
 31
0.0
  0
LINE
  5
3AD
  8
3
 10
1075.490548396351
 20
2262.4409619546818
 30
0.0
 11
1075.490548396351
 21
1422.4409619546821
 31
0.0
  0
INSERT
  5
3AE
  8
3
  2
_OPEN
 10
1075.490548396351
 20
2292.4409619546832
 30
0.0
 41
30.0
 42
30.0
 43
30.0
 50
90.0
  0
INSERT
  5
3AF
  8
3
  2
_OPEN
 10
1075.490548396351
 20
1392.4409619546821
 30
0.0
 41
30.0
 42
30.0
 43
30.0
 50
270.0
  0
TEXT
  8
3
  40
45
  5
422
  72
0
  71
0
 10
955.491
 20
1762.79
 30
0.000000
  1
%%c900
  0
POINT
  5
3B1
  8
DEFPOINTS
 62
     0
 10
1202.162470016179
 20
2292.4409619546832
 30
0.0
  0
POINT
  5
3B2
  8
DEFPOINTS
 62
     0
 10
1202.1624700161781
 20
1392.4409619546821
 30
0.0
  0
POINT
  5
3B3
  8
DEFPOINTS
 62
     0
 10
1075.490548396351
 20
1392.4409619546821
 30
0.0
  0
ENDBLK
  5
17E
  8
0
  0
BLOCK
  8
0
  2
*D5
 70
     1
 10
0.0
 20
0.0
 30
0.0
  3
*D5
  1

  0
LINE
  5
3CF
  8
3
 10
3016.1144257323058
 20
1229.5759844298821
 30
0.0
 11
3016.1144257323058
 21
1024.021022196657
 31
0.0
  0
LINE
  5
3D0
  8
3
 10
3756.1144257323072
 20
1229.575984429883
 30
0.0
 11
3756.1144257323072
 21
1024.021022196657
 31
0.0
  0
LINE
  5
3D1
  8
3
 10
3046.1144257323058
 20
1039.021022196657
 30
0.0
 11
3726.1144257323072
 21
1039.021022196657
 31
0.0
  0
INSERT
  5
3D2
  8
3
  2
_OPEN
 10
3016.1144257323058
 20
1039.021022196657
 30
0.0
 41
30.0
 42
30.0
 43
30.0
 50
180.0
  0
INSERT
  5
3D3
  8
3
  2
_OPEN
 10
3756.1144257323072
 20
1039.021022196657
 30
0.0
 41
30.0
 42
30.0
 43
30.0
  0
TEXT
  8
3
  40
45
  5
423
  72
0
  71
0
 10
3296.11
 20
989.371
 30
0.000000
  1
740
  0
POINT
  5
3D5
  8
DEFPOINTS
 62
     0
 10
3016.1144257323058
 20
1244.5759844298821
 30
0.0
  0
POINT
  5
3D6
  8
DEFPOINTS
 62
     0
 10
3756.1144257323072
 20
1244.5759844298821
 30
0.0
  0
POINT
  5
3D7
  8
DEFPOINTS
 62
     0
 10
3756.1144257323072
 20
1039.021022196657
 30
0.0
  0
ENDBLK
  5
1A8
  8
0
  0
BLOCK
  8
0
  2
*D6
 70
     1
 10
0.0
 20
0.0
 30
0.0
  3
*D6
  1

  0
LINE
  5
3D8
  8
3
 10
2986.1144257323072
 20
1267.440961954683
 30
0.0
 11
2986.1144257323072
 21
899.43395630754105
 31
0.0
  0
LINE
  5
3D9
  8
3
 10
3786.1144257323072
 20
1267.440961954683
 30
0.0
 11
3786.1144257323072
 21
899.43395630754105
 31
0.0
  0
LINE
  5
3DA
  8
3
 10
3016.1144257323081
 20
914.43395630754083
 30
0.0
 11
3756.1144257323081
 21
914.43395630754083
 31
0.0
  0
INSERT
  5
3DB
  8
3
  2
_OPEN
 10
2986.1144257323072
 20
914.43395630754083
 30
0.0
 41
30.0
 42
30.0
 43
30.0
 50
180.0
  0
INSERT
  5
3DC
  8
3
  2
_OPEN
 10
3786.1144257323072
 20
914.43395630754083
 30
0.0
 41
30.0
 42
30.0
 43
30.0
  0
TEXT
  8
3
  40
45
  5
424
  72
0
  71
0
 10
3296.11
 20
864.784
 30
0.000000
  1
800
  0
POINT
  5
3DE
  8
DEFPOINTS
 62
     0
 10
2986.1144257323072
 20
1282.440961954683
 30
0.0
  0
POINT
  5
3DF
  8
DEFPOINTS
 62
     0
 10
3786.1144257323072
 20
1282.440961954683
 30
0.0
  0
POINT
  5
3E0
  8
DEFPOINTS
 62
     0
 10
3786.1144257323072
 20
914.43395630754083
 30
0.0
  0
ENDBLK
  5
1B5
  8
0
  0
BLOCK
  8
0
  2
*D7
 70
     1
 10
0.0
 20
0.0
 30
0.0
  3
*D7
  1

  0
LINE
  5
3E1
  8
3
 10
3756.1144257323072
 20
1229.575984429883
 30
0.0
 11
3756.1144257323072
 21
1024.021022196657
 31
0.0
  0
LINE
  5
3E2
  8
3
 10
3786.1144257323072
 20
1267.440961954683
 30
0.0
 11
3786.1144257323072
 21
1024.021022196657
 31
0.0
  0
LINE
  5
3E3
  8
3
 10
3726.1144257323072
 20
1039.021022196657
 30
0.0
 11
3696.1144257323072
 21
1039.021022196657
 31
0.0
  0
LINE
  5
3E4
  8
3
 10
3816.1144257323081
 20
1039.021022196657
 30
0.0
 11
3846.1144257323081
 21
1039.021022196657
 31
0.0
  0
TEXT
  8
3
  40
45
  5
425
  72
0
  71
0
 10
3767.57
 20
990.574
 30
0.000000
  1
30
  0
LINE
  5
3E6
  8
3
 10
3756.1144257323072
 20
1039.021022196657
 30
0.0
 11
3786.1144257323072
 21
1039.021022196657
 31
0.0
  0
INSERT
  5
3E7
  8
3
  2
_OPEN
 10
3756.1144257323072
 20
1039.021022196657
 30
0.0
 41
30.0
 42
30.0
 43
30.0
  0
INSERT
  5
3E8
  8
3
  2
_OPEN
 10
3786.1144257323072
 20
1039.021022196657
 30
0.0
 41
30.0
 42
30.0
 43
30.0
 50
180.0
  0
POINT
  5
3E9
  8
DEFPOINTS
 62
     0
 10
3756.1144257323072
 20
1244.5759844298821
 30
0.0
  0
POINT
  5
3EA
  8
DEFPOINTS
 62
     0
 10
3786.1144257323072
 20
1282.440961954683
 30
0.0
  0
POINT
  5
3EB
  8
DEFPOINTS
 62
     0
 10
3786.1144257323072
 20
1039.021022196657
 30
0.0
  0
ENDBLK
  5
1D9
  8
0
  0
BLOCK
  8
0
  2
*D8
 70
     1
 10
0.0
 20
0.0
 30
0.0
  3
*D8
  1

  0
LINE
  5
3EC
  8
3
 10
3016.1144257323058
 20
1229.5759844298821
 30
0.0
 11
3016.1144257323058
 21
1024.021022196657
 31
0.0
  0
LINE
  5
3ED
  8
3
 10
2986.1144257323072
 20
1267.440961954683
 30
0.0
 11
2986.1144257323072
 21
1024.021022196657
 31
0.0
  0
LINE
  5
3EE
  8
3
 10
3046.1144257323058
 20
1039.021022196657
 30
0.0
 11
3076.1144257323058
 21
1039.021022196657
 31
0.0
  0
LINE
  5
3EF
  8
3
 10
2956.1144257323072
 20
1039.021022196657
 30
0.0
 11
2926.1144257323081
 21
1039.021022196657
 31
0.0
  0
TEXT
  8
3
  40
45
  5
426
  72
0
  71
0
 10
2836.51
 20
992.345
 30
0.000000
  1
30
  0
LINE
  5
3F1
  8
3
 10
3016.1144257323058
 20
1039.021022196657
 30
0.0
 11
2986.1144257323072
 21
1039.021022196657
 31
0.0
  0
INSERT
  5
3F2
  8
3
  2
_OPEN
 10
3016.1144257323058
 20
1039.021022196657
 30
0.0
 41
30.0
 42
30.0
 43
30.0
 50
180.0
  0
INSERT
  5
3F3
  8
3
  2
_OPEN
 10
2986.1144257323072
 20
1039.021022196657
 30
0.0
 41
30.0
 42
30.0
 43
30.0
  0
POINT
  5
3F4
  8
DEFPOINTS
 62
     0
 10
3016.1144257323058
 20
1244.5759844298821
 30
0.0
  0
POINT
  5
3F5
  8
DEFPOINTS
 62
     0
 10
2986.1144257323072
 20
1282.440961954683
 30
0.0
  0
POINT
  5
3F6
  8
DEFPOINTS
 62
     0
 10
2986.1144257323072
 20
1039.021022196657
 30
0.0
  0
ENDBLK
  5
1EB
  8
0
  0
BLOCK
  8
0
  2
*D9
 70
     1
 10
0.0
 20
0.0
 30
0.0
  3
*D9
  1

  0
LINE
  5
3F7
  8
3
 10
1282.162470016179
 20
1229.5759844298821
 30
0.0
 11
1282.162470016179
 21
1052.003400193774
 31
0.0
  0
LINE
  5
3F8
  8
3
 10
2012.162470016179
 20
1229.575984429883
 30
0.0
 11
2012.162470016179
 21
1052.003400193774
 31
0.0
  0
LINE
  5
3F9
  8
3
 10
1312.162470016179
 20
1067.003400193774
 30
0.0
 11
1982.162470016179
 21
1067.003400193774
 31
0.0
  0
INSERT
  5
3FA
  8
3
  2
_OPEN
 10
1282.162470016179
 20
1067.003400193774
 30
0.0
 41
30.0
 42
30.0
 43
30.0
 50
180.0
  0
INSERT
  5
3FB
  8
3
  2
_OPEN
 10
2012.162470016179
 20
1067.003400193774
 30
0.0
 41
30.0
 42
30.0
 43
30.0
  0
TEXT
  8
3
  40
45
  5
427
  72
0
  71
0
 10
1557.16
 20
1017.35
 30
0.000000
  1
730
  0
POINT
  5
3FD
  8
DEFPOINTS
 62
     0
 10
1282.162470016179
 20
1244.5759844298821
 30
0.0
  0
POINT
  5
3FE
  8
DEFPOINTS
 62
     0
 10
2012.162470016179
 20
1244.5759844298821
 30
0.0
  0
POINT
  5
3FF
  8
DEFPOINTS
 62
     0
 10
2012.162470016179
 20
1067.003400193774
 30
0.0
  0
ENDBLK
  5
20E
  8
0
  0
BLOCK
  8
0
  2
*D10
 70
     1
 10
0.0
 20
0.0
 30
0.0
  3
*D10
  1

  0
LINE
  5
400
  8
3
 10
1242.162470016179
 20
1337.4409619546821
 30
0.0
 11
1242.162470016179
 21
909.85965508606387
 31
0.0
  0
LINE
  5
401
  8
3
 10
2052.1624700161778
 20
1337.4409619546821
 30
0.0
 11
2052.1624700161778
 21
909.85965508606387
 31
0.0
  0
LINE
  5
402
  8
3
 10
1272.162470016179
 20
924.85965508606375
 30
0.0
 11
2022.1624700161781
 21
924.85965508606375
 31
0.0
  0
INSERT
  5
403
  8
3
  2
_OPEN
 10
1242.162470016179
 20
924.85965508606375
 30
0.0
 41
30.0
 42
30.0
 43
30.0
 50
180.0
  0
INSERT
  5
404
  8
3
  2
_OPEN
 10
2052.1624700161778
 20
924.85965508606375
 30
0.0
 41
30.0
 42
30.0
 43
30.0
  0
TEXT
  8
3
  40
45
  5
428
  72
0
  71
0
 10
1557.16
 20
875.210
 30
0.000000
  1
810
  0
POINT
  5
406
  8
DEFPOINTS
 62
     0
 10
1242.162470016179
 20
1352.4409619546821
 30
0.0
  0
POINT
  5
407
  8
DEFPOINTS
 62
     0
 10
2052.1624700161778
 20
1352.4409619546821
 30
0.0
  0
POINT
  5
408
  8
DEFPOINTS
 62
     0
 10
2052.1624700161778
 20
924.85965508606375
 30
0.0
  0
ENDBLK
  5
21B
  8
0
  0
BLOCK
  8
0
  2
*D11
 70
     1
 10
0.0
 20
0.0
 30
0.0
  3
*D11
  1

  0
LINE
  5
409
  8
3
 10
2012.162470016179
 20
1229.575984429883
 30
0.0
 11
2012.162470016179
 21
1052.003400193774
 31
0.0
  0
LINE
  5
40A
  8
3
 10
2052.1624700161792
 20
1337.4409619546821
 30
0.0
 11
2052.1624700161792
 21
1052.003400193774
 31
0.0
  0
LINE
  5
40B
  8
3
 10
1982.162470016179
 20
1067.003400193774
 30
0.0
 11
1952.162470016179
 21
1067.003400193774
 31
0.0
  0
LINE
  5
40C
  8
3
 10
2082.1624700161792
 20
1067.003400193774
 30
0.0
 11
2112.1624700161792
 21
1067.003400193774
 31
0.0
  0
TEXT
  8
3
  40
45
  5
429
  72
0
  71
0
 10
2050.25
 20
1017.35
 30
0.000000
  1
40
  0
LINE
  5
40E
  8
3
 10
2012.162470016179
 20
1067.003400193774
 30
0.0
 11
2052.1624700161792
 21
1067.003400193774
 31
0.0
  0
INSERT
  5
40F
  8
3
  2
_OPEN
 10
2012.162470016179
 20
1067.003400193774
 30
0.0
 41
30.0
 42
30.0
 43
30.0
  0
INSERT
  5
410
  8
3
  2
_OPEN
 10
2052.1624700161792
 20
1067.003400193774
 30
0.0
 41
30.0
 42
30.0
 43
30.0
 50
180.0
  0
POINT
  5
411
  8
DEFPOINTS
 62
     0
 10
2012.162470016179
 20
1244.5759844298821
 30
0.0
  0
POINT
  5
412
  8
DEFPOINTS
 62
     0
 10
2052.1624700161792
 20
1352.4409619546821
 30
0.0
  0
POINT
  5
413
  8
DEFPOINTS
 62
     0
 10
2052.1624700161792
 20
1067.003400193774
 30
0.0
  0
ENDBLK
  5
22D
  8
0
  0
BLOCK
  8
0
  2
*D12
 70
     1
 10
0.0
 20
0.0
 30
0.0
  3
*D12
  1

  0
LINE
  5
414
  8
3
 10
1282.162470016179
 20
1229.5759844298821
 30
0.0
 11
1282.162470016179
 21
1052.003400193774
 31
0.0
  0
LINE
  5
415
  8
3
 10
1242.162470016179
 20
1337.4409619546821
 30
0.0
 11
1242.162470016179
 21
1052.003400193774
 31
0.0
  0
LINE
  5
416
  8
3
 10
1312.162470016179
 20
1067.003400193774
 30
0.0
 11
1342.162470016179
 21
1067.003400193774
 31
0.0
  0
LINE
  5
417
  8
3
 10
1212.162470016179
 20
1067.003400193774
 30
0.0
 11
1182.162470016179
 21
1067.003400193774
 31
0.0
  0
TEXT
  8
3
  40
45
  5
42A
  72
0
  71
0
 10
1083.30
 20
1026.06
 30
0.000000
  1
40
  0
LINE
  5
419
  8
3
 10
1282.162470016179
 20
1067.003400193774
 30
0.0
 11
1242.162470016179
 21
1067.003400193774
 31
0.0
  0
INSERT
  5
41A
  8
3
  2
_OPEN
 10
1282.162470016179
 20
1067.003400193774
 30
0.0
 41
30.0
 42
30.0
 43
30.0
 50
180.0
  0
INSERT
  5
41B
  8
3
  2
_OPEN
 10
1242.162470016179
 20
1067.003400193774
 30
0.0
 41
30.0
 42
30.0
 43
30.0
  0
POINT
  5
41C
  8
DEFPOINTS
 62
     0
 10
1282.162470016179
 20
1244.5759844298821
 30
0.0
  0
POINT
  5
41D
  8
DEFPOINTS
 62
     0
 10
1242.162470016179
 20
1352.4409619546821
 30
0.0
  0
POINT
  5
41E
  8
DEFPOINTS
 62
     0
 10
1242.162470016179
 20
1067.003400193774
 30
0.0
  0
ENDBLK
  5
23F
  8
0
  0
ENDSEC
  0
SECTION
  2
ENTITIES
  0
LINE
  5
25
  8
4
 10
4113.280723900778
 20
-150.91389429140659
 30
0.0
 11
963.28072390077796
 21
-150.91389429140659
 31
0.0
  0
LINE
  5
27
  8
4
 10
963.28072390077796
 20
4274.0861057085931
 30
0.0
 11
4113.280723900778
 21
4274.0861057085931
 31
0.0
  0
LINE
  5
28
  8
4
 10
1938.280723900778
 20
599.08610570859332
 30
0.0
 11
3738.280723900778
 21
599.08610570859332
 31
0.0
  0
LINE
  5
29
  8
4
 10
1338.280723900778
 20
3853.1992371058
 30
0.0
 11
3738.280723900778
 21
3853.1992371058
 31
0.0
  0
LINE
  5
2A
  8
4
 10
1338.280723900778
 20
3553.1992371058
 30
0.0
 11
3738.280723900778
 21
3553.1992371058
 31
0.0
  0
TEXT
  5
2B
  8
4
 10
1437.5321138949471
 20
3649.90757000754
 30
0.0
 40
108.0
  1
電動機直動式横型軸流ファン
  0
TEXT
  5
2C
  8
4
 10
1992.6678829379739
 20
331.55384080660968
 30
0.0
 40
75.0
  1
機器型番
  0
TEXT
  5
2D
  8
4
 10
1996.03384517113
 20
496.40064450851258
 30
0.0
 40
75.0
  1
機器名称
  0
LINE
  5
2E
  8
4
 10
1938.280723900778
 20
449.08610570859332
 30
0.0
 11
3738.280723900778
 21
449.08610570859332
 31
0.0
  0
LINE
  5
2F
  8
4
 10
1938.280723900778
 20
299.08610570859332
 30
0.0
 11
3738.280723900778
 21
299.08610570859332
 31
0.0
  0
ARC
  5
32
  8
1
 10
2059.6624700161778
 20
2299.9409619546818
 30
0.0
 40
4.5
 50
180.0
 51
270.0
  0
LINE
  5
34
  8
1
 10
2092.1624700161778
 20
2292.4409619546832
 30
0.0
 11
2052.1624700161778
 21
2292.4409619546832
 31
0.0
  0
LINE
  5
35
  8
1
 10
2092.1624700161778
 20
1392.4409619546821
 30
0.0
 11
2052.1624700161792
 21
1392.4409619546821
 31
0.0
  0
ARC
  5
36
  8
1
 10
2059.6624700161778
 20
1384.9409619546821
 30
0.0
 40
4.5
 50
90.0
 51
180.0
  0
LINE
  5
37
  8
1
 10
2031.4693186630591
 20
2314.9409619546818
 30
0.0
 11
2071.4554683588672
 21
2314.9409619546818
 31
0.0
  0
LINE
  5
38
  8
1
 10
2031.4693186630591
 20
1369.9409619546821
 30
0.0
 11
2071.4554683588681
 21
1369.9409619546821
 31
0.0
  0
LINE
  5
39
  8
2
 10
1148.4355793749539
 20
1842.4409619546821
 30
0.0
 11
2154.4553517081272
 21
1842.4409619546821
 31
0.0
  0
DIMENSION
  5
3C
  8
3
  2
*D4
 10
1075.490548396351
 20
1392.4409619546821
 30
0.0
 11
1045.4905483963501
 21
1842.440961954683
 31
0.0
 70
     0
  1
%%c<>
 13
1202.162470016179
 23
2292.4409619546832
 33
0.0
 14
1202.1624700161781
 24
1392.4409619546821
 34
0.0
 50
90.0
1001
ACAD
1000
DSTYLE
1002
{
1070
   287
1070
     3
1070
   287
1070
     3
1070
   287
1070
     3
1070
   287
1070
     3
1070
   287
1070
     3
1070
    40
1040
15.0
1070
   289
1070
     3
1002
}
  0
LINE
  5
53
  8
4
 10
963.28072390077796
 20
-150.91389429140659
 30
0.0
 11
963.28072390077796
 21
4274.0861057085931
 31
0.0
  0
LINE
  5
54
  8
1
 10
2052.1624700161778
 20
2332.4409619546818
 30
0.0
 11
2052.1624700161792
 21
1352.4409619546821
 31
0.0
  0
LINE
  5
55
  8
1
 10
2055.1624700161778
 20
2330.4409619546818
 30
0.0
 11
2055.1624700161792
 21
1354.4409619546821
 31
0.0
  0
LINE
  5
56
  8
1
 10
1246.662470016179
 20
2332.4409619546832
 30
0.0
 11
1246.662470016179
 21
1352.4409619546821
 31
0.0
  0
LINE
  5
57
  8
1
 10
1242.162470016179
 20
2332.4409619546818
 30
0.0
 11
1242.162470016179
 21
1352.4409619546821
 31
0.0
  0
LINE
  5
58
  8
1
 10
2052.1624700161792
 20
2332.4409619546818
 30
0.0
 11
2052.1624700161792
 21
1352.4409619546821
 31
0.0
  0
LINE
  5
59
  8
1
 10
2047.662470016179
 20
2332.4409619546832
 30
0.0
 11
2047.662470016179
 21
1352.4409619546821
 31
0.0
  0
LINE
  5
5A
  8
1
 10
1239.162470016179
 20
2330.4409619546818
 30
0.0
 11
1239.1624700161781
 21
1354.4409619546821
 31
0.0
  0
LINE
  5
5B
  8
1
 10
1202.162470016179
 20
2292.4409619546832
 30
0.0
 11
1202.1624700161781
 21
1392.4409619546821
 31
0.0
  0
LINE
  5
5C
  8
1
 10
1242.162470016179
 20
2332.4409619546818
 30
0.0
 11
1242.1624700161781
 21
1352.4409619546821
 31
0.0
  0
LINE
  5
5D
  8
1
 10
1412.162470016179
 20
2042.440961954683
 30
0.0
 11
1377.162470016179
 21
2288.4409619546818
 31
0.0
  0
LINE
  5
5E
  8
1
 10
1267.162470016179
 20
2042.440961954683
 30
0.0
 11
1302.162470016179
 21
2288.4409619546818
 31
0.0
  0
LINE
  5
5F
  8
4
 10
1938.280723900778
 20
599.08610570859332
 30
0.0
 11
1938.280723900778
 21
299.08610570859332
 31
0.0
  0
LINE
  5
60
  8
1
 10
1242.162470016179
 20
1387.9409619546821
 30
0.0
 11
2052.1624700161792
 21
1387.9409619546821
 31
0.0
  0
LINE
  5
61
  8
1
 10
1242.162470016179
 20
1392.4409619546821
 30
0.0
 11
2052.1624700161792
 21
1392.4409619546821
 31
0.0
  0
LINE
  5
62
  8
1
 10
1262.162470016179
 20
1642.440961954683
 30
0.0
 11
1417.162470016179
 21
1642.440961954683
 31
0.0
  0
LINE
  5
63
  8
1
 10
1262.162470016179
 20
2042.4409619546821
 30
0.0
 11
1417.162470016179
 21
2042.4409619546821
 31
0.0
  0
LINE
  5
64
  8
1
 10
1251.162470016179
 20
1542.440961954683
 30
0.0
 11
1251.162470016179
 21
1286.9409619546821
 31
0.0
  0
LINE
  5
65
  8
1
 10
1246.662470016179
 20
1462.1218976224509
 30
0.0
 11
1246.662470016179
 21
1282.4409619546821
 31
0.0
  0
LINE
  5
66
  8
1
 10
1306.662470016179
 20
1286.9409619546821
 30
0.0
 11
1251.162470016179
 21
1286.9409619546821
 31
0.0
  0
LINE
  5
67
  8
1
 10
1306.662470016179
 20
1282.4409619546821
 30
0.0
 11
1246.662470016179
 21
1282.4409619546821
 31
0.0
  0
LINE
  5
68
  8
1
 10
1224.69007446919
 20
1369.9409619546821
 30
0.0
 11
1264.676224164999
 21
1369.940961954683
 31
0.0
  0
LINE
  5
69
  8
1
 10
1246.662470016179
 20
1352.4409619546821
 30
0.0
 11
1242.162470016179
 21
1352.4409619546821
 31
0.0
  0
LINE
  5
6A
  8
1
 10
1242.162470016179
 20
1352.4409619546821
 30
0.0
 11
1241.162470016179
 21
1352.4409619546821
 31
0.0
  0
ARC
  5
6B
  8
1
 10
1241.162470016179
 20
1354.4409619546821
 30
0.0
 40
2.0
 50
180.0
 51
270.0
  0
LINE
  5
6C
  8
1
 10
1306.662470016179
 20
1286.9409619546821
 30
0.0
 11
1306.662470016179
 21
1282.4409619546821
 31
0.0
  0
LINE
  5
6D
  8
1
 10
1327.162470016179
 20
2042.4409619546821
 30
0.0
 11
1327.162470016179
 21
1642.440961954683
 31
0.0
  0
LINE
  5
6E
  8
1
 10
1317.162470016179
 20
2042.4409619546821
 30
0.0
 11
1317.162470016179
 21
1642.440961954683
 31
0.0
  0
LINE
  5
6F
  8
1
 10
1262.162470016179
 20
2042.440961954683
 30
0.0
 11
1262.162470016179
 21
1642.440961954683
 31
0.0
  0
LINE
  5
70
  8
1
 10
1234.662470016179
 20
1389.4409619546821
 30
0.0
 11
1204.162470016179
 21
1389.4409619546821
 31
0.0
  0
LINE
  5
71
  8
1
 10
1202.162470016179
 20
1392.4409619546821
 30
0.0
 11
1242.1624700161781
 21
1392.4409619546821
 31
0.0
  0
ARC
  5
72
  8
1
 10
1204.162470016179
 20
1391.4409619546821
 30
0.0
 40
2.0
 50
180.0
 51
270.0
  0
LINE
  5
73
  8
1
 10
1202.162470016179
 20
1391.4409619546821
 30
0.0
 11
1202.162470016179
 21
1392.4409619546821
 31
0.0
  0
ARC
  5
74
  8
1
 10
1234.662470016179
 20
1384.9409619546821
 30
0.0
 40
4.5
 50
0.0
 51
90.0
  0
LINE
  5
75
  8
1
 10
1251.1624700161781
 20
1542.440961954683
 30
0.0
 11
1246.662470016179
 21
1542.4409619546821
 31
0.0
  0
LINE
  5
76
  8
1
 10
1267.162470016179
 20
1642.4409619546821
 30
0.0
 11
1302.162470016179
 21
1396.440961954683
 31
0.0
  0
LINE
  5
77
  8
1
 10
1412.162470016179
 20
1642.4409619546821
 30
0.0
 11
1377.162470016179
 21
1396.440961954683
 31
0.0
  0
LINE
  5
78
  8
1
 10
1302.162470016179
 20
1396.440961954683
 30
0.0
 11
1377.162470016179
 21
1396.440961954683
 31
0.0
  0
LINE
  5
79
  8
1
 10
1287.162470016179
 20
1897.4409619546821
 30
0.0
 11
1287.162470016179
 21
1787.4409619546821
 31
0.0
  0
LINE
  5
7A
  8
1
 10
1387.162470016179
 20
1897.4409619546821
 30
0.0
 11
1387.162470016179
 21
1787.4409619546821
 31
0.0
  0
LINE
  5
7B
  8
1
 10
1287.162470016179
 20
1787.4409619546821
 30
0.0
 11
1387.162470016179
 21
1787.4409619546821
 31
0.0
  0
LINE
  5
7C
  8
1
 10
1287.162470016179
 20
1897.4409619546821
 30
0.0
 11
1387.162470016179
 21
1897.4409619546821
 31
0.0
  0
POINT
  5
7D
  8
1
 10
1387.162470016179
 20
1897.4409619546821
 30
0.0
  0
POINT
  5
7E
  8
1
 10
1387.162470016179
 20
1897.4409619546821
 30
0.0
  0
LINE
  5
7F
  8
1
 10
2047.662470016179
 20
1462.121897622452
 30
0.0
 11
2047.6624700161799
 21
1282.4409619546841
 31
0.0
  0
LINE
  5
80
  8
1
 10
2043.162470016179
 20
1542.4409619546841
 30
0.0
 11
2043.162470016179
 21
1286.9409619546841
 31
0.0
  0
LINE
  5
81
  8
1
 10
2047.662470016179
 20
1462.12189762245
 30
0.0
 11
2047.662470016179
 21
1332.4409619546821
 31
0.0
  0
LINE
  5
82
  8
1
 10
1987.6624700161799
 20
1286.9409619546841
 30
0.0
 11
1987.6624700161799
 21
1282.4409619546841
 31
0.0
  0
LINE
  5
83
  8
1
 10
1987.6624700161799
 20
1282.4409619546841
 30
0.0
 11
2047.6624700161799
 21
1282.4409619546841
 31
0.0
  0
LINE
  5
84
  8
1
 10
1987.6624700161799
 20
1286.9409619546841
 30
0.0
 11
2043.162470016179
 21
1286.9409619546841
 31
0.0
  0
ARC
  5
85
  8
1
 10
2053.1624700161778
 20
1354.4409619546821
 30
0.0
 40
2.0
 50
270.0
 51
0.0
  0
LINE
  5
86
  8
1
 10
2052.1624700161778
 20
1352.4409619546821
 30
0.0
 11
2053.1624700161778
 21
1352.4409619546821
 31
0.0
  0
LINE
  5
87
  8
1
 10
2047.662470016179
 20
1352.4409619546821
 30
0.0
 11
2052.1624700161792
 21
1352.4409619546821
 31
0.0
  0
LINE
  5
88
  8
1
 10
1417.162470016179
 20
2042.4409619546821
 30
0.0
 11
1417.162470016179
 21
1642.440961954683
 31
0.0
  0
LINE
  5
89
  8
1
 10
2043.162470016179
 20
1542.4409619546841
 30
0.0
 11
2047.662470016179
 21
1542.4409619546841
 31
0.0
  0
TEXT
  5
8A
  8
4
 10
1380.5252030315501
 20
3422.5653220281079
 30
0.0
 40
80.999999999999986
  1
左回転後方吐出
  0
DIMENSION
  5
8B
  8
3
  2
*D3
 10
2052.1624700161778
 20
2669.696414899553
 30
0.0
 11
1647.1624700161781
 21
2699.6964148995521
 31
0.0
 70
     0
 13
1242.162470016179
 23
2332.4409619546818
 33
0.0
 14
2052.1624700161778
 24
2332.4409619546818
 34
0.0
1001
ACAD
1000
DSTYLE
1002
{
1070
   287
1070
     3
1070
   287
1070
     3
1070
   287
1070
     3
1070
   287
1070
     3
1070
   287
1070
     3
1070
    40
1040
15.0
1070
   289
1070
     3
1002
}
  0
LINE
  5
98
  8
1
 10
1296.662470016179
 20
2296.9409619546832
 30
0.0
 11
2047.662470016179
 21
2296.9409619546809
 31
0.0
  0
LINE
  5
99
  8
1
 10
1242.162470016179
 20
2292.4409619546832
 30
0.0
 11
2052.1624700161792
 21
2292.4409619546832
 31
0.0
  0
LINE
  5
9A
  8
1
 10
1224.6900744691891
 20
2314.9409619546818
 30
0.0
 11
1264.676224164999
 21
2314.9409619546818
 31
0.0
  0
LINE
  5
9B
  8
1
 10
1246.662470016179
 20
2296.9409619546832
 30
0.0
 11
1296.662470016179
 21
2296.9409619546832
 31
0.0
  0
LINE
  5
9C
  8
1
 10
1202.162470016179
 20
2292.4409619546832
 30
0.0
 11
1242.162470016179
 21
2292.4409619546832
 31
0.0
  0
LINE
  5
9D
  8
1
 10
1234.662470016179
 20
2295.4409619546818
 30
0.0
 11
1204.162470016179
 21
2295.4409619546818
 31
0.0
  0
LINE
  5
9E
  8
1
 10
1202.162470016179
 20
2293.4409619546818
 30
0.0
 11
1202.162470016179
 21
2292.4409619546832
 31
0.0
  0
ARC
  5
9F
  8
1
 10
1204.162470016179
 20
2293.4409619546818
 30
0.0
 40
2.0
 50
90.0
 51
180.0
  0
ARC
  5
A0
  8
1
 10
1234.662470016179
 20
2299.9409619546818
 30
0.0
 40
4.5
 50
270.0
 51
0.0
  0
LINE
  5
A1
  8
1
 10
1241.162470016179
 20
2332.4409619546818
 30
0.0
 11
1242.162470016179
 21
2332.4409619546818
 31
0.0
  0
LINE
  5
A2
  8
1
 10
1242.162470016179
 20
2332.4409619546818
 30
0.0
 11
1246.662470016179
 21
2332.4409619546832
 31
0.0
  0
ARC
  5
A3
  8
1
 10
1241.162470016179
 20
2330.4409619546818
 30
0.0
 40
2.0
 50
90.0
 51
180.0
  0
LINE
  5
A4
  8
1
 10
1302.162470016179
 20
2288.4409619546818
 30
0.0
 11
1377.162470016179
 21
2288.4409619546818
 31
0.0
  0
LINE
  5
A5
  8
1
 10
2052.1624700161792
 20
2332.4409619546818
 30
0.0
 11
2053.1624700161778
 21
2332.4409619546818
 31
0.0
  0
LINE
  5
A6
  8
1
 10
2047.662470016179
 20
2332.4409619546832
 30
0.0
 11
2052.1624700161778
 21
2332.4409619546818
 31
0.0
  0
ARC
  5
A7
  8
1
 10
2053.1624700161778
 20
2330.4409619546818
 30
0.0
 40
2.0
 50
0.0
 51
90.0
  0
LINE
  5
A8
  8
4
 10
1338.280723900778
 20
3853.1992371058
 30
0.0
 11
1338.280723900778
 21
3553.1992371058
 31
0.0
  0
DIMENSION
  5
A9
  8
3
  2
*D1
 10
3876.1144257323072
 20
2685.1183360116988
 30
0.0
 11
3386.1144257323072
 21
2715.1183360116979
 31
0.0
 70
     0
 13
2896.1144257323072
 23
1842.4409619546821
 33
0.0
 14
3876.1144257323072
 24
1842.4409619546821
 34
0.0
1001
ACAD
1000
DSTYLE
1002
{
1070
   287
1070
     3
1070
   287
1070
     3
1070
   287
1070
     3
1070
   287
1070
     3
1070
   287
1070
     3
1070
    40
1040
15.0
1070
   289
1070
     3
1002
}
  0
LINE
  5
B6
  8
4
 10
4113.280723900778
 20
4274.0861057085931
 30
0.0
 11
4113.280723900778
 21
-150.91389429140659
 31
0.0
  0
LINE
  5
B7
  8
1
 10
2092.1624700161778
 20
2292.4409619546832
 30
0.0
 11
2092.1624700161792
 21
1392.4409619546821
 31
0.0
  0
LINE
  5
B8
  8
2
 10
3386.1144257323072
 20
1155.7983228142371
 30
0.0
 11
3386.1144257323072
 21
2510.2096488525999
 31
0.0
  0
CIRCLE
  5
BA
  8
1
 10
3386.1144257323072
 20
1842.4409619546821
 30
0.0
 40
454.49999999999989
  0
CIRCLE
  5
BB
  8
1
 10
3386.1144257323072
 20
1842.4409619546821
 30
0.0
 40
450.0
  0
CIRCLE
  5
BC
  8
1
 10
3386.1144257323072
 20
1842.4409619546821
 30
0.0
 40
490.0
  0
LINE
  5
BD
  8
1
 10
2986.1144257323072
 20
1282.440961954683
 30
0.0
 11
3786.1144257323072
 21
1282.440961954683
 31
0.0
  0
TEXT
  5
BF
  8
4
 10
2729.7988421322748
 20
482.94375914494611
 30
0.0
 40
75.0
  1
ミツヤ軸流ファン
  0
LINE
  5
C0
  8
2
 10
2860.1144257323072
 20
1842.4409619546821
 30
0.0
 11
3912.1144257323072
 21
1842.4409619546821
 31
0.0
  0
LINE
  5
C1
  8
4
 10
2688.280723900778
 20
599.08610570859332
 30
0.0
 11
2688.280723900778
 21
299.08610570859332
 31
0.0
  0
TEXT
  5
C2
  8
4
 10
2743.2624672789989
 20
324.82548212850833
 30
0.0
 40
75.0
  1
AP＃900-1
  0
DIMENSION
  5
C3
  8
3
  2
*D2
 10
2625.3383327086772
 20
1842.4409619546821
 30
0.0
 11
2595.3383327086772
 21
1562.440961954683
 31
0.0
 70
     0
 13
2986.1144257323072
 23
1282.440961954683
 33
0.0
 14
2860.1144257323072
 24
1842.4409619546821
 34
0.0
 50
90.0
1001
ACAD
1000
DSTYLE
1002
{
1070
   287
1070
     3
1070
   287
1070
     3
1070
   287
1070
     3
1070
   287
1070
     3
1070
    40
1040
15.0
1070
   289
1070
     3
1002
}
  0
LINE
  5
D1
  8
1
 10
2092.1624700161778
 20
1391.4409619546821
 30
0.0
 11
2092.1624700161778
 21
1392.4409619546821
 31
0.0
  0
ARC
  5
D2
  8
1
 10
2090.1624700161778
 20
1391.4409619546821
 30
0.0
 40
2.0
 50
270.0
 51
0.0
  0
LINE
  5
D3
  8
1
 10
2059.6624700161778
 20
1389.4409619546821
 30
0.0
 11
2090.1624700161778
 21
1389.4409619546821
 31
0.0
  0
LINE
  5
D4
  8
1
 10
2986.1144257323072
 20
1282.440961954683
 30
0.0
 11
2986.1144257323072
 21
1559.4215279929831
 31
0.0
  0
LINE
  5
D5
  8
4
 10
3738.280723900778
 20
599.08610570859332
 30
0.0
 11
3738.280723900778
 21
299.08610570859332
 31
0.0
  0
LINE
  5
D6
  8
1
 10
3786.1144257323072
 20
1282.4409619546821
 30
0.0
 11
3786.1144257323072
 21
1559.4215279929861
 31
0.0
  0
LINE
  5
D7
  8
4
 10
3738.280723900778
 20
3870.9814803966951
 30
0.0
 11
3124.2068574405748
 21
3870.9814803966951
 31
0.0
  0
LINE
  5
D8
  8
4
 10
3124.2068574405748
 20
4029.0644980332208
 30
0.0
 11
3738.280723900778
 21
4029.0644980332208
 31
0.0
  0
TEXT
  5
D9
  8
4
 10
3164.3442054217662
 20
3424.2293677073671
 30
0.0
 40
80.999999999999986
  1
縮尺：1/15
  0
TEXT
  5
DA
  8
4
 10
2226.1300824821119
 20
3429.6806148742012
 30
0.0
 40
80.999999999999986
  1
床置ベット
  0
LINE
  5
DB
  8
1
 10
2059.6624700161778
 20
2295.4409619546818
 30
0.0
 11
2090.1624700161778
 21
2295.4409619546818
 31
0.0
  0
ARC
  5
DC
  8
1
 10
2090.1624700161778
 20
2293.4409619546818
 30
0.0
 40
2.0
 50
0.0
 51
90.0
  0
LINE
  5
DD
  8
1
 10
2092.1624700161778
 20
2293.4409619546818
 30
0.0
 11
2092.1624700161778
 21
2292.4409619546832
 31
0.0
  0
TEXT
  5
DE
  8
4
 10
3166.7350627747128
 20
3908.1777279515559
 30
0.0
 40
84.000000000000014
  1
No.
  0
LINE
  5
DF
  8
4
 10
3124.2068574405748
 20
3870.9814803966951
 30
0.0
 11
3124.2068574405748
 21
4029.0644980332208
 31
0.0
  0
LINE
  5
E0
  8
4
 10
3738.280723900778
 20
3853.1992371058
 30
0.0
 11
3738.280723900778
 21
3553.1992371058
 31
0.0
  0
LINE
  5
E1
  8
4
 10
3738.280723900778
 20
4029.0644980332208
 30
0.0
 11
3738.280723900778
 21
3870.9814803966951
 31
0.0
  0
LINE
  5
E2
  8
4
 10
4113.280723900778
 20
4274.0861057085931
 30
0.0
 11
4113.280723900778
 21
4274.0861057085931
 31
0.0
  0
LINE
  5
18A
  8
2
 10
3016.1144257323058
 20
1244.5759844298821
 30
0.0
 11
3016.1144257323072
 21
1309.4080134231319
 31
0.0
  0
LINE
  5
18B
  8
2
 10
3756.1144257323072
 20
1244.5759844298821
 30
0.0
 11
3756.1144257323081
 21
1309.4080134231319
 31
0.0
  0
LINE
  5
18D
  8
2
 10
1282.162470016179
 20
1309.408013423131
 30
0.0
 11
1282.162470016179
 21
1244.5759844298821
 31
0.0
  0
LINE
  5
18E
  8
2
 10
2012.162470016179
 20
1309.4080134231319
 30
0.0
 11
2012.162470016179
 21
1244.5759844298821
 31
0.0
  0
DIMENSION
  5
19C
  8
3
  2
*D5
 10
3756.1144257323072
 20
1039.021022196657
 30
0.0
 11
3386.1144257323072
 21
1069.021022196657
 31
0.0
 70
     0
 13
3016.1144257323058
 23
1244.5759844298821
 33
0.0
 14
3756.1144257323072
 24
1244.5759844298821
 34
0.0
1001
ACAD
1000
DSTYLE
1002
{
1070
   287
1070
     3
1070
   287
1070
     3
1070
    40
1040
15.0
1070
   289
1070
     3
1002
}
  0
DIMENSION
  5
1A9
  8
3
  2
*D6
 10
3786.1144257323072
 20
914.43395630754083
 30
0.0
 11
3386.1144257323072
 21
944.43395630754094
 31
0.0
 70
     0
 13
2986.1144257323072
 23
1282.440961954683
 33
0.0
 14
3786.1144257323072
 24
1282.440961954683
 34
0.0
1001
ACAD
1000
DSTYLE
1002
{
1070
   287
1070
     3
1070
   287
1070
     3
1070
    40
1040
15.0
1070
   289
1070
     3
1002
}
  0
DIMENSION
  5
1C8
  8
3
  2
*D7
 10
3786.1144257323072
 20
1039.021022196657
 30
0.0
 11
3857.566970388159
 21
1040.2236732062729
 31
0.0
 70
   128
 13
3756.1144257323072
 23
1244.5759844298821
 33
0.0
 14
3786.1144257323072
 24
1282.440961954683
 34
0.0
1001
ACAD
1000
DSTYLE
1002
{
1070
   287
1070
     4
1070
   287
1070
     4
1070
   279
1070
     1
1070
    40
1040
15.0
1070
   289
1070
     3
1002
}
  0
DIMENSION
  5
1DA
  8
3
  2
*D8
 10
2986.1144257323072
 20
1039.021022196657
 30
0.0
 11
2926.510178170372
 21
1041.9953557320471
 31
0.0
 70
   128
 13
3016.1144257323058
 23
1244.5759844298821
 33
0.0
 14
2986.1144257323072
 24
1282.440961954683
 34
0.0
1001
ACAD
1000
DSTYLE
1002
{
1070
   287
1070
     4
1070
   287
1070
     4
1070
   279
1070
     1
1070
    40
1040
15.0
1070
   289
1070
     3
1002
}
  0
DIMENSION
  5
202
  8
3
  2
*D9
 10
2012.162470016179
 20
1067.003400193774
 30
0.0
 11
1647.162470016179
 21
1097.003400193774
 31
0.0
 70
     0
 13
1282.162470016179
 23
1244.5759844298821
 33
0.0
 14
2012.162470016179
 24
1244.5759844298821
 34
0.0
1001
ACAD
1000
DSTYLE
1002
{
1070
   287
1070
     3
1070
   287
1070
     3
1070
    40
1040
15.0
1070
   289
1070
     3
1002
}
  0
DIMENSION
  5
20F
  8
3
  2
*D10
 10
2052.1624700161778
 20
924.85965508606375
 30
0.0
 11
1647.1624700161781
 21
954.85965508606375
 31
0.0
 70
     0
 13
1242.162470016179
 23
1352.4409619546821
 33
0.0
 14
2052.1624700161778
 24
1352.4409619546821
 34
0.0
1001
ACAD
1000
DSTYLE
1002
{
1070
   287
1070
     3
1070
   287
1070
     3
1070
    40
1040
15.0
1070
   289
1070
     3
1002
}
  0
DIMENSION
  5
21C
  8
3
  2
*D11
 10
2052.1624700161792
 20
1067.003400193774
 30
0.0
 11
2140.2520028518679
 21
1067.003400193774
 31
0.0
 70
   128
 13
2012.162470016179
 23
1244.5759844298821
 33
0.0
 14
2052.1624700161792
 24
1352.4409619546821
 34
0.0
1001
ACAD
1000
DSTYLE
1002
{
1070
   287
1070
     4
1070
   287
1070
     4
1070
   279
1070
     1
1070
    40
1040
15.0
1070
   289
1070
     3
1002
}
  0
DIMENSION
  5
22E
  8
3
  2
*D12
 10
1242.162470016179
 20
1067.003400193774
 30
0.0
 11
1173.297663023104
 21
1075.70607636307
 31
0.0
 70
   128
 13
1282.162470016179
 23
1244.5759844298821
 33
0.0
 14
1242.162470016179
 24
1352.4409619546821
 34
0.0
1001
ACAD
1000
DSTYLE
1002
{
1070
   287
1070
     4
1070
   287
1070
     4
1070
   279
1070
     1
1070
    40
1040
15.0
1070
   289
1070
     3
1002
}
  0
ENDSEC
  0
EOF
