  0
SECTION
  2
HEADER
  9
$ACADVER
  1
AC1009
  9
$INSBASE
 10
0.0
 20
0.0
 30
0.0
  9
$EXTMIN
 10
963.28072390077796
 20
-150.91389429140659
 30
0.0
  9
$EXTMAX
 10
4113.280723900778
 20
4274.0861057085931
 30
0.0
  9
$LIMMIN
 10
0.0
 20
0.0
  9
$LIMMAX
 10
297.0
 20
210.0
  9
$ORTHOMODE
 70
     0
  9
$REGENMODE
 70
     1
  9
$FILLMODE
 70
     1
  9
$QTEXTMODE
 70
     0
  9
$MIRRTEXT
 70
     0
  9
$DRAGMODE
 70
     2
  9
$LTSCALE
 40
90.0
  9
$OSMODE
 70
    37
  9
$ATTMODE
 70
     1
  9
$TEXTSIZE
 40
75.0
  9
$TRACEWID
 40
0.05
  9
$TEXTSTYLE
  7
STANDARD
  9
$CLAYER
  8
1
  9
$CELTYPE
  6
BYLAYER
  9
$CECOLOR
 62
   256
  9
$DIMSCALE
 40
15.0
  9
$DIMASZ
 40
2.0
  9
$DIMEXO
 40
1.0
  9
$DIMDLI
 40
10.0
  9
$DIMRND
 40
0.0
  9
$DIMDLE
 40
0.0
  9
$DIMEXE
 40
1.0
  9
$DIMTP
 40
0.0
  9
$DIMTM
 40
0.0
  9
$DIMTXT
 40
3.0
  9
$DIMCEN
 40
0.0
  9
$DIMTSZ
 40
0.0
  9
$DIMTOL
 70
     0
  9
$DIMLIM
 70
     0
  9
$DIMTIH
 70
     0
  9
$DIMTOH
 70
     0
  9
$DIMSE1
 70
     0
  9
$DIMSE2
 70
     0
  9
$DIMTAD
 70
     1
  9
$DIMZIN
 70
     8
  9
$DIMBLK
  1

  9
$DIMASO
 70
     1
  9
$DIMSHO
 70
     1
  9
$DIMPOST
  1

  9
$DIMAPOST
  1

  9
$DIMALT
 70
     0
  9
$DIMALTD
 70
     2
  9
$DIMALTF
 40
0.03937
  9
$DIMLFAC
 40
1.0
  9
$DIMTOFL
 70
     1
  9
$DIMTVP
 40
0.0
  9
$DIMTIX
 70
     0
  9
$DIMSOXD
 70
     0
  9
$DIMSAH
 70
     1
  9
$DIMBLK1
  1
OPEN
  9
$DIMBLK2
  1
OPEN
  9
$DIMSTYLE
  2
MATSU
  9
$DIMCLRD
 70
   256
  9
$DIMCLRE
 70
   256
  9
$DIMCLRT
 70
   256
  9
$DIMTFAC
 40
1.0
  9
$DIMGAP
 40
0.5
  9
$LUNITS
 70
     2
  9
$LUPREC
 70
     3
  9
$SKETCHINC
 40
0.1
  9
$FILLETRAD
 40
10.0
  9
$AUNITS
 70
     0
  9
$AUPREC
 70
     2
  9
$MENU
  1
acad
  9
$ELEVATION
 40
0.0
  9
$PELEVATION
 40
0.0
  9
$THICKNESS
 40
0.0
  9
$LIMCHECK
 70
     0
  9
$BLIPMODE
 70
     0
  9
$CHAMFERA
 40
10.0
  9
$CHAMFERB
 40
10.0
  9
$SKPOLY
 70
     0
  9
$TDCREATE
 40
2451939.611564815
  9
$TDUPDATE
 40
2454953.6237565042
  9
$TDINDWG
 40
0.164546169
  9
$TDUSRTIMER
 40
0.164546169
  9
$USRTIMER
 70
     1
  9
$ANGBASE
 50
0.0
  9
$ANGDIR
 70
     0
  9
$PDMODE
 70
     0
  9
$PDSIZE
 40
1.0
  9
$PLINEWID
 40
0.0
  9
$COORDS
 70
     1
  9
$SPLFRAME
 70
     0
  9
$SPLINETYPE
 70
     6
  9
$SPLINESEGS
 70
     8
  9
$ATTDIA
 70
     0
  9
$ATTREQ
 70
     1
  9
$HANDLING
 70
 10241
  9
$HANDSEED
  5
62F3
  9
$SURFTAB1
 70
     6
  9
$SURFTAB2
 70
     6
  9
$SURFTYPE
 70
     6
  9
$SURFU
 70
     6
  9
$SURFV
 70
     6
  9
$UCSNAME
  2

  9
$UCSORG
 10
0.0
 20
0.0
 30
0.0
  9
$UCSXDIR
 10
1.0
 20
0.0
 30
0.0
  9
$UCSYDIR
 10
0.0
 20
1.0
 30
0.0
  9
$PUCSNAME
  2

  9
$PUCSORG
 10
0.0
 20
0.0
 30
0.0
  9
$PUCSXDIR
 10
1.0
 20
0.0
 30
0.0
  9
$PUCSYDIR
 10
0.0
 20
1.0
 30
0.0
  9
$USERI1
 70
     0
  9
$USERI2
 70
     0
  9
$USERI3
 70
     0
  9
$USERI4
 70
     0
  9
$USERI5
 70
     0
  9
$USERR1
 40
0.0
  9
$USERR2
 40
0.0
  9
$USERR3
 40
0.0
  9
$USERR4
 40
0.0
  9
$USERR5
 40
0.0
  9
$WORLDVIEW
 70
     1
  9
$SHADEDGE
 70
     3
  9
$SHADEDIF
 70
    70
  9
$TILEMODE
 70
     1
  9
$MAXACTVP
 70
    16
  9
$PLIMCHECK
 70
     0
  9
$PEXTMIN
 10
1.0000000000000000E+020
 20
1.0000000000000000E+020
 30
1.0000000000000000E+020
  9
$PEXTMAX
 10
-1.0000000000000000E+020
 20
-1.0000000000000000E+020
 30
-1.0000000000000000E+020
  9
$PLIMMIN
 10
0.0
 20
0.0
  9
$PLIMMAX
 10
12.0
 20
9.0
  9
$UNITMODE
 70
     0
  9
$VISRETAIN
 70
     0
  9
$PLINEGEN
 70
     0
  9
$PSLTSCALE
 70
     0
  0
ENDSEC
  0
SECTION
  2
TABLES
  0
TABLE
  2
VPORT
 70
     2
  0
VPORT
  2
*ACTIVE
 70
     0
 10
0.0
 20
0.0
 11
1.0
 21
1.0
 12
4090.8825701965902
 22
361.76216882575039
 13
0.0
 23
0.0
 14
5.0
 24
5.0
 15
0.0
 25
0.0
 16
0.0
 26
0.0
 36
1.0
 17
0.0
 27
0.0
 37
0.0
 40
1403.636703612289
 41
3.1666666666666661
 42
50.0
 43
0.0
 44
0.0
 50
0.0
 51
0.0
 71
     0
 72
   100
 73
     1
 74
     0
 75
     0
 76
     0
 77
     0
 78
     0
  0
ENDTAB
  0
TABLE
  2
LTYPE
 70
     2
  0
LTYPE
  2
CONTINUOUS
 70
     0
  3
Solid line
 72
    65
 73
     0
 40
0.0
  0
LTYPE
  2
CENTER
 70
     0
  3
____ _ ____ _ ____ _ ____ _ ____ _ ____ _ ____ 
 72
    65
 73
     4
 40
2.0
 49
1.25
 49
-0.25
 49
0.25
 49
-0.25
  0
ENDTAB
  0
TABLE
  2
LAYER
 70
     9
  0
LAYER
  2
0
 70
     0
 62
     7
  6
CONTINUOUS
  0
LAYER
  2
CT
 70
     0
 62
     3
  6
CENTER
  0
LAYER
  2
FUTO
 70
     0
 62
     4
  6
CONTINUOUS
  0
LAYER
  2
SP
 70
     0
 62
     2
  6
CONTINUOUS
  0
LAYER
  2
DEFPOINTS
 70
     0
 62
     7
  6
CONTINUOUS
  0
LAYER
  2
3
 70
     0
 62
     2
  6
CONTINUOUS
  0
LAYER
  2
2
 70
     0
 62
     3
  6
CENTER
  0
LAYER
  2
1
 70
     0
 62
     4
  6
CONTINUOUS
  0
LAYER
  2
4
 70
     0
 62
     7
  6
CONTINUOUS
  0
ENDTAB
  0
TABLE
  2
STYLE
 70
     2
  0
STYLE
  2
STANDARD
 70
     0
 40
0.0
 41
1.0
 50
15.0
 71
     0
 42
75.0
  3
C:\Program Files\AutoCAD LT\simplex.shx
  4
C:\Program Files\AutoCAD LT\extfont.shx
  0
STYLE
  2
SUNPOU
 70
     0
 40
0.0
 41
1.0
 50
15.0
 71
     0
 42
3.0
  3
simplex.shx
  4
extfont.shx
  0
ENDTAB
  0
TABLE
  2
VIEW
 70
     0
  0
ENDTAB
  0
TABLE
  2
UCS
 70
     0
  0
ENDTAB
  0
TABLE
  2
APPID
 70
     1
  0
APPID
  2
ACAD
 70
     0
  0
ENDTAB
  0
TABLE
  2
DIMSTYLE
 70
     2
  0
DIMSTYLE
  2
STANDARD
 70
     0
  3

  4

  5

  6

  7

 40
1.0
 41
0.18
 42
0.0625
 43
0.38
 44
0.18
 45
0.0
 46
0.0
 47
0.0
 48
0.0
140
0.18
141
0.09
142
0.0
143
25.399999999999999
144
1.0
145
0.0
146
1.0
147
0.09
 71
     0
 72
     0
 73
     1
 74
     1
 75
     0
 76
     0
 77
     0
 78
     0
170
     0
171
     2
172
     0
173
     0
174
     0
175
     0
176
     0
177
     0
178
     0
  0
DIMSTYLE
  2
MATSU
 70
     0
  3

  4

  5

  6
OPEN
  7
OPEN
 40
1.0
 41
2.0
 42
1.0
 43
10.0
 44
1.0
 45
0.0
 46
0.0
 47
0.0
 48
0.0
140
3.0
141
0.0
142
0.0
143
0.03937
144
1.0
145
0.0
146
1.0
147
0.5
 71
     0
 72
     0
 73
     0
 74
     0
 75
     0
 76
     0
 77
     1
 78
     8
170
     0
171
     2
172
     1
173
     1
174
     0
175
     0
176
   256
177
   256
178
   256
  0
ENDTAB
  0
ENDSEC
  0
SECTION
  2
BLOCKS
  0
BLOCK
  8
0
  2
$MODEL_SPACE
 70
     0
 10
0.0
 20
0.0
 30
0.0
  3
$MODEL_SPACE
  1

  0
ENDBLK
  5
1B
  8
0
  0
BLOCK
 67
     1
  8
0
  2
$PAPER_SPACE
 70
     0
 10
0.0
 20
0.0
 30
0.0
  3
$PAPER_SPACE
  1

  0
ENDBLK
  5
18
 67
     1
  8
0
  0
BLOCK
  8
0
  2
YA_N
 70
     0
 10
0.0
 20
0.0
 30
0.0
  3
YA_N
  1

  0
ENDBLK
  5
23AE
  8
0
  0
BLOCK
  8
0
  2
SAITOS
 70
     0
 10
0.0
 20
0.0
 30
0.0
  3
SAITOS
  1

  0
INSERT
  5
34D0
  8
0
  2
YA_N
 10
6.0
 20
5.0
 30
0.0
  0
ENDBLK
  5
34D2
  8
0
  0
BLOCK
  8
0
  2
_OPEN
 70
     0
 10
0.0
 20
0.0
 30
0.0
  3
_OPEN
  1

  0
LINE
  5
5102
  8
0
  6
BYBLOCK
 62
     0
 10
-1.0
 20
0.1666666666666666
 30
0.0
 11
0.0
 21
0.0
 31
0.0
  0
LINE
  5
5103
  8
0
  6
BYBLOCK
 62
     0
 10
0.0
 20
0.0
 30
0.0
 11
-1.0
 21
-0.1666666666666666
 31
0.0
  0
LINE
  5
5104
  8
0
  6
BYBLOCK
 62
     0
 10
0.0
 20
0.0
 30
0.0
 11
-1.0
 21
0.0
 31
0.0
  0
ENDBLK
  5
5105
  8
0
  0
BLOCK
  8
0
  2
*D3
 70
     1
 10
0.0
 20
0.0
 30
0.0
  3
*D3
  1

  0
LINE
  5
628A
  8
3
 10
2786.1144257323072
 20
1122.4409619546821
 30
0.0
 11
2786.1144257323072
 21
805.89529938579335
 31
0.0
  0
LINE
  5
628B
  8
3
 10
3986.1144257323072
 20
1122.4409619546821
 30
0.0
 11
3986.1144257323072
 21
805.89529938579335
 31
0.0
  0
LINE
  5
628C
  8
3
 10
2816.1144257323072
 20
820.89529938579324
 30
0.0
 11
3956.1144257323072
 21
820.89529938579324
 31
0.0
  0
INSERT
  5
628D
  8
3
  2
_OPEN
 10
2786.1144257323072
 20
820.89529938579324
 30
0.0
 41
30.0
 42
30.0
 43
30.0
 50
180.0
  0
INSERT
  5
628E
  8
3
  2
_OPEN
 10
3986.1144257323072
 20
820.89529938579324
 30
0.0
 41
30.0
 42
30.0
 43
30.0
  0
TEXT
  8
3
  40
45
  5
62E9
  72
0
  71
0
 10
3296.11
 20
771.245
 30
0.000000
  1
1200
  0
POINT
  5
6290
  8
DEFPOINTS
 62
     0
 10
2786.1144257323072
 20
1137.4409619546821
 30
0.0
  0
POINT
  5
6291
  8
DEFPOINTS
 62
     0
 10
3986.1144257323072
 20
1137.4409619546821
 30
0.0
  0
POINT
  5
6292
  8
DEFPOINTS
 62
     0
 10
3986.1144257323072
 20
820.89529938579324
 30
0.0
  0
ENDBLK
  5
5A1D
  8
0
  0
BLOCK
  8
0
  2
*D4
 70
     1
 10
0.0
 20
0.0
 30
0.0
  3
*D4
  1

  0
LINE
  5
6293
  8
3
 10
2102.1624700161792
 20
1122.4409619546821
 30
0.0
 11
2102.1624700161792
 21
804.7559719968699
 31
0.0
  0
LINE
  5
6294
  8
3
 10
1192.1624700161781
 20
1122.4409619546821
 30
0.0
 11
1192.1624700161781
 21
804.7559719968699
 31
0.0
  0
LINE
  5
6295
  8
3
 10
2072.1624700161792
 20
819.7559719968699
 30
0.0
 11
1222.1624700161781
 21
819.7559719968699
 31
0.0
  0
INSERT
  5
6296
  8
3
  2
_OPEN
 10
2102.1624700161792
 20
819.7559719968699
 30
0.0
 41
30.0
 42
30.0
 43
30.0
  0
INSERT
  5
6297
  8
3
  2
_OPEN
 10
1192.1624700161781
 20
819.7559719968699
 30
0.0
 41
30.0
 42
30.0
 43
30.0
 50
180.0
  0
TEXT
  8
3
  40
45
  5
62EA
  72
0
  71
0
 10
1557.16
 20
770.106
 30
0.000000
  1
910
  0
POINT
  5
6299
  8
DEFPOINTS
 62
     0
 10
2102.1624700161792
 20
1137.4409619546821
 30
0.0
  0
POINT
  5
629A
  8
DEFPOINTS
 62
     0
 10
1192.1624700161781
 20
1137.4409619546821
 30
0.0
  0
POINT
  5
629B
  8
DEFPOINTS
 62
     0
 10
1192.1624700161781
 20
819.7559719968699
 30
0.0
  0
ENDBLK
  5
5A2A
  8
0
  0
BLOCK
  8
0
  2
*D5
 70
     1
 10
0.0
 20
0.0
 30
0.0
  3
*D5
  1

  0
LINE
  5
629C
  8
3
 10
1242.162470016179
 20
2347.4409619546832
 30
0.0
 11
1242.162470016179
 21
2684.6964148995521
 31
0.0
  0
LINE
  5
629D
  8
3
 10
2052.1624700161778
 20
2347.4409619546832
 30
0.0
 11
2052.1624700161778
 21
2684.6964148995521
 31
0.0
  0
LINE
  5
629E
  8
3
 10
1272.162470016179
 20
2669.696414899553
 30
0.0
 11
2022.1624700161781
 21
2669.696414899553
 31
0.0
  0
INSERT
  5
629F
  8
3
  2
_OPEN
 10
1242.162470016179
 20
2669.696414899553
 30
0.0
 41
30.0
 42
30.0
 43
30.0
 50
180.0
  0
INSERT
  5
62A0
  8
3
  2
_OPEN
 10
2052.1624700161778
 20
2669.696414899553
 30
0.0
 41
30.0
 42
30.0
 43
30.0
  0
TEXT
  8
3
  40
45
  5
62EB
  72
0
  71
0
 10
1557.16
 20
2620.05
 30
0.000000
  1
810
  0
POINT
  5
62A2
  8
DEFPOINTS
 62
     0
 10
1242.162470016179
 20
2332.4409619546818
 30
0.0
  0
POINT
  5
62A3
  8
DEFPOINTS
 62
     0
 10
2052.1624700161778
 20
2332.4409619546818
 30
0.0
  0
POINT
  5
62A4
  8
DEFPOINTS
 62
     0
 10
2052.1624700161778
 20
2669.696414899553
 30
0.0
  0
ENDBLK
  5
5A37
  8
0
  0
BLOCK
  8
0
  2
*D6
 70
     1
 10
0.0
 20
0.0
 30
0.0
  3
*D6
  1

  0
LINE
  5
62A5
  8
3
 10
1187.162470016179
 20
2292.4409619546832
 30
0.0
 11
1060.490548396351
 21
2292.4409619546832
 31
0.0
  0
LINE
  5
62A6
  8
3
 10
1187.1624700161781
 20
1392.4409619546821
 30
0.0
 11
1060.4905483963501
 21
1392.4409619546821
 31
0.0
  0
LINE
  5
62A7
  8
3
 10
1075.490548396351
 20
2262.4409619546818
 30
0.0
 11
1075.490548396351
 21
1422.4409619546821
 31
0.0
  0
INSERT
  5
62A8
  8
3
  2
_OPEN
 10
1075.490548396351
 20
2292.4409619546832
 30
0.0
 41
30.0
 42
30.0
 43
30.0
 50
90.0
  0
INSERT
  5
62A9
  8
3
  2
_OPEN
 10
1075.490548396351
 20
1392.4409619546821
 30
0.0
 41
30.0
 42
30.0
 43
30.0
 50
270.0
  0
TEXT
  8
3
  40
45
  5
62EC
  72
0
  71
0
 10
955.491
 20
1762.79
 30
0.000000
  1
%%c900
  0
POINT
  5
62AB
  8
DEFPOINTS
 62
     0
 10
1202.162470016179
 20
2292.4409619546832
 30
0.0
  0
POINT
  5
62AC
  8
DEFPOINTS
 62
     0
 10
1202.1624700161781
 20
1392.4409619546821
 30
0.0
  0
POINT
  5
62AD
  8
DEFPOINTS
 62
     0
 10
1075.490548396351
 20
1392.4409619546821
 30
0.0
  0
ENDBLK
  5
5A44
  8
0
  0
BLOCK
  8
0
  2
*D7
 70
     1
 10
0.0
 20
0.0
 30
0.0
  3
*D7
  1

  0
LINE
  5
62AE
  8
3
 10
2896.1144257323072
 20
1857.4409619546821
 30
0.0
 11
2896.1144257323072
 21
2700.1183360116988
 31
0.0
  0
LINE
  5
62AF
  8
3
 10
3876.1144257323072
 20
1857.4409619546821
 30
0.0
 11
3876.1144257323072
 21
2700.1183360116988
 31
0.0
  0
LINE
  5
62B0
  8
3
 10
2926.1144257323058
 20
2685.1183360116988
 30
0.0
 11
3846.1144257323072
 21
2685.1183360116988
 31
0.0
  0
INSERT
  5
62B1
  8
3
  2
_OPEN
 10
2896.1144257323072
 20
2685.1183360116988
 30
0.0
 41
30.0
 42
30.0
 43
30.0
 50
180.0
  0
INSERT
  5
62B2
  8
3
  2
_OPEN
 10
3876.1144257323072
 20
2685.1183360116988
 30
0.0
 41
30.0
 42
30.0
 43
30.0
  0
TEXT
  8
3
  40
45
  5
62ED
  72
0
  71
0
 10
3296.11
 20
2635.47
 30
0.000000
  1
980
  0
POINT
  5
62B4
  8
DEFPOINTS
 62
     0
 10
2896.1144257323072
 20
1842.4409619546821
 30
0.0
  0
POINT
  5
62B5
  8
DEFPOINTS
 62
     0
 10
3876.1144257323072
 20
1842.4409619546821
 30
0.0
  0
POINT
  5
62B6
  8
DEFPOINTS
 62
     0
 10
3876.1144257323072
 20
2685.1183360116988
 30
0.0
  0
ENDBLK
  5
5A70
  8
0
  0
BLOCK
  8
0
  2
*D8
 70
     1
 10
0.0
 20
0.0
 30
0.0
  3
*D8
  1

  0
LINE
  5
62B7
  8
3
 10
2836.1144257323072
 20
1097.4409619546821
 30
0.0
 11
2836.1144257323072
 21
950.09129560392819
 31
0.0
  0
LINE
  5
62B8
  8
3
 10
3936.1144257323072
 20
1097.4409619546821
 30
0.0
 11
3936.1144257323072
 21
950.09129560392819
 31
0.0
  0
LINE
  5
62B9
  8
3
 10
2866.1144257323072
 20
965.0912956039283
 30
0.0
 11
3906.1144257323081
 21
965.0912956039283
 31
0.0
  0
INSERT
  5
62BA
  8
3
  2
_OPEN
 10
2836.1144257323072
 20
965.0912956039283
 30
0.0
 41
30.0
 42
30.0
 43
30.0
 50
180.0
  0
INSERT
  5
62BB
  8
3
  2
_OPEN
 10
3936.1144257323072
 20
965.0912956039283
 30
0.0
 41
30.0
 42
30.0
 43
30.0
  0
TEXT
  8
3
  40
45
  5
62EE
  72
0
  71
0
 10
3296.11
 20
915.441
 30
0.000000
  1
1100
  0
POINT
  5
62BD
  8
DEFPOINTS
 62
     0
 10
2836.1144257323072
 20
1112.4409619546821
 30
0.0
  0
POINT
  5
62BE
  8
DEFPOINTS
 62
     0
 10
3936.1144257323072
 20
1112.4409619546821
 30
0.0
  0
POINT
  5
62BF
  8
DEFPOINTS
 62
     0
 10
3936.1144257323072
 20
965.0912956039283
 30
0.0
  0
ENDBLK
  5
5CB0
  8
0
  0
BLOCK
  8
0
  2
*D9
 70
     1
 10
0.0
 20
0.0
 30
0.0
  3
*D9
  1

  0
LINE
  5
62C0
  8
3
 10
1212.1624700161781
 20
1097.4409619546821
 30
0.0
 11
1212.1624700161781
 21
953.67354139047336
 31
0.0
  0
LINE
  5
62C1
  8
3
 10
2082.1624700161792
 20
1097.4409619546821
 30
0.0
 11
2082.1624700161792
 21
953.67354139047336
 31
0.0
  0
LINE
  5
62C2
  8
3
 10
1242.1624700161781
 20
968.67354139047347
 30
0.0
 11
2052.1624700161792
 21
968.67354139047347
 31
0.0
  0
INSERT
  5
62C3
  8
3
  2
_OPEN
 10
1212.1624700161781
 20
968.67354139047347
 30
0.0
 41
30.0
 42
30.0
 43
30.0
 50
180.0
  0
INSERT
  5
62C4
  8
3
  2
_OPEN
 10
2082.1624700161792
 20
968.67354139047347
 30
0.0
 41
30.0
 42
30.0
 43
30.0
  0
TEXT
  8
3
  40
45
  5
62EF
  72
0
  71
0
 10
1557.16
 20
919.024
 30
0.000000
  1
870
  0
POINT
  5
62C6
  8
DEFPOINTS
 62
     0
 10
1212.1624700161781
 20
1112.4409619546821
 30
0.0
  0
POINT
  5
62C7
  8
DEFPOINTS
 62
     0
 10
2082.1624700161792
 20
1112.4409619546821
 30
0.0
  0
POINT
  5
62C8
  8
DEFPOINTS
 62
     0
 10
2082.1624700161792
 20
968.67354139047347
 30
0.0
  0
ENDBLK
  5
5CC6
  8
0
  0
BLOCK
  8
0
  2
*D10
 70
     1
 10
0.0
 20
0.0
 30
0.0
  3
*D10
  1

  0
LINE
  5
62C9
  8
SP
 10
2971.1144257323081
 20
1282.440961954683
 30
0.0
 11
2610.3383327086772
 21
1282.440961954683
 31
0.0
  0
LINE
  5
62CA
  8
SP
 10
2845.1144257323058
 20
1842.4409619546821
 30
0.0
 11
2610.3383327086772
 21
1842.4409619546821
 31
0.0
  0
LINE
  5
62CB
  8
SP
 10
2625.3383327086772
 20
1312.440961954683
 30
0.0
 11
2625.3383327086772
 21
1812.4409619546821
 31
0.0
  0
INSERT
  5
62CC
  8
SP
  2
_OPEN
 10
2625.3383327086772
 20
1282.440961954683
 30
0.0
 41
30.0
 42
30.0
 43
30.0
 50
270.0
  0
INSERT
  5
62CD
  8
SP
  2
_OPEN
 10
2625.3383327086772
 20
1842.4409619546821
 30
0.0
 41
30.0
 42
30.0
 43
30.0
 50
90.0
  0
TEXT
  8
0
  40
45
  5
62F0
  72
0
  71
0
 10
2505.34
 20
1482.79
 30
0.000000
  1
560
  0
POINT
  5
62CF
  8
DEFPOINTS
 62
     0
 10
2986.1144257323072
 20
1282.440961954683
 30
0.0
  0
POINT
  5
62D0
  8
DEFPOINTS
 62
     0
 10
2860.1144257323072
 20
1842.4409619546821
 30
0.0
  0
POINT
  5
62D1
  8
DEFPOINTS
 62
     0
 10
2625.3383327086772
 20
1842.4409619546821
 30
0.0
  0
ENDBLK
  5
5CDC
  8
0
  0
BLOCK
  8
0
  2
*D11
 70
     1
 10
0.0
 20
0.0
 30
0.0
  3
*D11
  1

  0
LINE
  5
62D2
  8
SP
 10
2971.1144257323081
 20
1282.440961954683
 30
0.0
 11
2610.3383327086772
 21
1282.440961954683
 31
0.0
  0
LINE
  5
62D3
  8
SP
 10
2771.1144257323072
 20
1187.4409619546821
 30
0.0
 11
2610.3383327086772
 21
1187.4409619546821
 31
0.0
  0
LINE
  5
62D4
  8
SP
 10
2625.3383327086772
 20
1282.440961954683
 30
0.0
 11
2625.3383327086772
 21
1187.4409619546821
 31
0.0
  0
LINE
  5
62D5
  8
SP
 10
2625.3383327086772
 20
1234.9409619546821
 30
0.0
 11
2564.802618422963
 21
1253.101676240397
 31
0.0
  0
LINE
  5
62D6
  8
SP
 10
2564.802618422963
 20
1253.101676240397
 30
0.0
 11
2564.802618422963
 21
1398.549485555435
 31
0.0
  0
TEXT
  8
0
  40
45
  5
62F1
  72
0
  71
0
 10
2433.02
 20
1246.18
 30
0.000000
  1
(95)
  0
POINT
  5
62D8
  8
DEFPOINTS
 62
     0
 10
2986.1144257323072
 20
1282.440961954683
 30
0.0
  0
POINT
  5
62D9
  8
DEFPOINTS
 62
     0
 10
2786.1144257323072
 20
1187.4409619546821
 30
0.0
  0
POINT
  5
62DA
  8
DEFPOINTS
 62
     0
 10
2625.3383327086772
 20
1187.4409619546821
 30
0.0
  0
ENDBLK
  5
5CF7
  8
0
  0
BLOCK
  8
0
  2
*D12
 70
     1
 10
0.0
 20
0.0
 30
0.0
  3
*D12
  1

  0
LINE
  5
62DB
  8
SP
 10
2771.1144257323072
 20
1187.4409619546821
 30
0.0
 11
2610.3383327086772
 21
1187.4409619546821
 31
0.0
  0
LINE
  5
62DC
  8
SP
 10
2771.1144257323072
 20
1137.4409619546821
 30
0.0
 11
2610.3383327086772
 21
1137.4409619546821
 31
0.0
  0
LINE
  5
62DD
  8
SP
 10
2625.3383327086772
 20
1217.4409619546821
 30
0.0
 11
2625.3383327086772
 21
1247.4409619546821
 31
0.0
  0
LINE
  5
62DE
  8
SP
 10
2625.3383327086772
 20
1107.4409619546821
 30
0.0
 11
2625.3383327086772
 21
1077.4409619546821
 31
0.0
  0
TEXT
  8
0
  40
45
  5
62F2
  72
0
  71
0
 10
2510.19
 20
952.737
 30
0.000000
  1
50
  0
LINE
  5
62E0
  8
SP
 10
2625.3383327086772
 20
1187.4409619546821
 30
0.0
 11
2625.3383327086772
 21
1137.4409619546821
 31
0.0
  0
INSERT
  5
62E1
  8
SP
  2
_OPEN
 10
2625.3383327086772
 20
1187.4409619546821
 30
0.0
 41
30.0
 42
30.0
 43
30.0
 50
270.0
  0
INSERT
  5
62E2
  8
SP
  2
_OPEN
 10
2625.3383327086772
 20
1137.4409619546821
 30
0.0
 41
30.0
 42
30.0
 43
30.0
 50
90.0
  0
POINT
  5
62E3
  8
DEFPOINTS
 62
     0
 10
2786.1144257323072
 20
1187.4409619546821
 30
0.0
  0
POINT
  5
62E4
  8
DEFPOINTS
 62
     0
 10
2786.1144257323072
 20
1137.4409619546821
 30
0.0
  0
POINT
  5
62E5
  8
DEFPOINTS
 62
     0
 10
2625.3383327086772
 20
1137.4409619546821
 30
0.0
  0
ENDBLK
  5
5D09
  8
0
  0
BLOCK
  8
0
  2
_DOTSMALL
 70
     0
 10
0.0
 20
0.0
 30
0.0
  3
_DOTSMALL
  1

  0
POLYLINE
  5
5DA9
  8
1
 62
     0
 66
     1
 10
0.0
 20
0.0
 30
0.0
 70
     1
 40
0.5
 41
0.5
  0
VERTEX
  5
62E6
  8
1
 62
     0
 10
-0.0625
 20
0.0
 30
0.0
 42
1.0
  0
VERTEX
  5
62E7
  8
1
 62
     0
 10
0.0625
 20
0.0
 30
0.0
 42
1.0
  0
SEQEND
  5
62E8
  8
1
 62
     0
  0
ENDBLK
  5
5DAB
  8
0
  0
BLOCK
  8
0
  2
_NONE
 70
     0
 10
0.0
 20
0.0
 30
0.0
  3
_NONE
  1

  0
ENDBLK
  5
5DB8
  8
0
  0
ENDSEC
  0
SECTION
  2
ENTITIES
  0
INSERT
  5
2A27
  8
0
  2
YA_N
 10
393.05665135975482
 20
221.63056065424499
 30
0.0
  0
CIRCLE
  5
2A28
  8
1
 10
3386.1144257323072
 20
1842.4409619546821
 30
0.0
 40
490.0
  0
LINE
  5
2A2A
  8
2
 10
2860.1144257323072
 20
1842.4409619546821
 30
0.0
 11
3912.1144257323072
 21
1842.4409619546821
 31
0.0
  0
CIRCLE
  5
2A2B
  8
1
 10
3386.1144257323072
 20
1842.4409619546821
 30
0.0
 40
450.0
  0
CIRCLE
  5
2A2C
  8
1
 10
3386.1144257323072
 20
1842.4409619546821
 30
0.0
 40
454.49999999999989
  0
LINE
  5
2A74
  8
1
 10
1262.162470016179
 20
2042.440961954683
 30
0.0
 11
1262.162470016179
 21
1642.440961954683
 31
0.0
  0
LINE
  5
2A76
  8
1
 10
1302.162470016179
 20
2288.4409619546818
 30
0.0
 11
1377.162470016179
 21
2288.4409619546818
 31
0.0
  0
LINE
  5
2A77
  8
1
 10
1262.162470016179
 20
2042.4409619546821
 30
0.0
 11
1417.162470016179
 21
2042.4409619546821
 31
0.0
  0
LINE
  5
2A78
  8
1
 10
1267.162470016179
 20
2042.440961954683
 30
0.0
 11
1302.162470016179
 21
2288.4409619546818
 31
0.0
  0
LINE
  5
2A79
  8
1
 10
1412.162470016179
 20
2042.440961954683
 30
0.0
 11
1377.162470016179
 21
2288.4409619546818
 31
0.0
  0
LINE
  5
2A7A
  8
1
 10
1387.162470016179
 20
1897.4409619546821
 30
0.0
 11
1387.162470016179
 21
1787.4409619546821
 31
0.0
  0
LINE
  5
2A7B
  8
1
 10
1287.162470016179
 20
1897.4409619546821
 30
0.0
 11
1287.162470016179
 21
1787.4409619546821
 31
0.0
  0
LINE
  5
2A7C
  8
1
 10
1287.162470016179
 20
1897.4409619546821
 30
0.0
 11
1387.162470016179
 21
1897.4409619546821
 31
0.0
  0
LINE
  5
2A7D
  8
1
 10
1287.162470016179
 20
1787.4409619546821
 30
0.0
 11
1387.162470016179
 21
1787.4409619546821
 31
0.0
  0
LINE
  5
2A7E
  8
1
 10
1412.162470016179
 20
1642.4409619546821
 30
0.0
 11
1377.162470016179
 21
1396.440961954683
 31
0.0
  0
LINE
  5
2A7F
  8
1
 10
1267.162470016179
 20
1642.4409619546821
 30
0.0
 11
1302.162470016179
 21
1396.440961954683
 31
0.0
  0
LINE
  5
2A80
  8
1
 10
1262.162470016179
 20
1642.440961954683
 30
0.0
 11
1417.162470016179
 21
1642.440961954683
 31
0.0
  0
LINE
  5
2A81
  8
1
 10
1302.162470016179
 20
1396.440961954683
 30
0.0
 11
1377.162470016179
 21
1396.440961954683
 31
0.0
  0
LINE
  5
2AB1
  8
1
 10
1242.162470016179
 20
2332.4409619546818
 30
0.0
 11
1242.1624700161781
 21
1352.4409619546821
 31
0.0
  0
LINE
  5
2AB2
  8
1
 10
1202.162470016179
 20
2292.4409619546832
 30
0.0
 11
1202.1624700161781
 21
1392.4409619546821
 31
0.0
  0
ARC
  5
2AB4
  8
1
 10
1241.162470016179
 20
2330.4409619546818
 30
0.0
 40
2.0
 50
90.0
 51
180.0
  0
ARC
  5
2AB5
  8
1
 10
1234.662470016179
 20
2299.9409619546818
 30
0.0
 40
4.5
 50
270.0
 51
0.0
  0
LINE
  5
2AB6
  8
1
 10
1234.662470016179
 20
2295.4409619546818
 30
0.0
 11
1204.162470016179
 21
2295.4409619546818
 31
0.0
  0
ARC
  5
2AB7
  8
1
 10
1204.162470016179
 20
2293.4409619546818
 30
0.0
 40
2.0
 50
90.0
 51
180.0
  0
LINE
  5
2AB8
  8
1
 10
1202.162470016179
 20
2293.4409619546818
 30
0.0
 11
1202.162470016179
 21
2292.4409619546832
 31
0.0
  0
LINE
  5
2AB9
  8
1
 10
1202.162470016179
 20
2292.4409619546832
 30
0.0
 11
1242.162470016179
 21
2292.4409619546832
 31
0.0
  0
LINE
  5
2ABA
  8
1
 10
1239.162470016179
 20
2330.4409619546818
 30
0.0
 11
1239.1624700161781
 21
1354.4409619546821
 31
0.0
  0
ARC
  5
2ABB
  8
1
 10
1241.162470016179
 20
1354.4409619546821
 30
0.0
 40
2.0
 50
180.0
 51
270.0
  0
LINE
  5
2ABC
  8
1
 10
1242.162470016179
 20
1352.4409619546821
 30
0.0
 11
1241.162470016179
 21
1352.4409619546821
 31
0.0
  0
LINE
  5
2ABD
  8
1
 10
1202.162470016179
 20
1392.4409619546821
 30
0.0
 11
1242.1624700161781
 21
1392.4409619546821
 31
0.0
  0
LINE
  5
2ABE
  8
1
 10
1202.162470016179
 20
1391.4409619546821
 30
0.0
 11
1202.162470016179
 21
1392.4409619546821
 31
0.0
  0
ARC
  5
2ABF
  8
1
 10
1204.162470016179
 20
1391.4409619546821
 30
0.0
 40
2.0
 50
180.0
 51
270.0
  0
LINE
  5
2AC0
  8
1
 10
1234.662470016179
 20
1389.4409619546821
 30
0.0
 11
1204.162470016179
 21
1389.4409619546821
 31
0.0
  0
ARC
  5
2AC1
  8
1
 10
1234.662470016179
 20
1384.9409619546821
 30
0.0
 40
4.5
 50
0.0
 51
90.0
  0
LINE
  5
2B70
  8
1
 10
1242.162470016179
 20
1392.4409619546821
 30
0.0
 11
2052.1624700161792
 21
1392.4409619546821
 31
0.0
  0
LINE
  5
2B71
  8
1
 10
1242.162470016179
 20
1387.9409619546821
 30
0.0
 11
2052.1624700161792
 21
1387.9409619546821
 31
0.0
  0
LINE
  5
2B72
  8
CT
 10
1148.4355793749539
 20
1842.4409619546821
 30
0.0
 11
2154.4553517081272
 21
1842.4409619546821
 31
0.0
  0
LINE
  5
2B73
  8
1
 10
1242.162470016179
 20
2292.4409619546832
 30
0.0
 11
2052.1624700161792
 21
2292.4409619546832
 31
0.0
  0
LINE
  5
2B74
  8
1
 10
2047.662470016179
 20
2332.4409619546832
 30
0.0
 11
2047.662470016179
 21
1352.4409619546821
 31
0.0
  0
LINE
  5
2B75
  8
1
 10
2052.1624700161792
 20
2332.4409619546818
 30
0.0
 11
2052.1624700161792
 21
1352.4409619546821
 31
0.0
  0
LINE
  5
2B76
  8
1
 10
2047.662470016179
 20
1352.4409619546821
 30
0.0
 11
2052.1624700161792
 21
1352.4409619546821
 31
0.0
  0
LINE
  5
2B7E
  8
1
 10
1242.162470016179
 20
2332.4409619546818
 30
0.0
 11
1242.162470016179
 21
1352.4409619546821
 31
0.0
  0
LINE
  5
2B7F
  8
1
 10
1246.662470016179
 20
2332.4409619546832
 30
0.0
 11
1246.662470016179
 21
1352.4409619546821
 31
0.0
  0
LINE
  5
2B80
  8
1
 10
1246.662470016179
 20
1352.4409619546821
 30
0.0
 11
1242.162470016179
 21
1352.4409619546821
 31
0.0
  0
LINE
  5
2B81
  8
1
 10
1246.662470016179
 20
2296.9409619546832
 30
0.0
 11
1296.662470016179
 21
2296.9409619546832
 31
0.0
  0
LINE
  5
2BD2
  8
2
 10
3386.1144257323072
 20
1105.7983228142371
 30
0.0
 11
3386.1144257323072
 21
2510.2096488525999
 31
0.0
  0
POINT
  5
2C17
  8
1
 10
1387.162470016179
 20
1897.4409619546821
 30
0.0
  0
POINT
  5
2C21
  8
1
 10
1387.162470016179
 20
1897.4409619546821
 30
0.0
  0
LINE
  5
2C29
  8
1
 10
1417.162470016179
 20
2042.4409619546821
 30
0.0
 11
1417.162470016179
 21
1642.440961954683
 31
0.0
  0
LINE
  5
2C47
  8
1
 10
1296.662470016179
 20
2296.9409619546832
 30
0.0
 11
2047.662470016179
 21
2296.9409619546809
 31
0.0
  0
LINE
  5
2DC6
  8
1
 10
1224.6900744691891
 20
2314.9409619546818
 30
0.0
 11
1264.676224164999
 21
2314.9409619546818
 31
0.0
  0
LINE
  5
2DC7
  8
1
 10
1224.69007446919
 20
1369.9409619546821
 30
0.0
 11
1264.676224164999
 21
1369.940961954683
 31
0.0
  0
LINE
  5
2DC8
  8
1
 10
2031.4693186630591
 20
1369.9409619546821
 30
0.0
 11
2071.4554683588681
 21
1369.9409619546821
 31
0.0
  0
LINE
  5
2DC9
  8
1
 10
2031.4693186630591
 20
2314.9409619546818
 30
0.0
 11
2071.4554683588672
 21
2314.9409619546818
 31
0.0
  0
LINE
  5
3310
  8
1
 10
2055.1624700161778
 20
2330.4409619546818
 30
0.0
 11
2055.1624700161792
 21
1354.4409619546821
 31
0.0
  0
LINE
  5
3311
  8
1
 10
2092.1624700161778
 20
2292.4409619546832
 30
0.0
 11
2092.1624700161792
 21
1392.4409619546821
 31
0.0
  0
LINE
  5
3312
  8
1
 10
2052.1624700161778
 20
2332.4409619546818
 30
0.0
 11
2052.1624700161792
 21
1352.4409619546821
 31
0.0
  0
LINE
  5
3313
  8
1
 10
2052.1624700161778
 20
1352.4409619546821
 30
0.0
 11
2053.1624700161778
 21
1352.4409619546821
 31
0.0
  0
ARC
  5
3314
  8
1
 10
2053.1624700161778
 20
1354.4409619546821
 30
0.0
 40
2.0
 50
270.0
 51
0.0
  0
ARC
  5
3315
  8
1
 10
2059.6624700161778
 20
1384.9409619546821
 30
0.0
 40
4.5
 50
90.0
 51
180.0
  0
LINE
  5
3316
  8
1
 10
2059.6624700161778
 20
1389.4409619546821
 30
0.0
 11
2090.1624700161778
 21
1389.4409619546821
 31
0.0
  0
ARC
  5
3317
  8
1
 10
2090.1624700161778
 20
1391.4409619546821
 30
0.0
 40
2.0
 50
270.0
 51
0.0
  0
LINE
  5
3318
  8
1
 10
2092.1624700161778
 20
1391.4409619546821
 30
0.0
 11
2092.1624700161778
 21
1392.4409619546821
 31
0.0
  0
LINE
  5
3319
  8
1
 10
2092.1624700161778
 20
1392.4409619546821
 30
0.0
 11
2052.1624700161792
 21
1392.4409619546821
 31
0.0
  0
LINE
  5
331B
  8
1
 10
2092.1624700161778
 20
2292.4409619546832
 30
0.0
 11
2052.1624700161778
 21
2292.4409619546832
 31
0.0
  0
LINE
  5
331C
  8
1
 10
2092.1624700161778
 20
2293.4409619546818
 30
0.0
 11
2092.1624700161778
 21
2292.4409619546832
 31
0.0
  0
ARC
  5
331D
  8
1
 10
2090.1624700161778
 20
2293.4409619546818
 30
0.0
 40
2.0
 50
0.0
 51
90.0
  0
LINE
  5
331E
  8
1
 10
2059.6624700161778
 20
2295.4409619546818
 30
0.0
 11
2090.1624700161778
 21
2295.4409619546818
 31
0.0
  0
ARC
  5
331F
  8
1
 10
2059.6624700161778
 20
2299.9409619546818
 30
0.0
 40
4.5
 50
180.0
 51
270.0
  0
ARC
  5
3320
  8
1
 10
2053.1624700161778
 20
2330.4409619546818
 30
0.0
 40
2.0
 50
0.0
 51
90.0
  0
LINE
  5
34CD
  8
1
 10
1317.162470016179
 20
2042.4409619546821
 30
0.0
 11
1317.162470016179
 21
1642.440961954683
 31
0.0
  0
LINE
  5
34CE
  8
1
 10
1327.162470016179
 20
2042.4409619546821
 30
0.0
 11
1327.162470016179
 21
1642.440961954683
 31
0.0
  0
INSERT
  5
38D6
  8
0
  2
YA_N
 10
2255.2823159727141
 20
4310.8610800938995
 30
0.0
  0
INSERT
  5
38D7
  8
FUTO
  2
SAITOS
 10
2249.2823159727141
 20
4305.8610800938995
 30
0.0
  0
INSERT
  5
3966
  8
0
  2
YA_N
 10
7755.2324490037663
 20
3055.7338312020579
 30
0.0
 41
0.75
 42
0.75
 43
0.75
  0
INSERT
  5
3967
  8
FUTO
  2
SAITOS
 10
7750.7324490037663
 20
3051.9838312020579
 30
0.0
 41
0.75
 42
0.75
 43
0.75
  0
INSERT
  5
3968
  8
0
  2
YA_N
 10
11147.69801996947
 20
4644.5642139784586
 30
0.0
 41
0.75
 42
0.75
 43
0.75
  0
INSERT
  5
3969
  8
FUTO
  2
SAITOS
 10
11143.19801996947
 20
4640.8142139784586
 30
0.0
 41
0.75
 42
0.75
 43
0.75
  0
TEXT
  5
39BA
  8
FUTO
 10
11387.7458353532
 20
4635.2586695132668
 30
0.0
 40
7.5
  1

 51
15.0
  0
TEXT
  5
39BB
  8
FUTO
 10
11586.53371433487
 20
4635.2586695132668
 30
0.0
 40
7.5
  1

 51
15.0
  0
TEXT
  5
39BC
  8
FUTO
 10
11386.273332492239
 20
4635.2586695132668
 30
0.0
 40
7.5
  1

 51
15.0
  0
INSERT
  5
39D3
  8
0
  2
YA_N
 10
6984.6043717091397
 20
2544.0285315017022
 30
0.0
 41
15.0
 42
15.0
 43
15.0
  0
INSERT
  5
39D4
  8
FUTO
  2
SAITOS
 10
6894.6043717091397
 20
2469.0285315017009
 30
0.0
 41
15.0
 42
15.0
 43
15.0
  0
INSERT
  5
39D5
  8
0
  2
YA_N
 10
72234.883541243107
 20
3669.0285315017022
 30
0.0
 41
225.0
 42
225.0
 43
225.0
  0
INSERT
  5
39D6
  8
FUTO
  2
SAITOS
 10
70884.883541243107
 20
2544.0285315017022
 30
0.0
 41
225.0
 42
225.0
 43
225.0
  0
INSERT
  5
39D7
  8
0
  2
YA_N
 10
103825.2584725763
 20
4967.1719664180564
 30
0.0
 41
225.0
 42
225.0
 43
225.0
  0
INSERT
  5
39D8
  8
FUTO
  2
SAITOS
 10
102475.2584725763
 20
3842.171966418055
 30
0.0
 41
225.0
 42
225.0
 43
225.0
  0
INSERT
  5
39D9
  8
0
  2
YA_N
 10
72234.883541243107
 20
3669.0285315017022
 30
0.0
 41
225.0
 42
225.0
 43
225.0
  0
INSERT
  5
39DA
  8
FUTO
  2
SAITOS
 10
70884.883541243107
 20
2544.0285315017022
 30
0.0
 41
225.0
 42
225.0
 43
225.0
  0
INSERT
  5
39DB
  8
0
  2
YA_N
 10
12446.2054571137
 20
2730.621937030714
 30
0.0
 41
15.0
 42
15.0
 43
15.0
  0
INSERT
  5
39DC
  8
FUTO
  2
SAITOS
 10
12356.2054571137
 20
2655.621937030714
 30
0.0
 41
15.0
 42
15.0
 43
15.0
  0
TEXT
  5
39DD
  8
SP
 10
13350.415310127781
 20
6082.7185190425926
 30
0.0
 40
37.5
  1

  0
TEXT
  5
39DE
  8
SP
 10
13350.415310127781
 20
6007.7185190425944
 30
0.0
 40
37.5
  1

  0
TEXT
  5
39DF
  8
SP
 10
13275.415310127781
 20
5857.7185190425926
 30
0.0
 40
37.5
  1

  0
TEXT
  5
39E0
  8
SP
 10
13350.415310127781
 20
5707.7185190425926
 30
0.0
 40
37.5
  1

  0
TEXT
  5
39E1
  8
SP
 10
13350.415310127781
 20
5782.7185190425926
 30
0.0
 40
37.5
  1

  0
INSERT
  5
39E2
  8
0
  2
YA_N
 10
-463.43440363243832
 20
3071.2928473547449
 30
0.0
 41
15.0
 42
15.0
 43
15.0
  0
INSERT
  5
39E3
  8
FUTO
  2
SAITOS
 10
-553.43440363243815
 20
2996.2928473547449
 30
0.0
 41
15.0
 42
15.0
 43
15.0
  0
INSERT
  5
3A1E
  8
0
  2
YA_N
 10
64786.844765901529
 20
4196.2928473547463
 30
0.0
 41
225.0
 42
225.0
 43
225.0
  0
INSERT
  5
3A1F
  8
FUTO
  2
SAITOS
 10
63436.844765901529
 20
3071.2928473547449
 30
0.0
 41
225.0
 42
225.0
 43
225.0
  0
INSERT
  5
3A20
  8
0
  2
YA_N
 10
96377.219697234788
 20
5494.4362822710973
 30
0.0
 41
225.0
 42
225.0
 43
225.0
  0
INSERT
  5
3A21
  8
FUTO
  2
SAITOS
 10
95027.219697234788
 20
4369.4362822710973
 30
0.0
 41
225.0
 42
225.0
 43
225.0
  0
INSERT
  5
3A22
  8
0
  2
YA_N
 10
64786.844765901529
 20
4196.2928473547463
 30
0.0
 41
225.0
 42
225.0
 43
225.0
  0
INSERT
  5
3A23
  8
FUTO
  2
SAITOS
 10
63436.844765901529
 20
3071.2928473547449
 30
0.0
 41
225.0
 42
225.0
 43
225.0
  0
INSERT
  5
3AF1
  8
0
  2
YA_N
 10
4998.1666817721261
 20
3257.8862528837558
 30
0.0
 41
15.0
 42
15.0
 43
15.0
  0
INSERT
  5
3AF2
  8
FUTO
  2
SAITOS
 10
4908.1666817721261
 20
3182.8862528837558
 30
0.0
 41
15.0
 42
15.0
 43
15.0
  0
TEXT
  5
3B15
  8
SP
 10
5902.3765347862081
 20
6609.982834895638
 30
0.0
 40
37.5
  1

  0
TEXT
  5
3B16
  8
SP
 10
5902.3765347862081
 20
6534.982834895638
 30
0.0
 40
37.5
  1

  0
TEXT
  5
3B1A
  8
SP
 10
5827.3765347862081
 20
6384.9828348956371
 30
0.0
 40
37.5
  1

  0
TEXT
  5
3B2E
  8
SP
 10
5902.3765347862081
 20
6234.9828348956371
 30
0.0
 40
37.5
  1

  0
TEXT
  5
3B2F
  8
SP
 10
5902.3765347862081
 20
6309.9828348956371
 30
0.0
 40
37.5
  1

  0
LINE
  5
3DA1
  8
1
 10
2047.662470016179
 20
1462.12189762245
 30
0.0
 11
2047.662470016179
 21
1332.4409619546821
 31
0.0
  0
LINE
  5
3DA2
  8
1
 10
1246.662470016179
 20
1462.1218976224509
 30
0.0
 11
1246.662470016179
 21
1282.4409619546821
 31
0.0
  0
LINE
  5
428B
  8
1
 10
1240.662470016179
 20
1187.4409619546821
 30
0.0
 11
1647.162470016179
 21
1187.4409619546821
 31
0.0
  0
LINE
  5
428C
  8
1
 10
1242.1624700161781
 20
1181.4409619546821
 30
0.0
 11
2052.1624700161792
 21
1181.4409619546821
 31
0.0
  0
LINE
  5
428D
  8
1
 10
1192.1624700161781
 20
1137.4409619546821
 30
0.0
 11
2102.1624700161792
 21
1137.4409619546821
 31
0.0
  0
ARC
  5
428E
  8
1
 10
1240.662470016179
 20
1182.940961954683
 30
0.0
 40
4.5
 50
90.0
 51
180.00000000000071
  0
ARC
  5
428F
  8
1
 10
1229.6624700161781
 20
1149.9409619546821
 30
0.0
 40
6.5
 50
270.0
 51
0.0000000000005011
  0
LINE
  5
4290
  8
1
 10
1242.1624700161781
 20
1187.4409619546821
 30
0.0
 11
1242.1624700161781
 21
1137.4409619546821
 31
0.0
  0
LINE
  5
4291
  8
1
 10
1236.1624700161781
 20
1182.940961954683
 30
0.0
 11
1236.1624700161781
 21
1149.9409619546821
 31
0.0
  0
LINE
  5
4292
  8
1
 10
1192.1624700161781
 20
1138.9409619546821
 30
0.0
 11
1192.1624700161781
 21
1137.4409619546821
 31
0.0
  0
ARC
  5
4293
  8
1
 10
1196.6624700161781
 20
1138.9409619546821
 30
0.0
 40
4.5
 50
90.0
 51
180.0
  0
LINE
  5
4294
  8
1
 10
1196.6624700161781
 20
1143.4409619546821
 30
0.0
 11
1229.6624700161781
 21
1143.4409619546821
 31
0.0
  0
LINE
  5
4295
  8
1
 10
2064.6624700161778
 20
1143.4409619546821
 30
0.0
 11
2097.6624700161792
 21
1143.4409619546821
 31
0.0
  0
ARC
  5
4296
  8
1
 10
2053.6624700161778
 20
1182.9409619546821
 30
0.0
 40
4.5
 50
0.0
 51
90.0
  0
ARC
  5
4297
  8
1
 10
2064.6624700161778
 20
1149.9409619546821
 30
0.0
 40
6.5
 50
180.0
 51
270.0
  0
LINE
  5
4298
  8
1
 10
2052.1624700161792
 20
1187.4409619546821
 30
0.0
 11
2052.1624700161792
 21
1137.4409619546821
 31
0.0
  0
LINE
  5
4299
  8
1
 10
2058.1624700161792
 20
1182.9409619546821
 30
0.0
 11
2058.1624700161792
 21
1149.9409619546821
 31
0.0
  0
LINE
  5
429A
  8
1
 10
2102.1624700161792
 20
1138.9409619546821
 30
0.0
 11
2102.1624700161792
 21
1137.4409619546821
 31
0.0
  0
ARC
  5
429B
  8
1
 10
2097.6624700161792
 20
1138.9409619546821
 30
0.0
 40
4.5
 50
0.0
 51
90.0
  0
LINE
  5
429E
  8
1
 10
3986.1144257323072
 20
1137.4409619546821
 30
0.0
 11
3986.1144257323072
 21
1187.4409619546821
 31
0.0
  0
LINE
  5
42A0
  8
1
 10
2786.1144257323072
 20
1187.4409619546821
 30
0.0
 11
2786.1144257323072
 21
1137.4409619546821
 31
0.0
  0
LINE
  5
42A1
  8
1
 10
2786.1144257323072
 20
1137.4409619546821
 30
0.0
 11
3986.1144257323072
 21
1137.4409619546821
 31
0.0
  0
LINE
  5
42A2
  8
1
 10
2786.1144257323072
 20
1143.4409619546821
 30
0.0
 11
3986.1144257323072
 21
1143.4409619546821
 31
0.0
  0
LINE
  5
42A8
  8
2
 10
3936.1144257323072
 20
1917.8888927988221
 30
0.0
 11
3936.1144257323072
 21
1112.4409619546821
 31
0.0
  0
LINE
  5
42A9
  8
2
 10
2836.1144257323072
 20
1757.693084242861
 30
0.0
 11
2836.1144257323072
 21
1112.4409619546821
 31
0.0
  0
LINE
  5
44A9
  8
CT
 10
2082.1624700161792
 20
1162.4409619546821
 30
0.0
 11
2082.1624700161792
 21
1112.4409619546821
 31
0.0
  0
LINE
  5
44AA
  8
CT
 10
1212.1624700161781
 20
1162.4409619546821
 30
0.0
 11
1212.1624700161781
 21
1112.4409619546821
 31
0.0
  0
INSERT
  5
4C69
  8
0
  2
YA_N
 10
15414.187036091551
 20
231.19560140773501
 30
0.0
  0
INSERT
  5
4C6A
  8
FUTO
  2
SAITOS
 10
15408.187036091551
 20
226.19560140773501
 30
0.0
  0
INSERT
  5
4C6C
  8
0
  2
YA_N
 10
15793.520490020261
 20
-45.03743415266581
 30
0.0
  0
INSERT
  5
4C6D
  8
FUTO
  2
SAITOS
 10
15787.520490020261
 20
-50.03743415266581
 30
0.0
  0
TEXT
  5
4C6E
  8
FUTO
 10
16113.58424386524
 20
-57.444826772921942
 30
0.0
 40
10.0
  1

 51
15.0
  0
TEXT
  5
4C6F
  8
FUTO
 10
16378.634749174131
 20
-57.444826772921942
 30
0.0
 40
10.0
  1

 51
15.0
  0
TEXT
  5
4C70
  8
FUTO
 10
16111.62090671728
 20
-57.444826772921942
 30
0.0
 40
10.0
  1

 51
15.0
  0
INSERT
  5
4C71
  8
0
  2
YA_N
 10
14253.18237035817
 20
1185.4110910688571
 30
0.0
  0
INSERT
  5
4C72
  8
FUTO
  2
SAITOS
 10
14247.18237035817
 20
1180.4110910688571
 30
0.0
  0
INSERT
  5
4D72
  8
0
  2
YA_N
 10
22880.307603213711
 20
-1420.293032472264
 30
0.0
 41
15.0
 42
15.0
 43
15.0
  0
INSERT
  5
4D73
  8
FUTO
  2
SAITOS
 10
22790.307603213711
 20
-1495.293032472264
 30
0.0
 41
15.0
 42
15.0
 43
15.0
  0
INSERT
  5
4D74
  8
0
  2
YA_N
 10
28379.234009786629
 20
13015.54074852654
 30
0.0
 41
15.0
 42
15.0
 43
15.0
 50
338.68194356374551
  0
INSERT
  5
4D75
  8
FUTO
  2
SAITOS
 10
28268.126244138239
 20
12978.391530329871
 30
0.0
 41
15.0
 42
15.0
 43
15.0
 50
338.68194356374551
  0
INSERT
  5
4D76
  8
0
  2
YA_N
 10
58707.58361863641
 20
11186.29981419479
 30
0.0
 41
15.0
 42
15.0
 43
15.0
  0
INSERT
  5
4D77
  8
FUTO
  2
SAITOS
 10
58617.58361863641
 20
11111.29981419479
 30
0.0
 41
15.0
 42
15.0
 43
15.0
  0
INSERT
  5
4D78
  8
0
  2
YA_N
 10
58707.58361863641
 20
11186.29981419479
 30
0.0
 41
15.0
 42
15.0
 43
15.0
  0
INSERT
  5
4D79
  8
FUTO
  2
SAITOS
 10
58617.58361863641
 20
11111.29981419479
 30
0.0
 41
15.0
 42
15.0
 43
15.0
  0
INSERT
  5
4D7A
  8
0
  2
YA_N
 10
123957.8627881703
 20
12311.29981419479
 30
0.0
 41
225.0
 42
225.0
 43
225.0
  0
INSERT
  5
4D7B
  8
FUTO
  2
SAITOS
 10
122607.8627881703
 20
11186.29981419479
 30
0.0
 41
225.0
 42
225.0
 43
225.0
  0
INSERT
  5
4D7C
  8
0
  2
YA_N
 10
155548.23771950361
 20
13609.44324911114
 30
0.0
 41
225.0
 42
225.0
 43
225.0
  0
INSERT
  5
4D7D
  8
FUTO
  2
SAITOS
 10
154198.23771950361
 20
12484.44324911114
 30
0.0
 41
225.0
 42
225.0
 43
225.0
  0
INSERT
  5
4D7E
  8
0
  2
YA_N
 10
123957.8627881703
 20
12311.29981419479
 30
0.0
 41
225.0
 42
225.0
 43
225.0
  0
INSERT
  5
4D7F
  8
FUTO
  2
SAITOS
 10
122607.8627881703
 20
11186.29981419479
 30
0.0
 41
225.0
 42
225.0
 43
225.0
  0
INSERT
  5
4D80
  8
0
  2
YA_N
 10
52103.07432166177
 20
12301.45201989521
 30
0.0
 41
15.0
 42
15.0
 43
15.0
 50
195.25337295025619
  0
INSERT
  5
4D81
  8
FUTO
  2
SAITOS
 10
52170.172186297859
 20
12397.48782864006
 30
0.0
 41
15.0
 42
15.0
 43
15.0
 50
195.25337295025619
  0
INSERT
  5
4DC4
  8
0
  2
YA_N
 10
11077.65502098551
 20
-1133.4656625422319
 30
0.0
  0
INSERT
  5
4DC5
  8
FUTO
  2
SAITOS
 10
11071.65502098552
 20
-1138.4656625422319
 30
0.0
  0
TEXT
  5
4E15
  8
FUTO
 10
11397.7187748305
 20
-1145.8730551624881
 30
0.0
 40
10.0
  1

 51
15.0
  0
TEXT
  5
4E16
  8
FUTO
 10
11662.76928013938
 20
-1145.8730551624881
 30
0.0
 40
10.0
  1

 51
15.0
  0
TEXT
  5
4E17
  8
FUTO
 10
11395.755437682539
 20
-1145.8730551624881
 30
0.0
 40
10.0
  1

 51
15.0
  0
LINE
  5
50D5
  8
1
 10
1647.162470016179
 20
1187.4409619546821
 30
0.0
 11
2053.6624700161778
 21
1187.4409619546821
 31
0.0
  0
LINE
  5
50FF
  8
1
 10
3986.1144257323072
 20
1187.440961954683
 30
0.0
 11
2786.1144257323072
 21
1187.4409619546821
 31
0.0
  0
LINE
  5
59F1
  8
4
 10
3738.280723900778
 20
599.08610570859332
 30
0.0
 11
3738.280723900778
 21
299.08610570859332
 31
0.0
  0
LINE
  5
59F2
  8
4
 10
2688.280723900778
 20
599.08610570859332
 30
0.0
 11
2688.280723900778
 21
299.08610570859332
 31
0.0
  0
LINE
  5
59F3
  8
4
 10
1938.280723900778
 20
599.08610570859332
 30
0.0
 11
1938.280723900778
 21
299.08610570859332
 31
0.0
  0
LINE
  5
59F6
  8
4
 10
1938.280723900778
 20
299.08610570859332
 30
0.0
 11
3738.280723900778
 21
299.08610570859332
 31
0.0
  0
LINE
  5
59F7
  8
4
 10
1938.280723900778
 20
449.08610570859332
 30
0.0
 11
3738.280723900778
 21
449.08610570859332
 31
0.0
  0
TEXT
  5
59F8
  8
4
 10
1996.03384517113
 20
496.40064450851258
 30
0.0
 40
75.0
  1
機器名称
  0
TEXT
  5
59F9
  8
4
 10
1992.6678829379739
 20
331.55384080660968
 30
0.0
 40
75.0
  1
機器型番
  0
TEXT
  5
59FA
  8
4
 10
2729.7988421322748
 20
482.94375914494611
 30
0.0
 40
75.0
  1
ミツヤ軸流ファン
  0
TEXT
  5
59FB
  8
4
 10
2743.2624672789989
 20
324.82548212850833
 30
0.0
 40
75.0
  1
AP＃900-1
  0
TEXT
  5
59FD
  8
4
 10
2171.7469939618318
 20
3419.3305468336289
 30
0.0
 40
80.999999999999986
  1
天井吊防振ベット
  0
TEXT
  5
59FE
  8
4
 10
1437.5321138949471
 20
3649.90757000754
 30
0.0
 40
108.0
  1
電動機直動式横型軸流ファン
  0
LINE
  5
59FF
  8
4
 10
1338.280723900778
 20
3553.1992371058
 30
0.0
 11
3738.280723900778
 21
3553.1992371058
 31
0.0
  0
LINE
  5
5A00
  8
4
 10
1338.280723900778
 20
3853.1992371058
 30
0.0
 11
3738.280723900778
 21
3853.1992371058
 31
0.0
  0
LINE
  5
5A01
  8
4
 10
1938.280723900778
 20
599.08610570859332
 30
0.0
 11
3738.280723900778
 21
599.08610570859332
 31
0.0
  0
LINE
  5
5A02
  8
4
 10
1338.280723900778
 20
3853.1992371058
 30
0.0
 11
1338.280723900778
 21
3553.1992371058
 31
0.0
  0
TEXT
  5
5A03
  8
4
 10
1380.5252030315501
 20
3422.5653220281079
 30
0.0
 40
80.999999999999986
  1
左回転後方吐出
  0
TEXT
  5
5A04
  8
4
 10
3166.7350627747128
 20
3908.1777279515559
 30
0.0
 40
84.000000000000014
  1
No.
  0
TEXT
  5
5A05
  8
4
 10
3164.3442054217662
 20
3424.2293677073671
 30
0.0
 40
80.999999999999986
  1
縮尺：1/15
  0
LINE
  5
5A06
  8
4
 10
3738.280723900778
 20
3853.1992371058
 30
0.0
 11
3738.280723900778
 21
3553.1992371058
 31
0.0
  0
LINE
  5
5A07
  8
4
 10
4113.280723900778
 20
4274.0861057085931
 30
0.0
 11
4113.280723900778
 21
4274.0861057085931
 31
0.0
  0
LINE
  5
5A08
  8
4
 10
3124.2068574405748
 20
3870.9814803966951
 30
0.0
 11
3124.2068574405748
 21
4029.0644980332208
 31
0.0
  0
LINE
  5
5A09
  8
4
 10
3124.2068574405748
 20
4029.0644980332208
 30
0.0
 11
3738.280723900778
 21
4029.0644980332208
 31
0.0
  0
LINE
  5
5A0A
  8
4
 10
3738.280723900778
 20
4029.0644980332208
 30
0.0
 11
3738.280723900778
 21
3870.9814803966951
 31
0.0
  0
LINE
  5
5A0B
  8
4
 10
3738.280723900778
 20
3870.9814803966951
 30
0.0
 11
3124.2068574405748
 21
3870.9814803966951
 31
0.0
  0
LINE
  5
5A0C
  8
4
 10
963.28072390077796
 20
-150.91389429140659
 30
0.0
 11
963.28072390077796
 21
4274.0861057085931
 31
0.0
  0
LINE
  5
5A0D
  8
4
 10
963.28072390077796
 20
4274.0861057085931
 30
0.0
 11
4113.280723900778
 21
4274.0861057085931
 31
0.0
  0
LINE
  5
5A0E
  8
4
 10
4113.280723900778
 20
4274.0861057085931
 30
0.0
 11
4113.280723900778
 21
-150.91389429140659
 31
0.0
  0
LINE
  5
5A0F
  8
4
 10
4113.280723900778
 20
-150.91389429140659
 30
0.0
 11
963.28072390077796
 21
-150.91389429140659
 31
0.0
  0
DIMENSION
  5
5A11
  8
3
  2
*D3
 10
3986.1144257323072
 20
820.89529938579324
 30
0.0
 11
3386.1144257323072
 21
850.89529938579335
 31
0.0
 70
     0
 13
2786.1144257323072
 23
1137.4409619546821
 33
0.0
 14
3986.1144257323072
 24
1137.4409619546821
 34
0.0
1001
ACAD
1000
DSTYLE
1002
{
1070
   287
1070
     3
1070
   287
1070
     3
1070
   287
1070
     3
1070
   287
1070
     3
1070
   287
1070
     3
1070
    40
1040
15.0
1070
   289
1070
     3
1002
}
  0
DIMENSION
  5
5A1E
  8
3
  2
*D4
 10
1192.1624700161781
 20
819.7559719968699
 30
0.0
 11
1647.1624700161781
 21
849.75597199686979
 31
0.0
 70
     0
 13
2102.1624700161792
 23
1137.4409619546821
 33
0.0
 14
1192.1624700161781
 24
1137.4409619546821
 34
0.0
1001
ACAD
1000
DSTYLE
1002
{
1070
   287
1070
     3
1070
   287
1070
     3
1070
   287
1070
     3
1070
   287
1070
     3
1070
   287
1070
     3
1070
    40
1040
15.0
1070
   289
1070
     3
1002
}
  0
DIMENSION
  5
5A2B
  8
3
  2
*D5
 10
2052.1624700161778
 20
2669.696414899553
 30
0.0
 11
1647.1624700161781
 21
2699.6964148995521
 31
0.0
 70
     0
 13
1242.162470016179
 23
2332.4409619546818
 33
0.0
 14
2052.1624700161778
 24
2332.4409619546818
 34
0.0
1001
ACAD
1000
DSTYLE
1002
{
1070
   287
1070
     3
1070
   287
1070
     3
1070
   287
1070
     3
1070
   287
1070
     3
1070
   287
1070
     3
1070
    40
1040
15.0
1070
   289
1070
     3
1002
}
  0
DIMENSION
  5
5A38
  8
3
  2
*D6
 10
1075.490548396351
 20
1392.4409619546821
 30
0.0
 11
1045.4905483963501
 21
1842.440961954683
 31
0.0
 70
     0
  1
%%c<>
 13
1202.162470016179
 23
2292.4409619546832
 33
0.0
 14
1202.1624700161781
 24
1392.4409619546821
 34
0.0
 50
90.0
1001
ACAD
1000
DSTYLE
1002
{
1070
   287
1070
     3
1070
   287
1070
     3
1070
   287
1070
     3
1070
   287
1070
     3
1070
   287
1070
     3
1070
    40
1040
15.0
1070
   289
1070
     3
1002
}
  0
DIMENSION
  5
5A64
  8
3
  2
*D7
 10
3876.1144257323072
 20
2685.1183360116988
 30
0.0
 11
3386.1144257323072
 21
2715.1183360116979
 31
0.0
 70
     0
 13
2896.1144257323072
 23
1842.4409619546821
 33
0.0
 14
3876.1144257323072
 24
1842.4409619546821
 34
0.0
1001
ACAD
1000
DSTYLE
1002
{
1070
   287
1070
     3
1070
   287
1070
     3
1070
   287
1070
     3
1070
   287
1070
     3
1070
   287
1070
     3
1070
    40
1040
15.0
1070
   289
1070
     3
1002
}
  0
LINE
  5
5C7F
  8
1
 10
1242.162470016179
 20
2332.4409619546818
 30
0.0
 11
1246.662470016179
 21
2332.4409619546832
 31
0.0
  0
LINE
  5
5C80
  8
1
 10
1241.162470016179
 20
2332.4409619546818
 30
0.0
 11
1242.162470016179
 21
2332.4409619546818
 31
0.0
  0
LINE
  5
5C81
  8
1
 10
2047.662470016179
 20
2332.4409619546832
 30
0.0
 11
2052.1624700161778
 21
2332.4409619546818
 31
0.0
  0
LINE
  5
5C82
  8
1
 10
2052.1624700161792
 20
2332.4409619546818
 30
0.0
 11
2053.1624700161778
 21
2332.4409619546818
 31
0.0
  0
LINE
  5
5C95
  8
1
 10
2986.1144257323072
 20
1282.440961954683
 30
0.0
 11
3786.1144257323072
 21
1282.440961954683
 31
0.0
  0
LINE
  5
5C96
  8
1
 10
2986.1144257323072
 20
1282.440961954683
 30
0.0
 11
2986.1144257323072
 21
1559.4215279929831
 31
0.0
  0
LINE
  5
5C97
  8
1
 10
3786.1144257323072
 20
1282.4409619546821
 30
0.0
 11
3786.1144257323072
 21
1559.4215279929861
 31
0.0
  0
LINE
  5
5C99
  8
1
 10
1306.662470016179
 20
1282.4409619546821
 30
0.0
 11
1246.662470016179
 21
1282.4409619546821
 31
0.0
  0
LINE
  5
5C9A
  8
1
 10
1251.1624700161781
 20
1542.440961954683
 30
0.0
 11
1246.662470016179
 21
1542.4409619546821
 31
0.0
  0
LINE
  5
5C9B
  8
1
 10
1251.162470016179
 20
1542.440961954683
 30
0.0
 11
1251.162470016179
 21
1286.9409619546821
 31
0.0
  0
LINE
  5
5C9C
  8
1
 10
1306.662470016179
 20
1286.9409619546821
 30
0.0
 11
1251.162470016179
 21
1286.9409619546821
 31
0.0
  0
LINE
  5
5C9D
  8
1
 10
1306.662470016179
 20
1286.9409619546821
 30
0.0
 11
1306.662470016179
 21
1282.4409619546821
 31
0.0
  0
LINE
  5
5C9E
  8
1
 10
2043.162470016179
 20
1542.4409619546841
 30
0.0
 11
2047.662470016179
 21
1542.4409619546841
 31
0.0
  0
LINE
  5
5C9F
  8
1
 10
2043.162470016179
 20
1542.4409619546841
 30
0.0
 11
2043.162470016179
 21
1286.9409619546841
 31
0.0
  0
LINE
  5
5CA0
  8
1
 10
2047.662470016179
 20
1462.121897622452
 30
0.0
 11
2047.6624700161799
 21
1282.4409619546841
 31
0.0
  0
LINE
  5
5CA1
  8
1
 10
1987.6624700161799
 20
1282.4409619546841
 30
0.0
 11
2047.6624700161799
 21
1282.4409619546841
 31
0.0
  0
LINE
  5
5CA2
  8
1
 10
1987.6624700161799
 20
1286.9409619546841
 30
0.0
 11
2043.162470016179
 21
1286.9409619546841
 31
0.0
  0
LINE
  5
5CA3
  8
1
 10
1987.6624700161799
 20
1286.9409619546841
 30
0.0
 11
1987.6624700161799
 21
1282.4409619546841
 31
0.0
  0
DIMENSION
  5
5CA4
  8
3
  2
*D8
 10
3936.1144257323072
 20
965.0912956039283
 30
0.0
 11
3386.1144257323072
 21
995.0912956039283
 31
0.0
 70
     0
 13
2836.1144257323072
 23
1112.4409619546821
 33
0.0
 14
3936.1144257323072
 24
1112.4409619546821
 34
0.0
1001
ACAD
1000
DSTYLE
1002
{
1070
   287
1070
     3
1070
   287
1070
     3
1070
   287
1070
     3
1070
   287
1070
     3
1070
    40
1040
15.0
1070
   289
1070
     3
1002
}
  0
DIMENSION
  5
5CBA
  8
3
  2
*D9
 10
2082.1624700161792
 20
968.67354139047347
 30
0.0
 11
1647.1624700161781
 21
998.67354139047347
 31
0.0
 70
     0
 13
1212.1624700161781
 23
1112.4409619546821
 33
0.0
 14
2082.1624700161792
 24
1112.4409619546821
 34
0.0
1001
ACAD
1000
DSTYLE
1002
{
1070
   287
1070
     3
1070
   287
1070
     3
1070
   287
1070
     3
1070
   287
1070
     3
1070
    40
1040
15.0
1070
   289
1070
     3
1002
}
  0
DIMENSION
  5
5CD0
  8
SP
  2
*D10
 10
2625.3383327086772
 20
1842.4409619546821
 30
0.0
 11
2595.3383327086772
 21
1562.440961954683
 31
0.0
 70
     0
 13
2986.1144257323072
 23
1282.440961954683
 33
0.0
 14
2860.1144257323072
 24
1842.4409619546821
 34
0.0
 50
90.0
1001
ACAD
1000
DSTYLE
1002
{
1070
   287
1070
     3
1070
   287
1070
     3
1070
   287
1070
     3
1070
   287
1070
     3
1070
    40
1040
15.0
1070
   289
1070
     3
1002
}
  0
DIMENSION
  5
5CE6
  8
SP
  2
*D11
 10
2625.3383327086772
 20
1187.4409619546821
 30
0.0
 11
2523.0169041372478
 21
1260.601676240397
 31
0.0
 70
     0
  1
(<>)
 13
2986.1144257323072
 23
1282.440961954683
 33
0.0
 14
2786.1144257323072
 24
1187.4409619546821
 34
0.0
 50
90.0
1001
ACAD
1000
DSTYLE
1002
{
1070
   287
1070
     4
1070
   287
1070
     4
1070
   287
1070
     4
1070
   287
1070
     4
1070
     7
1000
NONE
1070
     6
1000
NONE
1070
   279
1070
     1
1070
    40
1040
15.0
1070
   289
1070
     3
1002
}
  0
DIMENSION
  5
5CF8
  8
SP
  2
*D12
 10
2625.3383327086772
 20
1137.4409619546821
 30
0.0
 11
2630.1879760519369
 21
1032.3867741915581
 31
0.0
 70
   128
 13
2786.1144257323072
 23
1187.4409619546821
 33
0.0
 14
2786.1144257323072
 24
1137.4409619546821
 34
0.0
 50
90.0
1001
ACAD
1000
DSTYLE
1002
{
1070
   287
1070
     4
1070
   287
1070
     4
1070
   287
1070
     4
1070
   287
1070
     4
1070
     7
1000
OPEN
1070
     6
1000
OPEN
1070
   279
1070
     1
1070
    40
1040
15.0
1070
   289
1070
     3
1002
}
  0
ENDSEC
  0
EOF
