  0
SECTION
  2
HEADER
  9
$ACADVER
  1
AC1009
  9
$INSBASE
 10
0.0
 20
0.0
 30
0.0
  9
$EXTMIN
 10
963.28072390077796
 20
-150.91389429140659
 30
0.0
  9
$EXTMAX
 10
4113.280723900778
 20
4274.0861057085931
 30
0.0
  9
$LIMMIN
 10
0.0
 20
0.0
  9
$LIMMAX
 10
297.0
 20
210.0
  9
$ORTHOMODE
 70
     0
  9
$REGENMODE
 70
     1
  9
$FILLMODE
 70
     1
  9
$QTEXTMODE
 70
     0
  9
$MIRRTEXT
 70
     0
  9
$DRAGMODE
 70
     2
  9
$LTSCALE
 40
90.0
  9
$OSMODE
 70
    37
  9
$ATTMODE
 70
     1
  9
$TEXTSIZE
 40
75.0
  9
$TRACEWID
 40
0.05
  9
$TEXTSTYLE
  7
STANDARD
  9
$CLAYER
  8
3
  9
$CELTYPE
  6
BYLAYER
  9
$CECOLOR
 62
   256
  9
$DIMSCALE
 40
15.0
  9
$DIMASZ
 40
2.0
  9
$DIMEXO
 40
1.0
  9
$DIMDLI
 40
10.0
  9
$DIMRND
 40
0.0
  9
$DIMDLE
 40
0.0
  9
$DIMEXE
 40
1.0
  9
$DIMTP
 40
0.0
  9
$DIMTM
 40
0.0
  9
$DIMTXT
 40
3.0
  9
$DIMCEN
 40
0.0
  9
$DIMTSZ
 40
0.0
  9
$DIMTOL
 70
     0
  9
$DIMLIM
 70
     0
  9
$DIMTIH
 70
     0
  9
$DIMTOH
 70
     0
  9
$DIMSE1
 70
     0
  9
$DIMSE2
 70
     0
  9
$DIMTAD
 70
     1
  9
$DIMZIN
 70
     8
  9
$DIMBLK
  1

  9
$DIMASO
 70
     1
  9
$DIMSHO
 70
     1
  9
$DIMPOST
  1

  9
$DIMAPOST
  1

  9
$DIMALT
 70
     0
  9
$DIMALTD
 70
     2
  9
$DIMALTF
 40
0.03937
  9
$DIMLFAC
 40
1.0
  9
$DIMTOFL
 70
     1
  9
$DIMTVP
 40
0.0
  9
$DIMTIX
 70
     0
  9
$DIMSOXD
 70
     0
  9
$DIMSAH
 70
     1
  9
$DIMBLK1
  1
OPEN
  9
$DIMBLK2
  1
OPEN
  9
$DIMSTYLE
  2
MATSU
  9
$DIMCLRD
 70
   256
  9
$DIMCLRE
 70
   256
  9
$DIMCLRT
 70
   256
  9
$DIMTFAC
 40
1.0
  9
$DIMGAP
 40
0.5
  9
$LUNITS
 70
     2
  9
$LUPREC
 70
     3
  9
$SKETCHINC
 40
0.1
  9
$FILLETRAD
 40
10.0
  9
$AUNITS
 70
     0
  9
$AUPREC
 70
     2
  9
$MENU
  1
acad
  9
$ELEVATION
 40
0.0
  9
$PELEVATION
 40
0.0
  9
$THICKNESS
 40
0.0
  9
$LIMCHECK
 70
     0
  9
$BLIPMODE
 70
     0
  9
$CHAMFERA
 40
10.0
  9
$CHAMFERB
 40
10.0
  9
$SKPOLY
 70
     0
  9
$TDCREATE
 40
2451939.611564815
  9
$TDUPDATE
 40
2454953.623707673
  9
$TDINDWG
 40
0.1652601505
  9
$TDUSRTIMER
 40
0.1652601505
  9
$USRTIMER
 70
     1
  9
$ANGBASE
 50
0.0
  9
$ANGDIR
 70
     0
  9
$PDMODE
 70
     0
  9
$PDSIZE
 40
1.0
  9
$PLINEWID
 40
0.0
  9
$COORDS
 70
     1
  9
$SPLFRAME
 70
     0
  9
$SPLINETYPE
 70
     6
  9
$SPLINESEGS
 70
     8
  9
$ATTDIA
 70
     0
  9
$ATTREQ
 70
     1
  9
$HANDLING
 70
 10241
  9
$HANDSEED
  5
547
  9
$SURFTAB1
 70
     6
  9
$SURFTAB2
 70
     6
  9
$SURFTYPE
 70
     6
  9
$SURFU
 70
     6
  9
$SURFV
 70
     6
  9
$UCSNAME
  2

  9
$UCSORG
 10
0.0
 20
0.0
 30
0.0
  9
$UCSXDIR
 10
1.0
 20
0.0
 30
0.0
  9
$UCSYDIR
 10
0.0
 20
1.0
 30
0.0
  9
$PUCSNAME
  2

  9
$PUCSORG
 10
0.0
 20
0.0
 30
0.0
  9
$PUCSXDIR
 10
1.0
 20
0.0
 30
0.0
  9
$PUCSYDIR
 10
0.0
 20
1.0
 30
0.0
  9
$USERI1
 70
     0
  9
$USERI2
 70
     0
  9
$USERI3
 70
     0
  9
$USERI4
 70
     0
  9
$USERI5
 70
     0
  9
$USERR1
 40
0.0
  9
$USERR2
 40
0.0
  9
$USERR3
 40
0.0
  9
$USERR4
 40
0.0
  9
$USERR5
 40
0.0
  9
$WORLDVIEW
 70
     1
  9
$SHADEDGE
 70
     3
  9
$SHADEDIF
 70
    70
  9
$TILEMODE
 70
     1
  9
$MAXACTVP
 70
    16
  9
$PLIMCHECK
 70
     0
  9
$PEXTMIN
 10
1.0000000000000000E+020
 20
1.0000000000000000E+020
 30
1.0000000000000000E+020
  9
$PEXTMAX
 10
-1.0000000000000000E+020
 20
-1.0000000000000000E+020
 30
-1.0000000000000000E+020
  9
$PLIMMIN
 10
0.0
 20
0.0
  9
$PLIMMAX
 10
12.0
 20
9.0
  9
$UNITMODE
 70
     0
  9
$VISRETAIN
 70
     0
  9
$PLINEGEN
 70
     0
  9
$PSLTSCALE
 70
     0
  0
ENDSEC
  0
SECTION
  2
TABLES
  0
TABLE
  2
VPORT
 70
     2
  0
VPORT
  2
*ACTIVE
 70
     0
 10
0.0
 20
0.0
 11
1.0
 21
1.0
 12
3966.173711935251
 22
385.9032518675221
 13
0.0
 23
0.0
 14
5.0
 24
5.0
 15
0.0
 25
0.0
 16
0.0
 26
0.0
 36
1.0
 17
0.0
 27
0.0
 37
0.0
 40
1319.802639471633
 41
3.1666666666666661
 42
50.0
 43
0.0
 44
0.0
 50
0.0
 51
0.0
 71
     0
 72
   100
 73
     1
 74
     0
 75
     0
 76
     0
 77
     0
 78
     0
  0
ENDTAB
  0
TABLE
  2
LTYPE
 70
     2
  0
LTYPE
  2
CONTINUOUS
 70
     0
  3
Solid line
 72
    65
 73
     0
 40
0.0
  0
LTYPE
  2
CENTER
 70
     0
  3
____ _ ____ _ ____ _ ____ _ ____ _ ____ _ ____ 
 72
    65
 73
     4
 40
2.0
 49
1.25
 49
-0.25
 49
0.25
 49
-0.25
  0
ENDTAB
  0
TABLE
  2
LAYER
 70
     6
  0
LAYER
  2
0
 70
     0
 62
     7
  6
CONTINUOUS
  0
LAYER
  2
DEFPOINTS
 70
     0
 62
     7
  6
CONTINUOUS
  0
LAYER
  2
3
 70
     0
 62
     2
  6
CONTINUOUS
  0
LAYER
  2
2
 70
     0
 62
     3
  6
CENTER
  0
LAYER
  2
1
 70
     0
 62
     4
  6
CONTINUOUS
  0
LAYER
  2
4
 70
     0
 62
     7
  6
CONTINUOUS
  0
ENDTAB
  0
TABLE
  2
STYLE
 70
     1
  0
STYLE
  2
STANDARD
 70
     0
 40
0.0
 41
1.0
 50
15.0
 71
     0
 42
75.0
  3
TXT
  4
extfont.shx
  0
ENDTAB
  0
TABLE
  2
VIEW
 70
     0
  0
ENDTAB
  0
TABLE
  2
UCS
 70
     0
  0
ENDTAB
  0
TABLE
  2
APPID
 70
     1
  0
APPID
  2
ACAD
 70
     0
  0
ENDTAB
  0
TABLE
  2
DIMSTYLE
 70
     1
  0
DIMSTYLE
  2
MATSU
 70
     0
  3

  4

  5

  6
OPEN
  7
OPEN
 40
1.0
 41
2.0
 42
1.0
 43
10.0
 44
1.0
 45
0.0
 46
0.0
 47
0.0
 48
0.0
140
3.0
141
0.0
142
0.0
143
0.03937
144
1.0
145
0.0
146
1.0
147
0.5
 71
     0
 72
     0
 73
     0
 74
     0
 75
     0
 76
     0
 77
     1
 78
     8
170
     0
171
     2
172
     1
173
     1
174
     0
175
     0
176
   256
177
   256
178
   256
  0
ENDTAB
  0
ENDSEC
  0
SECTION
  2
BLOCKS
  0
BLOCK
  8
0
  2
$MODEL_SPACE
 70
     0
 10
0.0
 20
0.0
 30
0.0
  3
$MODEL_SPACE
  1

  0
ENDBLK
  5
A
  8
0
  0
BLOCK
 67
     1
  8
0
  2
$PAPER_SPACE
 70
     0
 10
0.0
 20
0.0
 30
0.0
  3
$PAPER_SPACE
  1

  0
ENDBLK
  5
F
 67
     1
  8
0
  0
BLOCK
  8
0
  2
_OPEN
 70
     0
 10
0.0
 20
0.0
 30
0.0
  3
_OPEN
  1

  0
LINE
  5
2E
  8
0
  6
BYBLOCK
 62
     0
 10
-1.0
 20
0.1666666666666666
 30
0.0
 11
0.0
 21
0.0
 31
0.0
  0
LINE
  5
2F
  8
0
  6
BYBLOCK
 62
     0
 10
0.0
 20
0.0
 30
0.0
 11
-1.0
 21
-0.1666666666666666
 31
0.0
  0
LINE
  5
30
  8
0
  6
BYBLOCK
 62
     0
 10
0.0
 20
0.0
 30
0.0
 11
-1.0
 21
0.0
 31
0.0
  0
ENDBLK
  5
32
  8
0
  0
BLOCK
  8
0
  2
*D1
 70
     1
 10
0.0
 20
0.0
 30
0.0
  3
*D1
  1

  0
LINE
  5
4DC
  8
3
 10
1212.1624700161781
 20
1147.4409619546821
 30
0.0
 11
1212.1624700161781
 21
1003.673541390473
 31
0.0
  0
LINE
  5
4DD
  8
3
 10
2082.1624700161792
 20
1147.4409619546821
 30
0.0
 11
2082.1624700161792
 21
1003.673541390473
 31
0.0
  0
LINE
  5
4DE
  8
3
 10
1242.1624700161781
 20
1018.673541390473
 30
0.0
 11
2052.1624700161792
 21
1018.673541390473
 31
0.0
  0
INSERT
  5
4DF
  8
3
  2
_OPEN
 10
1212.1624700161781
 20
1018.673541390473
 30
0.0
 41
30.0
 42
30.0
 43
30.0
 50
180.0
  0
INSERT
  5
4E0
  8
3
  2
_OPEN
 10
2082.1624700161792
 20
1018.673541390473
 30
0.0
 41
30.0
 42
30.0
 43
30.0
  0
TEXT
  8
3
  40
45
  5
53D
  72
0
  71
0
 10
1557.16
 20
969.024
 30
0.000000
  1
870
  0
POINT
  5
4E2
  8
DEFPOINTS
 62
     0
 10
1212.1624700161781
 20
1162.4409619546821
 30
0.0
  0
POINT
  5
4E3
  8
DEFPOINTS
 62
     0
 10
2082.1624700161792
 20
1162.4409619546821
 30
0.0
  0
POINT
  5
4E4
  8
DEFPOINTS
 62
     0
 10
2082.1624700161792
 20
1018.673541390473
 30
0.0
  0
ENDBLK
  5
23D
  8
0
  0
BLOCK
  8
0
  2
*D2
 70
     1
 10
0.0
 20
0.0
 30
0.0
  3
*D2
  1

  0
LINE
  5
4E5
  8
3
 10
2102.1624700161792
 20
1172.4409619546821
 30
0.0
 11
2102.1624700161792
 21
854.7559719968699
 31
0.0
  0
LINE
  5
4E6
  8
3
 10
1192.1624700161781
 20
1172.4409619546821
 30
0.0
 11
1192.1624700161781
 21
854.7559719968699
 31
0.0
  0
LINE
  5
4E7
  8
3
 10
2072.1624700161792
 20
869.7559719968699
 30
0.0
 11
1222.1624700161781
 21
869.7559719968699
 31
0.0
  0
INSERT
  5
4E8
  8
3
  2
_OPEN
 10
2102.1624700161792
 20
869.7559719968699
 30
0.0
 41
30.0
 42
30.0
 43
30.0
  0
INSERT
  5
4E9
  8
3
  2
_OPEN
 10
1192.1624700161781
 20
869.7559719968699
 30
0.0
 41
30.0
 42
30.0
 43
30.0
 50
180.0
  0
TEXT
  8
3
  40
45
  5
53E
  72
0
  71
0
 10
1557.16
 20
820.106
 30
0.000000
  1
910
  0
POINT
  5
4EB
  8
DEFPOINTS
 62
     0
 10
2102.1624700161792
 20
1187.4409619546821
 30
0.0
  0
POINT
  5
4EC
  8
DEFPOINTS
 62
     0
 10
1192.1624700161781
 20
1187.4409619546821
 30
0.0
  0
POINT
  5
4ED
  8
DEFPOINTS
 62
     0
 10
1192.1624700161781
 20
869.7559719968699
 30
0.0
  0
ENDBLK
  5
24B
  8
0
  0
BLOCK
  8
0
  2
*D3
 70
     1
 10
0.0
 20
0.0
 30
0.0
  3
*D3
  1

  0
LINE
  5
4EE
  8
3
 10
1187.162470016179
 20
2292.4409619546832
 30
0.0
 11
1060.490548396351
 21
2292.4409619546832
 31
0.0
  0
LINE
  5
4EF
  8
3
 10
1187.1624700161781
 20
1392.4409619546821
 30
0.0
 11
1060.4905483963501
 21
1392.4409619546821
 31
0.0
  0
LINE
  5
4F0
  8
3
 10
1075.490548396351
 20
2262.4409619546818
 30
0.0
 11
1075.490548396351
 21
1422.4409619546821
 31
0.0
  0
INSERT
  5
4F1
  8
3
  2
_OPEN
 10
1075.490548396351
 20
2292.4409619546832
 30
0.0
 41
30.0
 42
30.0
 43
30.0
 50
90.0
  0
INSERT
  5
4F2
  8
3
  2
_OPEN
 10
1075.490548396351
 20
1392.4409619546821
 30
0.0
 41
30.0
 42
30.0
 43
30.0
 50
270.0
  0
TEXT
  8
3
  40
45
  5
53F
  72
0
  71
0
 10
955.491
 20
1762.79
 30
0.000000
  1
%%c900
  0
POINT
  5
4F4
  8
DEFPOINTS
 62
     0
 10
1202.162470016179
 20
2292.4409619546832
 30
0.0
  0
POINT
  5
4F5
  8
DEFPOINTS
 62
     0
 10
1202.1624700161781
 20
1392.4409619546821
 30
0.0
  0
POINT
  5
4F6
  8
DEFPOINTS
 62
     0
 10
1075.490548396351
 20
1392.4409619546821
 30
0.0
  0
ENDBLK
  5
257
  8
0
  0
BLOCK
  8
0
  2
*D4
 70
     1
 10
0.0
 20
0.0
 30
0.0
  3
*D4
  1

  0
LINE
  5
4F7
  8
3
 10
1242.162470016179
 20
2347.4409619546832
 30
0.0
 11
1242.162470016179
 21
2684.6964148995521
 31
0.0
  0
LINE
  5
4F8
  8
3
 10
2052.1624700161778
 20
2347.4409619546832
 30
0.0
 11
2052.1624700161778
 21
2684.6964148995521
 31
0.0
  0
LINE
  5
4F9
  8
3
 10
1272.162470016179
 20
2669.696414899553
 30
0.0
 11
2022.1624700161781
 21
2669.696414899553
 31
0.0
  0
INSERT
  5
4FA
  8
3
  2
_OPEN
 10
1242.162470016179
 20
2669.696414899553
 30
0.0
 41
30.0
 42
30.0
 43
30.0
 50
180.0
  0
INSERT
  5
4FB
  8
3
  2
_OPEN
 10
2052.1624700161778
 20
2669.696414899553
 30
0.0
 41
30.0
 42
30.0
 43
30.0
  0
TEXT
  8
3
  40
45
  5
540
  72
0
  71
0
 10
1557.16
 20
2620.05
 30
0.000000
  1
810
  0
POINT
  5
4FD
  8
DEFPOINTS
 62
     0
 10
1242.162470016179
 20
2332.4409619546818
 30
0.0
  0
POINT
  5
4FE
  8
DEFPOINTS
 62
     0
 10
2052.1624700161778
 20
2332.4409619546818
 30
0.0
  0
POINT
  5
4FF
  8
DEFPOINTS
 62
     0
 10
2052.1624700161778
 20
2669.696414899553
 30
0.0
  0
ENDBLK
  5
263
  8
0
  0
BLOCK
  8
0
  2
*D5
 70
     1
 10
0.0
 20
0.0
 30
0.0
  3
*D5
  1

  0
LINE
  5
500
  8
3
 10
2896.1144257323072
 20
1857.4409619546821
 30
0.0
 11
2896.1144257323072
 21
2700.1183360116988
 31
0.0
  0
LINE
  5
501
  8
3
 10
3876.1144257323072
 20
1857.4409619546821
 30
0.0
 11
3876.1144257323072
 21
2700.1183360116988
 31
0.0
  0
LINE
  5
502
  8
3
 10
2926.1144257323058
 20
2685.1183360116988
 30
0.0
 11
3846.1144257323072
 21
2685.1183360116988
 31
0.0
  0
INSERT
  5
503
  8
3
  2
_OPEN
 10
2896.1144257323072
 20
2685.1183360116988
 30
0.0
 41
30.0
 42
30.0
 43
30.0
 50
180.0
  0
INSERT
  5
504
  8
3
  2
_OPEN
 10
3876.1144257323072
 20
2685.1183360116988
 30
0.0
 41
30.0
 42
30.0
 43
30.0
  0
TEXT
  8
3
  40
45
  5
541
  72
0
  71
0
 10
3296.11
 20
2635.47
 30
0.000000
  1
980
  0
POINT
  5
506
  8
DEFPOINTS
 62
     0
 10
2896.1144257323072
 20
1842.4409619546821
 30
0.0
  0
POINT
  5
507
  8
DEFPOINTS
 62
     0
 10
3876.1144257323072
 20
1842.4409619546821
 30
0.0
  0
POINT
  5
508
  8
DEFPOINTS
 62
     0
 10
3876.1144257323072
 20
2685.1183360116988
 30
0.0
  0
ENDBLK
  5
26F
  8
0
  0
BLOCK
  8
0
  2
*D6
 70
     1
 10
0.0
 20
0.0
 30
0.0
  3
*D6
  1

  0
LINE
  5
509
  8
3
 10
2836.1144257323072
 20
1147.4409619546821
 30
0.0
 11
2836.1144257323072
 21
1000.091295603928
 31
0.0
  0
LINE
  5
50A
  8
3
 10
3936.1144257323072
 20
1147.4409619546821
 30
0.0
 11
3936.1144257323072
 21
1000.091295603928
 31
0.0
  0
LINE
  5
50B
  8
3
 10
2866.1144257323072
 20
1015.091295603928
 30
0.0
 11
3906.1144257323081
 21
1015.091295603928
 31
0.0
  0
INSERT
  5
50C
  8
3
  2
_OPEN
 10
2836.1144257323072
 20
1015.091295603928
 30
0.0
 41
30.0
 42
30.0
 43
30.0
 50
180.0
  0
INSERT
  5
50D
  8
3
  2
_OPEN
 10
3936.1144257323072
 20
1015.091295603928
 30
0.0
 41
30.0
 42
30.0
 43
30.0
  0
TEXT
  8
3
  40
45
  5
542
  72
0
  71
0
 10
3296.11
 20
965.441
 30
0.000000
  1
1100
  0
POINT
  5
50F
  8
DEFPOINTS
 62
     0
 10
2836.1144257323072
 20
1162.4409619546821
 30
0.0
  0
POINT
  5
510
  8
DEFPOINTS
 62
     0
 10
3936.1144257323072
 20
1162.4409619546821
 30
0.0
  0
POINT
  5
511
  8
DEFPOINTS
 62
     0
 10
3936.1144257323072
 20
1015.091295603928
 30
0.0
  0
ENDBLK
  5
27B
  8
0
  0
BLOCK
  8
0
  2
*D7
 70
     1
 10
0.0
 20
0.0
 30
0.0
  3
*D7
  1

  0
LINE
  5
512
  8
3
 10
2786.1144257323072
 20
1172.4409619546821
 30
0.0
 11
2786.1144257323072
 21
855.89529938579335
 31
0.0
  0
LINE
  5
513
  8
3
 10
3986.1144257323072
 20
1172.4409619546821
 30
0.0
 11
3986.1144257323072
 21
855.89529938579335
 31
0.0
  0
LINE
  5
514
  8
3
 10
2816.1144257323072
 20
870.89529938579324
 30
0.0
 11
3956.1144257323072
 21
870.89529938579324
 31
0.0
  0
INSERT
  5
515
  8
3
  2
_OPEN
 10
2786.1144257323072
 20
870.89529938579324
 30
0.0
 41
30.0
 42
30.0
 43
30.0
 50
180.0
  0
INSERT
  5
516
  8
3
  2
_OPEN
 10
3986.1144257323072
 20
870.89529938579324
 30
0.0
 41
30.0
 42
30.0
 43
30.0
  0
TEXT
  8
3
  40
45
  5
543
  72
0
  71
0
 10
3296.11
 20
821.245
 30
0.000000
  1
1200
  0
POINT
  5
518
  8
DEFPOINTS
 62
     0
 10
2786.1144257323072
 20
1187.4409619546821
 30
0.0
  0
POINT
  5
519
  8
DEFPOINTS
 62
     0
 10
3986.1144257323072
 20
1187.4409619546821
 30
0.0
  0
POINT
  5
51A
  8
DEFPOINTS
 62
     0
 10
3986.1144257323072
 20
870.89529938579324
 30
0.0
  0
ENDBLK
  5
287
  8
0
  0
BLOCK
  8
0
  2
*D8
 70
     1
 10
0.0
 20
0.0
 30
0.0
  3
*D8
  1

  0
LINE
  5
51B
  8
3
 10
2771.1144257323072
 20
1237.4409619546821
 30
0.0
 11
2610.3383327086772
 21
1237.4409619546821
 31
0.0
  0
LINE
  5
51C
  8
3
 10
2771.1144257323072
 20
1187.4409619546821
 30
0.0
 11
2610.3383327086772
 21
1187.4409619546821
 31
0.0
  0
LINE
  5
51D
  8
3
 10
2625.3383327086772
 20
1267.4409619546821
 30
0.0
 11
2625.3383327086772
 21
1297.4409619546821
 31
0.0
  0
LINE
  5
51E
  8
3
 10
2625.3383327086772
 20
1157.4409619546821
 30
0.0
 11
2625.3383327086772
 21
1127.4409619546821
 31
0.0
  0
TEXT
  8
3
  40
45
  5
544
  72
0
  71
0
 10
2510.19
 20
1002.74
 30
0.000000
  1
50
  0
LINE
  5
520
  8
3
 10
2625.3383327086772
 20
1237.4409619546821
 30
0.0
 11
2625.3383327086772
 21
1187.4409619546821
 31
0.0
  0
INSERT
  5
521
  8
3
  2
_OPEN
 10
2625.3383327086772
 20
1237.4409619546821
 30
0.0
 41
30.0
 42
30.0
 43
30.0
 50
270.0
  0
INSERT
  5
522
  8
3
  2
_OPEN
 10
2625.3383327086772
 20
1187.4409619546821
 30
0.0
 41
30.0
 42
30.0
 43
30.0
 50
90.0
  0
POINT
  5
523
  8
DEFPOINTS
 62
     0
 10
2786.1144257323072
 20
1237.4409619546821
 30
0.0
  0
POINT
  5
524
  8
DEFPOINTS
 62
     0
 10
2786.1144257323072
 20
1187.4409619546821
 30
0.0
  0
POINT
  5
525
  8
DEFPOINTS
 62
     0
 10
2625.3383327086772
 20
1187.4409619546821
 30
0.0
  0
ENDBLK
  5
295
  8
0
  0
BLOCK
  8
0
  2
*D9
 70
     1
 10
0.0
 20
0.0
 30
0.0
  3
*D9
  1

  0
LINE
  5
526
  8
3
 10
2971.1144257323081
 20
1282.440961954683
 30
0.0
 11
2610.3383327086772
 21
1282.440961954683
 31
0.0
  0
LINE
  5
527
  8
3
 10
2771.1144257323072
 20
1237.4409619546821
 30
0.0
 11
2610.3383327086772
 21
1237.4409619546821
 31
0.0
  0
LINE
  5
528
  8
3
 10
2625.3383327086772
 20
1312.440961954683
 30
0.0
 11
2625.3383327086772
 21
1342.440961954683
 31
0.0
  0
LINE
  5
529
  8
3
 10
2625.3383327086772
 20
1207.4409619546821
 30
0.0
 11
2625.3383327086772
 21
1177.4409619546821
 31
0.0
  0
LINE
  5
52A
  8
3
 10
2625.3383327086772
 20
1259.940961954683
 30
0.0
 11
2576.5883327086772
 21
1274.5659619546821
 31
0.0
  0
LINE
  5
52B
  8
3
 10
2576.5883327086772
 20
1274.5659619546821
 30
0.0
 11
2576.5883327086772
 21
1428.585199841149
 31
0.0
  0
TEXT
  8
3
  40
45
  5
545
  72
0
  71
0
 10
2456.59
 20
1271.93
 30
0.000000
  1
(45)
  0
LINE
  5
52D
  8
3
 10
2625.3383327086772
 20
1282.440961954683
 30
0.0
 11
2625.3383327086772
 21
1237.4409619546821
 31
0.0
  0
LINE
  5
52E
  8
3
 10
2625.3383327086772
 20
1282.440961954683
 30
0.0
 11
2625.3383327086772
 21
1237.4409619546821
 31
0.0
  0
SOLID
  5
52F
  8
3
 10
2620.3383327086772
 20
1312.440961954683
 30
0.0
 11
2630.3383327086781
 21
1312.440961954683
 31
0.0
 12
2625.3383327086772
 22
1282.440961954683
 32
0.0
 13
2625.3383327086772
 23
1282.440961954683
 33
0.0
  0
SOLID
  5
530
  8
3
 10
2620.3383327086772
 20
1207.4409619546821
 30
0.0
 11
2630.3383327086781
 21
1207.4409619546821
 31
0.0
 12
2625.3383327086772
 22
1237.4409619546821
 32
0.0
 13
2625.3383327086772
 23
1237.4409619546821
 33
0.0
  0
POINT
  5
531
  8
DEFPOINTS
 62
     0
 10
2986.1144257323072
 20
1282.440961954683
 30
0.0
  0
POINT
  5
532
  8
DEFPOINTS
 62
     0
 10
2786.1144257323072
 20
1237.4409619546821
 30
0.0
  0
POINT
  5
533
  8
DEFPOINTS
 62
     0
 10
2625.3383327086772
 20
1237.4409619546821
 30
0.0
  0
ENDBLK
  5
2A6
  8
0
  0
BLOCK
  8
0
  2
*D10
 70
     1
 10
0.0
 20
0.0
 30
0.0
  3
*D10
  1

  0
LINE
  5
534
  8
3
 10
2971.1144257323081
 20
1282.440961954683
 30
0.0
 11
2610.3383327086772
 21
1282.440961954683
 31
0.0
  0
LINE
  5
535
  8
3
 10
2845.1144257323058
 20
1842.4409619546821
 30
0.0
 11
2610.3383327086772
 21
1842.4409619546821
 31
0.0
  0
LINE
  5
536
  8
3
 10
2625.3383327086772
 20
1312.440961954683
 30
0.0
 11
2625.3383327086772
 21
1812.4409619546821
 31
0.0
  0
INSERT
  5
537
  8
3
  2
_OPEN
 10
2625.3383327086772
 20
1282.440961954683
 30
0.0
 41
30.0
 42
30.0
 43
30.0
 50
270.0
  0
INSERT
  5
538
  8
3
  2
_OPEN
 10
2625.3383327086772
 20
1842.4409619546821
 30
0.0
 41
30.0
 42
30.0
 43
30.0
 50
90.0
  0
TEXT
  8
3
  40
45
  5
546
  72
0
  71
0
 10
2505.34
 20
1482.79
 30
0.000000
  1
560
  0
POINT
  5
53A
  8
DEFPOINTS
 62
     0
 10
2986.1144257323072
 20
1282.440961954683
 30
0.0
  0
POINT
  5
53B
  8
DEFPOINTS
 62
     0
 10
2860.1144257323072
 20
1842.4409619546821
 30
0.0
  0
POINT
  5
53C
  8
DEFPOINTS
 62
     0
 10
2625.3383327086772
 20
1842.4409619546821
 30
0.0
  0
ENDBLK
  5
2B2
  8
0
  0
ENDSEC
  0
SECTION
  2
ENTITIES
  0
DIMENSION
  5
26
  8
3
  2
*D1
 10
2082.1624700161792
 20
1018.673541390473
 30
0.0
 11
1647.1624700161781
 21
1048.673541390473
 31
0.0
 70
     0
 13
1212.1624700161781
 23
1162.4409619546821
 33
0.0
 14
2082.1624700161792
 24
1162.4409619546821
 34
0.0
1001
ACAD
1000
DSTYLE
1002
{
1070
   287
1070
     3
1070
   287
1070
     3
1070
   287
1070
     3
1070
   287
1070
     3
1070
   287
1070
     3
1070
    40
1040
15.0
1070
   289
1070
     3
1002
}
  0
DIMENSION
  5
3D
  8
3
  2
*D2
 10
1192.1624700161781
 20
869.7559719968699
 30
0.0
 11
1647.1624700161781
 21
899.75597199686979
 31
0.0
 70
     0
 13
2102.1624700161792
 23
1187.4409619546821
 33
0.0
 14
1192.1624700161781
 24
1187.4409619546821
 34
0.0
1001
ACAD
1000
DSTYLE
1002
{
1070
   287
1070
     3
1070
   287
1070
     3
1070
   287
1070
     3
1070
   287
1070
     3
1070
   287
1070
     3
1070
   287
1070
     3
1070
    40
1040
15.0
1070
   289
1070
     3
1002
}
  0
LINE
  5
4A
  8
4
 10
4113.280723900778
 20
-150.91389429140659
 30
0.0
 11
963.28072390077796
 21
-150.91389429140659
 31
0.0
  0
LINE
  5
4C
  8
4
 10
963.28072390077796
 20
4274.0861057085931
 30
0.0
 11
4113.280723900778
 21
4274.0861057085931
 31
0.0
  0
LINE
  5
4D
  8
4
 10
1938.280723900778
 20
599.08610570859332
 30
0.0
 11
3738.280723900778
 21
599.08610570859332
 31
0.0
  0
LINE
  5
4E
  8
4
 10
1338.280723900778
 20
3853.1992371058
 30
0.0
 11
3738.280723900778
 21
3853.1992371058
 31
0.0
  0
LINE
  5
4F
  8
4
 10
1338.280723900778
 20
3553.1992371058
 30
0.0
 11
3738.280723900778
 21
3553.1992371058
 31
0.0
  0
TEXT
  5
50
  8
4
 10
1437.5321138949471
 20
3649.90757000754
 30
0.0
 40
108.0
  1
電動機直動式横型軸流ファン
  0
TEXT
  5
51
  8
4
 10
2228.923929126086
 20
3427.8148612621299
 30
0.0
 40
80.999999999999986
  1
天井吊防振ベット
  0
TEXT
  5
52
  8
4
 10
1992.6678829379739
 20
331.55384080660968
 30
0.0
 40
75.0
  1
機器型番
  0
TEXT
  5
53
  8
4
 10
1996.03384517113
 20
496.40064450851258
 30
0.0
 40
75.0
  1
機器名称
  0
LINE
  5
54
  8
4
 10
1938.280723900778
 20
449.08610570859332
 30
0.0
 11
3738.280723900778
 21
449.08610570859332
 31
0.0
  0
LINE
  5
55
  8
4
 10
1938.280723900778
 20
299.08610570859332
 30
0.0
 11
3738.280723900778
 21
299.08610570859332
 31
0.0
  0
ARC
  5
58
  8
1
 10
2053.6624700161778
 20
1232.9409619546821
 30
0.0
 40
4.5
 50
0.0
 51
90.0
  0
LINE
  5
59
  8
1
 10
1192.1624700161781
 20
1187.4409619546821
 30
0.0
 11
2102.1624700161792
 21
1187.4409619546821
 31
0.0
  0
ARC
  5
5A
  8
1
 10
2059.6624700161778
 20
2299.9409619546818
 30
0.0
 40
4.5
 50
180.0
 51
270.0
  0
LINE
  5
5B
  8
1
 10
2092.1624700161778
 20
2292.4409619546832
 30
0.0
 11
2052.1624700161778
 21
2292.4409619546832
 31
0.0
  0
LINE
  5
5C
  8
1
 10
2092.1624700161778
 20
1392.4409619546821
 30
0.0
 11
2052.1624700161792
 21
1392.4409619546821
 31
0.0
  0
ARC
  5
5D
  8
1
 10
2059.6624700161778
 20
1384.9409619546821
 30
0.0
 40
4.5
 50
90.0
 51
180.0
  0
LINE
  5
5E
  8
1
 10
2031.4693186630591
 20
2314.9409619546818
 30
0.0
 11
2071.4554683588672
 21
2314.9409619546818
 31
0.0
  0
LINE
  5
5F
  8
1
 10
2031.4693186630591
 20
1369.9409619546821
 30
0.0
 11
2071.4554683588681
 21
1369.9409619546821
 31
0.0
  0
LINE
  5
60
  8
2
 10
1148.4355793749539
 20
1842.4409619546821
 30
0.0
 11
2154.4553517081272
 21
1842.4409619546821
 31
0.0
  0
DIMENSION
  5
63
  8
3
  2
*D3
 10
1075.490548396351
 20
1392.4409619546821
 30
0.0
 11
1045.4905483963501
 21
1842.440961954683
 31
0.0
 70
     0
  1
%%c<>
 13
1202.162470016179
 23
2292.4409619546832
 33
0.0
 14
1202.1624700161781
 24
1392.4409619546821
 34
0.0
 50
90.0
1001
ACAD
1000
DSTYLE
1002
{
1070
   287
1070
     3
1070
   287
1070
     3
1070
   287
1070
     3
1070
   287
1070
     3
1070
   287
1070
     3
1070
   287
1070
     3
1070
    40
1040
15.0
1070
   289
1070
     3
1002
}
  0
LINE
  5
70
  8
4
 10
963.28072390077796
 20
-150.91389429140659
 30
0.0
 11
963.28072390077796
 21
4274.0861057085931
 31
0.0
  0
LINE
  5
71
  8
1
 10
2052.1624700161778
 20
2332.4409619546818
 30
0.0
 11
2052.1624700161792
 21
1352.4409619546821
 31
0.0
  0
LINE
  5
72
  8
1
 10
2055.1624700161778
 20
2330.4409619546818
 30
0.0
 11
2055.1624700161792
 21
1354.4409619546821
 31
0.0
  0
LINE
  5
73
  8
1
 10
1246.662470016179
 20
2332.4409619546832
 30
0.0
 11
1246.662470016179
 21
1352.4409619546821
 31
0.0
  0
LINE
  5
74
  8
1
 10
1242.162470016179
 20
2332.4409619546818
 30
0.0
 11
1242.162470016179
 21
1352.4409619546821
 31
0.0
  0
LINE
  5
75
  8
1
 10
2052.1624700161792
 20
2332.4409619546818
 30
0.0
 11
2052.1624700161792
 21
1352.4409619546821
 31
0.0
  0
LINE
  5
76
  8
1
 10
2047.662470016179
 20
2332.4409619546832
 30
0.0
 11
2047.662470016179
 21
1352.4409619546821
 31
0.0
  0
LINE
  5
77
  8
1
 10
1239.162470016179
 20
2330.4409619546818
 30
0.0
 11
1239.1624700161781
 21
1354.4409619546821
 31
0.0
  0
LINE
  5
78
  8
1
 10
1202.162470016179
 20
2292.4409619546832
 30
0.0
 11
1202.1624700161781
 21
1392.4409619546821
 31
0.0
  0
LINE
  5
79
  8
1
 10
1242.162470016179
 20
2332.4409619546818
 30
0.0
 11
1242.1624700161781
 21
1352.4409619546821
 31
0.0
  0
LINE
  5
7A
  8
1
 10
1412.162470016179
 20
2042.440961954683
 30
0.0
 11
1377.162470016179
 21
2288.4409619546818
 31
0.0
  0
LINE
  5
7B
  8
1
 10
1267.162470016179
 20
2042.440961954683
 30
0.0
 11
1302.162470016179
 21
2288.4409619546818
 31
0.0
  0
LINE
  5
7C
  8
4
 10
1938.280723900778
 20
599.08610570859332
 30
0.0
 11
1938.280723900778
 21
299.08610570859332
 31
0.0
  0
LINE
  5
7D
  8
1
 10
1242.1624700161781
 20
1231.4409619546821
 30
0.0
 11
2052.1624700161792
 21
1231.4409619546821
 31
0.0
  0
LINE
  5
7E
  8
1
 10
1240.662470016179
 20
1237.4409619546821
 30
0.0
 11
1647.162470016179
 21
1237.4409619546821
 31
0.0
  0
LINE
  5
7F
  8
1
 10
1242.162470016179
 20
1387.9409619546821
 30
0.0
 11
2052.1624700161792
 21
1387.9409619546821
 31
0.0
  0
LINE
  5
80
  8
1
 10
1242.162470016179
 20
1392.4409619546821
 30
0.0
 11
2052.1624700161792
 21
1392.4409619546821
 31
0.0
  0
LINE
  5
81
  8
1
 10
1262.162470016179
 20
1642.440961954683
 30
0.0
 11
1417.162470016179
 21
1642.440961954683
 31
0.0
  0
LINE
  5
82
  8
1
 10
1262.162470016179
 20
2042.4409619546821
 30
0.0
 11
1417.162470016179
 21
2042.4409619546821
 31
0.0
  0
LINE
  5
83
  8
1
 10
1251.162470016179
 20
1542.440961954683
 30
0.0
 11
1251.162470016179
 21
1286.9409619546821
 31
0.0
  0
LINE
  5
84
  8
1
 10
1246.662470016179
 20
1462.1218976224509
 30
0.0
 11
1246.662470016179
 21
1282.4409619546821
 31
0.0
  0
LINE
  5
85
  8
1
 10
1306.662470016179
 20
1286.9409619546821
 30
0.0
 11
1251.162470016179
 21
1286.9409619546821
 31
0.0
  0
LINE
  5
86
  8
1
 10
1306.662470016179
 20
1282.4409619546821
 30
0.0
 11
1246.662470016179
 21
1282.4409619546821
 31
0.0
  0
LINE
  5
87
  8
1
 10
1224.69007446919
 20
1369.9409619546821
 30
0.0
 11
1264.676224164999
 21
1369.940961954683
 31
0.0
  0
LINE
  5
88
  8
2
 10
1212.1624700161781
 20
1212.4409619546821
 30
0.0
 11
1212.1624700161781
 21
1162.4409619546821
 31
0.0
  0
LINE
  5
89
  8
1
 10
1242.1624700161781
 20
1237.4409619546821
 30
0.0
 11
1242.1624700161781
 21
1187.4409619546821
 31
0.0
  0
ARC
  5
8A
  8
1
 10
1229.6624700161781
 20
1199.9409619546821
 30
0.0
 40
6.5
 50
270.0
 51
0.0000000000005011
  0
LINE
  5
8B
  8
1
 10
1196.6624700161781
 20
1193.4409619546821
 30
0.0
 11
1229.6624700161781
 21
1193.4409619546821
 31
0.0
  0
ARC
  5
8C
  8
1
 10
1196.6624700161781
 20
1188.9409619546821
 30
0.0
 40
4.5
 50
90.0
 51
180.0
  0
LINE
  5
8D
  8
1
 10
1192.1624700161781
 20
1188.9409619546821
 30
0.0
 11
1192.1624700161781
 21
1187.4409619546821
 31
0.0
  0
LINE
  5
8E
  8
1
 10
1236.1624700161781
 20
1232.940961954683
 30
0.0
 11
1236.1624700161781
 21
1199.9409619546821
 31
0.0
  0
ARC
  5
8F
  8
1
 10
1240.662470016179
 20
1232.940961954683
 30
0.0
 40
4.5
 50
90.0
 51
180.00000000000071
  0
LINE
  5
90
  8
1
 10
1246.662470016179
 20
1352.4409619546821
 30
0.0
 11
1242.162470016179
 21
1352.4409619546821
 31
0.0
  0
LINE
  5
91
  8
1
 10
1242.162470016179
 20
1352.4409619546821
 30
0.0
 11
1241.162470016179
 21
1352.4409619546821
 31
0.0
  0
ARC
  5
92
  8
1
 10
1241.162470016179
 20
1354.4409619546821
 30
0.0
 40
2.0
 50
180.0
 51
270.0
  0
LINE
  5
93
  8
1
 10
1306.662470016179
 20
1286.9409619546821
 30
0.0
 11
1306.662470016179
 21
1282.4409619546821
 31
0.0
  0
LINE
  5
94
  8
1
 10
1327.162470016179
 20
2042.4409619546821
 30
0.0
 11
1327.162470016179
 21
1642.440961954683
 31
0.0
  0
LINE
  5
95
  8
1
 10
1317.162470016179
 20
2042.4409619546821
 30
0.0
 11
1317.162470016179
 21
1642.440961954683
 31
0.0
  0
LINE
  5
96
  8
1
 10
1262.162470016179
 20
2042.440961954683
 30
0.0
 11
1262.162470016179
 21
1642.440961954683
 31
0.0
  0
LINE
  5
97
  8
1
 10
1234.662470016179
 20
1389.4409619546821
 30
0.0
 11
1204.162470016179
 21
1389.4409619546821
 31
0.0
  0
LINE
  5
98
  8
1
 10
1202.162470016179
 20
1392.4409619546821
 30
0.0
 11
1242.1624700161781
 21
1392.4409619546821
 31
0.0
  0
ARC
  5
99
  8
1
 10
1204.162470016179
 20
1391.4409619546821
 30
0.0
 40
2.0
 50
180.0
 51
270.0
  0
LINE
  5
9A
  8
1
 10
1202.162470016179
 20
1391.4409619546821
 30
0.0
 11
1202.162470016179
 21
1392.4409619546821
 31
0.0
  0
ARC
  5
9B
  8
1
 10
1234.662470016179
 20
1384.9409619546821
 30
0.0
 40
4.5
 50
0.0
 51
90.0
  0
LINE
  5
9C
  8
1
 10
1251.1624700161781
 20
1542.440961954683
 30
0.0
 11
1246.662470016179
 21
1542.4409619546821
 31
0.0
  0
LINE
  5
9D
  8
1
 10
1267.162470016179
 20
1642.4409619546821
 30
0.0
 11
1302.162470016179
 21
1396.440961954683
 31
0.0
  0
LINE
  5
9E
  8
1
 10
1412.162470016179
 20
1642.4409619546821
 30
0.0
 11
1377.162470016179
 21
1396.440961954683
 31
0.0
  0
LINE
  5
9F
  8
1
 10
1302.162470016179
 20
1396.440961954683
 30
0.0
 11
1377.162470016179
 21
1396.440961954683
 31
0.0
  0
LINE
  5
A0
  8
1
 10
1287.162470016179
 20
1897.4409619546821
 30
0.0
 11
1287.162470016179
 21
1787.4409619546821
 31
0.0
  0
LINE
  5
A1
  8
1
 10
1387.162470016179
 20
1897.4409619546821
 30
0.0
 11
1387.162470016179
 21
1787.4409619546821
 31
0.0
  0
LINE
  5
A2
  8
1
 10
1287.162470016179
 20
1787.4409619546821
 30
0.0
 11
1387.162470016179
 21
1787.4409619546821
 31
0.0
  0
LINE
  5
A3
  8
1
 10
1287.162470016179
 20
1897.4409619546821
 30
0.0
 11
1387.162470016179
 21
1897.4409619546821
 31
0.0
  0
POINT
  5
A4
  8
1
 10
1387.162470016179
 20
1897.4409619546821
 30
0.0
  0
POINT
  5
A5
  8
1
 10
1387.162470016179
 20
1897.4409619546821
 30
0.0
  0
LINE
  5
A6
  8
1
 10
2047.662470016179
 20
1462.121897622452
 30
0.0
 11
2047.6624700161799
 21
1282.4409619546841
 31
0.0
  0
LINE
  5
A7
  8
1
 10
2043.162470016179
 20
1542.4409619546841
 30
0.0
 11
2043.162470016179
 21
1286.9409619546841
 31
0.0
  0
LINE
  5
A8
  8
1
 10
2047.662470016179
 20
1462.12189762245
 30
0.0
 11
2047.662470016179
 21
1332.4409619546821
 31
0.0
  0
LINE
  5
A9
  8
1
 10
1647.162470016179
 20
1237.4409619546821
 30
0.0
 11
2053.6624700161778
 21
1237.4409619546821
 31
0.0
  0
LINE
  5
AA
  8
1
 10
2052.1624700161792
 20
1237.4409619546821
 30
0.0
 11
2052.1624700161792
 21
1187.4409619546821
 31
0.0
  0
LINE
  5
AB
  8
1
 10
1987.6624700161799
 20
1286.9409619546841
 30
0.0
 11
1987.6624700161799
 21
1282.4409619546841
 31
0.0
  0
LINE
  5
AC
  8
1
 10
1987.6624700161799
 20
1282.4409619546841
 30
0.0
 11
2047.6624700161799
 21
1282.4409619546841
 31
0.0
  0
LINE
  5
AD
  8
1
 10
1987.6624700161799
 20
1286.9409619546841
 30
0.0
 11
2043.162470016179
 21
1286.9409619546841
 31
0.0
  0
ARC
  5
AE
  8
1
 10
2053.1624700161778
 20
1354.4409619546821
 30
0.0
 40
2.0
 50
270.0
 51
0.0
  0
LINE
  5
AF
  8
1
 10
2052.1624700161778
 20
1352.4409619546821
 30
0.0
 11
2053.1624700161778
 21
1352.4409619546821
 31
0.0
  0
LINE
  5
B0
  8
1
 10
2047.662470016179
 20
1352.4409619546821
 30
0.0
 11
2052.1624700161792
 21
1352.4409619546821
 31
0.0
  0
LINE
  5
B1
  8
1
 10
1417.162470016179
 20
2042.4409619546821
 30
0.0
 11
1417.162470016179
 21
1642.440961954683
 31
0.0
  0
LINE
  5
B2
  8
1
 10
2043.162470016179
 20
1542.4409619546841
 30
0.0
 11
2047.662470016179
 21
1542.4409619546841
 31
0.0
  0
TEXT
  5
B3
  8
4
 10
1380.5252030315501
 20
3422.5653220281079
 30
0.0
 40
80.999999999999986
  1
左回転後方吐出
  0
DIMENSION
  5
B4
  8
3
  2
*D4
 10
2052.1624700161778
 20
2669.696414899553
 30
0.0
 11
1647.1624700161781
 21
2699.6964148995521
 31
0.0
 70
     0
 13
1242.162470016179
 23
2332.4409619546818
 33
0.0
 14
2052.1624700161778
 24
2332.4409619546818
 34
0.0
1001
ACAD
1000
DSTYLE
1002
{
1070
   287
1070
     3
1070
   287
1070
     3
1070
   287
1070
     3
1070
   287
1070
     3
1070
   287
1070
     3
1070
   287
1070
     3
1070
    40
1040
15.0
1070
   289
1070
     3
1002
}
  0
LINE
  5
C1
  8
1
 10
1296.662470016179
 20
2296.9409619546832
 30
0.0
 11
2047.662470016179
 21
2296.9409619546809
 31
0.0
  0
LINE
  5
C2
  8
1
 10
1242.162470016179
 20
2292.4409619546832
 30
0.0
 11
2052.1624700161792
 21
2292.4409619546832
 31
0.0
  0
LINE
  5
C3
  8
1
 10
1224.6900744691891
 20
2314.9409619546818
 30
0.0
 11
1264.676224164999
 21
2314.9409619546818
 31
0.0
  0
LINE
  5
C4
  8
1
 10
1246.662470016179
 20
2296.9409619546832
 30
0.0
 11
1296.662470016179
 21
2296.9409619546832
 31
0.0
  0
LINE
  5
C5
  8
1
 10
1202.162470016179
 20
2292.4409619546832
 30
0.0
 11
1242.162470016179
 21
2292.4409619546832
 31
0.0
  0
LINE
  5
C6
  8
1
 10
1234.662470016179
 20
2295.4409619546818
 30
0.0
 11
1204.162470016179
 21
2295.4409619546818
 31
0.0
  0
LINE
  5
C7
  8
1
 10
1202.162470016179
 20
2293.4409619546818
 30
0.0
 11
1202.162470016179
 21
2292.4409619546832
 31
0.0
  0
ARC
  5
C8
  8
1
 10
1204.162470016179
 20
2293.4409619546818
 30
0.0
 40
2.0
 50
90.0
 51
180.0
  0
ARC
  5
C9
  8
1
 10
1234.662470016179
 20
2299.9409619546818
 30
0.0
 40
4.5
 50
270.0
 51
0.0
  0
LINE
  5
CA
  8
1
 10
1241.162470016179
 20
2332.4409619546818
 30
0.0
 11
1242.162470016179
 21
2332.4409619546818
 31
0.0
  0
LINE
  5
CB
  8
1
 10
1242.162470016179
 20
2332.4409619546818
 30
0.0
 11
1246.662470016179
 21
2332.4409619546832
 31
0.0
  0
ARC
  5
CC
  8
1
 10
1241.162470016179
 20
2330.4409619546818
 30
0.0
 40
2.0
 50
90.0
 51
180.0
  0
LINE
  5
CD
  8
1
 10
1302.162470016179
 20
2288.4409619546818
 30
0.0
 11
1377.162470016179
 21
2288.4409619546818
 31
0.0
  0
LINE
  5
CE
  8
1
 10
2052.1624700161792
 20
2332.4409619546818
 30
0.0
 11
2053.1624700161778
 21
2332.4409619546818
 31
0.0
  0
LINE
  5
CF
  8
1
 10
2047.662470016179
 20
2332.4409619546832
 30
0.0
 11
2052.1624700161778
 21
2332.4409619546818
 31
0.0
  0
ARC
  5
D0
  8
1
 10
2053.1624700161778
 20
2330.4409619546818
 30
0.0
 40
2.0
 50
0.0
 51
90.0
  0
LINE
  5
D1
  8
4
 10
1338.280723900778
 20
3853.1992371058
 30
0.0
 11
1338.280723900778
 21
3553.1992371058
 31
0.0
  0
DIMENSION
  5
D2
  8
3
  2
*D5
 10
3876.1144257323072
 20
2685.1183360116988
 30
0.0
 11
3386.1144257323072
 21
2715.1183360116979
 31
0.0
 70
     0
 13
2896.1144257323072
 23
1842.4409619546821
 33
0.0
 14
3876.1144257323072
 24
1842.4409619546821
 34
0.0
1001
ACAD
1000
DSTYLE
1002
{
1070
   287
1070
     3
1070
   287
1070
     3
1070
   287
1070
     3
1070
   287
1070
     3
1070
   287
1070
     3
1070
   287
1070
     3
1070
    40
1040
15.0
1070
   289
1070
     3
1002
}
  0
LINE
  5
DF
  8
4
 10
4113.280723900778
 20
4274.0861057085931
 30
0.0
 11
4113.280723900778
 21
-150.91389429140659
 31
0.0
  0
LINE
  5
E0
  8
1
 10
2092.1624700161778
 20
2292.4409619546832
 30
0.0
 11
2092.1624700161792
 21
1392.4409619546821
 31
0.0
  0
LINE
  5
E1
  8
2
 10
3386.1144257323072
 20
1155.7983228142371
 30
0.0
 11
3386.1144257323072
 21
2510.2096488525999
 31
0.0
  0
CIRCLE
  5
E3
  8
1
 10
3386.1144257323072
 20
1842.4409619546821
 30
0.0
 40
454.49999999999989
  0
CIRCLE
  5
E4
  8
1
 10
3386.1144257323072
 20
1842.4409619546821
 30
0.0
 40
450.0
  0
CIRCLE
  5
E5
  8
1
 10
3386.1144257323072
 20
1842.4409619546821
 30
0.0
 40
490.0
  0
DIMENSION
  5
E6
  8
3
  2
*D6
 10
3936.1144257323072
 20
1015.091295603928
 30
0.0
 11
3386.1144257323072
 21
1045.0912956039281
 31
0.0
 70
     0
 13
2836.1144257323072
 23
1162.4409619546821
 33
0.0
 14
3936.1144257323072
 24
1162.4409619546821
 34
0.0
1001
ACAD
1000
DSTYLE
1002
{
1070
   287
1070
     3
1070
   287
1070
     3
1070
   287
1070
     3
1070
   287
1070
     3
1070
   287
1070
     3
1070
    40
1040
15.0
1070
   289
1070
     3
1002
}
  0
LINE
  5
F3
  8
1
 10
2986.1144257323072
 20
1282.440961954683
 30
0.0
 11
3786.1144257323072
 21
1282.440961954683
 31
0.0
  0
DIMENSION
  5
F4
  8
3
  2
*D7
 10
3986.1144257323072
 20
870.89529938579324
 30
0.0
 11
3386.1144257323072
 21
900.89529938579335
 31
0.0
 70
     0
 13
2786.1144257323072
 23
1187.4409619546821
 33
0.0
 14
3986.1144257323072
 24
1187.4409619546821
 34
0.0
1001
ACAD
1000
DSTYLE
1002
{
1070
   287
1070
     3
1070
   287
1070
     3
1070
   287
1070
     3
1070
   287
1070
     3
1070
   287
1070
     3
1070
   287
1070
     3
1070
    40
1040
15.0
1070
   289
1070
     3
1002
}
  0
TEXT
  5
102
  8
4
 10
2729.7988421322748
 20
482.94375914494611
 30
0.0
 40
75.0
  1
ミツヤ軸流ファン
  0
LINE
  5
103
  8
1
 10
3986.1144257323072
 20
1237.440961954683
 30
0.0
 11
2786.1144257323072
 21
1237.4409619546821
 31
0.0
  0
LINE
  5
104
  8
1
 10
2786.1144257323072
 20
1193.4409619546821
 30
0.0
 11
3986.1144257323072
 21
1193.4409619546821
 31
0.0
  0
LINE
  5
105
  8
1
 10
2786.1144257323072
 20
1187.4409619546821
 30
0.0
 11
3986.1144257323072
 21
1187.4409619546821
 31
0.0
  0
LINE
  5
106
  8
2
 10
2860.1144257323072
 20
1842.4409619546821
 30
0.0
 11
3912.1144257323072
 21
1842.4409619546821
 31
0.0
  0
LINE
  5
107
  8
4
 10
2688.280723900778
 20
599.08610570859332
 30
0.0
 11
2688.280723900778
 21
299.08610570859332
 31
0.0
  0
TEXT
  5
108
  8
4
 10
2743.2624672789989
 20
324.82548212850833
 30
0.0
 40
75.0
  1
AP＃900-1
  0
DIMENSION
  5
109
  8
3
  2
*D8
 10
2625.3383327086772
 20
1187.4409619546821
 30
0.0
 11
2630.1879760519369
 21
1082.3867741915581
 31
0.0
 70
   128
 13
2786.1144257323072
 23
1237.4409619546821
 33
0.0
 14
2786.1144257323072
 24
1187.4409619546821
 34
0.0
 50
90.0
1001
ACAD
1000
DSTYLE
1002
{
1070
   287
1070
     4
1070
   287
1070
     4
1070
   287
1070
     4
1070
   287
1070
     4
1070
   287
1070
     4
1070
     7
1000
OPEN
1070
     6
1000
OPEN
1070
   279
1070
     1
1070
    40
1040
15.0
1070
   289
1070
     3
1002
}
  0
DIMENSION
  5
119
  8
3
  2
*D9
 10
2625.3383327086772
 20
1237.4409619546821
 30
0.0
 11
2546.5883327086772
 21
1282.065961954683
 31
0.0
 70
     0
  1
(<>)
 13
2986.1144257323072
 23
1282.440961954683
 33
0.0
 14
2786.1144257323072
 24
1237.4409619546821
 34
0.0
 50
90.0
1001
ACAD
1000
DSTYLE
1002
{
1070
   287
1070
     4
1070
   287
1070
     4
1070
   287
1070
     4
1070
   287
1070
     4
1070
   287
1070
     4
1070
     7
1000
NONE
1070
     6
1000
NONE
1070
   279
1070
     1
1070
    40
1040
15.0
1070
   289
1070
     3
1002
}
  0
DIMENSION
  5
126
  8
3
  2
*D10
 10
2625.3383327086772
 20
1842.4409619546821
 30
0.0
 11
2595.3383327086772
 21
1562.440961954683
 31
0.0
 70
     0
 13
2986.1144257323072
 23
1282.440961954683
 33
0.0
 14
2860.1144257323072
 24
1842.4409619546821
 34
0.0
 50
90.0
1001
ACAD
1000
DSTYLE
1002
{
1070
   287
1070
     3
1070
   287
1070
     3
1070
   287
1070
     3
1070
   287
1070
     3
1070
   287
1070
     3
1070
    40
1040
15.0
1070
   289
1070
     3
1002
}
  0
LINE
  5
133
  8
2
 10
2082.1624700161792
 20
1212.4409619546821
 30
0.0
 11
2082.1624700161792
 21
1162.4409619546821
 31
0.0
  0
ARC
  5
134
  8
1
 10
2064.6624700161778
 20
1199.9409619546821
 30
0.0
 40
6.5
 50
180.0
 51
270.0
  0
LINE
  5
135
  8
1
 10
2064.6624700161778
 20
1193.4409619546821
 30
0.0
 11
2097.6624700161792
 21
1193.4409619546821
 31
0.0
  0
ARC
  5
136
  8
1
 10
2097.6624700161792
 20
1188.9409619546821
 30
0.0
 40
4.5
 50
0.0
 51
90.0
  0
LINE
  5
137
  8
1
 10
2102.1624700161792
 20
1188.9409619546821
 30
0.0
 11
2102.1624700161792
 21
1187.4409619546821
 31
0.0
  0
LINE
  5
138
  8
1
 10
2058.1624700161792
 20
1232.9409619546821
 30
0.0
 11
2058.1624700161792
 21
1199.9409619546821
 31
0.0
  0
LINE
  5
139
  8
1
 10
2092.1624700161778
 20
1391.4409619546821
 30
0.0
 11
2092.1624700161778
 21
1392.4409619546821
 31
0.0
  0
ARC
  5
13A
  8
1
 10
2090.1624700161778
 20
1391.4409619546821
 30
0.0
 40
2.0
 50
270.0
 51
0.0
  0
LINE
  5
13B
  8
1
 10
2059.6624700161778
 20
1389.4409619546821
 30
0.0
 11
2090.1624700161778
 21
1389.4409619546821
 31
0.0
  0
LINE
  5
13C
  8
1
 10
2986.1144257323072
 20
1282.440961954683
 30
0.0
 11
2986.1144257323072
 21
1559.4215279929831
 31
0.0
  0
LINE
  5
13D
  8
2
 10
2836.1144257323072
 20
1212.4409619546821
 30
0.0
 11
2836.1144257323072
 21
1162.4409619546821
 31
0.0
  0
LINE
  5
13E
  8
1
 10
2786.1144257323072
 20
1237.4409619546821
 30
0.0
 11
2786.1144257323072
 21
1187.4409619546821
 31
0.0
  0
LINE
  5
13F
  8
4
 10
3738.280723900778
 20
599.08610570859332
 30
0.0
 11
3738.280723900778
 21
299.08610570859332
 31
0.0
  0
LINE
  5
140
  8
1
 10
3786.1144257323072
 20
1282.4409619546821
 30
0.0
 11
3786.1144257323072
 21
1559.4215279929861
 31
0.0
  0
LINE
  5
141
  8
2
 10
3936.1144257323072
 20
1212.4409619546821
 30
0.0
 11
3936.1144257323072
 21
1162.4409619546821
 31
0.0
  0
LINE
  5
142
  8
1
 10
3986.1144257323072
 20
1187.4409619546821
 30
0.0
 11
3986.1144257323072
 21
1237.4409619546821
 31
0.0
  0
LINE
  5
143
  8
4
 10
3738.280723900778
 20
3870.9814803966951
 30
0.0
 11
3124.2068574405748
 21
3870.9814803966951
 31
0.0
  0
LINE
  5
144
  8
4
 10
3124.2068574405748
 20
4029.0644980332208
 30
0.0
 11
3738.280723900778
 21
4029.0644980332208
 31
0.0
  0
TEXT
  5
145
  8
4
 10
3164.3442054217662
 20
3424.2293677073671
 30
0.0
 40
80.999999999999986
  1
縮尺：1/15
  0
LINE
  5
146
  8
1
 10
2059.6624700161778
 20
2295.4409619546818
 30
0.0
 11
2090.1624700161778
 21
2295.4409619546818
 31
0.0
  0
ARC
  5
147
  8
1
 10
2090.1624700161778
 20
2293.4409619546818
 30
0.0
 40
2.0
 50
0.0
 51
90.0
  0
LINE
  5
148
  8
1
 10
2092.1624700161778
 20
2293.4409619546818
 30
0.0
 11
2092.1624700161778
 21
2292.4409619546832
 31
0.0
  0
TEXT
  5
149
  8
4
 10
3166.7350627747128
 20
3908.1777279515559
 30
0.0
 40
84.000000000000014
  1
No.
  0
LINE
  5
14A
  8
4
 10
3124.2068574405748
 20
3870.9814803966951
 30
0.0
 11
3124.2068574405748
 21
4029.0644980332208
 31
0.0
  0
LINE
  5
14B
  8
4
 10
3738.280723900778
 20
3853.1992371058
 30
0.0
 11
3738.280723900778
 21
3553.1992371058
 31
0.0
  0
LINE
  5
14C
  8
4
 10
3738.280723900778
 20
4029.0644980332208
 30
0.0
 11
3738.280723900778
 21
3870.9814803966951
 31
0.0
  0
LINE
  5
14D
  8
4
 10
4113.280723900778
 20
4274.0861057085931
 30
0.0
 11
4113.280723900778
 21
4274.0861057085931
 31
0.0
  0
ENDSEC
  0
EOF
