  0
SECTION
  2
HEADER
  9
$ACADVER
  1
AC1009
  9
$INSBASE
 10
0.0
 20
0.0
 30
0.0
  9
$EXTMIN
 10
576.88188215141406
 20
-1208.1044734718409
 30
0.0
  9
$EXTMAX
 10
3726.8818821514142
 20
3216.8955265281579
 30
0.0
  9
$LIMMIN
 10
0.0
 20
0.0
  9
$LIMMAX
 10
297.0
 20
210.0
  9
$ORTHOMODE
 70
     0
  9
$REGENMODE
 70
     1
  9
$FILLMODE
 70
     1
  9
$QTEXTMODE
 70
     0
  9
$MIRRTEXT
 70
     0
  9
$DRAGMODE
 70
     2
  9
$LTSCALE
 40
75.0
  9
$OSMODE
 70
    37
  9
$ATTMODE
 70
     1
  9
$TEXTSIZE
 40
75.0
  9
$TRACEWID
 40
0.05
  9
$TEXTSTYLE
  7
SUNPOU
  9
$CLAYER
  8
SP
  9
$CELTYPE
  6
BYLAYER
  9
$CECOLOR
 62
   256
  9
$DIMSCALE
 40
15.0
  9
$DIMASZ
 40
2.0
  9
$DIMEXO
 40
1.0
  9
$DIMDLI
 40
10.0
  9
$DIMRND
 40
0.0
  9
$DIMDLE
 40
0.0
  9
$DIMEXE
 40
1.0
  9
$DIMTP
 40
0.0
  9
$DIMTM
 40
0.0
  9
$DIMTXT
 40
3.0
  9
$DIMCEN
 40
0.0
  9
$DIMTSZ
 40
0.0
  9
$DIMTOL
 70
     0
  9
$DIMLIM
 70
     0
  9
$DIMTIH
 70
     0
  9
$DIMTOH
 70
     0
  9
$DIMSE1
 70
     0
  9
$DIMSE2
 70
     0
  9
$DIMTAD
 70
     1
  9
$DIMZIN
 70
     8
  9
$DIMBLK
  1

  9
$DIMASO
 70
     1
  9
$DIMSHO
 70
     1
  9
$DIMPOST
  1

  9
$DIMAPOST
  1

  9
$DIMALT
 70
     0
  9
$DIMALTD
 70
     2
  9
$DIMALTF
 40
0.03937
  9
$DIMLFAC
 40
1.0
  9
$DIMTOFL
 70
     1
  9
$DIMTVP
 40
0.0
  9
$DIMTIX
 70
     0
  9
$DIMSOXD
 70
     0
  9
$DIMSAH
 70
     1
  9
$DIMBLK1
  1
OPEN
  9
$DIMBLK2
  1
OPEN
  9
$DIMSTYLE
  2
MATSU
  9
$DIMCLRD
 70
   256
  9
$DIMCLRE
 70
   256
  9
$DIMCLRT
 70
   256
  9
$DIMTFAC
 40
1.0
  9
$DIMGAP
 40
0.5
  9
$LUNITS
 70
     2
  9
$LUPREC
 70
     3
  9
$SKETCHINC
 40
0.1
  9
$FILLETRAD
 40
3.0
  9
$AUNITS
 70
     0
  9
$AUPREC
 70
     2
  9
$MENU
  1
acad
  9
$ELEVATION
 40
0.0
  9
$PELEVATION
 40
0.0
  9
$THICKNESS
 40
0.0
  9
$LIMCHECK
 70
     0
  9
$BLIPMODE
 70
     0
  9
$CHAMFERA
 40
0.0
  9
$CHAMFERB
 40
0.0
  9
$SKPOLY
 70
     0
  9
$TDCREATE
 40
2451967.42375706
  9
$TDUPDATE
 40
2454953.632032326
  9
$TDINDWG
 40
0.8028785301
  9
$TDUSRTIMER
 40
0.8028785301
  9
$USRTIMER
 70
     1
  9
$ANGBASE
 50
0.0
  9
$ANGDIR
 70
     0
  9
$PDMODE
 70
     0
  9
$PDSIZE
 40
1.0
  9
$PLINEWID
 40
0.0
  9
$COORDS
 70
     1
  9
$SPLFRAME
 70
     0
  9
$SPLINETYPE
 70
     6
  9
$SPLINESEGS
 70
     8
  9
$ATTDIA
 70
     0
  9
$ATTREQ
 70
     1
  9
$HANDLING
 70
 10241
  9
$HANDSEED
  5
10D7
  9
$SURFTAB1
 70
     6
  9
$SURFTAB2
 70
     6
  9
$SURFTYPE
 70
     6
  9
$SURFU
 70
     6
  9
$SURFV
 70
     6
  9
$UCSNAME
  2

  9
$UCSORG
 10
0.0
 20
0.0
 30
0.0
  9
$UCSXDIR
 10
1.0
 20
0.0
 30
0.0
  9
$UCSYDIR
 10
0.0
 20
1.0
 30
0.0
  9
$PUCSNAME
  2

  9
$PUCSORG
 10
0.0
 20
0.0
 30
0.0
  9
$PUCSXDIR
 10
1.0
 20
0.0
 30
0.0
  9
$PUCSYDIR
 10
0.0
 20
1.0
 30
0.0
  9
$USERI1
 70
     0
  9
$USERI2
 70
     0
  9
$USERI3
 70
     0
  9
$USERI4
 70
     0
  9
$USERI5
 70
     0
  9
$USERR1
 40
0.0
  9
$USERR2
 40
0.0
  9
$USERR3
 40
0.0
  9
$USERR4
 40
0.0
  9
$USERR5
 40
0.0
  9
$WORLDVIEW
 70
     1
  9
$SHADEDGE
 70
     3
  9
$SHADEDIF
 70
    70
  9
$TILEMODE
 70
     1
  9
$MAXACTVP
 70
    16
  9
$PLIMCHECK
 70
     0
  9
$PEXTMIN
 10
1.0000000000000000E+020
 20
1.0000000000000000E+020
 30
1.0000000000000000E+020
  9
$PEXTMAX
 10
-1.0000000000000000E+020
 20
-1.0000000000000000E+020
 30
-1.0000000000000000E+020
  9
$PLIMMIN
 10
0.0
 20
0.0
  9
$PLIMMAX
 10
12.0
 20
9.0
  9
$UNITMODE
 70
     0
  9
$VISRETAIN
 70
     0
  9
$PLINEGEN
 70
     0
  9
$PSLTSCALE
 70
     0
  0
ENDSEC
  0
SECTION
  2
TABLES
  0
TABLE
  2
VPORT
 70
     2
  0
VPORT
  2
*ACTIVE
 70
     0
 10
0.0
 20
0.0
 11
1.0
 21
1.0
 12
3608.109593206535
 22
-659.28392919697217
 13
0.0
 23
0.0
 14
62.5
 24
62.5
 15
62.5
 25
62.5
 16
0.0
 26
0.0
 36
1.0
 17
0.0
 27
0.0
 37
0.0
 40
1398.362324342419
 41
3.1666666666666661
 42
50.0
 43
0.0
 44
0.0
 50
0.0
 51
0.0
 71
     0
 72
   100
 73
     1
 74
     0
 75
     0
 76
     0
 77
     0
 78
     0
  0
ENDTAB
  0
TABLE
  2
LTYPE
 70
     2
  0
LTYPE
  2
CONTINUOUS
 70
     0
  3
Solid line
 72
    65
 73
     0
 40
0.0
  0
LTYPE
  2
CENTER
 70
     0
  3
____ _ ____ _ ____ _ ____ _ ____ _ ____ _ ____ 
 72
    65
 73
     4
 40
2.0
 49
1.25
 49
-0.25
 49
0.25
 49
-0.25
  0
ENDTAB
  0
TABLE
  2
LAYER
 70
     6
  0
LAYER
  2
0
 70
     0
 62
     7
  6
CONTINUOUS
  0
LAYER
  2
SP
 70
     0
 62
     2
  6
CONTINUOUS
  0
LAYER
  2
DEFPOINTS
 70
     0
 62
     7
  6
CONTINUOUS
  0
LAYER
  2
2
 70
     0
 62
     3
  6
CENTER
  0
LAYER
  2
1
 70
     0
 62
     4
  6
CONTINUOUS
  0
LAYER
  2
4
 70
     0
 62
     7
  6
CONTINUOUS
  0
ENDTAB
  0
TABLE
  2
STYLE
 70
     2
  0
STYLE
  2
STANDARD
 70
     0
 40
0.0
 41
1.0
 50
15.0
 71
     0
 42
3.5
  3
C:\Program Files\AutoCAD LT\simplex.shx
  4
C:\Program Files\AutoCAD LT\extfont.shx
  0
STYLE
  2
SUNPOU
 70
     0
 40
0.0
 41
1.0
 50
15.0
 71
     0
 42
75.0
  3
simplex.shx
  4
extfont.shx
  0
ENDTAB
  0
TABLE
  2
VIEW
 70
     0
  0
ENDTAB
  0
TABLE
  2
UCS
 70
     0
  0
ENDTAB
  0
TABLE
  2
APPID
 70
     1
  0
APPID
  2
ACAD
 70
     0
  0
ENDTAB
  0
TABLE
  2
DIMSTYLE
 70
     2
  0
DIMSTYLE
  2
MATSU
 70
     0
  3

  4

  5

  6
OPEN
  7
OPEN
 40
1.0
 41
2.0
 42
1.0
 43
10.0
 44
1.0
 45
0.0
 46
0.0
 47
0.0
 48
0.0
140
3.0
141
0.0
142
0.0
143
0.03937
144
1.0
145
0.0
146
1.0
147
0.5
 71
     0
 72
     0
 73
     0
 74
     0
 75
     0
 76
     0
 77
     1
 78
     8
170
     0
171
     2
172
     1
173
     1
174
     0
175
     0
176
   256
177
   256
178
   256
  0
DIMSTYLE
  2
STANDARD
 70
     0
  3

  4

  5

  6

  7

 40
1.0
 41
0.18
 42
0.0625
 43
0.38
 44
0.18
 45
0.0
 46
0.0
 47
0.0
 48
0.0
140
0.18
141
0.09
142
0.0
143
25.399999999999999
144
1.0
145
0.0
146
1.0
147
0.09
 71
     0
 72
     0
 73
     1
 74
     1
 75
     0
 76
     0
 77
     0
 78
     0
170
     0
171
     2
172
     0
173
     0
174
     0
175
     0
176
     0
177
     0
178
     0
  0
ENDTAB
  0
ENDSEC
  0
SECTION
  2
BLOCKS
  0
BLOCK
  8
0
  2
$MODEL_SPACE
 70
     0
 10
0.0
 20
0.0
 30
0.0
  3
$MODEL_SPACE
  1

  0
ENDBLK
  5
7
  8
0
  0
BLOCK
 67
     1
  8
0
  2
$PAPER_SPACE
 70
     0
 10
0.0
 20
0.0
 30
0.0
  3
$PAPER_SPACE
  1

  0
ENDBLK
  5
A
 67
     1
  8
0
  0
BLOCK
  8
0
  2
_OPEN
 70
     0
 10
0.0
 20
0.0
 30
0.0
  3
_OPEN
  1

  0
LINE
  5
2E
  8
0
  6
BYBLOCK
 62
     0
 10
-1.0
 20
0.1666666666666666
 30
0.0
 11
0.0
 21
0.0
 31
0.0
  0
LINE
  5
2F
  8
0
  6
BYBLOCK
 62
     0
 10
0.0
 20
0.0
 30
0.0
 11
-1.0
 21
-0.1666666666666666
 31
0.0
  0
LINE
  5
30
  8
0
  6
BYBLOCK
 62
     0
 10
0.0
 20
0.0
 30
0.0
 11
-1.0
 21
0.0
 31
0.0
  0
ENDBLK
  5
32
  8
0
  0
BLOCK
  8
0
  2
*D1
 70
     1
 10
0.0
 20
0.0
 30
0.0
  3
*D1
  1

  0
LINE
  5
108D
  8
SP
 10
928.74687079096191
 20
1285.994275447717
 30
0.0
 11
757.59838936839878
 21
1285.994275447717
 31
0.0
  0
LINE
  5
108E
  8
SP
 10
928.74687079096213
 20
485.99427544771783
 30
0.0
 11
757.59838936839867
 21
485.99427544771788
 31
0.0
  0
LINE
  5
108F
  8
SP
 10
772.59838936839878
 20
1255.994275447717
 30
0.0
 11
772.59838936839856
 21
515.99427544771777
 31
0.0
  0
INSERT
  5
1090
  8
SP
  2
_OPEN
 10
772.5983893683989
 20
1285.994275447717
 30
0.0
 41
30.0
 42
30.0
 43
30.0
 50
90.0
  0
INSERT
  5
1091
  8
SP
  2
_OPEN
 10
772.59838936839856
 20
485.99427544771788
 30
0.0
 41
30.0
 42
30.0
 43
30.0
 50
270.0
  0
TEXT
  8
0
  40
45
  5
10D0
  72
0
  71
0
 10
652.598
 20
806.344
 30
0.000000
  1
800
  0
POINT
  5
1093
  8
DEFPOINTS
 62
     0
 10
943.74687079096191
 20
1285.994275447717
 30
0.0
  0
POINT
  5
1094
  8
DEFPOINTS
 62
     0
 10
943.74687079096191
 20
485.99427544771783
 30
0.0
  0
POINT
  5
1095
  8
DEFPOINTS
 62
     0
 10
772.59838936839856
 20
485.99427544771788
 30
0.0
  0
ENDBLK
  5
80D
  8
0
  0
BLOCK
  8
0
  2
*D2
 70
     1
 10
0.0
 20
0.0
 30
0.0
  3
*D2
  1

  0
LINE
  5
1096
  8
SP
 10
2354.1600311874481
 20
885.99427544771788
 30
0.0
 11
2265.7454658506681
 21
885.99427544771788
 31
0.0
  0
LINE
  5
1097
  8
SP
 10
2946.422119835644
 20
1748.2088880394051
 30
0.0
 11
2265.745465850669
 21
1748.2088880394051
 31
0.0
  0
LINE
  5
1098
  8
SP
 10
2280.7454658506681
 20
915.994275447718
 30
0.0
 11
2280.745465850669
 21
1718.208888039406
 31
0.0
  0
INSERT
  5
1099
  8
SP
  2
_OPEN
 10
2280.7454658506681
 20
885.99427544771788
 30
0.0
 41
30.0
 42
30.0
 43
30.0
 50
270.0
  0
INSERT
  5
109A
  8
SP
  2
_OPEN
 10
2280.745465850669
 20
1748.2088880394051
 30
0.0
 41
30.0
 42
30.0
 43
30.0
 50
90.0
  0
TEXT
  8
0
  40
45
  5
10D1
  72
0
  71
0
 10
2160.75
 20
1237.45
 30
0.000000
  1
MAX.1000
  0
POINT
  5
109C
  8
DEFPOINTS
 62
     0
 10
2369.1600311874481
 20
885.99427544771788
 30
0.0
  0
POINT
  5
109D
  8
DEFPOINTS
 62
     0
 10
2961.422119835644
 20
1748.2088880394051
 30
0.0
  0
POINT
  5
109E
  8
DEFPOINTS
 62
     0
 10
2280.745465850669
 20
1748.2088880394051
 30
0.0
  0
ENDBLK
  5
853
  8
0
  0
BLOCK
  8
0
  2
*D3
 70
     1
 10
0.0
 20
0.0
 30
0.0
  3
*D3
  1

  0
LINE
  5
109F
  8
SP
 10
2461.422119835644
 20
1927.9639299019541
 30
0.0
 11
2461.422119835644
 21
1959.0901058713309
 31
0.0
  0
LINE
  5
10A0
  8
SP
 10
3461.422119835644
 20
1927.9639299019541
 30
0.0
 11
3461.422119835644
 21
1959.0901058713309
 31
0.0
  0
LINE
  5
10A1
  8
SP
 10
2491.422119835644
 20
1944.0901058713309
 30
0.0
 11
3431.422119835644
 21
1944.0901058713309
 31
0.0
  0
INSERT
  5
10A2
  8
SP
  2
_OPEN
 10
2461.422119835644
 20
1944.0901058713309
 30
0.0
 41
30.0
 42
30.0
 43
30.0
 50
180.0
  0
INSERT
  5
10A3
  8
SP
  2
_OPEN
 10
3461.422119835644
 20
1944.0901058713309
 30
0.0
 41
30.0
 42
30.0
 43
30.0
  0
TEXT
  8
0
  40
45
  5
10D2
  72
0
  71
0
 10
2871.42
 20
1894.44
 30
0.000000
  1
1000
  0
POINT
  5
10A5
  8
DEFPOINTS
 62
     0
 10
2461.422119835644
 20
1912.9639299019541
 30
0.0
  0
POINT
  5
10A6
  8
DEFPOINTS
 62
     0
 10
3461.422119835644
 20
1912.9639299019541
 30
0.0
  0
POINT
  5
10A7
  8
DEFPOINTS
 62
     0
 10
3461.422119835644
 20
1944.0901058713309
 30
0.0
  0
ENDBLK
  5
F39
  8
0
  0
BLOCK
  8
0
  2
*D4
 70
     1
 10
0.0
 20
0.0
 30
0.0
  3
*D4
  1

  0
LINE
  5
10A8
  8
SP
 10
1018.746870790961
 20
1927.9639299019541
 30
0.0
 11
1018.746870790961
 21
1963.207823682654
 31
0.0
  0
LINE
  5
10A9
  8
SP
 10
1708.7468707909611
 20
1927.9639299019541
 30
0.0
 11
1708.7468707909611
 21
1963.207823682654
 31
0.0
  0
LINE
  5
10AA
  8
SP
 10
1048.7468707909611
 20
1948.207823682654
 30
0.0
 11
1678.7468707909611
 21
1948.207823682654
 31
0.0
  0
INSERT
  5
10AB
  8
SP
  2
_OPEN
 10
1018.746870790961
 20
1948.207823682654
 30
0.0
 41
30.0
 42
30.0
 43
30.0
 50
180.0
  0
INSERT
  5
10AC
  8
SP
  2
_OPEN
 10
1708.7468707909611
 20
1948.207823682654
 30
0.0
 41
30.0
 42
30.0
 43
30.0
  0
TEXT
  8
0
  40
45
  5
10D3
  72
0
  71
0
 10
1273.75
 20
1898.56
 30
0.000000
  1
690
  0
POINT
  5
10AE
  8
DEFPOINTS
 62
     0
 10
1018.746870790961
 20
1912.9639299019541
 30
0.0
  0
POINT
  5
10AF
  8
DEFPOINTS
 62
     0
 10
1708.7468707909611
 20
1912.9639299019541
 30
0.0
  0
POINT
  5
10B0
  8
DEFPOINTS
 62
     0
 10
1708.7468707909611
 20
1948.207823682654
 30
0.0
  0
ENDBLK
  5
F46
  8
0
  0
BLOCK
  8
0
  2
*D5
 70
     1
 10
0.0
 20
0.0
 30
0.0
  3
*D5
  1

  0
LINE
  5
10B1
  8
SP
 10
983.74687079096202
 20
1340.994275447717
 30
0.0
 11
983.74687079096202
 21
2086.7391210408382
 31
0.0
  0
LINE
  5
10B2
  8
SP
 10
1743.7468707909611
 20
1340.994275447717
 30
0.0
 11
1743.7468707909611
 21
2086.7391210408382
 31
0.0
  0
LINE
  5
10B3
  8
SP
 10
1013.746870790962
 20
2071.7391210408382
 30
0.0
 11
1713.7468707909611
 21
2071.7391210408382
 31
0.0
  0
INSERT
  5
10B4
  8
SP
  2
_OPEN
 10
983.74687079096202
 20
2071.7391210408382
 30
0.0
 41
30.0
 42
30.0
 43
30.0
 50
180.0
  0
INSERT
  5
10B5
  8
SP
  2
_OPEN
 10
1743.7468707909611
 20
2071.7391210408382
 30
0.0
 41
30.0
 42
30.0
 43
30.0
  0
TEXT
  8
0
  40
45
  5
10D4
  72
0
  71
0
 10
1273.75
 20
2022.09
 30
0.000000
  1
760
  0
POINT
  5
10B7
  8
DEFPOINTS
 62
     0
 10
983.74687079096202
 20
1325.9942754477181
 30
0.0
  0
POINT
  5
10B8
  8
DEFPOINTS
 62
     0
 10
1743.7468707909611
 20
1325.9942754477181
 30
0.0
  0
POINT
  5
10B9
  8
DEFPOINTS
 62
     0
 10
1743.7468707909611
 20
2071.7391210408382
 30
0.0
  0
ENDBLK
  5
F53
  8
0
  0
BLOCK
  8
0
  2
*D6
 70
     1
 10
0.0
 20
0.0
 30
0.0
  3
*D6
  1

  0
LINE
  5
10BA
  8
SP
 10
1708.7468707909611
 20
1927.9639299019541
 30
0.0
 11
1708.7468707909611
 21
1963.207823682654
 31
0.0
  0
LINE
  5
10BB
  8
SP
 10
1743.7468707909611
 20
1340.994275447717
 30
0.0
 11
1743.7468707909611
 21
1963.207823682654
 31
0.0
  0
LINE
  5
10BC
  8
SP
 10
1678.7468707909611
 20
1948.207823682654
 30
0.0
 11
1648.7468707909611
 21
1948.207823682654
 31
0.0
  0
LINE
  5
10BD
  8
SP
 10
1773.7468707909611
 20
1948.207823682654
 30
0.0
 11
1803.7468707909611
 21
1948.207823682654
 31
0.0
  0
TEXT
  8
0
  40
45
  5
10D5
  72
0
  71
0
 10
1731.96
 20
1900.40
 30
0.000000
  1
35
  0
LINE
  5
10BF
  8
SP
 10
1708.7468707909611
 20
1948.207823682654
 30
0.0
 11
1743.7468707909611
 21
1948.207823682654
 31
0.0
  0
INSERT
  5
10C0
  8
SP
  2
_OPEN
 10
1708.7468707909611
 20
1948.207823682654
 30
0.0
 41
30.0
 42
30.0
 43
30.0
  0
INSERT
  5
10C1
  8
SP
  2
_OPEN
 10
1743.7468707909611
 20
1948.207823682654
 30
0.0
 41
30.0
 42
30.0
 43
30.0
 50
180.0
  0
POINT
  5
10C2
  8
DEFPOINTS
 62
     0
 10
1708.7468707909611
 20
1912.9639299019541
 30
0.0
  0
POINT
  5
10C3
  8
DEFPOINTS
 62
     0
 10
1743.7468707909611
 20
1325.9942754477181
 30
0.0
  0
POINT
  5
10C4
  8
DEFPOINTS
 62
     0
 10
1743.7468707909611
 20
1948.207823682654
 30
0.0
  0
ENDBLK
  5
F65
  8
0
  0
BLOCK
  8
0
  2
*D7
 70
     1
 10
0.0
 20
0.0
 30
0.0
  3
*D7
  1

  0
LINE
  5
10C5
  8
SP
 10
1018.746870790961
 20
1927.9639299019541
 30
0.0
 11
1018.746870790961
 21
1963.207823682654
 31
0.0
  0
LINE
  5
10C6
  8
SP
 10
983.74687079096202
 20
1340.994275447717
 30
0.0
 11
983.74687079096202
 21
1963.207823682654
 31
0.0
  0
LINE
  5
10C7
  8
SP
 10
1048.7468707909611
 20
1948.207823682654
 30
0.0
 11
1078.7468707909611
 21
1948.207823682654
 31
0.0
  0
LINE
  5
10C8
  8
SP
 10
953.74687079096213
 20
1948.207823682654
 30
0.0
 11
923.74687079096202
 21
1948.207823682654
 31
0.0
  0
TEXT
  8
0
  40
45
  5
10D6
  72
0
  71
0
 10
815.412
 20
1898.58
 30
0.000000
  1
35
  0
LINE
  5
10CA
  8
SP
 10
1018.746870790961
 20
1948.207823682654
 30
0.0
 11
983.74687079096202
 21
1948.207823682654
 31
0.0
  0
INSERT
  5
10CB
  8
SP
  2
_OPEN
 10
1018.746870790961
 20
1948.207823682654
 30
0.0
 41
30.0
 42
30.0
 43
30.0
 50
180.0
  0
INSERT
  5
10CC
  8
SP
  2
_OPEN
 10
983.74687079096202
 20
1948.207823682654
 30
0.0
 41
30.0
 42
30.0
 43
30.0
  0
POINT
  5
10CD
  8
DEFPOINTS
 62
     0
 10
1018.746870790961
 20
1912.9639299019541
 30
0.0
  0
POINT
  5
10CE
  8
DEFPOINTS
 62
     0
 10
983.74687079096202
 20
1325.9942754477181
 30
0.0
  0
POINT
  5
10CF
  8
DEFPOINTS
 62
     0
 10
983.74687079096202
 20
1948.207823682654
 30
0.0
  0
ENDBLK
  5
F77
  8
0
  0
ENDSEC
  0
SECTION
  2
ENTITIES
  0
LINE
  5
40
  8
2
 10
2369.1600311874481
 20
885.99427544771788
 30
0.0
 11
3592.8443505725222
 21
885.99427544771788
 31
0.0
  0
CIRCLE
  5
43
  8
1
 10
2961.422119835644
 20
885.99427544771788
 30
0.0
 40
400.0
  0
CIRCLE
  5
44
  8
1
 10
2961.422119835644
 20
885.99427544771788
 30
0.0
 40
440.0
  0
CIRCLE
  5
4E
  8
1
 10
2961.422119835644
 20
885.99427544771788
 30
0.0
 40
405.0
  0
LINE
  5
AC
  8
1
 10
1639.1400003012011
 20
481.49427544771783
 30
0.0
 11
1088.3537412807209
 21
481.49427544771783
 31
0.0
  0
LINE
  5
B3
  8
2
 10
977.71724470940626
 20
1540.209788040655
 30
0.0
 11
1683.7468707909611
 21
1540.209788040655
 31
0.0
  0
LINE
  5
B4
  8
1
 10
1510.7468707909611
 20
1702.209788040655
 30
0.0
 11
1007.717244709406
 21
1702.209788040655
 31
0.0
  0
LINE
  5
B9
  8
1
 10
1146.746870790962
 20
1384.2097880406559
 30
0.0
 11
1007.717244709406
 21
1384.2097880406559
 31
0.0
  0
LINE
  5
BA
  8
1
 10
1153.746870790962
 20
1290.494275447717
 30
0.0
 11
988.24687079096202
 21
1290.494275447717
 31
0.0
  0
LINE
  5
BB
  8
1
 10
943.74687079096191
 20
1285.994275447717
 30
0.0
 11
1783.7468707909611
 21
1285.9942754477181
 31
0.0
  0
LINE
  5
BE
  8
2
 10
1857.577471057346
 20
885.99427544771788
 30
0.0
 11
845.52648029676857
 21
885.99427544771788
 31
0.0
  0
LINE
  5
C1
  8
1
 10
943.74687079096191
 20
485.99427544771783
 30
0.0
 11
1783.7468707909611
 21
485.99427544771783
 31
0.0
  0
LINE
  5
C2
  8
1
 10
943.74687079096191
 20
1287.9942754477181
 30
0.0
 11
943.74687079096191
 21
483.99427544771788
 31
0.0
  0
LINE
  5
C9
  8
1
 10
983.74687079096202
 20
1325.9942754477181
 30
0.0
 11
983.74687079096202
 21
445.99427544771788
 31
0.0
  0
LINE
  5
CA
  8
1
 10
978.74687079096213
 20
1322.994275447717
 30
0.0
 11
978.74687079096213
 21
448.99427544771783
 31
0.0
  0
LINE
  5
CB
  8
1
 10
988.24687079096202
 20
1325.9942754477181
 30
0.0
 11
988.24687079096202
 21
445.99427544771788
 31
0.0
  0
LINE
  5
EC
  8
1
 10
988.24687079096202
 20
605.99427544771777
 30
0.0
 11
988.24687079096202
 21
445.99427544771788
 31
0.0
  0
LINE
  5
EF
  8
1
 10
983.74687079096202
 20
445.99427544771788
 30
0.0
 11
988.24687079096202
 21
445.99427544771788
 31
0.0
  0
LINE
  5
F1
  8
1
 10
983.74687079096202
 20
445.99427544771788
 30
0.0
 11
981.74687079096202
 21
445.99427544771788
 31
0.0
  0
ARC
  5
F2
  8
1
 10
981.74687079096202
 20
448.99427544771783
 30
0.0
 40
3.0
 50
180.0
 51
270.0
  0
LINE
  5
103
  8
1
 10
1018.246870790962
 20
463.49427544771788
 30
0.0
 11
948.74687079096202
 21
463.49427544771788
 31
0.0
  0
LINE
  5
104
  8
2
 10
948.74687079096202
 20
463.49427544771788
 30
0.0
 11
1018.246870790962
 21
463.49427544771788
 31
0.0
  0
ARC
  5
105
  8
1
 10
946.74687079096202
 20
483.99427544771788
 30
0.0
 40
3.0
 50
180.0
 51
269.99999999999977
  0
LINE
  5
106
  8
1
 10
974.24687079096213
 20
480.99427544771783
 30
0.0
 11
946.74687079096202
 21
480.99427544771783
 31
0.0
  0
ARC
  5
107
  8
1
 10
974.24687079096213
 20
476.49427544771783
 30
0.0
 40
4.5
 50
0.0
 51
90.0
  0
LINE
  5
108
  8
1
 10
1088.3537412807209
 20
481.49427544771783
 30
0.0
 11
988.24687079096202
 21
481.49427544771783
 31
0.0
  0
LINE
  5
112
  8
1
 10
1007.717244709406
 20
1702.209788040655
 30
0.0
 11
1007.717244709406
 21
1384.2097880406559
 31
0.0
  0
ARC
  5
123
  8
1
 10
946.74687079096191
 20
1287.9942754477181
 30
0.0
 40
3.0
 50
89.999999999999574
 51
180.0
  0
LINE
  5
124
  8
1
 10
974.24687079096213
 20
1290.994275447717
 30
0.0
 11
946.74687079096191
 21
1290.994275447717
 31
0.0
  0
ARC
  5
125
  8
1
 10
974.24687079096213
 20
1295.494275447717
 30
0.0
 40
4.5
 50
270.0
 51
0.0
  0
LINE
  5
127
  8
1
 10
983.74687079096202
 20
1325.9942754477181
 30
0.0
 11
988.24687079096202
 21
1325.9942754477181
 31
0.0
  0
LINE
  5
128
  8
2
 10
948.74687079096202
 20
1308.4942754477181
 30
0.0
 11
1018.246870790962
 21
1308.4942754477181
 31
0.0
  0
ARC
  5
129
  8
1
 10
981.74687079096202
 20
1322.994275447717
 30
0.0
 40
3.0
 50
90.0
 51
180.0
  0
LINE
  5
12A
  8
1
 10
983.74687079096202
 20
1325.9942754477181
 30
0.0
 11
981.74687079096202
 21
1325.9942754477181
 31
0.0
  0
LINE
  5
12E
  8
1
 10
1783.7468707909611
 20
1287.9942754477181
 30
0.0
 11
1783.7468707909611
 21
483.99427544771783
 31
0.0
  0
LINE
  5
133
  8
1
 10
1739.2468707909611
 20
1325.9942754477181
 30
0.0
 11
1739.2468707909611
 21
445.99427544771788
 31
0.0
  0
LINE
  5
135
  8
1
 10
1748.74687079096
 20
1322.994275447717
 30
0.0
 11
1748.74687079096
 21
448.99427544771783
 31
0.0
  0
LINE
  5
136
  8
1
 10
1743.7468707909611
 20
1325.9942754477181
 30
0.0
 11
1743.7468707909611
 21
445.99427544771788
 31
0.0
  0
LINE
  5
14C
  8
1
 10
1739.2468707909611
 20
605.99427544771777
 30
0.0
 11
1739.2468707909611
 21
445.99427544771788
 31
0.0
  0
LINE
  5
15D
  8
1
 10
1743.7468707909611
 20
445.99427544771788
 30
0.0
 11
1739.2468707909611
 21
445.99427544771788
 31
0.0
  0
ARC
  5
15E
  8
1
 10
1745.7468707909611
 20
448.99427544771783
 30
0.0
 40
3.0
 50
270.0
 51
0.0
  0
LINE
  5
15F
  8
1
 10
1743.7468707909611
 20
445.99427544771788
 30
0.0
 11
1745.7468707909611
 21
445.99427544771788
 31
0.0
  0
LINE
  5
161
  8
1
 10
1739.2468707909611
 20
481.49427544771783
 30
0.0
 11
1639.1400003012011
 21
481.49427544771783
 31
0.0
  0
LINE
  5
162
  8
1
 10
1753.2468707909611
 20
480.99427544771783
 30
0.0
 11
1780.7468707909611
 21
480.99427544771783
 31
0.0
  0
LINE
  5
163
  8
2
 10
1778.7468707909611
 20
463.49427544771788
 30
0.0
 11
1709.2468707909611
 21
463.49427544771788
 31
0.0
  0
ARC
  5
164
  8
1
 10
1753.2468707909611
 20
476.49427544771783
 30
0.0
 40
4.5
 50
90.0
 51
180.0
  0
ARC
  5
165
  8
1
 10
1780.7468707909611
 20
483.99427544771783
 30
0.0
 40
3.0
 50
269.99999999999977
 51
0.0
  0
LINE
  5
177
  8
1
 10
1683.7468707909611
 20
1710.2097880406559
 30
0.0
 11
1683.7468707909611
 21
1285.9942754477181
 31
0.0
  0
LINE
  5
178
  8
1
 10
1548.7468707909611
 20
1710.2097880406559
 30
0.0
 11
1548.7468707909611
 21
1285.9942754477181
 31
0.0
  0
LINE
  5
179
  8
1
 10
1131.746870790962
 20
1702.209788040655
 30
0.0
 11
1131.746870790962
 21
1384.2097880406559
 31
0.0
  0
LINE
  5
17A
  8
2
 10
1293.746870790962
 20
1778.2097880406559
 30
0.0
 11
1293.746870790962
 21
1342.2097880406559
 31
0.0
  0
LINE
  5
17B
  8
1
 10
1510.7468707909611
 20
1384.2097880406559
 30
0.0
 11
1510.7468707909611
 21
1702.209788040655
 31
0.0
  0
LINE
  5
17C
  8
1
 10
1455.7468707909611
 20
1702.209788040655
 30
0.0
 11
1455.7468707909611
 21
1450.2097880406559
 31
0.0
  0
LINE
  5
17D
  8
2
 10
1163.746870790962
 20
1480.2097880406559
 30
0.0
 11
1163.746870790962
 21
1220.209788040655
 31
0.0
  0
LINE
  5
17E
  8
2
 10
1463.7468707909611
 20
1480.2097880406559
 30
0.0
 11
1463.7468707909611
 21
1220.209788040655
 31
0.0
  0
LINE
  5
17F
  8
1
 10
1653.7468707909611
 20
1620.209788040655
 30
0.0
 11
1653.7468707909611
 21
805.99427544771777
 31
0.0
  0
LINE
  5
180
  8
1
 10
1578.7468707909611
 20
1620.209788040655
 30
0.0
 11
1578.7468707909611
 21
805.99427544771777
 31
0.0
  0
LINE
  5
181
  8
1
 10
1578.7468707909611
 20
1460.209788040655
 30
0.0
 11
1653.7468707909611
 21
1460.209788040655
 31
0.0
  0
LINE
  5
182
  8
1
 10
1573.7468707909611
 20
1430.2097880406559
 30
0.0
 11
1693.7468707909611
 21
1250.209788040655
 31
0.0
  0
LINE
  5
183
  8
1
 10
1739.2468707909611
 20
1290.494275447717
 30
0.0
 11
1473.7468707909611
 21
1290.494275447717
 31
0.0
  0
LINE
  5
184
  8
1
 10
1693.7468707909611
 20
1250.209788040655
 30
0.0
 11
1113.746870790962
 21
1250.209788040655
 31
0.0
  0
LINE
  5
185
  8
1
 10
1693.7468707909611
 20
1205.2097880406559
 30
0.0
 11
1113.746870790962
 21
1205.2097880406559
 31
0.0
  0
LINE
  5
186
  8
1
 10
1693.7468707909611
 20
1244.209788040655
 30
0.0
 11
1113.746870790962
 21
1244.209788040655
 31
0.0
  0
LINE
  5
189
  8
1
 10
1653.7468707909611
 20
965.99427544771777
 30
0.0
 11
1578.7468707909611
 21
965.99427544771777
 31
0.0
  0
LINE
  5
18A
  8
1
 10
1653.7468707909611
 20
805.99427544771777
 30
0.0
 11
1578.7468707909611
 21
805.99427544771777
 31
0.0
  0
LINE
  5
18B
  8
1
 10
1407.7468707909611
 20
1285.9942754477181
 30
0.0
 11
1407.7468707909611
 21
1063.994275447717
 31
0.0
  0
LINE
  5
18C
  8
1
 10
1193.7468707909611
 20
1285.9942754477181
 30
0.0
 11
1193.7468707909611
 21
1063.994275447717
 31
0.0
  0
LINE
  5
18D
  8
1
 10
1407.7468707909611
 20
1063.994275447717
 30
0.0
 11
1193.7468707909611
 21
1063.994275447717
 31
0.0
  0
LINE
  5
1B0
  8
1
 10
1312.1808707909629
 20
1400.046788040655
 30
0.0
 11
1438.780870790961
 21
1398.242788040654
 31
0.0
  0
LINE
  5
1B1
  8
1
 10
1513.7468707909611
 20
1380.2097880406559
 30
0.0
 11
1113.746870790962
 21
1380.2097880406559
 31
0.0
  0
LINE
  5
1B2
  8
1
 10
1505.7468707909611
 20
1372.2097880406559
 30
0.0
 11
1121.746870790962
 21
1372.2097880406559
 31
0.0
  0
LINE
  5
1B3
  8
1
 10
1453.7468707909611
 20
1330.2097880406559
 30
0.0
 11
1173.746870790962
 21
1330.2097880406559
 31
0.0
  0
LINE
  5
1B4
  8
1
 10
1453.7468707909611
 20
1290.494275447717
 30
0.0
 11
1173.746870790962
 21
1290.494275447717
 31
0.0
  0
LINE
  5
1B5
  8
1
 10
1153.746870790962
 20
1356.2097880406559
 30
0.0
 11
1153.746870790962
 21
1250.209788040655
 31
0.0
  0
LINE
  5
1B6
  8
1
 10
1173.746870790962
 20
1356.2097880406559
 30
0.0
 11
1173.746870790962
 21
1250.209788040655
 31
0.0
  0
LINE
  5
1B7
  8
1
 10
1155.746870790962
 20
1356.2097880406559
 30
0.0
 11
1155.746870790962
 21
1250.209788040655
 31
0.0
  0
LINE
  5
1B8
  8
1
 10
1171.746870790962
 20
1356.2097880406559
 30
0.0
 11
1171.746870790962
 21
1250.209788040655
 31
0.0
  0
LINE
  5
1B9
  8
1
 10
1113.746870790962
 20
1250.209788040655
 30
0.0
 11
1113.746870790962
 21
1205.2097880406559
 31
0.0
  0
LINE
  5
1BA
  8
1
 10
1275.3128707909621
 20
1400.046788040655
 30
0.0
 11
1173.746870790962
 21
1398.5995126536079
 31
0.0
  0
LINE
  5
1BB
  8
1
 10
1181.0673788666511
 20
1395.0495340028119
 30
0.0
 11
1181.0673788666511
 21
1380.2097880406559
 31
0.0
  0
LINE
  5
1BC
  8
1
 10
1146.4263627152729
 20
1395.0495340028119
 30
0.0
 11
1146.4263627152729
 21
1380.2097880406559
 31
0.0
  0
LINE
  5
1BD
  8
1
 10
1155.0866167531169
 20
1395.0495340028119
 30
0.0
 11
1155.0866167531169
 21
1380.2097880406559
 31
0.0
  0
LINE
  5
1BE
  8
1
 10
1172.407124828806
 20
1395.0495340028119
 30
0.0
 11
1172.407124828806
 21
1380.2097880406559
 31
0.0
  0
LINE
  5
1BF
  8
1
 10
1150.7564897341949
 20
1356.2097880406559
 30
0.0
 11
1176.737251847728
 21
1356.2097880406559
 31
0.0
  0
ARC
  5
1C0
  8
1
 10
1163.746870790962
 20
1389.110423135267
 30
0.0
 40
32.90063509461045
 50
254.73851957513969
 51
285.26148042486022
  0
ARC
  5
1C1
  8
1
 10
1150.7564897341949
 20
1364.870042078501
 30
0.0
 40
8.6602540378443322
 50
239.99999999999989
 51
300.0
  0
LINE
  5
1C2
  8
1
 10
1155.0866167531169
 20
1357.370042078501
 30
0.0
 11
1155.0866167531169
 21
1372.2097880406559
 31
0.0
  0
LINE
  5
1C3
  8
1
 10
1146.4263627152729
 20
1357.370042078501
 30
0.0
 11
1146.4263627152729
 21
1372.2097880406559
 31
0.0
  0
LINE
  5
1C4
  8
1
 10
1153.746870790962
 20
1330.2097880406559
 30
0.0
 11
1113.746870790962
 21
1330.2097880406559
 31
0.0
  0
LINE
  5
1C5
  8
1
 10
1113.746870790962
 20
1380.2097880406559
 30
0.0
 11
1113.746870790962
 21
1330.2097880406559
 31
0.0
  0
LINE
  5
1C6
  8
1
 10
1121.746870790962
 20
1372.2097880406559
 30
0.0
 11
1121.746870790962
 21
1330.2097880406559
 31
0.0
  0
LINE
  5
1C7
  8
1
 10
1181.0673788666511
 20
1357.370042078501
 30
0.0
 11
1181.0673788666511
 21
1372.2097880406559
 31
0.0
  0
LINE
  5
1C8
  8
1
 10
1172.407124828806
 20
1357.370042078501
 30
0.0
 11
1172.407124828806
 21
1372.2097880406559
 31
0.0
  0
ARC
  5
1C9
  8
1
 10
1176.737251847728
 20
1364.870042078501
 30
0.0
 40
8.6602540378443322
 50
239.99999999999989
 51
300.0
  0
LINE
  5
1CA
  8
1
 10
1176.737251847728
 20
1396.2097880406559
 30
0.0
 11
1150.7564897341949
 21
1396.2097880406559
 31
0.0
  0
ARC
  5
1CB
  8
1
 10
1163.746870790962
 20
1363.3091529460451
 30
0.0
 40
32.90063509461045
 50
74.738519575139705
 51
105.2614804248603
  0
LINE
  5
1CC
  8
1
 10
1153.746870790962
 20
1450.2097880406559
 30
0.0
 11
1173.746870790962
 21
1450.2097880406559
 31
0.0
  0
ARC
  5
1CD
  8
1
 10
1148.746870790962
 20
1396.2437880406551
 30
0.0
 40
2.0001000000000002
 50
90.986199999999997
 51
180.0
  0
LINE
  5
1CE
  8
1
 10
1146.746870790962
 20
1395.225662970596
 30
0.0
 11
1146.746870790962
 21
1416.260788040654
 31
0.0
  0
LINE
  5
1CF
  8
1
 10
1153.746870790962
 20
1450.2097880406559
 30
0.0
 11
1153.746870790962
 21
1396.2097880406559
 31
0.0
  0
LINE
  5
1D0
  8
1
 10
1155.746870790962
 20
1450.2097880406559
 30
0.0
 11
1155.746870790962
 21
1396.2097880406559
 31
0.0
  0
ARC
  5
1D1
  8
1
 10
1150.7564897341949
 20
1387.5495340028119
 30
0.0
 40
8.6602540378443322
 50
59.999999999999851
 51
120.0000000000001
  0
ARC
  5
1D2
  8
1
 10
1144.746870790962
 20
1416.260788040654
 30
0.0
 40
2.0
 50
0.0
 51
90.0
  0
LINE
  5
1D3
  8
1
 10
1153.746870790962
 20
1398.3145205525041
 30
0.0
 11
1148.7128707909619
 21
1398.242788040654
 31
0.0
  0
LINE
  5
1D4
  8
1
 10
1173.746870790962
 20
1450.2097880406559
 30
0.0
 11
1173.746870790962
 21
1396.2097880406559
 31
0.0
  0
LINE
  5
1D5
  8
1
 10
1171.746870790962
 20
1450.2097880406559
 30
0.0
 11
1171.746870790962
 21
1396.2097880406559
 31
0.0
  0
ARC
  5
1D6
  8
1
 10
1176.737251847728
 20
1387.5495340028119
 30
0.0
 40
8.6602540378443322
 50
59.999999999999893
 51
120.0000000000001
  0
LINE
  5
1D7
  8
1
 10
1286.5338707909621
 20
1443.9187880406539
 30
0.0
 11
1285.131870790962
 21
1409.6367880406549
 31
0.0
  0
ARC
  5
1D8
  8
1
 10
1275.140870790962
 20
1410.044788040655
 30
0.0
 40
10.0
 50
270.98759999999999
 51
357.65910000000002
  0
LINE
  5
1D9
  8
1
 10
1300.9598707909611
 20
1443.9187880406539
 30
0.0
 11
1302.3618707909609
 21
1409.6367880406549
 31
0.0
  0
ARC
  5
1DA
  8
1
 10
1312.3528707909611
 20
1410.044788040655
 30
0.0
 40
10.0
 50
182.34089999999981
 51
269.01240000000001
  0
LINE
  5
1DB
  8
1
 10
1513.7468707909611
 20
1430.2097880406559
 30
0.0
 11
1513.7468707909611
 21
1250.209788040655
 31
0.0
  0
LINE
  5
1DC
  8
1
 10
1519.7468707909611
 20
1430.2097880406559
 30
0.0
 11
1519.7468707909611
 21
1250.209788040655
 31
0.0
  0
LINE
  5
1DD
  8
1
 10
1473.7468707909611
 20
1356.2097880406559
 30
0.0
 11
1473.7468707909611
 21
1250.209788040655
 31
0.0
  0
LINE
  5
1DE
  8
1
 10
1471.7468707909611
 20
1356.2097880406559
 30
0.0
 11
1471.7468707909611
 21
1250.209788040655
 31
0.0
  0
LINE
  5
1DF
  8
1
 10
1455.7468707909611
 20
1356.2097880406559
 30
0.0
 11
1455.7468707909611
 21
1250.209788040655
 31
0.0
  0
LINE
  5
1E0
  8
1
 10
1453.7468707909611
 20
1356.2097880406559
 30
0.0
 11
1453.7468707909611
 21
1250.209788040655
 31
0.0
  0
ARC
  5
1E1
  8
1
 10
1463.7468707909611
 20
1363.3091529460451
 30
0.0
 40
32.90063509461045
 50
74.738519575139705
 51
105.2614804248603
  0
LINE
  5
1E2
  8
1
 10
1476.737251847728
 20
1396.2097880406559
 30
0.0
 11
1450.756489734194
 21
1396.2097880406559
 31
0.0
  0
ARC
  5
1E3
  8
1
 10
1463.7468707909611
 20
1389.110423135267
 30
0.0
 40
32.90063509461045
 50
254.73851957513969
 51
285.26148042486022
  0
LINE
  5
1E4
  8
1
 10
1450.756489734194
 20
1356.2097880406559
 30
0.0
 11
1476.737251847728
 21
1356.2097880406559
 31
0.0
  0
LINE
  5
1E5
  8
1
 10
1453.7468707909611
 20
1450.2097880406559
 30
0.0
 11
1473.7468707909611
 21
1450.2097880406559
 31
0.0
  0
LINE
  5
1E6
  8
1
 10
1420.7468707909611
 20
1428.4997654182209
 30
0.0
 11
1420.7468707909611
 21
1342.2097880406559
 31
0.0
  0
LINE
  5
1E7
  8
1
 10
1440.7468707909611
 20
1380.2097880406559
 30
0.0
 11
1440.7468707909611
 21
1416.260788040654
 31
0.0
  0
LINE
  5
1E8
  8
1
 10
1446.426362715272
 20
1395.0495340028119
 30
0.0
 11
1446.426362715272
 21
1380.2097880406559
 31
0.0
  0
LINE
  5
1E9
  8
1
 10
1455.0866167531169
 20
1395.0495340028119
 30
0.0
 11
1455.0866167531169
 21
1380.2097880406559
 31
0.0
  0
ARC
  5
1EA
  8
1
 10
1450.756489734194
 20
1364.870042078501
 30
0.0
 40
8.6602540378443322
 50
239.99999999999989
 51
300.0
  0
LINE
  5
1EB
  8
1
 10
1446.426362715272
 20
1357.370042078501
 30
0.0
 11
1446.426362715272
 21
1372.2097880406559
 31
0.0
  0
LINE
  5
1EC
  8
1
 10
1455.0866167531169
 20
1357.370042078501
 30
0.0
 11
1455.0866167531169
 21
1372.2097880406559
 31
0.0
  0
ARC
  5
1ED
  8
1
 10
1438.7468707909611
 20
1396.2437880406551
 30
0.0
 40
2.0
 50
0.0
 51
89.013800000000003
  0
LINE
  5
1EE
  8
1
 10
1455.7468707909611
 20
1450.2097880406559
 30
0.0
 11
1455.7468707909611
 21
1396.2097880406559
 31
0.0
  0
LINE
  5
1EF
  8
1
 10
1453.7468707909611
 20
1450.2097880406559
 30
0.0
 11
1453.7468707909611
 21
1396.2097880406559
 31
0.0
  0
ARC
  5
1F0
  8
1
 10
1450.756489734194
 20
1387.5495340028119
 30
0.0
 40
8.6602540378443322
 50
59.999999999999851
 51
120.0000000000001
  0
LINE
  5
1F1
  8
1
 10
1446.426362715272
 20
1384.2097880406559
 30
0.0
 11
1440.7468707909611
 21
1384.2097880406559
 31
0.0
  0
ARC
  5
1F2
  8
1
 10
1442.7468707909611
 20
1416.260788040654
 30
0.0
 40
2.0
 50
90.0
 51
180.0
  0
LINE
  5
1F3
  8
1
 10
1481.06737886665
 20
1395.0495340028119
 30
0.0
 11
1481.06737886665
 21
1380.2097880406559
 31
0.0
  0
LINE
  5
1F4
  8
1
 10
1472.407124828806
 20
1395.0495340028119
 30
0.0
 11
1472.407124828806
 21
1380.2097880406559
 31
0.0
  0
LINE
  5
1F5
  8
1
 10
1481.06737886665
 20
1357.370042078501
 30
0.0
 11
1481.06737886665
 21
1372.2097880406559
 31
0.0
  0
LINE
  5
1F6
  8
1
 10
1472.407124828806
 20
1357.370042078501
 30
0.0
 11
1472.407124828806
 21
1372.2097880406559
 31
0.0
  0
ARC
  5
1F7
  8
1
 10
1476.737251847728
 20
1364.870042078501
 30
0.0
 40
8.6602540378443322
 50
239.99999999999989
 51
300.0
  0
LINE
  5
1F8
  8
1
 10
1513.7468707909611
 20
1330.2097880406559
 30
0.0
 11
1473.7468707909611
 21
1330.2097880406559
 31
0.0
  0
LINE
  5
1F9
  8
1
 10
1505.7468707909611
 20
1372.2097880406559
 30
0.0
 11
1505.7468707909611
 21
1330.2097880406559
 31
0.0
  0
LINE
  5
1FA
  8
1
 10
1573.7468707909611
 20
1430.2097880406559
 30
0.0
 11
1513.7468707909611
 21
1430.2097880406559
 31
0.0
  0
LINE
  5
1FB
  8
1
 10
1510.7468707909611
 20
1384.2097880406559
 30
0.0
 11
1481.06737886665
 21
1384.2097880406559
 31
0.0
  0
LINE
  5
1FC
  8
1
 10
1473.7468707909611
 20
1450.2097880406559
 30
0.0
 11
1473.7468707909611
 21
1396.2097880406559
 31
0.0
  0
LINE
  5
1FD
  8
1
 10
1471.7468707909611
 20
1450.2097880406559
 30
0.0
 11
1471.7468707909611
 21
1396.2097880406559
 31
0.0
  0
ARC
  5
1FE
  8
1
 10
1476.737251847728
 20
1387.5495340028119
 30
0.0
 40
8.6602540378443322
 50
59.999999999999893
 51
120.0000000000001
  0
LINE
  5
201
  8
1
 10
1693.7468707909611
 20
1250.209788040655
 30
0.0
 11
1693.7468707909611
 21
1205.2097880406559
 31
0.0
  0
LINE
  5
202
  8
1
 10
1753.2468707909611
 20
1290.994275447717
 30
0.0
 11
1780.7468707909611
 21
1290.9942754477181
 31
0.0
  0
ARC
  5
203
  8
1
 10
1753.2468707909611
 20
1295.494275447717
 30
0.0
 40
4.5
 50
180.0
 51
270.0
  0
ARC
  5
204
  8
1
 10
1780.7468707909611
 20
1287.9942754477181
 30
0.0
 40
3.0
 50
0.0
 51
90.000000000000398
  0
LINE
  5
205
  8
2
 10
1778.7468707909611
 20
1308.4942754477181
 30
0.0
 11
1709.2468707909611
 21
1308.4942754477181
 31
0.0
  0
LINE
  5
206
  8
1
 10
1743.7468707909611
 20
1325.9942754477181
 30
0.0
 11
1739.2468707909611
 21
1325.9942754477181
 31
0.0
  0
LINE
  5
207
  8
1
 10
1743.7468707909611
 20
1325.9942754477181
 30
0.0
 11
1745.7468707909611
 21
1325.9942754477181
 31
0.0
  0
ARC
  5
208
  8
1
 10
1745.7468707909611
 20
1322.994275447717
 30
0.0
 40
3.0
 50
0.0
 51
90.0
  0
LINE
  5
209
  8
1
 10
1683.7468707909611
 20
1710.2097880406559
 30
0.0
 11
1548.7468707909611
 21
1710.2097880406559
 31
0.0
  0
LINE
  5
20A
  8
1
 10
1578.7468707909611
 20
1620.209788040655
 30
0.0
 11
1653.7468707909611
 21
1620.209788040655
 31
0.0
  0
LINE
  5
20B
  8
1
 10
1528.7468707909611
 20
1519.209788040655
 30
0.0
 11
1638.7468707909611
 21
1519.209788040655
 31
0.0
  0
LINE
  5
20C
  8
1
 10
1528.7468707909611
 20
1561.209788040655
 30
0.0
 11
1638.7468707909611
 21
1561.209788040655
 31
0.0
  0
ARC
  5
20D
  8
1
 10
1337.746870790962
 20
1633.6537880406561
 30
0.0
 40
27.0
 50
0.0
 51
90.0
  0
ARC
  5
20E
  8
1
 10
1342.7468707909611
 20
1640.5117880406549
 30
0.0
 40
15.0
 50
0.0
 51
90.0
  0
ARC
  5
20F
  8
1
 10
1342.7468707909611
 20
1629.199788040655
 30
0.0
 40
15.0
 50
0.0
 51
90.0
  0
ARC
  5
210
  8
1
 10
1342.7468707909611
 20
1523.4527880406561
 30
0.0
 40
15.0
 50
270.0
 51
0.0
  0
ARC
  5
211
  8
1
 10
1342.7468707909611
 20
1517.2827880406569
 30
0.0
 40
15.0
 50
270.0
 51
0.0
  0
ARC
  5
212
  8
1
 10
1337.746870790962
 20
1518.9987880406561
 30
0.0
 40
27.0
 50
270.0
 51
0.0
  0
ARC
  5
213
  8
1
 10
1244.746870790962
 20
1629.199788040655
 30
0.0
 40
15.0
 50
90.0
 51
180.0
  0
LINE
  5
214
  8
1
 10
1222.746870790962
 20
1633.6537880406561
 30
0.0
 11
1222.746870790962
 21
1518.9987880406561
 31
0.0
  0
LINE
  5
215
  8
1
 10
1229.746870790962
 20
1640.5117880406549
 30
0.0
 11
1229.746870790962
 21
1517.2827880406569
 31
0.0
  0
ARC
  5
216
  8
1
 10
1249.746870790962
 20
1518.9987880406561
 30
0.0
 40
27.0
 50
180.0
 51
270.0
  0
ARC
  5
217
  8
1
 10
1244.746870790962
 20
1523.4527880406561
 30
0.0
 40
15.0
 50
180.0
 51
270.0
  0
ARC
  5
218
  8
1
 10
1244.746870790962
 20
1517.2827880406569
 30
0.0
 40
15.0
 50
180.0
 51
270.0
  0
LINE
  5
219
  8
1
 10
1249.746870790962
 20
1491.9987880406561
 30
0.0
 11
1337.746870790962
 21
1491.9987880406561
 31
0.0
  0
ARC
  5
21A
  8
1
 10
1293.7638707909621
 20
1498.2537880406551
 30
0.0
 40
8.0
 50
41.994199999999992
 51
138.00579999999999
  0
ARC
  5
21B
  8
1
 10
1293.7638707909621
 20
1500.5627880406571
 30
0.0
 40
14.0
 50
41.341700000000003
 51
138.65829999999991
  0
LINE
  5
21C
  8
1
 10
1244.746870790962
 20
1508.452788040657
 30
0.0
 11
1280.2498707909619
 21
1508.452788040657
 31
0.0
  0
LINE
  5
21D
  8
1
 10
1244.746870790962
 20
1502.2827880406569
 30
0.0
 11
1284.845870790962
 21
1502.2827880406569
 31
0.0
  0
ARC
  5
21E
  8
1
 10
1280.2498707909619
 20
1512.452788040657
 30
0.0
 40
4.0
 50
270.0
 51
318.65980000000002
  0
ARC
  5
21F
  8
1
 10
1284.845870790962
 20
1506.2827880406569
 30
0.0
 40
4.0
 50
270.0
 51
318.00459999999993
  0
ARC
  5
220
  8
1
 10
1307.2778707909611
 20
1512.452788040657
 30
0.0
 40
4.0
 50
221.34020000000001
 51
270.0
  0
LINE
  5
221
  8
1
 10
1302.682870790961
 20
1502.2827880406569
 30
0.0
 11
1342.7468707909611
 21
1502.2827880406569
 31
0.0
  0
ARC
  5
222
  8
1
 10
1302.682870790961
 20
1506.2827880406569
 30
0.0
 40
4.000099999999998
 50
221.99420000000001
 51
270.0
  0
LINE
  5
223
  8
1
 10
1307.2778707909611
 20
1508.452788040657
 30
0.0
 11
1342.7468707909611
 21
1508.452788040657
 31
0.0
  0
ARC
  5
224
  8
1
 10
1244.746870790962
 20
1640.5117880406549
 30
0.0
 40
15.0
 50
90.0
 51
180.0
  0
ARC
  5
225
  8
1
 10
1249.746870790962
 20
1633.6537880406561
 30
0.0
 40
27.0
 50
90.0
 51
180.0
  0
ARC
  5
226
  8
1
 10
1293.746870790962
 20
1727.709788040655
 30
0.0
 40
20.5
 50
284.60939999999988
 51
255.883019428697
  0
CIRCLE
  5
227
  8
1
 10
1293.746870790962
 20
1727.709788040655
 30
0.0
 40
12.5
  0
LINE
  5
228
  8
1
 10
1249.746870790962
 20
1660.6537880406561
 30
0.0
 11
1337.746870790962
 21
1660.6537880406561
 31
0.0
  0
LINE
  5
229
  8
1
 10
1244.746870790962
 20
1655.5117880406549
 30
0.0
 11
1342.7468707909611
 21
1655.5117880406549
 31
0.0
  0
LINE
  5
22A
  8
1
 10
1244.746870790962
 20
1644.199788040655
 30
0.0
 11
1342.7468707909611
 21
1644.199788040655
 31
0.0
  0
LINE
  5
22B
  8
1
 10
1298.746870790962
 20
1702.209788040655
 30
0.0
 11
1298.746870790962
 21
1707.828788040654
 31
0.0
  0
LINE
  5
22C
  8
1
 10
1288.746870790962
 20
1702.209788040655
 30
0.0
 11
1288.746870790962
 21
1707.8288926885839
 31
0.0
  0
LINE
  5
22D
  8
1
 10
1364.746870790962
 20
1518.9987880406561
 30
0.0
 11
1364.746870790962
 21
1633.6537880406561
 31
0.0
  0
LINE
  5
22E
  8
1
 10
1357.746870790962
 20
1640.5117880406549
 30
0.0
 11
1357.746870790962
 21
1517.2827880406569
 31
0.0
  0
LINE
  5
22F
  8
1
 10
1528.7468707909611
 20
1517.709788040655
 30
0.0
 11
1528.7468707909611
 21
1562.709788040655
 31
0.0
  0
LINE
  5
230
  8
1
 10
1520.7468707909611
 20
1470.209788040655
 30
0.0
 11
1520.7468707909611
 21
1610.2097880406559
 31
0.0
  0
LINE
  5
231
  8
1
 10
1528.7468707909611
 20
1517.709788040655
 30
0.0
 11
1520.7468707909611
 21
1517.709788040655
 31
0.0
  0
LINE
  5
232
  8
1
 10
1510.7468707909611
 20
1470.209788040655
 30
0.0
 11
1520.7468707909611
 21
1470.209788040655
 31
0.0
  0
LINE
  5
233
  8
1
 10
1528.7468707909611
 20
1562.709788040655
 30
0.0
 11
1520.7468707909611
 21
1562.709788040655
 31
0.0
  0
LINE
  5
234
  8
1
 10
1510.7468707909611
 20
1610.2097880406559
 30
0.0
 11
1520.7468707909611
 21
1610.2097880406559
 31
0.0
  0
LINE
  5
235
  8
1
 10
1638.7468707909611
 20
1561.209788040655
 30
0.0
 11
1638.7468707909611
 21
1519.209788040655
 31
0.0
  0
LINE
  5
31A
  8
2
 10
2961.422119835644
 20
1778.208888039406
 30
0.0
 11
2961.422119835644
 21
286.83592782015512
 31
0.0
  0
LINE
  5
36F
  8
1
 10
2961.422119835649
 20
693.10046585519376
 30
0.0
 11
2961.422119835644
 21
699.87247895665314
 31
0.0
  0
ARC
  5
3E1
  8
1
 10
2961.422119835644
 20
1540.209788040655
 30
0.0
 40
162.0
 50
285.45729999999992
 51
254.35752898700059
  0
CIRCLE
  5
3E2
  8
1
 10
2961.422119835644
 20
1540.209788040655
 30
0.0
 40
80.0
  0
LINE
  5
3E3
  8
1
 10
2821.422119835644
 20
1710.2097880406559
 30
0.0
 11
2821.422119835644
 21
1260.6941553516201
 31
0.0
  0
LINE
  5
3E4
  8
1
 10
3101.4221198356458
 20
1710.2097880406559
 30
0.0
 11
3101.4221198356458
 21
1260.6941553516201
 31
0.0
  0
LINE
  5
3E5
  8
1
 10
2881.422119835644
 20
1540.209788040655
 30
0.0
 11
2881.422119835644
 21
885.99427544771788
 31
0.0
  0
LINE
  5
3E6
  8
1
 10
3041.422119835644
 20
1540.209788040655
 30
0.0
 11
3041.422119835644
 21
885.99427544771788
 31
0.0
  0
LINE
  5
3EA
  8
1
 10
2771.4221198356431
 20
1380.2097880406559
 30
0.0
 11
3151.4221198356472
 21
1380.2097880406559
 31
0.0
  0
LINE
  5
3EB
  8
1
 10
2771.4221198356431
 20
1372.2097880406559
 30
0.0
 11
3151.4221198356472
 21
1372.2097880406559
 31
0.0
  0
LINE
  5
3EC
  8
1
 10
2771.4221198356422
 20
1330.2097880406559
 30
0.0
 11
3151.422119835649
 21
1330.2097880406559
 31
0.0
  0
CIRCLE
  5
3F7
  8
1
 10
2961.422119835644
 20
885.99427544771788
 30
0.0
 40
80.0
  0
ARC
  5
414
  8
1
 10
2741.4221198356458
 20
1299.104396226202
 30
0.0
 40
7.5
 50
180.0
 51
0.0
  0
LINE
  5
417
  8
1
 10
2721.4221198356422
 20
1430.2097880406559
 30
0.0
 11
2721.4221198356431
 21
1254.776053739432
 31
0.0
  0
LINE
  5
418
  8
1
 10
2771.4221198356431
 20
1430.2097880406559
 30
0.0
 11
2771.4221198356431
 21
1282.856972107405
 31
0.0
  0
LINE
  5
419
  8
1
 10
2765.4221198356422
 20
1430.2097880406559
 30
0.0
 11
2765.4221198356422
 21
1279.928280072857
 31
0.0
  0
LINE
  5
41D
  8
1
 10
2748.922119835644
 20
1390.2097880406559
 30
0.0
 11
2748.922119835644
 21
1299.104396226202
 31
0.0
  0
LINE
  5
41E
  8
1
 10
2733.922119835644
 20
1390.2097880406559
 30
0.0
 11
2733.922119835644
 21
1299.104396226202
 31
0.0
  0
LINE
  5
41F
  8
1
 10
2771.4221198356431
 20
1430.2097880406559
 30
0.0
 11
2721.4221198356422
 21
1430.2097880406559
 31
0.0
  0
ARC
  5
420
  8
1
 10
2741.4221198356458
 20
1390.2097880406559
 30
0.0
 40
7.5
 50
0.0
 51
180.0
  0
LINE
  5
421
  8
1
 10
2867.422119835644
 20
1380.2097880406559
 30
0.0
 11
2867.422119835644
 21
1391.966788040656
 31
0.0
  0
LINE
  5
422
  8
2
 10
2834.4221198356458
 20
1428.209788040655
 30
0.0
 11
2834.4221198356458
 21
1342.2097880406559
 31
0.0
  0
LINE
  5
423
  8
1
 10
2807.422119835644
 20
1380.2097880406559
 30
0.0
 11
2807.422119835644
 21
1396.2097880406559
 31
0.0
  0
LINE
  5
424
  8
1
 10
2854.2089198356462
 20
1398.2097880406559
 30
0.0
 11
2809.4221198356449
 21
1398.2097880406559
 31
0.0
  0
LINE
  5
425
  8
1
 10
2807.422119835644
 20
1396.2097880406559
 30
0.0
 11
2826.854619835643
 21
1449.599788040656
 31
0.0
  0
ARC
  5
426
  8
1
 10
2809.4221198356449
 20
1396.2097880406559
 30
0.0
 40
2.0
 50
90.0
 51
180.0
  0
LINE
  5
427
  8
1
 10
2876.4782198356452
 20
1402.2657880406571
 30
0.0
 11
2868.300719835644
 21
1394.087788040657
 31
0.0
  0
ARC
  5
428
  8
1
 10
2870.422119835644
 20
1391.966788040656
 30
0.0
 40
3.0
 50
135.0
 51
180.0
  0
LINE
  5
429
  8
1
 10
2856.3836198356439
 20
1399.1417880406559
 30
0.0
 11
2866.310919835646
 21
1409.068788040657
 31
0.0
  0
ARC
  5
42A
  8
1
 10
2854.2089198356462
 20
1401.209788040655
 30
0.0
 40
3.0
 50
270.0
 51
315.0
  0
LINE
  5
42D
  8
1
 10
3005.1027198356428
 20
1384.2097880406559
 30
0.0
 11
2917.7414604999622
 21
1384.2097880406559
 31
0.0
  0
LINE
  5
42E
  8
2
 10
3088.422119835644
 20
1428.209788040655
 30
0.0
 11
3088.422119835644
 21
1342.2097880406559
 31
0.0
  0
LINE
  5
42F
  8
1
 10
3115.422119835644
 20
1380.2097880406559
 30
0.0
 11
3115.422119835644
 21
1396.2097880406559
 31
0.0
  0
LINE
  5
430
  8
1
 10
3055.4221198356458
 20
1380.2097880406559
 30
0.0
 11
3055.4221198356458
 21
1391.966788040656
 31
0.0
  0
LINE
  5
431
  8
1
 10
3068.635319835646
 20
1398.2097880406559
 30
0.0
 11
3113.422119835644
 21
1398.2097880406559
 31
0.0
  0
LINE
  5
432
  8
1
 10
3046.3660198356451
 20
1402.2657880406571
 30
0.0
 11
3054.5434198356429
 21
1394.087788040657
 31
0.0
  0
ARC
  5
433
  8
1
 10
3052.422119835644
 20
1391.966788040656
 30
0.0
 40
3.0
 50
0.0
 51
45.0
  0
LINE
  5
434
  8
1
 10
3056.5333198356439
 20
1409.068788040657
 30
0.0
 11
3066.513919835646
 21
1399.087788040657
 31
0.0
  0
ARC
  5
435
  8
1
 10
3068.635319835646
 20
1401.209788040655
 30
0.0
 40
3.0
 50
225.0
 51
270.0
  0
LINE
  5
436
  8
1
 10
3115.422119835644
 20
1396.2097880406559
 30
0.0
 11
3095.9895198356462
 21
1449.599788040656
 31
0.0
  0
ARC
  5
437
  8
1
 10
3113.422119835644
 20
1396.2097880406559
 30
0.0
 40
2.0
 50
0.0
 51
90.0
  0
ARC
  5
441
  8
1
 10
3181.422119835644
 20
1299.104396226202
 30
0.0
 40
7.5
 50
180.0
 51
0.0
  0
LINE
  5
442
  8
1
 10
3201.4221198356481
 20
1430.2097880406559
 30
0.0
 11
3201.4221198356481
 21
1254.7760537394299
 31
0.0
  0
LINE
  5
443
  8
1
 10
3151.4221198356472
 20
1430.2097880406559
 30
0.0
 11
3151.4221198356499
 21
1282.856972107403
 31
0.0
  0
LINE
  5
444
  8
1
 10
3157.4221198356472
 20
1430.2097880406559
 30
0.0
 11
3157.4221198356472
 21
1279.9282800728561
 31
0.0
  0
LINE
  5
448
  8
1
 10
3173.922119835644
 20
1390.2097880406559
 30
0.0
 11
3173.922119835644
 21
1299.104396226202
 31
0.0
  0
LINE
  5
449
  8
1
 10
3188.922119835644
 20
1390.2097880406559
 30
0.0
 11
3188.922119835644
 21
1299.104396226202
 31
0.0
  0
ARC
  5
44A
  8
1
 10
3181.422119835644
 20
1390.2097880406559
 30
0.0
 40
7.5
 50
0.0
 51
180.0
  0
LINE
  5
44B
  8
1
 10
3151.4221198356472
 20
1430.2097880406559
 30
0.0
 11
3201.4221198356481
 21
1430.2097880406559
 31
0.0
  0
LINE
  5
44C
  8
2
 10
3123.422119835644
 20
1540.209788040655
 30
0.0
 11
2799.422119835644
 21
1540.209788040655
 31
0.0
  0
LINE
  5
44D
  8
1
 10
3101.4221198356458
 20
1710.2097880406559
 30
0.0
 11
2821.422119835644
 21
1710.2097880406559
 31
0.0
  0
LINE
  5
44E
  8
1
 10
2795.422119835644
 20
1530.9177880406569
 30
0.0
 11
2795.422119835644
 21
1645.975788040656
 31
0.0
  0
LINE
  5
44F
  8
1
 10
2796.422119835644
 20
1645.2097880406559
 30
0.0
 11
2796.422119835644
 21
1535.209788040655
 31
0.0
  0
ARC
  5
450
  8
1
 10
2720.7201198356429
 20
1627.3697880406551
 30
0.0
 40
26.0
 50
92.353199999999987
 51
176.10830000000001
  0
LINE
  5
451
  8
1
 10
2785.2240198356449
 20
1660.155788040656
 30
0.0
 11
2686.4409198356452
 21
1495.5177880406559
 31
0.0
  0
LINE
  5
452
  8
1
 10
2688.8418198356462
 20
1491.7447880406551
 30
0.0
 11
2789.6830198356461
 21
1659.8127880406551
 31
0.0
  0
LINE
  5
453
  8
1
 10
2795.105419835646
 20
1529.5757880406561
 30
0.0
 11
2783.1860198356462
 21
1505.7367880406559
 31
0.0
  0
LINE
  5
454
  8
1
 10
2694.7801198356451
 20
1629.133788040655
 30
0.0
 11
2686.655119835646
 21
1509.6977880406571
 31
0.0
  0
LINE
  5
455
  8
1
 10
2693.9207198356462
 20
1500.209788040655
 30
0.0
 11
2774.2417198356429
 21
1500.209788040655
 31
0.0
  0
LINE
  5
456
  8
1
 10
2688.8418198356462
 20
1491.7447880406551
 30
0.0
 11
2687.126919835644
 21
1492.7737880406571
 31
0.0
  0
ARC
  5
457
  8
1
 10
2688.1558198356461
 20
1494.488788040657
 30
0.0
 40
2.0
 50
149.03829999999999
 51
239.0359
  0
ARC
  5
458
  8
1
 10
2692.641319835644
 20
1509.2897880406549
 30
0.0
 40
6.000099999999998
 50
176.10830000000001
 51
239.03649999999999
  0
LINE
  5
459
  8
1
 10
2691.0713198356452
 20
1503.234788040656
 30
0.0
 11
2689.554319835644
 21
1504.1447880406561
 31
0.0
  0
ARC
  5
45A
  8
1
 10
2774.2417198356429
 20
1510.209788040655
 30
0.0
 40
10.0
 50
270.0
 51
333.43479999999983
  0
ARC
  5
45B
  8
1
 10
2792.422119835644
 20
1530.9177880406569
 30
0.0
 40
3.0
 50
333.43439999999993
 51
0.0
  0
LINE
  5
45C
  8
1
 10
2796.422119835644
 20
1535.209788040655
 30
0.0
 11
2795.422119835644
 21
1535.209788040655
 31
0.0
  0
LINE
  5
45D
  8
1
 10
2799.4992987139758
 20
1535.209788040655
 30
0.0
 11
2796.422119835644
 21
1535.209788040655
 31
0.0
  0
ARC
  5
45E
  8
1
 10
2786.9391198356452
 20
1659.1277880406551
 30
0.0
 40
2.0
 50
59.035899999999991
 51
149.03829999999999
  0
LINE
  5
45F
  8
1
 10
2782.363219835644
 20
1655.9247880406549
 30
0.0
 11
2719.6526198356451
 21
1653.3477880406549
 31
0.0
  0
LINE
  5
460
  8
1
 10
2812.7356833302538
 20
1645.2097880406559
 30
0.0
 11
2850.860719835644
 21
1662.9877880406571
 31
0.0
  0
ARC
  5
461
  8
1
 10
2789.422119835644
 20
1645.975788040656
 30
0.0
 40
5.9999000000000002
 50
0.0
 51
59.035899999999991
  0
LINE
  5
462
  8
1
 10
2838.0568086659309
 20
1645.2097880406559
 30
0.0
 11
2796.422119835644
 21
1645.2097880406559
 31
0.0
  0
LINE
  5
463
  8
1
 10
2796.422119835644
 20
1645.2097880406559
 30
0.0
 11
2795.422119835644
 21
1645.2097880406559
 31
0.0
  0
LINE
  5
464
  8
1
 10
2792.5091198356449
 20
1651.1207880406571
 30
0.0
 11
2788.3110198356462
 21
1653.638788040656
 31
0.0
  0
ARC
  5
465
  8
1
 10
2789.3401198356451
 20
1655.353788040655
 30
0.0
 40
2.0
 50
149.03529999999981
 51
239.03449999999989
  0
LINE
  5
466
  8
1
 10
2789.6830198356461
 20
1659.8127880406551
 30
0.0
 11
2787.9680198356459
 21
1660.841788040656
 31
0.0
  0
LINE
  5
467
  8
1
 10
2850.860719835644
 20
1662.9877880406571
 30
0.0
 11
2852.9422522247501
 21
1660.5265296983439
 31
0.0
  0
CIRCLE
  5
468
  8
1
 10
2961.422119835644
 20
1540.209788040655
 30
0.0
 40
21.0
  0
LINE
  5
469
  8
1
 10
2957.422119835644
 20
1706.5897880406569
 30
0.0
 11
2957.422119835644
 21
1744.2097880406559
 31
0.0
  0
LINE
  5
46A
  8
1
 10
2965.4221198356458
 20
1706.5897880406569
 30
0.0
 11
2965.4221198356458
 21
1744.2097880406559
 31
0.0
  0
LINE
  5
46B
  8
1
 10
2966.3671198356451
 20
1706.5897880406569
 30
0.0
 11
2966.8671198356451
 21
1706.089788040656
 31
0.0
  0
LINE
  5
46C
  8
1
 10
2966.8671198356451
 20
1702.209788040655
 30
0.0
 11
2955.9771198356439
 21
1702.209788040655
 31
0.0
  0
LINE
  5
46D
  8
1
 10
2966.3671198356451
 20
1706.5897880406569
 30
0.0
 11
2956.4771198356461
 21
1706.5897880406569
 31
0.0
  0
LINE
  5
46E
  8
1
 10
2964.5939198356459
 20
1706.089788040656
 30
0.0
 11
2964.0939198356441
 21
1706.5897880406569
 31
0.0
  0
LINE
  5
46F
  8
1
 10
2964.5939198356459
 20
1706.089788040656
 30
0.0
 11
2965.0939198356459
 21
1706.5897880406569
 31
0.0
  0
LINE
  5
470
  8
1
 10
2955.9771198356439
 20
1706.089788040656
 30
0.0
 11
2956.4771198356461
 21
1706.5897880406569
 31
0.0
  0
LINE
  5
471
  8
1
 10
2958.2503198356462
 20
1706.089788040656
 30
0.0
 11
2958.7503198356462
 21
1706.5897880406569
 31
0.0
  0
LINE
  5
472
  8
1
 10
2958.2503198356462
 20
1706.089788040656
 30
0.0
 11
2957.7503198356462
 21
1706.5897880406569
 31
0.0
  0
LINE
  5
473
  8
1
 10
2964.5939198356459
 20
1702.209788040655
 30
0.0
 11
2964.5939198356459
 21
1706.089788040656
 31
0.0
  0
LINE
  5
474
  8
1
 10
2958.2503198356462
 20
1702.209788040655
 30
0.0
 11
2958.2503198356462
 21
1706.089788040656
 31
0.0
  0
LINE
  5
475
  8
1
 10
2955.9771198356439
 20
1706.089788040656
 30
0.0
 11
2955.9771198356439
 21
1702.209788040655
 31
0.0
  0
LINE
  5
476
  8
1
 10
2966.8671198356451
 20
1706.089788040656
 30
0.0
 11
2966.8671198356451
 21
1702.209788040655
 31
0.0
  0
ARC
  5
477
  8
1
 10
2961.4220198356429
 20
1744.208788040655
 30
0.0
 40
4.000099999999998
 50
0.0017999999999928
 51
180.5729530209835
  0
LINE
  5
534
  8
1
 10
993.74687079096191
 20
1085.9942754477181
 30
0.0
 11
993.74687079096248
 21
685.99427544771777
 31
0.0
  0
LINE
  5
535
  8
1
 10
1143.7468707909611
 20
1085.9942754477181
 30
0.0
 11
1143.7468707909611
 21
685.99427544771777
 31
0.0
  0
LINE
  5
536
  8
1
 10
1033.746870790962
 20
1281.9942754477181
 30
0.0
 11
1103.746870790962
 21
1281.9942754477181
 31
0.0
  0
LINE
  5
537
  8
1
 10
1113.746870790962
 20
935.99427544771788
 30
0.0
 11
1113.746870790962
 21
835.99427544771788
 31
0.0
  0
LINE
  5
538
  8
1
 10
1043.746870790962
 20
935.99427544771788
 30
0.0
 11
1043.746870790962
 21
835.99427544771788
 31
0.0
  0
LINE
  5
539
  8
1
 10
1043.746870790962
 20
935.99427544771788
 30
0.0
 11
1113.746870790962
 21
935.99427544771788
 31
0.0
  0
LINE
  5
53A
  8
1
 10
1043.746870790962
 20
835.99427544771788
 30
0.0
 11
1113.746870790962
 21
835.99427544771788
 31
0.0
  0
LINE
  5
53B
  8
1
 10
993.74687079096191
 20
1085.9942754477181
 30
0.0
 11
1143.7468707909611
 21
1085.9942754477181
 31
0.0
  0
LINE
  5
53C
  8
1
 10
993.74687079096248
 20
685.99427544771777
 30
0.0
 11
1143.7468707909611
 21
685.99427544771777
 31
0.0
  0
LINE
  5
53D
  8
1
 10
993.74687079096191
 20
1070.994275447717
 30
0.0
 11
1143.7468707909611
 21
1070.994275447717
 31
0.0
  0
LINE
  5
53E
  8
1
 10
993.74687079096248
 20
700.99427544771788
 30
0.0
 11
1143.7468707909611
 21
700.99427544771788
 31
0.0
  0
LINE
  5
53F
  8
1
 10
1048.746870790962
 20
1070.994275447717
 30
0.0
 11
1048.746870790962
 21
700.99427544771788
 31
0.0
  0
LINE
  5
540
  8
1
 10
1063.746870790962
 20
1070.994275447717
 30
0.0
 11
1063.746870790962
 21
700.99427544771788
 31
0.0
  0
LINE
  5
541
  8
1
 10
1033.746870790962
 20
1281.9942754477181
 30
0.0
 11
993.74687079096191
 21
1085.9942754477181
 31
0.0
  0
LINE
  5
542
  8
1
 10
1103.746870790962
 20
1281.9942754477181
 30
0.0
 11
1143.7468707909611
 21
1085.9942754477181
 31
0.0
  0
LINE
  5
543
  8
1
 10
1033.746870790962
 20
489.99427544771783
 30
0.0
 11
1103.746870790962
 21
489.99427544771783
 31
0.0
  0
LINE
  5
544
  8
1
 10
1033.746870790962
 20
489.99427544771783
 30
0.0
 11
993.74687079096191
 21
685.99427544771777
 31
0.0
  0
LINE
  5
545
  8
1
 10
1103.746870790962
 20
489.99427544771783
 30
0.0
 11
1143.7468707909611
 21
685.99427544771777
 31
0.0
  0
DIMENSION
  5
801
  8
SP
  2
*D1
 10
772.59838936839856
 20
485.99427544771788
 30
0.0
 11
742.59838936839844
 21
885.99427544771788
 31
0.0
 70
     0
 13
943.74687079096191
 23
1285.994275447717
 33
0.0
 14
943.74687079096191
 24
485.99427544771783
 34
0.0
 50
90.0
1001
ACAD
1000
DSTYLE
1002
{
1070
   287
1070
     0
1070
   287
1070
     0
1070
   287
1070
     0
1070
   287
1070
     0
1070
   287
1070
     0
1070
    40
1040
15.0
1070
   289
1070
     0
1002
}
  0
DIMENSION
  5
847
  8
SP
  2
*D2
 10
2280.745465850669
 20
1748.2088880394051
 30
0.0
 11
2250.7454658506681
 21
1317.1015817435621
 31
0.0
 70
     0
  1
MAX.1000
 13
2369.1600311874481
 23
885.99427544771788
 33
0.0
 14
2961.422119835644
 24
1748.2088880394051
 34
0.0
 50
90.0
1001
ACAD
1000
DSTYLE
1002
{
1070
   287
1070
     4
1070
   287
1070
     4
1070
   287
1070
     4
1070
   287
1070
     4
1070
    40
1040
15.0
1070
   279
1070
     1
1002
}
  0
LINE
  5
880
  8
4
 10
3351.8818821514142
 20
-458.10447347184157
 30
0.0
 11
3351.8818821514142
 21
-758.10447347184174
 31
0.0
  0
LINE
  5
881
  8
4
 10
2301.8818821514142
 20
-458.10447347184157
 30
0.0
 11
2301.8818821514142
 21
-758.10447347184174
 31
0.0
  0
LINE
  5
882
  8
4
 10
1551.8818821514139
 20
-458.10447347184157
 30
0.0
 11
1551.8818821514139
 21
-758.10447347184174
 31
0.0
  0
LINE
  5
885
  8
4
 10
1551.8818821514139
 20
-758.10447347184163
 30
0.0
 11
3351.8818821514142
 21
-758.10447347184163
 31
0.0
  0
LINE
  5
886
  8
4
 10
1551.8818821514139
 20
-608.10447347184163
 30
0.0
 11
3351.8818821514142
 21
-608.10447347184163
 31
0.0
  0
TEXT
  5
887
  8
4
 10
1609.635003421766
 20
-560.7899346719222
 30
0.0
 40
75.0
  1
機器名称
  0
TEXT
  5
888
  8
4
 10
1606.2690411886099
 20
-725.6367383738251
 30
0.0
 40
75.0
  1
機器型番
  0
TEXT
  5
889
  8
4
 10
2343.400000382911
 20
-574.24682003548867
 30
0.0
 40
75.0
  1
ミツヤ軸流ファン
  0
TEXT
  5
88A
  8
4
 10
2356.8636255296351
 20
-732.36509705192645
 30
0.0
 40
75.0
  1
AP＃800-2
  0
TEXT
  5
88C
  8
4
 10
1934.060530350419
 20
2367.038788526932
 30
0.0
 40
80.999999999999986
  1
天井吊本体形
  0
TEXT
  5
88D
  8
4
 10
1051.1332721455831
 20
2592.7169908271048
 30
0.0
 40
108.0
  1
ベルト駆動式横型軸流ファン
  0
LINE
  5
88E
  8
4
 10
951.88188215141406
 20
2496.0086579253648
 30
0.0
 11
3351.8818821514142
 21
2496.0086579253648
 31
0.0
  0
LINE
  5
88F
  8
4
 10
951.88188215141406
 20
2796.0086579253662
 30
0.0
 11
3351.8818821514142
 21
2796.0086579253662
 31
0.0
  0
LINE
  5
890
  8
4
 10
1551.8818821514139
 20
-458.10447347184157
 30
0.0
 11
3351.8818821514142
 21
-458.10447347184157
 31
0.0
  0
LINE
  5
891
  8
4
 10
951.88188215141406
 20
2796.0086579253662
 30
0.0
 11
951.88188215141406
 21
2496.0086579253648
 31
0.0
  0
TEXT
  5
892
  8
4
 10
1080.9756139497761
 20
2365.3747428476731
 30
0.0
 40
80.999999999999986
  1
左回転後方吐出
  0
TEXT
  5
893
  8
4
 10
2780.336221025349
 20
2850.9871487711212
 30
0.0
 40
84.000000000000014
  1
No.
  0
TEXT
  5
894
  8
4
 10
2809.5548733618889
 20
2367.038788526932
 30
0.0
 40
80.999999999999986
  1
縮尺：1/15
  0
LINE
  5
895
  8
4
 10
3351.8818821514142
 20
2796.0086579253662
 30
0.0
 11
3351.8818821514142
 21
2496.0086579253648
 31
0.0
  0
LINE
  5
896
  8
4
 10
3726.8818821514142
 20
3216.8955265281579
 30
0.0
 11
3726.8818821514142
 21
3216.8955265281579
 31
0.0
  0
LINE
  5
897
  8
4
 10
2737.808015691211
 20
2813.790901216259
 30
0.0
 11
2737.808015691211
 21
2971.873918852787
 31
0.0
  0
LINE
  5
898
  8
4
 10
2737.808015691211
 20
2971.873918852787
 30
0.0
 11
3351.8818821514142
 21
2971.873918852787
 31
0.0
  0
LINE
  5
899
  8
4
 10
3351.8818821514142
 20
2971.873918852787
 30
0.0
 11
3351.8818821514142
 21
2813.790901216259
 31
0.0
  0
LINE
  5
89A
  8
4
 10
3351.8818821514142
 20
2813.790901216259
 30
0.0
 11
2737.808015691211
 21
2813.790901216259
 31
0.0
  0
LINE
  5
89B
  8
4
 10
576.88188215141406
 20
-1208.1044734718409
 30
0.0
 11
576.88188215141406
 21
3216.8955265281579
 31
0.0
  0
LINE
  5
89C
  8
4
 10
576.88188215141406
 20
3216.8955265281579
 30
0.0
 11
3726.8818821514142
 21
3216.8955265281579
 31
0.0
  0
LINE
  5
89D
  8
4
 10
3726.8818821514142
 20
3216.8955265281579
 30
0.0
 11
3726.8818821514142
 21
-1208.1044734718409
 31
0.0
  0
LINE
  5
89E
  8
4
 10
3726.8818821514142
 20
-1208.1044734718409
 30
0.0
 11
576.88188215141406
 21
-1208.1044734718409
 31
0.0
  0
LINE
  5
E9E
  8
2
 10
2461.422119835644
 20
1912.9639299019541
 30
0.0
 11
2461.422119835644
 21
777.30862141033128
 31
0.0
  0
LINE
  5
E9F
  8
1
 10
2436.422119835644
 20
925.99427544771777
 30
0.0
 11
2436.422119835644
 21
860.99427544771765
 31
0.0
  0
LINE
  5
EA1
  8
1
 10
2556.422119835644
 20
925.99427544771777
 30
0.0
 11
2556.422119835644
 21
860.99427544771788
 31
0.0
  0
LINE
  5
EA3
  8
1
 10
2436.422119835644
 20
925.99427544771788
 30
0.0
 11
2556.422119835644
 21
925.99427544771777
 31
0.0
  0
LINE
  5
EA4
  8
1
 10
2436.422119835644
 20
860.99427544771788
 30
0.0
 11
2556.422119835644
 21
860.99427544771788
 31
0.0
  0
LINE
  5
EE5
  8
1
 10
2436.422119835644
 20
866.994275447718
 30
0.0
 11
2556.422119835644
 21
866.99427544771777
 31
0.0
  0
LINE
  5
EF5
  8
1
 10
3486.422119835644
 20
866.994275447718
 30
0.0
 11
3366.422119835644
 21
866.99427544771777
 31
0.0
  0
LINE
  5
EF6
  8
1
 10
3486.422119835644
 20
860.99427544771788
 30
0.0
 11
3366.422119835644
 21
860.99427544771788
 31
0.0
  0
LINE
  5
EF7
  8
1
 10
3486.422119835644
 20
925.99427544771788
 30
0.0
 11
3366.422119835644
 21
925.99427544771777
 31
0.0
  0
LINE
  5
EF8
  8
1
 10
3486.422119835644
 20
925.99427544771777
 30
0.0
 11
3486.422119835644
 21
860.99427544771765
 31
0.0
  0
LINE
  5
EF9
  8
1
 10
3366.422119835644
 20
925.99427544771777
 30
0.0
 11
3366.422119835644
 21
860.99427544771788
 31
0.0
  0
LINE
  5
EFA
  8
2
 10
3461.422119835644
 20
1912.9639299019541
 30
0.0
 11
3461.422119835644
 21
777.30862141033128
 31
0.0
  0
LINE
  5
EFC
  8
2
 10
1708.7468707909611
 20
823.15784373192764
 30
0.0
 11
1708.7468707909611
 21
1912.9639299019541
 31
0.0
  0
LINE
  5
F19
  8
1
 10
1674.2468707909611
 20
860.99427544771788
 30
0.0
 11
1739.2468707909611
 21
860.99427544771788
 31
0.0
  0
LINE
  5
F1A
  8
1
 10
1674.2468707909611
 20
860.99427544771788
 30
0.0
 11
1674.2468707909611
 21
925.99427544771777
 31
0.0
  0
LINE
  5
F1B
  8
1
 10
1739.2468707909611
 20
860.99427544771788
 30
0.0
 11
1739.2468707909611
 21
862.99427544771788
 31
0.0
  0
LINE
  5
F1C
  8
1
 10
1674.2468707909611
 20
925.99427544771777
 30
0.0
 11
1676.2468707909611
 21
925.99427544771777
 31
0.0
  0
LINE
  5
F1D
  8
1
 10
1680.2468707909611
 20
875.49427544771788
 30
0.0
 11
1680.2468707909611
 21
921.99427544771788
 31
0.0
  0
LINE
  5
F1E
  8
1
 10
1688.7468707909611
 20
866.99427544771777
 30
0.0
 11
1735.2468707909611
 21
866.99427544771777
 31
0.0
  0
ARC
  5
F1F
  8
1
 10
1735.2468707909611
 20
862.99427544771788
 30
0.0
 40
4.0
 50
0.0
 51
90.0
  0
ARC
  5
F20
  8
1
 10
1676.2468707909611
 20
921.99427544771788
 30
0.0
 40
4.0
 50
0.0
 51
90.0
  0
ARC
  5
F21
  8
1
 10
1688.7468707909611
 20
875.49427544771788
 30
0.0
 40
8.5
 50
180.0
 51
270.0
  0
LINE
  5
F23
  8
1
 10
1038.746870790962
 20
866.99427544771777
 30
0.0
 11
992.24687079096202
 21
866.99427544771777
 31
0.0
  0
LINE
  5
F24
  8
1
 10
1053.246870790962
 20
860.99427544771788
 30
0.0
 11
988.24687079096202
 21
860.99427544771788
 31
0.0
  0
LINE
  5
F25
  8
1
 10
1047.246870790962
 20
875.49427544771788
 30
0.0
 11
1047.246870790962
 21
921.99427544771788
 31
0.0
  0
LINE
  5
F26
  8
1
 10
1053.246870790962
 20
860.99427544771788
 30
0.0
 11
1053.246870790962
 21
925.99427544771777
 31
0.0
  0
ARC
  5
F27
  8
1
 10
1038.746870790962
 20
875.49427544771788
 30
0.0
 40
8.5
 50
270.0
 51
0.000000000000007
  0
ARC
  5
F28
  8
1
 10
1051.246870790962
 20
921.99427544771788
 30
0.0
 40
4.0
 50
90.0
 51
180.0
  0
LINE
  5
F29
  8
1
 10
1053.246870790962
 20
925.99427544771777
 30
0.0
 11
1051.246870790962
 21
925.99427544771777
 31
0.0
  0
ARC
  5
F2A
  8
1
 10
992.24687079096202
 20
862.99427544771788
 30
0.0
 40
4.0
 50
90.0
 51
180.0
  0
LINE
  5
F2B
  8
1
 10
988.24687079096202
 20
860.99427544771788
 30
0.0
 11
988.24687079096202
 21
862.99427544771788
 31
0.0
  0
LINE
  5
F2C
  8
2
 10
1018.746870790961
 20
823.15784373192764
 30
0.0
 11
1018.746870790961
 21
1912.9639299019541
 31
0.0
  0
DIMENSION
  5
F2D
  8
SP
  2
*D3
 10
3461.422119835644
 20
1944.0901058713309
 30
0.0
 11
2961.422119835644
 21
1974.0901058713309
 31
0.0
 70
     0
 13
2461.422119835644
 23
1912.9639299019541
 33
0.0
 14
3461.422119835644
 24
1912.9639299019541
 34
0.0
1001
ACAD
1000
DSTYLE
1002
{
1070
   287
1070
     0
1070
   287
1070
     0
1070
    40
1040
15.0
1070
   289
1070
     0
1002
}
  0
DIMENSION
  5
F3A
  8
SP
  2
*D4
 10
1708.7468707909611
 20
1948.207823682654
 30
0.0
 11
1363.7468707909611
 21
1978.207823682654
 31
0.0
 70
     0
 13
1018.746870790961
 23
1912.9639299019541
 33
0.0
 14
1708.7468707909611
 24
1912.9639299019541
 34
0.0
1001
ACAD
1000
DSTYLE
1002
{
1070
   287
1070
     0
1070
   287
1070
     0
1070
    40
1040
15.0
1070
   289
1070
     0
1002
}
  0
DIMENSION
  5
F47
  8
SP
  2
*D5
 10
1743.7468707909611
 20
2071.7391210408382
 30
0.0
 11
1363.7468707909611
 21
2101.7391210408382
 31
0.0
 70
     0
 13
983.74687079096202
 23
1325.9942754477181
 33
0.0
 14
1743.7468707909611
 24
1325.9942754477181
 34
0.0
1001
ACAD
1000
DSTYLE
1002
{
1070
   287
1070
     0
1070
   287
1070
     0
1070
    40
1040
15.0
1070
   289
1070
     0
1002
}
  0
DIMENSION
  5
F54
  8
SP
  2
*D6
 10
1743.7468707909611
 20
1948.207823682654
 30
0.0
 11
1821.9594569264771
 21
1950.047644741617
 31
0.0
 70
   128
 13
1708.7468707909611
 23
1912.9639299019541
 33
0.0
 14
1743.7468707909611
 24
1325.9942754477181
 34
0.0
1001
ACAD
1000
DSTYLE
1002
{
1070
   287
1070
     4
1070
    40
1040
15.0
1070
   279
1070
     1
1002
}
  0
DIMENSION
  5
F66
  8
SP
  2
*D7
 10
983.74687079096202
 20
1948.207823682654
 30
0.0
 11
905.41180737029572
 21
1948.22728707341
 31
0.0
 70
   128
 13
1018.746870790961
 23
1912.9639299019541
 33
0.0
 14
983.74687079096202
 24
1325.9942754477181
 34
0.0
1001
ACAD
1000
DSTYLE
1002
{
1070
   287
1070
     4
1070
    40
1040
15.0
1070
   279
1070
     1
1002
}
  0
ENDSEC
  0
EOF
