  0
SECTION
  2
HEADER
  9
$ACADVER
  1
AC1009
  9
$INSBASE
 10
0.0
 20
0.0
 30
0.0
  9
$EXTMIN
 10
576.88188215141406
 20
-1208.1044734718409
 30
0.0
  9
$EXTMAX
 10
3726.8818821514142
 20
3216.8955265281579
 30
0.0
  9
$LIMMIN
 10
0.0
 20
0.0
  9
$LIMMAX
 10
297.0
 20
210.0
  9
$ORTHOMODE
 70
     0
  9
$REGENMODE
 70
     1
  9
$FILLMODE
 70
     1
  9
$QTEXTMODE
 70
     0
  9
$MIRRTEXT
 70
     0
  9
$DRAGMODE
 70
     2
  9
$LTSCALE
 40
75.0
  9
$OSMODE
 70
    37
  9
$ATTMODE
 70
     1
  9
$TEXTSIZE
 40
75.0
  9
$TRACEWID
 40
0.05
  9
$TEXTSTYLE
  7
SUNPOU
  9
$CLAYER
  8
SP
  9
$CELTYPE
  6
BYLAYER
  9
$CECOLOR
 62
   256
  9
$DIMSCALE
 40
15.0
  9
$DIMASZ
 40
2.0
  9
$DIMEXO
 40
1.0
  9
$DIMDLI
 40
10.0
  9
$DIMRND
 40
0.0
  9
$DIMDLE
 40
0.0
  9
$DIMEXE
 40
1.0
  9
$DIMTP
 40
0.0
  9
$DIMTM
 40
0.0
  9
$DIMTXT
 40
3.0
  9
$DIMCEN
 40
0.0
  9
$DIMTSZ
 40
0.0
  9
$DIMTOL
 70
     0
  9
$DIMLIM
 70
     0
  9
$DIMTIH
 70
     0
  9
$DIMTOH
 70
     0
  9
$DIMSE1
 70
     0
  9
$DIMSE2
 70
     0
  9
$DIMTAD
 70
     1
  9
$DIMZIN
 70
     8
  9
$DIMBLK
  1

  9
$DIMASO
 70
     1
  9
$DIMSHO
 70
     1
  9
$DIMPOST
  1

  9
$DIMAPOST
  1

  9
$DIMALT
 70
     0
  9
$DIMALTD
 70
     2
  9
$DIMALTF
 40
0.03937
  9
$DIMLFAC
 40
1.0
  9
$DIMTOFL
 70
     1
  9
$DIMTVP
 40
0.0
  9
$DIMTIX
 70
     0
  9
$DIMSOXD
 70
     0
  9
$DIMSAH
 70
     1
  9
$DIMBLK1
  1
OPEN
  9
$DIMBLK2
  1
OPEN
  9
$DIMSTYLE
  2
MATSU
  9
$DIMCLRD
 70
   256
  9
$DIMCLRE
 70
   256
  9
$DIMCLRT
 70
   256
  9
$DIMTFAC
 40
1.0
  9
$DIMGAP
 40
0.5
  9
$LUNITS
 70
     2
  9
$LUPREC
 70
     3
  9
$SKETCHINC
 40
0.1
  9
$FILLETRAD
 40
3.0
  9
$AUNITS
 70
     0
  9
$AUPREC
 70
     2
  9
$MENU
  1
acad
  9
$ELEVATION
 40
0.0
  9
$PELEVATION
 40
0.0
  9
$THICKNESS
 40
0.0
  9
$LIMCHECK
 70
     0
  9
$BLIPMODE
 70
     0
  9
$CHAMFERA
 40
0.0
  9
$CHAMFERB
 40
0.0
  9
$SKPOLY
 70
     0
  9
$TDCREATE
 40
2451967.42375706
  9
$TDUPDATE
 40
2454953.6258463538
  9
$TDINDWG
 40
0.7913415162
  9
$TDUSRTIMER
 40
0.7913415162
  9
$USRTIMER
 70
     1
  9
$ANGBASE
 50
0.0
  9
$ANGDIR
 70
     0
  9
$PDMODE
 70
     0
  9
$PDSIZE
 40
1.0
  9
$PLINEWID
 40
0.0
  9
$COORDS
 70
     1
  9
$SPLFRAME
 70
     0
  9
$SPLINETYPE
 70
     6
  9
$SPLINESEGS
 70
     8
  9
$ATTDIA
 70
     0
  9
$ATTREQ
 70
     1
  9
$HANDLING
 70
 10241
  9
$HANDSEED
  5
C49
  9
$SURFTAB1
 70
     6
  9
$SURFTAB2
 70
     6
  9
$SURFTYPE
 70
     6
  9
$SURFU
 70
     6
  9
$SURFV
 70
     6
  9
$UCSNAME
  2

  9
$UCSORG
 10
0.0
 20
0.0
 30
0.0
  9
$UCSXDIR
 10
1.0
 20
0.0
 30
0.0
  9
$UCSYDIR
 10
0.0
 20
1.0
 30
0.0
  9
$PUCSNAME
  2

  9
$PUCSORG
 10
0.0
 20
0.0
 30
0.0
  9
$PUCSXDIR
 10
1.0
 20
0.0
 30
0.0
  9
$PUCSYDIR
 10
0.0
 20
1.0
 30
0.0
  9
$USERI1
 70
     0
  9
$USERI2
 70
     0
  9
$USERI3
 70
     0
  9
$USERI4
 70
     0
  9
$USERI5
 70
     0
  9
$USERR1
 40
0.0
  9
$USERR2
 40
0.0
  9
$USERR3
 40
0.0
  9
$USERR4
 40
0.0
  9
$USERR5
 40
0.0
  9
$WORLDVIEW
 70
     1
  9
$SHADEDGE
 70
     3
  9
$SHADEDIF
 70
    70
  9
$TILEMODE
 70
     1
  9
$MAXACTVP
 70
    16
  9
$PLIMCHECK
 70
     0
  9
$PEXTMIN
 10
1.0000000000000000E+020
 20
1.0000000000000000E+020
 30
1.0000000000000000E+020
  9
$PEXTMAX
 10
-1.0000000000000000E+020
 20
-1.0000000000000000E+020
 30
-1.0000000000000000E+020
  9
$PLIMMIN
 10
0.0
 20
0.0
  9
$PLIMMAX
 10
12.0
 20
9.0
  9
$UNITMODE
 70
     0
  9
$VISRETAIN
 70
     0
  9
$PLINEGEN
 70
     0
  9
$PSLTSCALE
 70
     0
  0
ENDSEC
  0
SECTION
  2
TABLES
  0
TABLE
  2
VPORT
 70
     2
  0
VPORT
  2
*ACTIVE
 70
     0
 10
0.0
 20
0.0
 11
1.0
 21
1.0
 12
3513.8158967713671
 22
-671.338421699842
 13
0.0
 23
0.0
 14
62.5
 24
62.5
 15
62.5
 25
62.5
 16
0.0
 26
0.0
 36
1.0
 17
0.0
 27
0.0
 37
0.0
 40
1283.1806069645679
 41
3.1666666666666661
 42
50.0
 43
0.0
 44
0.0
 50
0.0
 51
0.0
 71
     0
 72
   100
 73
     1
 74
     0
 75
     0
 76
     0
 77
     0
 78
     0
  0
ENDTAB
  0
TABLE
  2
LTYPE
 70
     2
  0
LTYPE
  2
CONTINUOUS
 70
     0
  3
Solid line
 72
    65
 73
     0
 40
0.0
  0
LTYPE
  2
CENTER
 70
     0
  3
____ _ ____ _ ____ _ ____ _ ____ _ ____ _ ____ 
 72
    65
 73
     4
 40
2.0
 49
1.25
 49
-0.25
 49
0.25
 49
-0.25
  0
ENDTAB
  0
TABLE
  2
LAYER
 70
     6
  0
LAYER
  2
0
 70
     0
 62
     7
  6
CONTINUOUS
  0
LAYER
  2
SP
 70
     0
 62
     2
  6
CONTINUOUS
  0
LAYER
  2
DEFPOINTS
 70
     0
 62
     7
  6
CONTINUOUS
  0
LAYER
  2
2
 70
     0
 62
     3
  6
CENTER
  0
LAYER
  2
1
 70
     0
 62
     4
  6
CONTINUOUS
  0
LAYER
  2
4
 70
     0
 62
     7
  6
CONTINUOUS
  0
ENDTAB
  0
TABLE
  2
STYLE
 70
     2
  0
STYLE
  2
STANDARD
 70
     0
 40
0.0
 41
1.0
 50
15.0
 71
     0
 42
3.5
  3
C:\Program Files\AutoCAD LT\simplex.shx
  4
C:\Program Files\AutoCAD LT\extfont.shx
  0
STYLE
  2
SUNPOU
 70
     0
 40
0.0
 41
1.0
 50
15.0
 71
     0
 42
75.0
  3
simplex.shx
  4
extfont.shx
  0
ENDTAB
  0
TABLE
  2
VIEW
 70
     0
  0
ENDTAB
  0
TABLE
  2
UCS
 70
     0
  0
ENDTAB
  0
TABLE
  2
APPID
 70
     1
  0
APPID
  2
ACAD
 70
     0
  0
ENDTAB
  0
TABLE
  2
DIMSTYLE
 70
     2
  0
DIMSTYLE
  2
MATSU
 70
     0
  3

  4

  5

  6
OPEN
  7
OPEN
 40
1.0
 41
2.0
 42
1.0
 43
10.0
 44
1.0
 45
0.0
 46
0.0
 47
0.0
 48
0.0
140
3.0
141
0.0
142
0.0
143
0.03937
144
1.0
145
0.0
146
1.0
147
0.5
 71
     0
 72
     0
 73
     0
 74
     0
 75
     0
 76
     0
 77
     1
 78
     8
170
     0
171
     2
172
     1
173
     1
174
     0
175
     0
176
   256
177
   256
178
   256
  0
DIMSTYLE
  2
STANDARD
 70
     0
  3

  4

  5

  6

  7

 40
1.0
 41
0.18
 42
0.0625
 43
0.38
 44
0.18
 45
0.0
 46
0.0
 47
0.0
 48
0.0
140
0.18
141
0.09
142
0.0
143
25.399999999999999
144
1.0
145
0.0
146
1.0
147
0.09
 71
     0
 72
     0
 73
     1
 74
     1
 75
     0
 76
     0
 77
     0
 78
     0
170
     0
171
     2
172
     0
173
     0
174
     0
175
     0
176
     0
177
     0
178
     0
  0
ENDTAB
  0
ENDSEC
  0
SECTION
  2
BLOCKS
  0
BLOCK
  8
0
  2
$MODEL_SPACE
 70
     0
 10
0.0
 20
0.0
 30
0.0
  3
$MODEL_SPACE
  1

  0
ENDBLK
  5
7
  8
0
  0
BLOCK
 67
     1
  8
0
  2
$PAPER_SPACE
 70
     0
 10
0.0
 20
0.0
 30
0.0
  3
$PAPER_SPACE
  1

  0
ENDBLK
  5
A
 67
     1
  8
0
  0
BLOCK
  8
0
  2
_OPEN
 70
     0
 10
0.0
 20
0.0
 30
0.0
  3
_OPEN
  1

  0
LINE
  5
2E
  8
0
  6
BYBLOCK
 62
     0
 10
-1.0
 20
0.1666666666666666
 30
0.0
 11
0.0
 21
0.0
 31
0.0
  0
LINE
  5
2F
  8
0
  6
BYBLOCK
 62
     0
 10
0.0
 20
0.0
 30
0.0
 11
-1.0
 21
-0.1666666666666666
 31
0.0
  0
LINE
  5
30
  8
0
  6
BYBLOCK
 62
     0
 10
0.0
 20
0.0
 30
0.0
 11
-1.0
 21
0.0
 31
0.0
  0
ENDBLK
  5
32
  8
0
  0
BLOCK
  8
0
  2
*D1
 70
     1
 10
0.0
 20
0.0
 30
0.0
  3
*D1
  1

  0
LINE
  5
C01
  8
SP
 10
983.74687079096202
 20
1340.994275447717
 30
0.0
 11
983.74687079096202
 21
1728.605522664476
 31
0.0
  0
LINE
  5
C02
  8
SP
 10
1743.7468707909611
 20
1340.994275447717
 30
0.0
 11
1743.7468707909611
 21
1728.605522664476
 31
0.0
  0
LINE
  5
C03
  8
SP
 10
1013.746870790962
 20
1713.605522664476
 30
0.0
 11
1713.7468707909611
 21
1713.605522664476
 31
0.0
  0
INSERT
  5
C04
  8
SP
  2
_OPEN
 10
983.74687079096202
 20
1713.605522664476
 30
0.0
 41
30.0
 42
30.0
 43
30.0
 50
180.0
  0
INSERT
  5
C05
  8
SP
  2
_OPEN
 10
1743.7468707909611
 20
1713.605522664476
 30
0.0
 41
30.0
 42
30.0
 43
30.0
  0
TEXT
  8
0
  40
45
  5
C42
  72
0
  71
0
 10
1273.75
 20
1663.96
 30
0.000000
  1
760
  0
POINT
  5
C07
  8
DEFPOINTS
 62
     0
 10
983.74687079096202
 20
1325.9942754477181
 30
0.0
  0
POINT
  5
C08
  8
DEFPOINTS
 62
     0
 10
1743.7468707909611
 20
1325.9942754477181
 30
0.0
  0
POINT
  5
C09
  8
DEFPOINTS
 62
     0
 10
1743.7468707909611
 20
1713.605522664476
 30
0.0
  0
ENDBLK
  5
7F3
  8
0
  0
BLOCK
  8
0
  2
*D2
 70
     1
 10
0.0
 20
0.0
 30
0.0
  3
*D2
  1

  0
LINE
  5
C0A
  8
SP
 10
933.74687079096157
 20
225.99427544771791
 30
0.0
 11
933.74687079096157
 21
-30.0883296679458
 31
0.0
  0
LINE
  5
C0B
  8
SP
 10
1793.7468707909611
 20
225.99427544771791
 30
0.0
 11
1793.7468707909611
 21
-30.0883296679458
 31
0.0
  0
LINE
  5
C0C
  8
SP
 10
963.74687079096145
 20
-15.0883296679458
 30
0.0
 11
1763.7468707909611
 21
-15.0883296679458
 31
0.0
  0
INSERT
  5
C0D
  8
SP
  2
_OPEN
 10
933.74687079096157
 20
-15.0883296679458
 30
0.0
 41
30.0
 42
30.0
 43
30.0
 50
180.0
  0
INSERT
  5
C0E
  8
SP
  2
_OPEN
 10
1793.7468707909611
 20
-15.0883296679458
 30
0.0
 41
30.0
 42
30.0
 43
30.0
  0
TEXT
  8
0
  40
45
  5
C43
  72
0
  71
0
 10
1273.75
 20
-64.7383
 30
0.000000
  1
860
  0
POINT
  5
C10
  8
DEFPOINTS
 62
     0
 10
933.74687079096157
 20
240.9942754477178
 30
0.0
  0
POINT
  5
C11
  8
DEFPOINTS
 62
     0
 10
1793.7468707909611
 20
240.9942754477178
 30
0.0
  0
POINT
  5
C12
  8
DEFPOINTS
 62
     0
 10
1793.7468707909611
 20
-15.0883296679458
 30
0.0
  0
ENDBLK
  5
800
  8
0
  0
BLOCK
  8
0
  2
*D3
 70
     1
 10
0.0
 20
0.0
 30
0.0
  3
*D3
  1

  0
LINE
  5
C13
  8
SP
 10
928.74687079096191
 20
1285.994275447717
 30
0.0
 11
757.59838936839878
 21
1285.994275447717
 31
0.0
  0
LINE
  5
C14
  8
SP
 10
928.74687079096213
 20
485.99427544771783
 30
0.0
 11
757.59838936839867
 21
485.99427544771788
 31
0.0
  0
LINE
  5
C15
  8
SP
 10
772.59838936839878
 20
1255.994275447717
 30
0.0
 11
772.59838936839856
 21
515.99427544771777
 31
0.0
  0
INSERT
  5
C16
  8
SP
  2
_OPEN
 10
772.5983893683989
 20
1285.994275447717
 30
0.0
 41
30.0
 42
30.0
 43
30.0
 50
90.0
  0
INSERT
  5
C17
  8
SP
  2
_OPEN
 10
772.59838936839856
 20
485.99427544771788
 30
0.0
 41
30.0
 42
30.0
 43
30.0
 50
270.0
  0
TEXT
  8
0
  40
45
  5
C44
  72
0
  71
0
 10
652.598
 20
806.344
 30
0.000000
  1
800
  0
POINT
  5
C19
  8
DEFPOINTS
 62
     0
 10
943.74687079096191
 20
1285.994275447717
 30
0.0
  0
POINT
  5
C1A
  8
DEFPOINTS
 62
     0
 10
943.74687079096191
 20
485.99427544771783
 30
0.0
  0
POINT
  5
C1B
  8
DEFPOINTS
 62
     0
 10
772.59838936839856
 20
485.99427544771788
 30
0.0
  0
ENDBLK
  5
80D
  8
0
  0
BLOCK
  8
0
  2
*D4
 70
     1
 10
0.0
 20
0.0
 30
0.0
  3
*D4
  1

  0
LINE
  5
C1C
  8
SP
 10
2521.422119835644
 20
900.99427544771777
 30
0.0
 11
2521.422119835644
 21
1765.1695753866529
 31
0.0
  0
LINE
  5
C1D
  8
SP
 10
3401.422119835644
 20
900.99427544771777
 30
0.0
 11
3401.422119835644
 21
1765.1695753866529
 31
0.0
  0
LINE
  5
C1E
  8
SP
 10
2551.422119835644
 20
1750.1695753866529
 30
0.0
 11
3371.422119835644
 21
1750.1695753866529
 31
0.0
  0
INSERT
  5
C1F
  8
SP
  2
_OPEN
 10
2521.422119835644
 20
1750.1695753866529
 30
0.0
 41
30.0
 42
30.0
 43
30.0
 50
180.0
  0
INSERT
  5
C20
  8
SP
  2
_OPEN
 10
3401.422119835644
 20
1750.1695753866529
 30
0.0
 41
30.0
 42
30.0
 43
30.0
  0
TEXT
  8
0
  40
45
  5
C45
  72
0
  71
0
 10
2871.42
 20
1700.52
 30
0.000000
  1
880
  0
POINT
  5
C22
  8
DEFPOINTS
 62
     0
 10
2521.422119835644
 20
885.99427544771788
 30
0.0
  0
POINT
  5
C23
  8
DEFPOINTS
 62
     0
 10
3401.422119835644
 20
885.99427544771788
 30
0.0
  0
POINT
  5
C24
  8
DEFPOINTS
 62
     0
 10
3401.422119835644
 20
1750.1695753866529
 30
0.0
  0
ENDBLK
  5
81A
  8
0
  0
BLOCK
  8
0
  2
*D5
 70
     1
 10
0.0
 20
0.0
 30
0.0
  3
*D5
  1

  0
LINE
  5
C25
  8
SP
 10
2354.1600311874481
 20
885.99427544771788
 30
0.0
 11
2265.7454658506681
 21
885.99427544771788
 31
0.0
  0
LINE
  5
C26
  8
SP
 10
2591.422119835644
 20
385.99427544771811
 30
0.0
 11
2265.7454658506681
 21
385.99427544771811
 31
0.0
  0
LINE
  5
C27
  8
SP
 10
2280.7454658506681
 20
855.994275447718
 30
0.0
 11
2280.7454658506681
 21
415.99427544771822
 31
0.0
  0
INSERT
  5
C28
  8
SP
  2
_OPEN
 10
2280.7454658506681
 20
885.99427544771788
 30
0.0
 41
30.0
 42
30.0
 43
30.0
 50
90.0
  0
INSERT
  5
C29
  8
SP
  2
_OPEN
 10
2280.7454658506681
 20
385.99427544771811
 30
0.0
 41
30.0
 42
30.0
 43
30.0
 50
270.0
  0
TEXT
  8
0
  40
45
  5
C46
  72
0
  71
0
 10
2160.75
 20
556.344
 30
0.000000
  1
500
  0
POINT
  5
C2B
  8
DEFPOINTS
 62
     0
 10
2369.1600311874481
 20
885.99427544771788
 30
0.0
  0
POINT
  5
C2C
  8
DEFPOINTS
 62
     0
 10
2606.422119835644
 20
385.99427544771811
 30
0.0
  0
POINT
  5
C2D
  8
DEFPOINTS
 62
     0
 10
2280.7454658506681
 20
385.99427544771811
 30
0.0
  0
ENDBLK
  5
827
  8
0
  0
BLOCK
  8
0
  2
*D6
 70
     1
 10
0.0
 20
0.0
 30
0.0
  3
*D6
  1

  0
LINE
  5
C2E
  8
SP
 10
2591.422119835644
 20
385.99427544771811
 30
0.0
 11
2265.7454658506681
 21
385.99427544771811
 31
0.0
  0
LINE
  5
C2F
  8
SP
 10
2396.422119835644
 20
290.99427544771783
 30
0.0
 11
2265.7454658506681
 21
290.99427544771783
 31
0.0
  0
LINE
  5
C30
  8
SP
 10
2280.7454658506681
 20
355.99427544771811
 30
0.0
 11
2280.7454658506681
 21
320.99427544771783
 31
0.0
  0
TEXT
  8
0
  40
45
  5
C47
  72
0
  71
0
 10
2135.75
 20
264.567
 30
0.000000
  1
(95)
  0
INSERT
  5
C32
  8
SP
  2
_OPEN
 10
2280.7454658506681
 20
385.99427544771811
 30
0.0
 41
30.0
 42
30.0
 43
30.0
 50
90.0
  0
INSERT
  5
C33
  8
SP
  2
_OPEN
 10
2280.7454658506681
 20
290.99427544771783
 30
0.0
 41
30.0
 42
30.0
 43
30.0
 50
270.0
  0
POINT
  5
C34
  8
DEFPOINTS
 62
     0
 10
2606.422119835644
 20
385.99427544771811
 30
0.0
  0
POINT
  5
C35
  8
DEFPOINTS
 62
     0
 10
2411.422119835644
 20
290.99427544771783
 30
0.0
  0
POINT
  5
C36
  8
DEFPOINTS
 62
     0
 10
2280.7454658506681
 20
290.99427544771783
 30
0.0
  0
ENDBLK
  5
834
  8
0
  0
BLOCK
  8
0
  2
*D7
 70
     1
 10
0.0
 20
0.0
 30
0.0
  3
*D7
  1

  0
LINE
  5
C37
  8
SP
 10
2396.422119835644
 20
290.99427544771783
 30
0.0
 11
2265.7454658506681
 21
290.99427544771783
 31
0.0
  0
LINE
  5
C38
  8
SP
 10
2396.422119835644
 20
240.9942754477178
 30
0.0
 11
2265.7454658506681
 21
240.99427544771791
 31
0.0
  0
LINE
  5
C39
  8
SP
 10
2280.7454658506681
 20
320.99427544771783
 30
0.0
 11
2280.7454658506681
 21
350.99427544771788
 31
0.0
  0
LINE
  5
C3A
  8
SP
 10
2280.7454658506681
 20
210.99427544771791
 30
0.0
 11
2280.7454658506681
 21
180.99427544771791
 31
0.0
  0
TEXT
  8
0
  40
45
  5
C48
  72
0
  71
0
 10
2156.29
 20
87.5644
 30
0.000000
  1
50
  0
LINE
  5
C3C
  8
SP
 10
2280.7454658506681
 20
290.99427544771783
 30
0.0
 11
2280.7454658506681
 21
240.99427544771791
 31
0.0
  0
INSERT
  5
C3D
  8
SP
  2
_OPEN
 10
2280.7454658506681
 20
290.99427544771783
 30
0.0
 41
30.0
 42
30.0
 43
30.0
 50
270.0
  0
INSERT
  5
C3E
  8
SP
  2
_OPEN
 10
2280.7454658506681
 20
240.99427544771791
 30
0.0
 41
30.0
 42
30.0
 43
30.0
 50
90.0
  0
POINT
  5
C3F
  8
DEFPOINTS
 62
     0
 10
2411.422119835644
 20
290.99427544771783
 30
0.0
  0
POINT
  5
C40
  8
DEFPOINTS
 62
     0
 10
2411.422119835644
 20
240.9942754477178
 30
0.0
  0
POINT
  5
C41
  8
DEFPOINTS
 62
     0
 10
2280.7454658506681
 20
240.99427544771791
 30
0.0
  0
ENDBLK
  5
846
  8
0
  0
ENDSEC
  0
SECTION
  2
ENTITIES
  0
LINE
  5
23
  8
1
 10
2606.422119835644
 20
385.99427544771811
 30
0.0
 11
3391.422119835644
 21
385.994275447718
 31
0.0
  0
LINE
  5
3B
  8
1
 10
2668.9221198356481
 20
385.99427544771783
 30
0.0
 11
2681.422119835644
 21
385.99427544771783
 31
0.0
  0
LINE
  5
40
  8
2
 10
2369.1600311874481
 20
885.99427544771788
 30
0.0
 11
3592.8443505725222
 21
885.99427544771788
 31
0.0
  0
CIRCLE
  5
43
  8
1
 10
2961.422119835644
 20
885.99427544771788
 30
0.0
 40
400.0
  0
CIRCLE
  5
44
  8
1
 10
2961.422119835644
 20
885.99427544771788
 30
0.0
 40
440.0
  0
CIRCLE
  5
4E
  8
1
 10
2961.422119835644
 20
885.99427544771788
 30
0.0
 40
405.0
  0
LINE
  5
AC
  8
1
 10
1639.1400003012011
 20
481.49427544771783
 30
0.0
 11
1088.3537412807209
 21
481.49427544771783
 31
0.0
  0
LINE
  5
BB
  8
1
 10
943.74687079096191
 20
1285.994275447717
 30
0.0
 11
1783.7468707909611
 21
1285.9942754477181
 31
0.0
  0
LINE
  5
BE
  8
2
 10
1857.577471057346
 20
885.99427544771788
 30
0.0
 11
845.52648029676857
 21
885.99427544771788
 31
0.0
  0
LINE
  5
C1
  8
1
 10
943.74687079096191
 20
485.99427544771783
 30
0.0
 11
1783.7468707909611
 21
485.99427544771783
 31
0.0
  0
LINE
  5
C2
  8
1
 10
943.74687079096191
 20
1287.9942754477181
 30
0.0
 11
943.74687079096191
 21
483.99427544771788
 31
0.0
  0
LINE
  5
C9
  8
1
 10
983.74687079096202
 20
1325.9942754477181
 30
0.0
 11
983.74687079096202
 21
445.99427544771788
 31
0.0
  0
LINE
  5
CA
  8
1
 10
978.74687079096213
 20
1322.994275447717
 30
0.0
 11
978.74687079096213
 21
448.99427544771783
 31
0.0
  0
LINE
  5
CB
  8
1
 10
988.24687079096202
 20
1325.9942754477181
 30
0.0
 11
988.24687079096202
 21
445.99427544771788
 31
0.0
  0
LINE
  5
EC
  8
1
 10
988.24687079096202
 20
605.99427544771777
 30
0.0
 11
988.24687079096202
 21
445.99427544771788
 31
0.0
  0
LINE
  5
EF
  8
1
 10
983.74687079096202
 20
445.99427544771788
 30
0.0
 11
988.24687079096202
 21
445.99427544771788
 31
0.0
  0
LINE
  5
F1
  8
1
 10
983.74687079096202
 20
445.99427544771788
 30
0.0
 11
981.74687079096202
 21
445.99427544771788
 31
0.0
  0
ARC
  5
F2
  8
1
 10
981.74687079096202
 20
448.99427544771783
 30
0.0
 40
3.0
 50
180.0
 51
270.0
  0
LINE
  5
103
  8
1
 10
1018.246870790962
 20
463.49427544771788
 30
0.0
 11
948.74687079096202
 21
463.49427544771788
 31
0.0
  0
LINE
  5
104
  8
2
 10
948.74687079096202
 20
463.49427544771788
 30
0.0
 11
1018.246870790962
 21
463.49427544771788
 31
0.0
  0
ARC
  5
105
  8
1
 10
946.74687079096202
 20
483.99427544771788
 30
0.0
 40
3.0
 50
180.0
 51
269.99999999999977
  0
LINE
  5
106
  8
1
 10
974.24687079096213
 20
480.99427544771783
 30
0.0
 11
946.74687079096202
 21
480.99427544771783
 31
0.0
  0
ARC
  5
107
  8
1
 10
974.24687079096213
 20
476.49427544771783
 30
0.0
 40
4.5
 50
0.0
 51
90.0
  0
LINE
  5
108
  8
1
 10
1088.3537412807209
 20
481.49427544771783
 30
0.0
 11
988.24687079096202
 21
481.49427544771783
 31
0.0
  0
ARC
  5
123
  8
1
 10
946.74687079096191
 20
1287.9942754477181
 30
0.0
 40
3.0
 50
89.999999999999574
 51
180.0
  0
LINE
  5
124
  8
1
 10
974.24687079096213
 20
1290.994275447717
 30
0.0
 11
946.74687079096191
 21
1290.994275447717
 31
0.0
  0
ARC
  5
125
  8
1
 10
974.24687079096213
 20
1295.494275447717
 30
0.0
 40
4.5
 50
270.0
 51
0.0
  0
LINE
  5
127
  8
1
 10
983.74687079096202
 20
1325.9942754477181
 30
0.0
 11
988.24687079096202
 21
1325.9942754477181
 31
0.0
  0
LINE
  5
128
  8
2
 10
948.74687079096202
 20
1308.4942754477181
 30
0.0
 11
1018.246870790962
 21
1308.4942754477181
 31
0.0
  0
ARC
  5
129
  8
1
 10
981.74687079096202
 20
1322.994275447717
 30
0.0
 40
3.0
 50
90.0
 51
180.0
  0
LINE
  5
12A
  8
1
 10
983.74687079096202
 20
1325.9942754477181
 30
0.0
 11
981.74687079096202
 21
1325.9942754477181
 31
0.0
  0
LINE
  5
12E
  8
1
 10
1783.7468707909611
 20
1287.9942754477181
 30
0.0
 11
1783.7468707909611
 21
483.99427544771783
 31
0.0
  0
LINE
  5
133
  8
1
 10
1739.2468707909611
 20
1325.9942754477181
 30
0.0
 11
1739.2468707909611
 21
445.99427544771788
 31
0.0
  0
LINE
  5
135
  8
1
 10
1748.74687079096
 20
1322.994275447717
 30
0.0
 11
1748.74687079096
 21
448.99427544771783
 31
0.0
  0
LINE
  5
136
  8
1
 10
1743.7468707909611
 20
1325.9942754477181
 30
0.0
 11
1743.7468707909611
 21
445.99427544771788
 31
0.0
  0
LINE
  5
14C
  8
1
 10
1739.2468707909611
 20
605.99427544771777
 30
0.0
 11
1739.2468707909611
 21
445.99427544771788
 31
0.0
  0
LINE
  5
15D
  8
1
 10
1743.7468707909611
 20
445.99427544771788
 30
0.0
 11
1739.2468707909611
 21
445.99427544771788
 31
0.0
  0
ARC
  5
15E
  8
1
 10
1745.7468707909611
 20
448.99427544771783
 30
0.0
 40
3.0
 50
270.0
 51
0.0
  0
LINE
  5
15F
  8
1
 10
1743.7468707909611
 20
445.99427544771788
 30
0.0
 11
1745.7468707909611
 21
445.99427544771788
 31
0.0
  0
LINE
  5
161
  8
1
 10
1739.2468707909611
 20
481.49427544771783
 30
0.0
 11
1639.1400003012011
 21
481.49427544771783
 31
0.0
  0
LINE
  5
162
  8
1
 10
1753.2468707909611
 20
480.99427544771783
 30
0.0
 11
1780.7468707909611
 21
480.99427544771783
 31
0.0
  0
LINE
  5
163
  8
2
 10
1778.7468707909611
 20
463.49427544771788
 30
0.0
 11
1709.2468707909611
 21
463.49427544771788
 31
0.0
  0
ARC
  5
164
  8
1
 10
1753.2468707909611
 20
476.49427544771783
 30
0.0
 40
4.5
 50
90.0
 51
180.0
  0
ARC
  5
165
  8
1
 10
1780.7468707909611
 20
483.99427544771783
 30
0.0
 40
3.0
 50
269.99999999999977
 51
0.0
  0
LINE
  5
183
  8
1
 10
1739.2468707909611
 20
1290.494275447717
 30
0.0
 11
988.24687079096202
 21
1290.494275447717
 31
0.0
  0
LINE
  5
202
  8
1
 10
1753.2468707909611
 20
1290.994275447717
 30
0.0
 11
1780.7468707909611
 21
1290.9942754477181
 31
0.0
  0
ARC
  5
203
  8
1
 10
1753.2468707909611
 20
1295.494275447717
 30
0.0
 40
4.5
 50
180.0
 51
270.0
  0
ARC
  5
204
  8
1
 10
1780.7468707909611
 20
1287.9942754477181
 30
0.0
 40
3.0
 50
0.0
 51
90.000000000000398
  0
LINE
  5
205
  8
2
 10
1778.7468707909611
 20
1308.4942754477181
 30
0.0
 11
1709.2468707909611
 21
1308.4942754477181
 31
0.0
  0
LINE
  5
206
  8
1
 10
1743.7468707909611
 20
1325.9942754477181
 30
0.0
 11
1739.2468707909611
 21
1325.9942754477181
 31
0.0
  0
LINE
  5
207
  8
1
 10
1743.7468707909611
 20
1325.9942754477181
 30
0.0
 11
1745.7468707909611
 21
1325.9942754477181
 31
0.0
  0
ARC
  5
208
  8
1
 10
1745.7468707909611
 20
1322.994275447717
 30
0.0
 40
3.0
 50
0.0
 51
90.0
  0
LINE
  5
31A
  8
2
 10
2961.422119835644
 20
1518.215685246224
 30
0.0
 11
2961.422119835644
 21
152.7715505698724
 31
0.0
  0
LINE
  5
35E
  8
1
 10
2961.422119835644
 20
614.98768899078914
 30
0.0
 11
2961.422119835644
 21
385.99427544771811
 31
0.0
  0
LINE
  5
36F
  8
1
 10
2961.422119835649
 20
693.10046585519376
 30
0.0
 11
2961.422119835644
 21
699.87247895665314
 31
0.0
  0
LINE
  5
374
  8
1
 10
3316.422119835644
 20
385.99427544771783
 30
0.0
 11
3253.9221198356458
 21
385.99427544771783
 31
0.0
  0
LINE
  5
534
  8
1
 10
993.74687079096191
 20
1085.9942754477181
 30
0.0
 11
993.74687079096248
 21
685.99427544771777
 31
0.0
  0
LINE
  5
535
  8
1
 10
1143.7468707909611
 20
1085.9942754477181
 30
0.0
 11
1143.7468707909611
 21
685.99427544771777
 31
0.0
  0
LINE
  5
536
  8
1
 10
1033.746870790962
 20
1281.9942754477181
 30
0.0
 11
1103.746870790962
 21
1281.9942754477181
 31
0.0
  0
LINE
  5
537
  8
1
 10
1113.746870790962
 20
935.99427544771788
 30
0.0
 11
1113.746870790962
 21
835.99427544771788
 31
0.0
  0
LINE
  5
538
  8
1
 10
1043.746870790962
 20
935.99427544771788
 30
0.0
 11
1043.746870790962
 21
835.99427544771788
 31
0.0
  0
LINE
  5
539
  8
1
 10
1043.746870790962
 20
935.99427544771788
 30
0.0
 11
1113.746870790962
 21
935.99427544771788
 31
0.0
  0
LINE
  5
53A
  8
1
 10
1043.746870790962
 20
835.99427544771788
 30
0.0
 11
1113.746870790962
 21
835.99427544771788
 31
0.0
  0
LINE
  5
53B
  8
1
 10
993.74687079096191
 20
1085.9942754477181
 30
0.0
 11
1143.7468707909611
 21
1085.9942754477181
 31
0.0
  0
LINE
  5
53C
  8
1
 10
993.74687079096248
 20
685.99427544771777
 30
0.0
 11
1143.7468707909611
 21
685.99427544771777
 31
0.0
  0
LINE
  5
53D
  8
1
 10
993.74687079096191
 20
1070.994275447717
 30
0.0
 11
1143.7468707909611
 21
1070.994275447717
 31
0.0
  0
LINE
  5
53E
  8
1
 10
993.74687079096248
 20
700.99427544771788
 30
0.0
 11
1143.7468707909611
 21
700.99427544771788
 31
0.0
  0
LINE
  5
53F
  8
1
 10
1048.746870790962
 20
1070.994275447717
 30
0.0
 11
1048.746870790962
 21
700.99427544771788
 31
0.0
  0
LINE
  5
540
  8
1
 10
1063.746870790962
 20
1070.994275447717
 30
0.0
 11
1063.746870790962
 21
700.99427544771788
 31
0.0
  0
LINE
  5
541
  8
1
 10
1033.746870790962
 20
1281.9942754477181
 30
0.0
 11
993.74687079096191
 21
1085.9942754477181
 31
0.0
  0
LINE
  5
542
  8
1
 10
1103.746870790962
 20
1281.9942754477181
 30
0.0
 11
1143.7468707909611
 21
1085.9942754477181
 31
0.0
  0
LINE
  5
543
  8
1
 10
1033.746870790962
 20
489.99427544771783
 30
0.0
 11
1103.746870790962
 21
489.99427544771783
 31
0.0
  0
LINE
  5
544
  8
1
 10
1033.746870790962
 20
489.99427544771783
 30
0.0
 11
993.74687079096191
 21
685.99427544771777
 31
0.0
  0
LINE
  5
545
  8
1
 10
1103.746870790962
 20
489.99427544771783
 30
0.0
 11
1143.7468707909611
 21
685.99427544771777
 31
0.0
  0
LINE
  5
5A4
  8
1
 10
1743.7468707909611
 20
385.99427544771783
 30
0.0
 11
983.74687079096157
 21
385.99427544771783
 31
0.0
  0
LINE
  5
5A5
  8
1
 10
1743.7468707909611
 20
290.99427544771783
 30
0.0
 11
983.74687079096157
 21
290.99427544771783
 31
0.0
  0
LINE
  5
5A6
  8
1
 10
1743.7468707909611
 20
240.9942754477178
 30
0.0
 11
983.74687079096157
 21
240.9942754477178
 31
0.0
  0
LINE
  5
5D6
  8
1
 10
3511.4221198356449
 20
240.9942754477178
 30
0.0
 11
2411.422119835644
 21
240.9942754477178
 31
0.0
  0
LINE
  5
5D7
  8
1
 10
3511.4221198356449
 20
290.99427544771783
 30
0.0
 11
2411.422119835644
 21
290.99427544771783
 31
0.0
  0
LINE
  5
5D8
  8
1
 10
2411.422119835644
 20
290.99427544771783
 30
0.0
 11
2411.422119835644
 21
240.99427544771791
 31
0.0
  0
LINE
  5
5D9
  8
1
 10
3511.4221198356449
 20
290.99427544771783
 30
0.0
 11
3511.4221198356449
 21
240.9942754477178
 31
0.0
  0
LINE
  5
64B
  8
1
 10
3511.4221198356449
 20
245.99427544771791
 30
0.0
 11
2411.422119835644
 21
245.99427544771791
 31
0.0
  0
LINE
  5
64D
  8
1
 10
2606.422119835644
 20
435.99427544771811
 30
0.0
 11
2606.422119835644
 21
385.99427544771811
 31
0.0
  0
LINE
  5
64E
  8
1
 10
3391.422119835644
 20
435.994275447718
 30
0.0
 11
3391.422119835644
 21
385.99427544771788
 31
0.0
  0
LINE
  5
64F
  8
1
 10
2606.422119835644
 20
435.99427544771811
 30
0.0
 11
3391.422119835644
 21
435.994275447718
 31
0.0
  0
LINE
  5
650
  8
1
 10
2606.422119835644
 20
391.994275447718
 30
0.0
 11
3391.422119835644
 21
391.994275447718
 31
0.0
  0
LINE
  5
652
  8
1
 10
2656.422119835644
 20
435.99427544771811
 30
0.0
 11
2697.444278969429
 21
533.97765718714288
 31
0.0
  0
LINE
  5
653
  8
1
 10
2652.2712238142781
 20
437.73210806906121
 30
0.0
 11
2693.741248817932
 21
536.78523877884925
 31
0.0
  0
LINE
  5
655
  8
1
 10
2656.422119835644
 20
435.99427544771811
 30
0.0
 11
2652.2712238142781
 21
437.73210806906121
 31
0.0
  0
LINE
  5
656
  8
1
 10
3270.5730158570109
 20
437.73210806906121
 30
0.0
 11
3229.102990853356
 21
536.78523877884948
 31
0.0
  0
LINE
  5
657
  8
1
 10
3266.422119835644
 20
435.99427544771811
 30
0.0
 11
3225.39996070186
 21
533.97765718714288
 31
0.0
  0
LINE
  5
658
  8
1
 10
3266.422119835644
 20
435.99427544771811
 30
0.0
 11
3270.5730158570109
 21
437.73210806906121
 31
0.0
  0
LINE
  5
6A5
  8
1
 10
1743.7468707909611
 20
240.9942754477178
 30
0.0
 11
1793.7468707909611
 21
240.9942754477178
 31
0.0
  0
LINE
  5
6A6
  8
1
 10
1743.7468707909611
 20
240.9942754477178
 30
0.0
 11
1743.7468707909611
 21
290.99427544771783
 31
0.0
  0
LINE
  5
6A7
  8
1
 10
1793.7468707909611
 20
240.9942754477178
 30
0.0
 11
1793.7468707909611
 21
242.4942754477178
 31
0.0
  0
LINE
  5
6A8
  8
1
 10
1743.7468707909611
 20
290.99427544771783
 30
0.0
 11
1745.2468707909611
 21
290.99427544771783
 31
0.0
  0
LINE
  5
6A9
  8
1
 10
1756.2468707909611
 20
246.99427544771791
 30
0.0
 11
1789.2468707909611
 21
246.99427544771791
 31
0.0
  0
LINE
  5
6AA
  8
1
 10
1749.7468707909611
 20
253.4942754477178
 30
0.0
 11
1749.7468707909611
 21
286.49427544771783
 31
0.0
  0
ARC
  5
6AB
  8
1
 10
1789.2468707909611
 20
242.4942754477178
 30
0.0
 40
4.5
 50
0.0
 51
90.0
  0
ARC
  5
6AC
  8
1
 10
1745.2468707909611
 20
286.49427544771783
 30
0.0
 40
4.5
 50
0.0
 51
90.0
  0
ARC
  5
6AD
  8
1
 10
1756.2468707909611
 20
253.4942754477178
 30
0.0
 40
6.5
 50
180.0
 51
270.0
  0
LINE
  5
6BB
  8
1
 10
1749.7468707909611
 20
290.99427544771783
 30
0.0
 11
1749.7468707909611
 21
253.4942754477178
 31
0.0
  0
LINE
  5
6BC
  8
1
 10
1749.7468707909611
 20
290.99427544771783
 30
0.0
 11
1789.7468707909611
 21
290.99427544771783
 31
0.0
  0
LINE
  5
6BE
  8
1
 10
1789.7468707909611
 20
290.99427544771783
 30
0.0
 11
1789.7468707909611
 21
288.99427544771783
 31
0.0
  0
LINE
  5
6BF
  8
1
 10
1759.2468707909611
 20
285.99427544771783
 30
0.0
 11
1786.7468707909611
 21
285.99427544771783
 31
0.0
  0
LINE
  5
6C0
  8
1
 10
1754.7468707909611
 20
281.49427544771783
 30
0.0
 11
1754.7468707909611
 21
253.9942754477178
 31
0.0
  0
ARC
  5
6C1
  8
1
 10
1751.7468707909611
 20
253.994275447718
 30
0.0
 40
3.0
 50
270.0
 51
0.0
  0
ARC
  5
6C2
  8
1
 10
1786.7468707909611
 20
288.99427544771788
 30
0.0
 40
3.0
 50
270.0
 51
0.0
  0
ARC
  5
6C3
  8
1
 10
1759.2468707909611
 20
281.494275447718
 30
0.0
 40
4.5
 50
89.999999999999986
 51
180.0
  0
LINE
  5
6C6
  8
1
 10
1751.7468707909611
 20
250.99427544771791
 30
0.0
 11
1750.2468707909611
 21
250.99427544771791
 31
0.0
  0
ARC
  5
6C7
  8
1
 10
938.24687079096157
 20
242.4942754477178
 30
0.0
 40
4.5
 50
90.0
 51
180.0
  0
LINE
  5
6C8
  8
1
 10
983.74687079096157
 20
240.9942754477178
 30
0.0
 11
933.74687079096157
 21
240.9942754477178
 31
0.0
  0
ARC
  5
6C9
  8
1
 10
975.74687079096179
 20
253.994275447718
 30
0.0
 40
3.0
 50
180.0
 51
270.0
  0
ARC
  5
6CA
  8
1
 10
968.24687079096179
 20
281.494275447718
 30
0.0
 40
4.5
 50
0.000000000000007
 51
90.000000000000028
  0
LINE
  5
6CB
  8
1
 10
977.74687079096157
 20
290.99427544771783
 30
0.0
 11
937.74687079096145
 21
290.99427544771783
 31
0.0
  0
ARC
  5
6CC
  8
1
 10
971.24687079096157
 20
253.4942754477178
 30
0.0
 40
6.5
 50
270.0
 51
0.000000000000007
  0
LINE
  5
6CD
  8
1
 10
975.74687079096179
 20
250.99427544771791
 30
0.0
 11
977.24687079096145
 21
250.99427544771791
 31
0.0
  0
LINE
  5
6CE
  8
1
 10
977.74687079096157
 20
290.99427544771783
 30
0.0
 11
977.74687079096157
 21
253.4942754477178
 31
0.0
  0
LINE
  5
6CF
  8
1
 10
977.74687079096157
 20
253.4942754477178
 30
0.0
 11
977.74687079096157
 21
286.49427544771783
 31
0.0
  0
LINE
  5
6D0
  8
1
 10
983.74687079096157
 20
290.99427544771783
 30
0.0
 11
982.24687079096157
 21
290.99427544771783
 31
0.0
  0
ARC
  5
6D1
  8
1
 10
982.24687079096157
 20
286.49427544771783
 30
0.0
 40
4.5
 50
90.0
 51
180.0
  0
LINE
  5
6D2
  8
1
 10
983.74687079096157
 20
240.9942754477178
 30
0.0
 11
983.74687079096157
 21
290.99427544771783
 31
0.0
  0
LINE
  5
6D3
  8
1
 10
937.74687079096145
 20
290.99427544771783
 30
0.0
 11
937.74687079096145
 21
288.99427544771783
 31
0.0
  0
LINE
  5
6D4
  8
1
 10
972.74687079096145
 20
281.49427544771783
 30
0.0
 11
972.74687079096145
 21
253.9942754477178
 31
0.0
  0
LINE
  5
6D5
  8
1
 10
968.24687079096145
 20
285.99427544771783
 30
0.0
 11
940.74687079096145
 21
285.99427544771783
 31
0.0
  0
ARC
  5
6D6
  8
1
 10
940.74687079096179
 20
288.99427544771788
 30
0.0
 40
3.0
 50
180.0
 51
270.0
  0
LINE
  5
6D7
  8
1
 10
971.24687079096157
 20
246.99427544771791
 30
0.0
 11
938.24687079096157
 21
246.99427544771791
 31
0.0
  0
LINE
  5
6D8
  8
1
 10
933.74687079096157
 20
240.9942754477178
 30
0.0
 11
933.74687079096157
 21
242.4942754477178
 31
0.0
  0
LINE
  5
6DD
  8
1
 10
1743.7468707909611
 20
435.99427544771788
 30
0.0
 11
983.74687079096157
 21
435.99427544771783
 31
0.0
  0
LINE
  5
6DF
  8
1
 10
1743.7468707909611
 20
385.99427544771783
 30
0.0
 11
1793.7468707909611
 21
385.99427544771783
 31
0.0
  0
LINE
  5
6E0
  8
1
 10
1743.7468707909611
 20
385.99427544771783
 30
0.0
 11
1743.7468707909611
 21
435.99427544771771
 31
0.0
  0
LINE
  5
6E1
  8
1
 10
1793.7468707909611
 20
385.99427544771783
 30
0.0
 11
1793.7468707909611
 21
387.49427544771783
 31
0.0
  0
LINE
  5
6E2
  8
1
 10
1743.7468707909611
 20
435.99427544771771
 30
0.0
 11
1745.2468707909611
 21
435.99427544771771
 31
0.0
  0
LINE
  5
6E3
  8
1
 10
1756.2468707909611
 20
391.99427544771783
 30
0.0
 11
1789.2468707909611
 21
391.99427544771783
 31
0.0
  0
LINE
  5
6E4
  8
1
 10
1749.7468707909611
 20
398.49427544771783
 30
0.0
 11
1749.7468707909611
 21
431.49427544771771
 31
0.0
  0
ARC
  5
6E5
  8
1
 10
1789.2468707909611
 20
387.49427544771783
 30
0.0
 40
4.5
 50
0.0
 51
90.0
  0
ARC
  5
6E6
  8
1
 10
1745.2468707909611
 20
431.49427544771771
 30
0.0
 40
4.5
 50
0.0
 51
90.0
  0
ARC
  5
6E7
  8
1
 10
1756.2468707909611
 20
398.49427544771783
 30
0.0
 40
6.5
 50
180.0
 51
270.0
  0
ARC
  5
6E8
  8
1
 10
938.24687079096157
 20
387.49427544771783
 30
0.0
 40
4.5
 50
90.0
 51
180.0
  0
LINE
  5
6E9
  8
1
 10
983.74687079096157
 20
385.99427544771783
 30
0.0
 11
933.74687079096157
 21
385.99427544771783
 31
0.0
  0
LINE
  5
6EA
  8
1
 10
983.74687079096157
 20
385.99427544771783
 30
0.0
 11
983.74687079096157
 21
435.99427544771771
 31
0.0
  0
LINE
  5
6EB
  8
1
 10
977.74687079096157
 20
398.49427544771783
 30
0.0
 11
977.74687079096157
 21
431.49427544771771
 31
0.0
  0
ARC
  5
6EC
  8
1
 10
971.24687079096157
 20
398.49427544771783
 30
0.0
 40
6.5
 50
270.0
 51
0.000000000000007
  0
LINE
  5
6ED
  8
1
 10
971.24687079096157
 20
391.99427544771783
 30
0.0
 11
938.24687079096157
 21
391.99427544771783
 31
0.0
  0
LINE
  5
6EE
  8
1
 10
983.74687079096157
 20
435.99427544771771
 30
0.0
 11
982.24687079096157
 21
435.99427544771771
 31
0.0
  0
ARC
  5
6EF
  8
1
 10
982.24687079096157
 20
431.49427544771771
 30
0.0
 40
4.5
 50
90.0
 51
180.0
  0
LINE
  5
6F0
  8
1
 10
933.74687079096157
 20
385.99427544771783
 30
0.0
 11
933.74687079096157
 21
387.49427544771783
 31
0.0
  0
LINE
  5
6F1
  8
1
 10
1743.7468707909611
 20
391.99427544771783
 30
0.0
 11
983.74687079096157
 21
391.99427544771783
 31
0.0
  0
LINE
  5
6F4
  8
1
 10
1739.2468707909611
 20
445.99427544771788
 30
0.0
 11
1739.2468707909611
 21
435.99427544771783
 31
0.0
  0
LINE
  5
6F5
  8
1
 10
988.24687079096202
 20
445.99427544771788
 30
0.0
 11
988.24687079096202
 21
435.99427544771783
 31
0.0
  0
ARC
  5
771
  8
1
 10
1797.7964217909609
 20
379.71329144771778
 30
0.0
 40
6.2809839999999992
 50
0.0
 51
90.0
  0
LINE
  5
772
  8
1
 10
1733.4163357909611
 20
334.96128044771791
 30
0.0
 11
1804.0774057909609
 21
334.96128044771791
 31
0.0
  0
LINE
  5
773
  8
1
 10
1733.4163357909611
 20
379.71329144771778
 30
0.0
 11
1733.4163357909611
 21
334.96128044771791
 31
0.0
  0
LINE
  5
774
  8
1
 10
1739.304758290961
 20
290.99439244771793
 30
0.0
 11
1798.188983290961
 21
290.99439244771793
 31
0.0
  0
LINE
  5
775
  8
1
 10
1739.304758290961
 20
334.96128044771791
 30
0.0
 11
1739.304758290961
 21
290.99439244771793
 31
0.0
  0
LINE
  5
776
  8
1
 10
1798.188983290961
 20
334.96128044771791
 30
0.0
 11
1798.188983290961
 21
290.99439244771793
 31
0.0
  0
LINE
  5
777
  8
1
 10
1739.697319790961
 20
385.99427544771783
 30
0.0
 11
1797.7964217909609
 21
385.99427544771783
 31
0.0
  0
ARC
  5
778
  8
1
 10
1739.697319790961
 20
379.71329144771778
 30
0.0
 40
6.2809839999999992
 50
90.0
 51
180.0
  0
LINE
  5
779
  8
1
 10
1804.0774057909609
 20
379.71329144771778
 30
0.0
 11
1804.0774057909609
 21
334.96128044771791
 31
0.0
  0
LINE
  5
77A
  8
1
 10
988.18898329096169
 20
290.99439244771793
 30
0.0
 11
929.30475829096167
 21
290.99439244771793
 31
0.0
  0
LINE
  5
77B
  8
1
 10
929.30475829096167
 20
334.96128044771791
 30
0.0
 11
929.30475829096167
 21
290.99439244771793
 31
0.0
  0
LINE
  5
77C
  8
1
 10
988.18898329096169
 20
334.96128044771791
 30
0.0
 11
988.18898329096169
 21
290.99439244771793
 31
0.0
  0
LINE
  5
77D
  8
1
 10
994.07740579096151
 20
334.96128044771791
 30
0.0
 11
923.41633579096151
 21
334.96128044771791
 31
0.0
  0
ARC
  5
77E
  8
1
 10
987.79642179096163
 20
379.71329144771778
 30
0.0
 40
6.2809839999999992
 50
0.000000000000007
 51
90.0
  0
LINE
  5
77F
  8
1
 10
994.07740579096151
 20
379.71329144771778
 30
0.0
 11
994.07740579096151
 21
334.96128044771791
 31
0.0
  0
LINE
  5
780
  8
1
 10
923.41633579096151
 20
379.71329144771778
 30
0.0
 11
923.41633579096151
 21
334.96128044771791
 31
0.0
  0
ARC
  5
781
  8
1
 10
929.6973197909615
 20
379.71329144771778
 30
0.0
 40
6.2809839999999992
 50
90.0
 51
180.0
  0
LINE
  5
782
  8
1
 10
987.79642179096163
 20
385.99427544771783
 30
0.0
 11
929.6973197909615
 21
385.99427544771783
 31
0.0
  0
LINE
  5
783
  8
1
 10
983.74687079096157
 20
385.99427544771783
 30
0.0
 11
933.74687079096157
 21
385.99427544771783
 31
0.0
  0
LINE
  5
784
  8
1
 10
933.74687079096157
 20
385.99427544771783
 30
0.0
 11
933.74687079096157
 21
387.49427544771783
 31
0.0
  0
ARC
  5
786
  8
1
 10
2660.4716708356441
 20
379.71329144771812
 30
0.0
 40
6.2809839999999992
 50
0.0
 51
90.0
  0
LINE
  5
787
  8
1
 10
2596.091584835644
 20
334.96128044771808
 30
0.0
 11
2666.7526548356441
 21
334.96128044771808
 31
0.0
  0
LINE
  5
788
  8
1
 10
2596.091584835644
 20
379.71329144771812
 30
0.0
 11
2596.091584835644
 21
334.96128044771808
 31
0.0
  0
LINE
  5
789
  8
1
 10
2601.9800073356441
 20
290.9943924477181
 30
0.0
 11
2660.8642323356439
 21
290.9943924477181
 31
0.0
  0
LINE
  5
78A
  8
1
 10
2601.9800073356441
 20
334.96128044771808
 30
0.0
 11
2601.9800073356441
 21
290.9943924477181
 31
0.0
  0
LINE
  5
78B
  8
1
 10
2660.8642323356439
 20
334.96128044771808
 30
0.0
 11
2660.8642323356439
 21
290.9943924477181
 31
0.0
  0
LINE
  5
78C
  8
1
 10
2602.372568835644
 20
385.99427544771811
 30
0.0
 11
2660.4716708356441
 21
385.99427544771811
 31
0.0
  0
ARC
  5
78D
  8
1
 10
2602.372568835644
 20
379.71329144771812
 30
0.0
 40
6.2809839999999992
 50
90.0
 51
180.0
  0
LINE
  5
78E
  8
1
 10
2666.7526548356441
 20
379.71329144771812
 30
0.0
 11
2666.7526548356441
 21
334.96128044771808
 31
0.0
  0
LINE
  5
78F
  8
1
 10
3261.9800073356441
 20
334.96128044771808
 30
0.0
 11
3261.9800073356441
 21
290.9943924477181
 31
0.0
  0
LINE
  5
790
  8
1
 10
3320.8642323356439
 20
334.96128044771808
 30
0.0
 11
3320.8642323356439
 21
290.9943924477181
 31
0.0
  0
LINE
  5
791
  8
1
 10
3320.8642323356439
 20
290.9943924477181
 30
0.0
 11
3261.9800073356441
 21
290.9943924477181
 31
0.0
  0
LINE
  5
792
  8
1
 10
3326.7526548356441
 20
334.96128044771808
 30
0.0
 11
3256.091584835644
 21
334.96128044771808
 31
0.0
  0
ARC
  5
793
  8
1
 10
3262.372568835644
 20
379.71329144771812
 30
0.0
 40
6.2809839999999992
 50
90.0
 51
180.0
  0
LINE
  5
794
  8
1
 10
3320.4716708356441
 20
385.99427544771811
 30
0.0
 11
3262.372568835644
 21
385.99427544771811
 31
0.0
  0
ARC
  5
795
  8
1
 10
3320.4716708356441
 20
379.71329144771812
 30
0.0
 40
6.2809839999999992
 50
0.000000000000007
 51
90.0
  0
LINE
  5
796
  8
1
 10
3326.7526548356441
 20
379.71329144771812
 30
0.0
 11
3326.7526548356441
 21
334.96128044771808
 31
0.0
  0
LINE
  5
797
  8
1
 10
3256.091584835644
 20
379.71329144771812
 30
0.0
 11
3256.091584835644
 21
334.96128044771808
 31
0.0
  0
LINE
  5
798
  8
1
 10
3253.9221198356408
 20
385.99427544771783
 30
0.0
 11
3241.422119835644
 21
385.99427544771783
 31
0.0
  0
LINE
  5
799
  8
2
 10
2461.422119835644
 20
1108.6021207838151
 30
0.0
 11
2461.422119835644
 21
211.2037254106726
 31
0.0
  0
LINE
  5
79A
  8
2
 10
3461.422119835644
 20
1026.3622273387509
 30
0.0
 11
3461.422119835644
 21
211.2037254106726
 31
0.0
  0
LINE
  5
79D
  8
2
 10
1773.7468707909611
 20
264.20019819985822
 30
0.0
 11
1773.7468707909611
 21
218.56444018943691
 31
0.0
  0
LINE
  5
79E
  8
2
 10
953.74687079096145
 20
264.20019819985822
 30
0.0
 11
953.74687079096145
 21
218.56444018943691
 31
0.0
  0
LINE
  5
7AC
  8
SP
 10
3511.4221198356449
 20
230.99427544771791
 30
0.0
 11
3511.4221198356449
 21
-58.784317520605299
 31
0.0
  0
LINE
  5
7AD
  8
SP
 10
2411.422119835644
 20
230.99427544771791
 30
0.0
 11
2411.422119835644
 21
-58.784317520605299
 31
0.0
  0
LINE
  5
7AE
  8
SP
 10
3481.422119835644
 20
-43.78431752060532
 30
0.0
 11
2441.422119835644
 21
-43.78431752060532
 31
0.0
  0
INSERT
  5
7AF
  8
SP
  2
_OPEN
 10
3511.4221198356449
 20
-43.78431752060532
 30
0.0
 41
30.0
 42
30.0
 43
30.0
  0
INSERT
  5
7B0
  8
SP
  2
_OPEN
 10
2411.422119835644
 20
-43.78431752060532
 30
0.0
 41
30.0
 42
30.0
 43
30.0
 50
180.0
  0
TEXT
  5
7B1
  8
SP
 10
2882.018256397082
 20
-36.28431752060532
 30
0.0
 40
45.0
  1
1100
 51
15.0
  0
DIMENSION
  5
7E7
  8
SP
  2
*D1
 10
1743.7468707909611
 20
1713.605522664476
 30
0.0
 11
1363.7468707909611
 21
1743.605522664476
 31
0.0
 70
     0
 13
983.74687079096202
 23
1325.9942754477181
 33
0.0
 14
1743.7468707909611
 24
1325.9942754477181
 34
0.0
1001
ACAD
1000
DSTYLE
1002
{
1070
   287
1070
     0
1070
   287
1070
     0
1070
   287
1070
     0
1070
   287
1070
     0
1070
    40
1040
15.0
1070
   289
1070
     0
1002
}
  0
DIMENSION
  5
7F4
  8
SP
  2
*D2
 10
1793.7468707909611
 20
-15.0883296679458
 30
0.0
 11
1363.7468707909611
 21
14.9116703320542
 31
0.0
 70
     0
 13
933.74687079096157
 23
240.9942754477178
 33
0.0
 14
1793.7468707909611
 24
240.9942754477178
 34
0.0
1001
ACAD
1000
DSTYLE
1002
{
1070
   287
1070
     0
1070
   287
1070
     0
1070
   287
1070
     0
1070
   287
1070
     0
1070
    40
1040
15.0
1070
   289
1070
     0
1002
}
  0
DIMENSION
  5
801
  8
SP
  2
*D3
 10
772.59838936839856
 20
485.99427544771788
 30
0.0
 11
742.59838936839844
 21
885.99427544771788
 31
0.0
 70
     0
 13
943.74687079096191
 23
1285.994275447717
 33
0.0
 14
943.74687079096191
 24
485.99427544771783
 34
0.0
 50
90.0
1001
ACAD
1000
DSTYLE
1002
{
1070
   287
1070
     0
1070
   287
1070
     0
1070
   287
1070
     0
1070
   287
1070
     0
1070
    40
1040
15.0
1070
   289
1070
     0
1002
}
  0
DIMENSION
  5
80E
  8
SP
  2
*D4
 10
3401.422119835644
 20
1750.1695753866529
 30
0.0
 11
2961.422119835644
 21
1780.1695753866529
 31
0.0
 70
     0
 13
2521.422119835644
 23
885.99427544771788
 33
0.0
 14
3401.422119835644
 24
885.99427544771788
 34
0.0
1001
ACAD
1000
DSTYLE
1002
{
1070
   287
1070
     0
1070
   287
1070
     0
1070
   287
1070
     0
1070
   287
1070
     0
1070
    40
1040
15.0
1070
   289
1070
     0
1002
}
  0
DIMENSION
  5
81B
  8
SP
  2
*D5
 10
2280.7454658506681
 20
385.99427544771811
 30
0.0
 11
2250.7454658506681
 21
635.99427544771845
 31
0.0
 70
     0
 13
2369.1600311874481
 23
885.99427544771788
 33
0.0
 14
2606.422119835644
 24
385.99427544771811
 34
0.0
 50
90.0
1001
ACAD
1000
DSTYLE
1002
{
1070
   287
1070
     0
1070
   287
1070
     0
1070
   287
1070
     0
1070
   287
1070
     0
1070
    40
1040
15.0
1070
   289
1070
     0
1002
}
  0
DIMENSION
  5
828
  8
SP
  2
*D6
 10
2280.7454658506681
 20
290.99427544771783
 30
0.0
 11
2267.540332456992
 21
344.21683092794768
 31
0.0
 70
   128
  1
(<>)
 13
2606.422119835644
 23
385.99427544771811
 33
0.0
 14
2411.422119835644
 24
290.99427544771783
 34
0.0
 50
90.0
1001
ACAD
1000
DSTYLE
1002
{
1070
   287
1070
     4
1070
   287
1070
     4
1070
   287
1070
     4
1070
    40
1040
15.0
1070
   279
1070
     1
1002
}
  0
DIMENSION
  5
835
  8
SP
  2
*D7
 10
2280.7454658506681
 20
240.99427544771791
 30
0.0
 11
2276.2895042040109
 21
167.21441055704409
 31
0.0
 70
   128
 13
2411.422119835644
 23
290.99427544771783
 33
0.0
 14
2411.422119835644
 24
240.9942754477178
 34
0.0
 50
90.0
1001
ACAD
1000
DSTYLE
1002
{
1070
   287
1070
     4
1070
   287
1070
     4
1070
   287
1070
     4
1070
    40
1040
15.0
1070
   279
1070
     1
1002
}
  0
LINE
  5
880
  8
4
 10
3351.8818821514142
 20
-458.10447347184157
 30
0.0
 11
3351.8818821514142
 21
-758.10447347184174
 31
0.0
  0
LINE
  5
881
  8
4
 10
2301.8818821514142
 20
-458.10447347184157
 30
0.0
 11
2301.8818821514142
 21
-758.10447347184174
 31
0.0
  0
LINE
  5
882
  8
4
 10
1551.8818821514139
 20
-458.10447347184157
 30
0.0
 11
1551.8818821514139
 21
-758.10447347184174
 31
0.0
  0
LINE
  5
885
  8
4
 10
1551.8818821514139
 20
-758.10447347184163
 30
0.0
 11
3351.8818821514142
 21
-758.10447347184163
 31
0.0
  0
LINE
  5
886
  8
4
 10
1551.8818821514139
 20
-608.10447347184163
 30
0.0
 11
3351.8818821514142
 21
-608.10447347184163
 31
0.0
  0
TEXT
  5
887
  8
4
 10
1609.635003421766
 20
-560.7899346719222
 30
0.0
 40
75.0
  1
機器名称
  0
TEXT
  5
888
  8
4
 10
1606.2690411886099
 20
-725.6367383738251
 30
0.0
 40
75.0
  1
機器型番
  0
TEXT
  5
889
  8
4
 10
2343.400000382911
 20
-574.24682003548867
 30
0.0
 40
75.0
  1
ミツヤ軸流ファン
  0
TEXT
  5
88A
  8
4
 10
2356.8636255296351
 20
-732.36509705192645
 30
0.0
 40
75.0
  1
AP＃800-1
  0
TEXT
  5
88C
  8
4
 10
1832.818632858889
 20
2372.970992081076
 30
0.0
 40
80.999999999999986
  1
天井吊防振ベット
  0
TEXT
  5
88D
  8
4
 10
1051.1332721455831
 20
2592.7169908271048
 30
0.0
 40
108.0
  1
電動機直動式横型軸流ファン
  0
LINE
  5
88E
  8
4
 10
951.88188215141406
 20
2496.0086579253648
 30
0.0
 11
3351.8818821514142
 21
2496.0086579253648
 31
0.0
  0
LINE
  5
88F
  8
4
 10
951.88188215141406
 20
2796.0086579253662
 30
0.0
 11
3351.8818821514142
 21
2796.0086579253662
 31
0.0
  0
LINE
  5
890
  8
4
 10
1551.8818821514139
 20
-458.10447347184157
 30
0.0
 11
3351.8818821514142
 21
-458.10447347184157
 31
0.0
  0
LINE
  5
891
  8
4
 10
951.88188215141406
 20
2796.0086579253662
 30
0.0
 11
951.88188215141406
 21
2496.0086579253648
 31
0.0
  0
TEXT
  5
892
  8
4
 10
1034.4347563938461
 20
2372.7830213086172
 30
0.0
 40
80.999999999999986
  1
左回転後方吐出
  0
TEXT
  5
893
  8
4
 10
2780.336221025349
 20
2850.9871487711212
 30
0.0
 40
84.000000000000014
  1
No.
  0
TEXT
  5
894
  8
4
 10
2729.357427606381
 20
2348.5180975886492
 30
0.0
 40
80.999999999999986
  1
縮尺：1/15
  0
LINE
  5
895
  8
4
 10
3351.8818821514142
 20
2796.0086579253662
 30
0.0
 11
3351.8818821514142
 21
2496.0086579253648
 31
0.0
  0
LINE
  5
896
  8
4
 10
3726.8818821514142
 20
3216.8955265281579
 30
0.0
 11
3726.8818821514142
 21
3216.8955265281579
 31
0.0
  0
LINE
  5
897
  8
4
 10
2737.808015691211
 20
2813.790901216259
 30
0.0
 11
2737.808015691211
 21
2971.873918852787
 31
0.0
  0
LINE
  5
898
  8
4
 10
2737.808015691211
 20
2971.873918852787
 30
0.0
 11
3351.8818821514142
 21
2971.873918852787
 31
0.0
  0
LINE
  5
899
  8
4
 10
3351.8818821514142
 20
2971.873918852787
 30
0.0
 11
3351.8818821514142
 21
2813.790901216259
 31
0.0
  0
LINE
  5
89A
  8
4
 10
3351.8818821514142
 20
2813.790901216259
 30
0.0
 11
2737.808015691211
 21
2813.790901216259
 31
0.0
  0
LINE
  5
89B
  8
4
 10
576.88188215141406
 20
-1208.1044734718409
 30
0.0
 11
576.88188215141406
 21
3216.8955265281579
 31
0.0
  0
LINE
  5
89C
  8
4
 10
576.88188215141406
 20
3216.8955265281579
 30
0.0
 11
3726.8818821514142
 21
3216.8955265281579
 31
0.0
  0
LINE
  5
89D
  8
4
 10
3726.8818821514142
 20
3216.8955265281579
 30
0.0
 11
3726.8818821514142
 21
-1208.1044734718409
 31
0.0
  0
LINE
  5
89E
  8
4
 10
3726.8818821514142
 20
-1208.1044734718409
 30
0.0
 11
576.88188215141406
 21
-1208.1044734718409
 31
0.0
  0
ENDSEC
  0
EOF
