  0
SECTION
  2
HEADER
  9
$ACADVER
  1
AC1009
  9
$INSBASE
 10
0.0
 20
0.0
 30
0.0
  9
$EXTMIN
 10
576.88188215141395
 20
-1208.10447347184
 30
0.0
  9
$EXTMAX
 10
3726.8818821514142
 20
3216.895526528157
 30
0.0
  9
$LIMMIN
 10
0.0
 20
0.0
  9
$LIMMAX
 10
297.0
 20
210.0
  9
$ORTHOMODE
 70
     0
  9
$REGENMODE
 70
     1
  9
$FILLMODE
 70
     1
  9
$QTEXTMODE
 70
     0
  9
$MIRRTEXT
 70
     0
  9
$DRAGMODE
 70
     2
  9
$LTSCALE
 40
75.0
  9
$OSMODE
 70
    37
  9
$ATTMODE
 70
     1
  9
$TEXTSIZE
 40
75.0
  9
$TRACEWID
 40
0.05
  9
$TEXTSTYLE
  7
SUNPOU
  9
$CLAYER
  8
1
  9
$CELTYPE
  6
BYLAYER
  9
$CECOLOR
 62
   256
  9
$DIMSCALE
 40
15.0
  9
$DIMASZ
 40
2.0
  9
$DIMEXO
 40
1.0
  9
$DIMDLI
 40
10.0
  9
$DIMRND
 40
0.0
  9
$DIMDLE
 40
0.0
  9
$DIMEXE
 40
1.0
  9
$DIMTP
 40
0.0
  9
$DIMTM
 40
0.0
  9
$DIMTXT
 40
3.0
  9
$DIMCEN
 40
0.0
  9
$DIMTSZ
 40
0.0
  9
$DIMTOL
 70
     0
  9
$DIMLIM
 70
     0
  9
$DIMTIH
 70
     0
  9
$DIMTOH
 70
     0
  9
$DIMSE1
 70
     0
  9
$DIMSE2
 70
     0
  9
$DIMTAD
 70
     1
  9
$DIMZIN
 70
     8
  9
$DIMBLK
  1

  9
$DIMASO
 70
     1
  9
$DIMSHO
 70
     1
  9
$DIMPOST
  1

  9
$DIMAPOST
  1

  9
$DIMALT
 70
     0
  9
$DIMALTD
 70
     2
  9
$DIMALTF
 40
0.03937
  9
$DIMLFAC
 40
1.0
  9
$DIMTOFL
 70
     1
  9
$DIMTVP
 40
0.0
  9
$DIMTIX
 70
     0
  9
$DIMSOXD
 70
     0
  9
$DIMSAH
 70
     1
  9
$DIMBLK1
  1
OPEN
  9
$DIMBLK2
  1
OPEN
  9
$DIMSTYLE
  2
MATSU
  9
$DIMCLRD
 70
   256
  9
$DIMCLRE
 70
   256
  9
$DIMCLRT
 70
   256
  9
$DIMTFAC
 40
1.0
  9
$DIMGAP
 40
0.5
  9
$LUNITS
 70
     2
  9
$LUPREC
 70
     3
  9
$SKETCHINC
 40
0.1
  9
$FILLETRAD
 40
3.0
  9
$AUNITS
 70
     0
  9
$AUPREC
 70
     2
  9
$MENU
  1
acad
  9
$ELEVATION
 40
0.0
  9
$PELEVATION
 40
0.0
  9
$THICKNESS
 40
0.0
  9
$LIMCHECK
 70
     0
  9
$BLIPMODE
 70
     0
  9
$CHAMFERA
 40
0.0
  9
$CHAMFERB
 40
0.0
  9
$SKPOLY
 70
     0
  9
$TDCREATE
 40
2451967.42375706
  9
$TDUPDATE
 40
2454953.6257976959
  9
$TDINDWG
 40
0.8247935417
  9
$TDUSRTIMER
 40
0.8247926273
  9
$USRTIMER
 70
     1
  9
$ANGBASE
 50
0.0
  9
$ANGDIR
 70
     0
  9
$PDMODE
 70
     0
  9
$PDSIZE
 40
1.0
  9
$PLINEWID
 40
0.0
  9
$COORDS
 70
     1
  9
$SPLFRAME
 70
     0
  9
$SPLINETYPE
 70
     6
  9
$SPLINESEGS
 70
     8
  9
$ATTDIA
 70
     0
  9
$ATTREQ
 70
     1
  9
$HANDLING
 70
 10241
  9
$HANDSEED
  5
1361
  9
$SURFTAB1
 70
     6
  9
$SURFTAB2
 70
     6
  9
$SURFTYPE
 70
     6
  9
$SURFU
 70
     6
  9
$SURFV
 70
     6
  9
$UCSNAME
  2

  9
$UCSORG
 10
0.0
 20
0.0
 30
0.0
  9
$UCSXDIR
 10
1.0
 20
0.0
 30
0.0
  9
$UCSYDIR
 10
0.0
 20
1.0
 30
0.0
  9
$PUCSNAME
  2

  9
$PUCSORG
 10
0.0
 20
0.0
 30
0.0
  9
$PUCSXDIR
 10
1.0
 20
0.0
 30
0.0
  9
$PUCSYDIR
 10
0.0
 20
1.0
 30
0.0
  9
$USERI1
 70
     0
  9
$USERI2
 70
     0
  9
$USERI3
 70
     0
  9
$USERI4
 70
     0
  9
$USERI5
 70
     0
  9
$USERR1
 40
0.0
  9
$USERR2
 40
0.0
  9
$USERR3
 40
0.0
  9
$USERR4
 40
0.0
  9
$USERR5
 40
0.0
  9
$WORLDVIEW
 70
     1
  9
$SHADEDGE
 70
     3
  9
$SHADEDIF
 70
    70
  9
$TILEMODE
 70
     1
  9
$MAXACTVP
 70
    16
  9
$PLIMCHECK
 70
     0
  9
$PEXTMIN
 10
1.0000000000000000E+020
 20
1.0000000000000000E+020
 30
1.0000000000000000E+020
  9
$PEXTMAX
 10
-1.0000000000000000E+020
 20
-1.0000000000000000E+020
 30
-1.0000000000000000E+020
  9
$PLIMMIN
 10
0.0
 20
0.0
  9
$PLIMMAX
 10
12.0
 20
9.0
  9
$UNITMODE
 70
     0
  9
$VISRETAIN
 70
     0
  9
$PLINEGEN
 70
     0
  9
$PSLTSCALE
 70
     0
  0
ENDSEC
  0
SECTION
  2
TABLES
  0
TABLE
  2
VPORT
 70
     2
  0
VPORT
  2
*ACTIVE
 70
     0
 10
0.0
 20
0.0
 11
1.0
 21
1.0
 12
3513.6037793605342
 22
-703.40037369089089
 13
0.0
 23
0.0
 14
62.5
 24
62.5
 15
62.5
 25
62.5
 16
0.0
 26
0.0
 36
1.0
 17
0.0
 27
0.0
 37
0.0
 40
1277.9821392087281
 41
3.1666666666666661
 42
50.0
 43
0.0
 44
0.0
 50
0.0
 51
0.0
 71
     0
 72
   100
 73
     1
 74
     0
 75
     0
 76
     0
 77
     0
 78
     0
  0
ENDTAB
  0
TABLE
  2
LTYPE
 70
     2
  0
LTYPE
  2
CONTINUOUS
 70
     0
  3
Solid line
 72
    65
 73
     0
 40
0.0
  0
LTYPE
  2
CENTER
 70
     0
  3
____ _ ____ _ ____ _ ____ _ ____ _ ____ _ ____ 
 72
    65
 73
     4
 40
2.0
 49
1.25
 49
-0.25
 49
0.25
 49
-0.25
  0
ENDTAB
  0
TABLE
  2
LAYER
 70
     6
  0
LAYER
  2
0
 70
     0
 62
     7
  6
CONTINUOUS
  0
LAYER
  2
1
 70
     0
 62
     4
  6
CONTINUOUS
  0
LAYER
  2
SP
 70
     0
 62
     2
  6
CONTINUOUS
  0
LAYER
  2
DEFPOINTS
 70
     0
 62
     7
  6
CONTINUOUS
  0
LAYER
  2
2
 70
     0
 62
     3
  6
CENTER
  0
LAYER
  2
4
 70
     0
 62
     7
  6
CONTINUOUS
  0
ENDTAB
  0
TABLE
  2
STYLE
 70
     2
  0
STYLE
  2
STANDARD
 70
     0
 40
0.0
 41
1.0
 50
15.0
 71
     0
 42
3.5
  3
C:\Program Files\AutoCAD LT\simplex.shx
  4
C:\Program Files\AutoCAD LT\extfont.shx
  0
STYLE
  2
SUNPOU
 70
     0
 40
0.0
 41
1.0
 50
15.0
 71
     0
 42
75.0
  3
simplex.shx
  4
extfont.shx
  0
ENDTAB
  0
TABLE
  2
VIEW
 70
     0
  0
ENDTAB
  0
TABLE
  2
UCS
 70
     0
  0
ENDTAB
  0
TABLE
  2
APPID
 70
     1
  0
APPID
  2
ACAD
 70
     0
  0
ENDTAB
  0
TABLE
  2
DIMSTYLE
 70
     2
  0
DIMSTYLE
  2
MATSU
 70
     0
  3

  4

  5

  6

  7

 40
1.0
 41
2.0
 42
1.0
 43
10.0
 44
1.0
 45
0.0
 46
0.0
 47
0.0
 48
0.0
140
3.0
141
0.0
142
0.0
143
0.03937
144
1.0
145
0.0
146
1.0
147
0.5
 71
     0
 72
     0
 73
     0
 74
     0
 75
     0
 76
     0
 77
     1
 78
     8
170
     0
171
     2
172
     1
173
     1
174
     0
175
     0
176
   256
177
   256
178
   256
  0
DIMSTYLE
  2
STANDARD
 70
     0
  3

  4

  5

  6

  7

 40
1.0
 41
0.18
 42
0.0625
 43
0.38
 44
0.18
 45
0.0
 46
0.0
 47
0.0
 48
0.0
140
0.18
141
0.09
142
0.0
143
25.399999999999999
144
1.0
145
0.0
146
1.0
147
0.09
 71
     0
 72
     0
 73
     1
 74
     1
 75
     0
 76
     0
 77
     0
 78
     0
170
     0
171
     2
172
     0
173
     0
174
     0
175
     0
176
     0
177
     0
178
     0
  0
ENDTAB
  0
ENDSEC
  0
SECTION
  2
BLOCKS
  0
BLOCK
  8
0
  2
$MODEL_SPACE
 70
     0
 10
0.0
 20
0.0
 30
0.0
  3
$MODEL_SPACE
  1

  0
ENDBLK
  5
F4D
  8
0
  0
BLOCK
 67
     1
  8
0
  2
$PAPER_SPACE
 70
     0
 10
0.0
 20
0.0
 30
0.0
  3
$PAPER_SPACE
  1

  0
ENDBLK
  5
F49
 67
     1
  8
0
  0
BLOCK
  8
0
  2
_OPEN
 70
     0
 10
0.0
 20
0.0
 30
0.0
  3
_OPEN
  1

  0
LINE
  5
F65
  8
0
  6
BYBLOCK
 62
     0
 10
-1.0
 20
0.1666666666666666
 30
0.0
 11
0.0
 21
0.0
 31
0.0
  0
LINE
  5
F66
  8
0
  6
BYBLOCK
 62
     0
 10
0.0
 20
0.0
 30
0.0
 11
-1.0
 21
-0.1666666666666666
 31
0.0
  0
LINE
  5
F67
  8
0
  6
BYBLOCK
 62
     0
 10
0.0
 20
0.0
 30
0.0
 11
-1.0
 21
0.0
 31
0.0
  0
ENDBLK
  5
F68
  8
0
  0
BLOCK
  8
0
  2
_DOTSMALL
 70
     0
 10
0.0
 20
0.0
 30
0.0
  3
_DOTSMALL
  1

  0
POLYLINE
  5
FE7
  8
1
 62
     0
 66
     1
 10
0.0
 20
0.0
 30
0.0
 70
     1
 40
0.5
 41
0.5
  0
VERTEX
  5
1305
  8
1
 62
     0
 10
-0.0625
 20
0.0
 30
0.0
 42
1.0
  0
VERTEX
  5
1306
  8
1
 62
     0
 10
0.0625
 20
0.0
 30
0.0
 42
1.0
  0
SEQEND
  5
1307
  8
1
 62
     0
  0
ENDBLK
  5
FEB
  8
0
  0
BLOCK
  8
0
  2
_NONE
 70
     0
 10
0.0
 20
0.0
 30
0.0
  3
_NONE
  1

  0
ENDBLK
  5
FEE
  8
0
  0
BLOCK
  8
0
  2
*D5
 70
     1
 10
0.0
 20
0.0
 30
0.0
  3
*D5
  1

  0
LINE
  5
1308
  8
SP
 10
983.74687079096202
 20
1340.9942754477181
 30
0.0
 11
983.74687079096202
 21
1645.9859655536891
 31
0.0
  0
LINE
  5
1309
  8
SP
 10
1743.7468707909611
 20
1340.9942754477181
 30
0.0
 11
1743.7468707909611
 21
1645.9859655536891
 31
0.0
  0
LINE
  5
130A
  8
SP
 10
1013.746870790962
 20
1630.9859655536891
 30
0.0
 11
1713.7468707909611
 21
1630.9859655536891
 31
0.0
  0
SOLID
  5
130B
  8
SP
 10
1013.746870790962
 20
1635.9859655536891
 30
0.0
 11
1013.746870790962
 21
1625.9859655536891
 31
0.0
 12
983.74687079096202
 22
1630.9859655536891
 32
0.0
 13
983.74687079096202
 23
1630.9859655536891
 33
0.0
  0
SOLID
  5
130C
  8
SP
 10
1713.7468707909611
 20
1635.9859655536891
 30
0.0
 11
1713.7468707909611
 21
1625.9859655536891
 31
0.0
 12
1743.7468707909611
 22
1630.9859655536891
 32
0.0
 13
1743.7468707909611
 23
1630.9859655536891
 33
0.0
  0
TEXT
  8
0
  40
45
  5
1358
  72
0
  71
0
 10
1273.75
 20
1581.34
 30
0.000000
  1
760
  7
SUNPOU
  0
POINT
  5
130E
  8
DEFPOINTS
 62
     0
 10
983.74687079096202
 20
1325.9942754477181
 30
0.0
  0
POINT
  5
130F
  8
DEFPOINTS
 62
     0
 10
1743.7468707909611
 20
1325.9942754477181
 30
0.0
  0
POINT
  5
1310
  8
DEFPOINTS
 62
     0
 10
1743.7468707909611
 20
1630.9859655536891
 30
0.0
  0
ENDBLK
  5
10BB
  8
0
  0
BLOCK
  8
0
  2
*D6
 70
     1
 10
0.0
 20
0.0
 30
0.0
  3
*D6
  1

  0
LINE
  5
1311
  8
SP
 10
933.74687079096157
 20
275.99427544771783
 30
0.0
 11
933.74687079096157
 21
-50.956857470006071
 31
0.0
  0
LINE
  5
1312
  8
SP
 10
1793.7468707909611
 20
275.99427544771783
 30
0.0
 11
1793.7468707909611
 21
-50.956857470006071
 31
0.0
  0
LINE
  5
1313
  8
SP
 10
963.74687079096145
 20
-35.956857470006071
 30
0.0
 11
1763.7468707909611
 21
-35.956857470006071
 31
0.0
  0
SOLID
  5
1314
  8
SP
 10
963.74687079096145
 20
-30.956857470006071
 30
0.0
 11
963.74687079096145
 21
-40.956857470006071
 31
0.0
 12
933.74687079096157
 22
-35.956857470006071
 32
0.0
 13
933.74687079096157
 23
-35.956857470006071
 33
0.0
  0
SOLID
  5
1315
  8
SP
 10
1763.7468707909611
 20
-30.956857470006071
 30
0.0
 11
1763.7468707909611
 21
-40.956857470006071
 31
0.0
 12
1793.7468707909611
 22
-35.956857470006071
 32
0.0
 13
1793.7468707909611
 23
-35.956857470006071
 33
0.0
  0
TEXT
  8
0
  40
45
  5
1359
  72
0
  71
0
 10
1273.75
 20
-85.6069
 30
0.000000
  1
860
  7
SUNPOU
  0
POINT
  5
1317
  8
DEFPOINTS
 62
     0
 10
933.74687079096157
 20
290.99427544771783
 30
0.0
  0
POINT
  5
1318
  8
DEFPOINTS
 62
     0
 10
1793.7468707909611
 20
290.99427544771783
 30
0.0
  0
POINT
  5
1319
  8
DEFPOINTS
 62
     0
 10
1793.7468707909611
 20
-35.956857470006071
 30
0.0
  0
ENDBLK
  5
10C8
  8
0
  0
BLOCK
  8
0
  2
*D7
 70
     1
 10
0.0
 20
0.0
 30
0.0
  3
*D7
  1

  0
LINE
  5
131A
  8
SP
 10
928.74687079096191
 20
1285.994275447717
 30
0.0
 11
757.59838936839867
 21
1285.994275447717
 31
0.0
  0
LINE
  5
131B
  8
SP
 10
928.74687079096191
 20
485.9942754477176
 30
0.0
 11
757.59838936839844
 21
485.9942754477176
 31
0.0
  0
LINE
  5
131C
  8
SP
 10
772.59838936839844
 20
1255.994275447717
 30
0.0
 11
772.59838936839844
 21
515.99427544771765
 31
0.0
  0
SOLID
  5
131D
  8
SP
 10
767.59838936839844
 20
1255.994275447717
 30
0.0
 11
777.59838936839844
 21
1255.994275447717
 31
0.0
 12
772.59838936839856
 22
1285.994275447717
 32
0.0
 13
772.59838936839856
 23
1285.994275447717
 33
0.0
  0
SOLID
  5
131E
  8
SP
 10
767.59838936839844
 20
515.99427544771765
 30
0.0
 11
777.59838936839844
 21
515.99427544771765
 31
0.0
 12
772.59838936839844
 22
485.9942754477176
 32
0.0
 13
772.59838936839844
 23
485.9942754477176
 33
0.0
  0
TEXT
  8
0
  40
45
  5
135A
  72
0
  71
0
 10
652.598
 20
806.344
 30
0.000000
  1
800
  7
SUNPOU
  0
POINT
  5
1320
  8
DEFPOINTS
 62
     0
 10
943.74687079096191
 20
1285.994275447717
 30
0.0
  0
POINT
  5
1321
  8
DEFPOINTS
 62
     0
 10
943.74687079096191
 20
485.9942754477176
 30
0.0
  0
POINT
  5
1322
  8
DEFPOINTS
 62
     0
 10
772.59838936839844
 20
485.9942754477176
 30
0.0
  0
ENDBLK
  5
10D5
  8
0
  0
BLOCK
  8
0
  2
*D8
 70
     1
 10
0.0
 20
0.0
 30
0.0
  3
*D8
  1

  0
LINE
  5
1323
  8
SP
 10
2521.422119835644
 20
900.99427544771765
 30
0.0
 11
2521.422119835644
 21
1682.550018275866
 31
0.0
  0
LINE
  5
1324
  8
SP
 10
3401.4221198356422
 20
900.99427544771765
 30
0.0
 11
3401.4221198356422
 21
1682.550018275866
 31
0.0
  0
LINE
  5
1325
  8
SP
 10
2551.422119835644
 20
1667.550018275866
 30
0.0
 11
3371.4221198356422
 21
1667.550018275866
 31
0.0
  0
SOLID
  5
1326
  8
SP
 10
2551.422119835644
 20
1672.550018275866
 30
0.0
 11
2551.422119835644
 21
1662.550018275866
 31
0.0
 12
2521.422119835644
 22
1667.550018275866
 32
0.0
 13
2521.422119835644
 23
1667.550018275866
 33
0.0
  0
SOLID
  5
1327
  8
SP
 10
3371.4221198356422
 20
1672.550018275866
 30
0.0
 11
3371.4221198356422
 21
1662.550018275866
 31
0.0
 12
3401.4221198356422
 22
1667.550018275866
 32
0.0
 13
3401.4221198356422
 23
1667.550018275866
 33
0.0
  0
TEXT
  8
0
  40
45
  5
135B
  72
0
  71
0
 10
2871.42
 20
1617.90
 30
0.000000
  1
880
  7
SUNPOU
  0
POINT
  5
1329
  8
DEFPOINTS
 62
     0
 10
2521.422119835644
 20
885.99427544771765
 30
0.0
  0
POINT
  5
132A
  8
DEFPOINTS
 62
     0
 10
3401.4221198356422
 20
885.99427544771765
 30
0.0
  0
POINT
  5
132B
  8
DEFPOINTS
 62
     0
 10
3401.4221198356422
 20
1667.550018275866
 30
0.0
  0
ENDBLK
  5
10E2
  8
0
  0
BLOCK
  8
0
  2
*D9
 70
     1
 10
0.0
 20
0.0
 30
0.0
  3
*D9
  1

  0
LINE
  5
132C
  8
SP
 10
2354.1600311874481
 20
885.99427544771765
 30
0.0
 11
2212.6883545298001
 21
885.99427544771765
 31
0.0
  0
LINE
  5
132D
  8
SP
 10
2591.4221198356449
 20
385.99427544771771
 30
0.0
 11
2212.6883545298001
 21
385.99427544771783
 31
0.0
  0
LINE
  5
132E
  8
SP
 10
2227.6883545298001
 20
855.99427544771765
 30
0.0
 11
2227.6883545298001
 21
415.99427544771783
 31
0.0
  0
SOLID
  5
132F
  8
SP
 10
2222.6883545298001
 20
855.99427544771765
 30
0.0
 11
2232.6883545298001
 21
855.99427544771765
 31
0.0
 12
2227.6883545298001
 22
885.99427544771765
 32
0.0
 13
2227.6883545298001
 23
885.99427544771765
 33
0.0
  0
SOLID
  5
1330
  8
SP
 10
2222.6883545298001
 20
415.99427544771783
 30
0.0
 11
2232.6883545298001
 21
415.99427544771783
 31
0.0
 12
2227.6883545298001
 22
385.99427544771783
 32
0.0
 13
2227.6883545298001
 23
385.99427544771783
 33
0.0
  0
TEXT
  8
0
  40
45
  5
135C
  72
0
  71
0
 10
2107.69
 20
556.344
 30
0.000000
  1
500
  7
SUNPOU
  0
POINT
  5
1332
  8
DEFPOINTS
 62
     0
 10
2369.1600311874481
 20
885.99427544771765
 30
0.0
  0
POINT
  5
1333
  8
DEFPOINTS
 62
     0
 10
2606.4221198356449
 20
385.99427544771771
 30
0.0
  0
POINT
  5
1334
  8
DEFPOINTS
 62
     0
 10
2227.6883545298001
 20
385.99427544771783
 30
0.0
  0
ENDBLK
  5
111C
  8
0
  0
BLOCK
  8
0
  2
*D10
 70
     1
 10
0.0
 20
0.0
 30
0.0
  3
*D10
  1

  0
LINE
  5
1335
  8
SP
 10
2591.4221198356449
 20
385.99427544771771
 30
0.0
 11
2212.6883545298001
 21
385.99427544771783
 31
0.0
  0
LINE
  5
1336
  8
SP
 10
2396.422119835644
 20
340.99427544771783
 30
0.0
 11
2212.6883545298001
 21
340.99427544771783
 31
0.0
  0
LINE
  5
1337
  8
SP
 10
2227.6883545298001
 20
385.99427544771783
 30
0.0
 11
2227.6883545298001
 21
340.99427544771783
 31
0.0
  0
TEXT
  8
0
  40
45
  5
135D
  72
0
  71
0
 10
2079.08
 20
289.147
 30
0.000000
  1
(45)
  7
SUNPOU
  0
POINT
  5
1339
  8
DEFPOINTS
 62
     0
 10
2606.4221198356449
 20
385.99427544771771
 30
0.0
  0
POINT
  5
133A
  8
DEFPOINTS
 62
     0
 10
2411.422119835644
 20
340.99427544771783
 30
0.0
  0
POINT
  5
133B
  8
DEFPOINTS
 62
     0
 10
2227.6883545298001
 20
340.99427544771783
 30
0.0
  0
ENDBLK
  5
1127
  8
0
  0
BLOCK
  8
0
  2
*D11
 70
     1
 10
0.0
 20
0.0
 30
0.0
  3
*D11
  1

  0
LINE
  5
133C
  8
SP
 10
2396.422119835644
 20
340.99427544771783
 30
0.0
 11
2212.6883545298001
 21
340.99427544771783
 31
0.0
  0
LINE
  5
133D
  8
SP
 10
2396.422119835644
 20
295.99427544771783
 30
0.0
 11
2212.6883545298001
 21
295.99427544771783
 31
0.0
  0
LINE
  5
133E
  8
SP
 10
2227.6883545298001
 20
340.99427544771783
 30
0.0
 11
2227.6883545298001
 21
325.99427544771783
 31
0.0
  0
LINE
  5
133F
  8
SP
 10
2227.6883545298001
 20
140.87261968245249
 30
0.0
 11
2227.6883545298001
 21
295.99427544771783
 31
0.0
  0
TEXT
  8
0
  40
45
  5
135E
  72
0
  71
0
 10
2107.69
 20
107.028
 30
0.000000
  1
45
  7
SUNPOU
  0
INSERT
  5
1341
  8
SP
  2
_DOTSMALL
 10
2227.6883545298001
 20
340.99427544771783
 30
0.0
 41
30.0
 42
30.0
 43
30.0
 50
90.0
  0
SOLID
  5
1342
  8
SP
 10
2222.6883545298001
 20
325.99427544771783
 30
0.0
 11
2232.6883545298001
 21
325.99427544771783
 31
0.0
 12
2227.6883545298001
 22
295.99427544771783
 32
0.0
 13
2227.6883545298001
 23
295.99427544771783
 33
0.0
  0
POINT
  5
1343
  8
DEFPOINTS
 62
     0
 10
2411.422119835644
 20
340.99427544771783
 30
0.0
  0
POINT
  5
1344
  8
DEFPOINTS
 62
     0
 10
2411.422119835644
 20
295.99427544771783
 30
0.0
  0
POINT
  5
1345
  8
DEFPOINTS
 62
     0
 10
2227.6883545298001
 20
295.99427544771783
 30
0.0
  0
ENDBLK
  5
1138
  8
0
  0
BLOCK
  8
0
  2
*D12
 70
     1
 10
0.0
 20
0.0
 30
0.0
  3
*D12
  1

  0
LINE
  5
1346
  8
SP
 10
2461.422119835644
 20
246.2037254106724
 30
0.0
 11
2461.422119835644
 21
76.17900659710358
 31
0.0
  0
LINE
  5
1347
  8
SP
 10
3461.422119835644
 20
246.2037254106724
 30
0.0
 11
3461.422119835644
 21
76.17900659710358
 31
0.0
  0
LINE
  5
1348
  8
SP
 10
2491.422119835644
 20
91.17900659710358
 30
0.0
 11
3431.422119835644
 21
91.17900659710358
 31
0.0
  0
INSERT
  5
1349
  8
SP
  2
_OPEN
 10
2461.422119835644
 20
91.17900659710358
 30
0.0
 41
30.0
 42
30.0
 43
30.0
 50
180.0
  0
INSERT
  5
134A
  8
SP
  2
_OPEN
 10
3461.422119835644
 20
91.17900659710358
 30
0.0
 41
30.0
 42
30.0
 43
30.0
  0
TEXT
  8
0
  40
45
  5
135F
  72
0
  71
0
 10
2871.42
 20
41.5290
 30
0.000000
  1
1000
  0
POINT
  5
134C
  8
DEFPOINTS
 62
     0
 10
2461.422119835644
 20
261.2037254106724
 30
0.0
  0
POINT
  5
134D
  8
DEFPOINTS
 62
     0
 10
3461.422119835644
 20
261.2037254106724
 30
0.0
  0
POINT
  5
134E
  8
DEFPOINTS
 62
     0
 10
3461.422119835644
 20
91.17900659710358
 30
0.0
  0
ENDBLK
  5
1150
  8
0
  0
BLOCK
  8
0
  2
*D13
 70
     1
 10
0.0
 20
0.0
 30
0.0
  3
*D13
  1

  0
LINE
  5
134F
  8
SP
 10
953.74687079096145
 20
253.56444018943679
 30
0.0
 11
953.74687079096145
 21
67.370796443645304
 31
0.0
  0
LINE
  5
1350
  8
SP
 10
1773.7468707909611
 20
253.56444018943679
 30
0.0
 11
1773.7468707909611
 21
67.370796443645304
 31
0.0
  0
LINE
  5
1351
  8
SP
 10
983.74687079096145
 20
82.370796443645304
 30
0.0
 11
1743.7468707909611
 21
82.370796443645304
 31
0.0
  0
INSERT
  5
1352
  8
SP
  2
_OPEN
 10
953.74687079096145
 20
82.370796443645304
 30
0.0
 41
30.0
 42
30.0
 43
30.0
 50
180.0
  0
INSERT
  5
1353
  8
SP
  2
_OPEN
 10
1773.7468707909611
 20
82.370796443645304
 30
0.0
 41
30.0
 42
30.0
 43
30.0
  0
TEXT
  8
0
  40
45
  5
1360
  72
0
  71
0
 10
1273.75
 20
32.7208
 30
0.000000
  1
820
  0
POINT
  5
1355
  8
DEFPOINTS
 62
     0
 10
953.74687079096145
 20
268.56444018943682
 30
0.0
  0
POINT
  5
1356
  8
DEFPOINTS
 62
     0
 10
1773.7468707909611
 20
268.56444018943682
 30
0.0
  0
POINT
  5
1357
  8
DEFPOINTS
 62
     0
 10
1773.7468707909611
 20
82.370796443645304
 30
0.0
  0
ENDBLK
  5
115D
  8
0
  0
ENDSEC
  0
SECTION
  2
ENTITIES
  0
LINE
  5
1045
  8
2
 10
2369.1600311874481
 20
885.99427544771765
 30
0.0
 11
3592.8443505725222
 21
885.99427544771765
 31
0.0
  0
CIRCLE
  5
1046
  8
1
 10
2961.422119835644
 20
885.99427544771765
 30
0.0
 40
400.0
  0
CIRCLE
  5
1047
  8
1
 10
2961.422119835644
 20
885.99427544771765
 30
0.0
 40
440.0
  0
CIRCLE
  5
1048
  8
1
 10
2961.422119835644
 20
885.99427544771765
 30
0.0
 40
405.0
  0
LINE
  5
1049
  8
1
 10
1639.1400003012011
 20
481.49427544771771
 30
0.0
 11
1088.35374128072
 21
481.49427544771771
 31
0.0
  0
LINE
  5
104A
  8
1
 10
943.74687079096191
 20
1285.994275447717
 30
0.0
 11
1783.7468707909611
 21
1285.9942754477181
 31
0.0
  0
LINE
  5
104B
  8
2
 10
1857.577471057346
 20
885.99427544771765
 30
0.0
 11
845.52648029676834
 21
885.99427544771765
 31
0.0
  0
LINE
  5
104C
  8
1
 10
943.74687079096191
 20
485.9942754477176
 30
0.0
 11
1783.7468707909611
 21
485.9942754477176
 31
0.0
  0
LINE
  5
104D
  8
1
 10
943.74687079096191
 20
1287.9942754477181
 30
0.0
 11
943.74687079096191
 21
483.99427544771771
 31
0.0
  0
LINE
  5
104E
  8
1
 10
983.74687079096202
 20
1325.9942754477181
 30
0.0
 11
983.74687079096202
 21
445.99427544771771
 31
0.0
  0
LINE
  5
104F
  8
1
 10
978.74687079096191
 20
1322.994275447717
 30
0.0
 11
978.74687079096191
 21
448.9942754477176
 31
0.0
  0
LINE
  5
1050
  8
1
 10
988.24687079096202
 20
1325.9942754477181
 30
0.0
 11
988.24687079096202
 21
445.99427544771771
 31
0.0
  0
LINE
  5
1051
  8
1
 10
988.24687079096202
 20
605.99427544771777
 30
0.0
 11
988.24687079096202
 21
445.99427544771771
 31
0.0
  0
LINE
  5
1052
  8
1
 10
983.74687079096202
 20
445.99427544771771
 30
0.0
 11
988.24687079096202
 21
445.99427544771771
 31
0.0
  0
LINE
  5
1053
  8
1
 10
983.74687079096202
 20
445.99427544771771
 30
0.0
 11
981.74687079096179
 21
445.99427544771771
 31
0.0
  0
ARC
  5
1054
  8
1
 10
981.74687079096179
 20
448.9942754477176
 30
0.0
 40
3.0
 50
180.0
 51
270.0
  0
LINE
  5
1055
  8
1
 10
1018.246870790962
 20
463.49427544771783
 30
0.0
 11
948.74687079096179
 21
463.49427544771783
 31
0.0
  0
LINE
  5
1056
  8
2
 10
948.74687079096179
 20
463.49427544771783
 30
0.0
 11
1018.246870790962
 21
463.49427544771783
 31
0.0
  0
ARC
  5
1057
  8
1
 10
946.74687079096191
 20
483.99427544771771
 30
0.0
 40
3.0
 50
180.0
 51
269.99999999999972
  0
LINE
  5
1058
  8
1
 10
974.24687079096191
 20
480.99427544771783
 30
0.0
 11
946.74687079096191
 21
480.99427544771783
 31
0.0
  0
ARC
  5
1059
  8
1
 10
974.24687079096191
 20
476.49427544771783
 30
0.0
 40
4.5
 50
0.0
 51
90.0
  0
LINE
  5
105A
  8
1
 10
1088.35374128072
 20
481.49427544771771
 30
0.0
 11
988.24687079096202
 21
481.49427544771771
 31
0.0
  0
ARC
  5
105B
  8
1
 10
946.74687079096191
 20
1287.9942754477181
 30
0.0
 40
3.0
 50
89.999999999999574
 51
180.0
  0
LINE
  5
105C
  8
1
 10
974.24687079096191
 20
1290.994275447717
 30
0.0
 11
946.74687079096191
 21
1290.994275447717
 31
0.0
  0
ARC
  5
105D
  8
1
 10
974.24687079096191
 20
1295.4942754477161
 30
0.0
 40
4.5
 50
270.0
 51
0.0
  0
LINE
  5
105E
  8
1
 10
983.74687079096202
 20
1325.9942754477181
 30
0.0
 11
988.24687079096202
 21
1325.9942754477181
 31
0.0
  0
LINE
  5
105F
  8
2
 10
948.74687079096179
 20
1308.4942754477181
 30
0.0
 11
1018.246870790962
 21
1308.4942754477181
 31
0.0
  0
ARC
  5
1060
  8
1
 10
981.74687079096179
 20
1322.994275447717
 30
0.0
 40
3.0
 50
90.0
 51
180.0
  0
LINE
  5
1061
  8
1
 10
983.74687079096202
 20
1325.9942754477181
 30
0.0
 11
981.74687079096179
 21
1325.9942754477181
 31
0.0
  0
LINE
  5
1062
  8
1
 10
1783.7468707909611
 20
1287.9942754477181
 30
0.0
 11
1783.7468707909611
 21
483.9942754477176
 31
0.0
  0
LINE
  5
1063
  8
1
 10
1739.2468707909611
 20
1325.9942754477181
 30
0.0
 11
1739.2468707909611
 21
445.99427544771771
 31
0.0
  0
LINE
  5
1064
  8
1
 10
1748.7468707909591
 20
1322.994275447717
 30
0.0
 11
1748.7468707909591
 21
448.9942754477176
 31
0.0
  0
LINE
  5
1065
  8
1
 10
1743.7468707909611
 20
1325.9942754477181
 30
0.0
 11
1743.7468707909611
 21
445.99427544771771
 31
0.0
  0
LINE
  5
1066
  8
1
 10
1739.2468707909611
 20
605.99427544771777
 30
0.0
 11
1739.2468707909611
 21
445.99427544771771
 31
0.0
  0
LINE
  5
1067
  8
1
 10
1743.7468707909611
 20
445.99427544771771
 30
0.0
 11
1739.2468707909611
 21
445.99427544771771
 31
0.0
  0
ARC
  5
1068
  8
1
 10
1745.7468707909611
 20
448.9942754477176
 30
0.0
 40
3.0
 50
270.0
 51
0.0
  0
LINE
  5
1069
  8
1
 10
1743.7468707909611
 20
445.99427544771771
 30
0.0
 11
1745.7468707909611
 21
445.99427544771771
 31
0.0
  0
LINE
  5
106A
  8
1
 10
1739.2468707909611
 20
481.49427544771771
 30
0.0
 11
1639.1400003012011
 21
481.49427544771771
 31
0.0
  0
LINE
  5
106B
  8
1
 10
1753.2468707909611
 20
480.99427544771783
 30
0.0
 11
1780.7468707909611
 21
480.99427544771783
 31
0.0
  0
LINE
  5
106C
  8
2
 10
1778.7468707909611
 20
463.49427544771783
 30
0.0
 11
1709.2468707909611
 21
463.49427544771783
 31
0.0
  0
ARC
  5
106D
  8
1
 10
1753.2468707909611
 20
476.49427544771783
 30
0.0
 40
4.5
 50
90.0
 51
180.0
  0
ARC
  5
106E
  8
1
 10
1780.7468707909611
 20
483.9942754477176
 30
0.0
 40
3.0
 50
269.99999999999972
 51
0.0
  0
LINE
  5
106F
  8
1
 10
1739.2468707909611
 20
1290.494275447717
 30
0.0
 11
988.24687079096202
 21
1290.494275447717
 31
0.0
  0
LINE
  5
1070
  8
1
 10
1753.2468707909611
 20
1290.994275447717
 30
0.0
 11
1780.7468707909611
 21
1290.9942754477181
 31
0.0
  0
ARC
  5
1071
  8
1
 10
1753.2468707909611
 20
1295.4942754477161
 30
0.0
 40
4.5
 50
180.0
 51
270.0
  0
ARC
  5
1072
  8
1
 10
1780.7468707909611
 20
1287.9942754477181
 30
0.0
 40
3.0
 50
0.0
 51
90.000000000000384
  0
LINE
  5
1073
  8
2
 10
1778.7468707909611
 20
1308.4942754477181
 30
0.0
 11
1709.2468707909611
 21
1308.4942754477181
 31
0.0
  0
LINE
  5
1074
  8
1
 10
1743.7468707909611
 20
1325.9942754477181
 30
0.0
 11
1739.2468707909611
 21
1325.9942754477181
 31
0.0
  0
LINE
  5
1075
  8
1
 10
1743.7468707909611
 20
1325.9942754477181
 30
0.0
 11
1745.7468707909611
 21
1325.9942754477181
 31
0.0
  0
ARC
  5
1076
  8
1
 10
1745.7468707909611
 20
1322.994275447717
 30
0.0
 40
3.0
 50
0.0
 51
90.0
  0
LINE
  5
1077
  8
2
 10
2961.422119835644
 20
1568.215685246224
 30
0.0
 11
2961.422119835644
 21
202.77155056987229
 31
0.0
  0
LINE
  5
1078
  8
1
 10
993.74687079096191
 20
1085.9942754477181
 30
0.0
 11
993.74687079096248
 21
685.99427544771754
 31
0.0
  0
LINE
  5
1079
  8
1
 10
1143.7468707909611
 20
1085.9942754477181
 30
0.0
 11
1143.7468707909611
 21
685.99427544771754
 31
0.0
  0
LINE
  5
107A
  8
1
 10
1033.746870790962
 20
1281.9942754477181
 30
0.0
 11
1103.746870790962
 21
1281.9942754477181
 31
0.0
  0
LINE
  5
107B
  8
1
 10
1113.746870790962
 20
935.99427544771765
 30
0.0
 11
1113.746870790962
 21
835.99427544771765
 31
0.0
  0
LINE
  5
107C
  8
1
 10
1043.746870790962
 20
935.99427544771765
 30
0.0
 11
1043.746870790962
 21
835.99427544771765
 31
0.0
  0
LINE
  5
107D
  8
1
 10
1043.746870790962
 20
935.99427544771765
 30
0.0
 11
1113.746870790962
 21
935.99427544771765
 31
0.0
  0
LINE
  5
107E
  8
1
 10
1043.746870790962
 20
835.99427544771765
 30
0.0
 11
1113.746870790962
 21
835.99427544771765
 31
0.0
  0
LINE
  5
107F
  8
1
 10
993.74687079096191
 20
1085.9942754477181
 30
0.0
 11
1143.7468707909611
 21
1085.9942754477181
 31
0.0
  0
LINE
  5
1080
  8
1
 10
993.74687079096248
 20
685.99427544771754
 30
0.0
 11
1143.7468707909611
 21
685.99427544771754
 31
0.0
  0
LINE
  5
1081
  8
1
 10
993.74687079096191
 20
1070.994275447717
 30
0.0
 11
1143.7468707909611
 21
1070.994275447717
 31
0.0
  0
LINE
  5
1082
  8
1
 10
993.74687079096248
 20
700.99427544771788
 30
0.0
 11
1143.7468707909611
 21
700.99427544771788
 31
0.0
  0
LINE
  5
1083
  8
1
 10
1048.746870790962
 20
1070.994275447717
 30
0.0
 11
1048.746870790962
 21
700.99427544771788
 31
0.0
  0
LINE
  5
1084
  8
1
 10
1063.746870790962
 20
1070.994275447717
 30
0.0
 11
1063.746870790962
 21
700.99427544771788
 31
0.0
  0
LINE
  5
1085
  8
1
 10
1033.746870790962
 20
1281.9942754477181
 30
0.0
 11
993.74687079096191
 21
1085.9942754477181
 31
0.0
  0
LINE
  5
1086
  8
1
 10
1103.746870790962
 20
1281.9942754477181
 30
0.0
 11
1143.7468707909611
 21
1085.9942754477181
 31
0.0
  0
LINE
  5
1087
  8
1
 10
1033.746870790962
 20
489.9942754477176
 30
0.0
 11
1103.746870790962
 21
489.9942754477176
 31
0.0
  0
LINE
  5
1088
  8
1
 10
1033.746870790962
 20
489.9942754477176
 30
0.0
 11
993.74687079096191
 21
685.99427544771754
 31
0.0
  0
LINE
  5
1089
  8
1
 10
1103.746870790962
 20
489.9942754477176
 30
0.0
 11
1143.7468707909611
 21
685.99427544771754
 31
0.0
  0
LINE
  5
108A
  8
1
 10
1743.7468707909611
 20
340.99427544771783
 30
0.0
 11
983.74687079096157
 21
340.99427544771783
 31
0.0
  0
LINE
  5
108B
  8
1
 10
1743.7468707909611
 20
290.99427544771783
 30
0.0
 11
983.74687079096157
 21
290.99427544771783
 31
0.0
  0
LINE
  5
108C
  8
1
 10
3511.4221198356449
 20
290.99427544771783
 30
0.0
 11
2411.422119835644
 21
290.99427544771783
 31
0.0
  0
LINE
  5
108D
  8
1
 10
3511.4221198356449
 20
340.99427544771783
 30
0.0
 11
2411.422119835644
 21
340.99427544771783
 31
0.0
  0
LINE
  5
108E
  8
1
 10
2411.422119835644
 20
340.99427544771783
 30
0.0
 11
2411.422119835644
 21
290.99427544771783
 31
0.0
  0
LINE
  5
108F
  8
1
 10
3511.4221198356449
 20
340.99427544771783
 30
0.0
 11
3511.4221198356449
 21
290.99427544771783
 31
0.0
  0
LINE
  5
1090
  8
1
 10
3511.4221198356449
 20
295.99427544771783
 30
0.0
 11
2411.422119835644
 21
295.99427544771783
 31
0.0
  0
LINE
  5
1091
  8
1
 10
1743.7468707909611
 20
290.99427544771783
 30
0.0
 11
1793.7468707909611
 21
290.99427544771783
 31
0.0
  0
LINE
  5
1092
  8
1
 10
1743.7468707909611
 20
290.99427544771783
 30
0.0
 11
1743.7468707909611
 21
340.99427544771783
 31
0.0
  0
LINE
  5
1093
  8
1
 10
1793.7468707909611
 20
290.99427544771783
 30
0.0
 11
1793.7468707909611
 21
292.49427544771783
 31
0.0
  0
LINE
  5
1094
  8
1
 10
1743.7468707909611
 20
340.99427544771783
 30
0.0
 11
1745.2468707909611
 21
340.99427544771783
 31
0.0
  0
LINE
  5
1095
  8
1
 10
1756.2468707909611
 20
296.99427544771788
 30
0.0
 11
1789.2468707909611
 21
296.99427544771788
 31
0.0
  0
LINE
  5
1096
  8
1
 10
1749.7468707909611
 20
303.49427544771783
 30
0.0
 11
1749.7468707909611
 21
336.49427544771788
 31
0.0
  0
ARC
  5
1097
  8
1
 10
1789.2468707909611
 20
292.49427544771783
 30
0.0
 40
4.5
 50
0.0
 51
90.0
  0
ARC
  5
1098
  8
1
 10
1745.2468707909611
 20
336.49427544771788
 30
0.0
 40
4.5
 50
0.0
 51
90.0
  0
ARC
  5
1099
  8
1
 10
1756.2468707909611
 20
303.49427544771783
 30
0.0
 40
6.5
 50
180.0
 51
270.0
  0
ARC
  5
109A
  8
1
 10
938.24687079096157
 20
292.49427544771783
 30
0.0
 40
4.5
 50
90.0
 51
180.0
  0
LINE
  5
109B
  8
1
 10
983.74687079096157
 20
290.99427544771783
 30
0.0
 11
933.74687079096157
 21
290.99427544771783
 31
0.0
  0
ARC
  5
109C
  8
1
 10
971.24687079096157
 20
303.49427544771783
 30
0.0
 40
6.5
 50
270.0
 51
0.000000000000007
  0
LINE
  5
109D
  8
1
 10
977.74687079096157
 20
303.49427544771783
 30
0.0
 11
977.74687079096157
 21
336.49427544771788
 31
0.0
  0
LINE
  5
109E
  8
1
 10
983.74687079096157
 20
340.99427544771783
 30
0.0
 11
982.24687079096157
 21
340.99427544771783
 31
0.0
  0
ARC
  5
109F
  8
1
 10
982.24687079096157
 20
336.49427544771788
 30
0.0
 40
4.5
 50
90.0
 51
180.0
  0
LINE
  5
10A0
  8
1
 10
983.74687079096157
 20
290.99427544771783
 30
0.0
 11
983.74687079096157
 21
340.99427544771783
 31
0.0
  0
LINE
  5
10A1
  8
1
 10
971.24687079096157
 20
296.99427544771788
 30
0.0
 11
938.24687079096157
 21
296.99427544771788
 31
0.0
  0
LINE
  5
10A2
  8
1
 10
933.74687079096157
 20
290.99427544771783
 30
0.0
 11
933.74687079096157
 21
292.49427544771783
 31
0.0
  0
LINE
  5
10A3
  8
1
 10
1739.2468707909611
 20
445.99427544771771
 30
0.0
 11
1739.2468707909611
 21
435.9942754477176
 31
0.0
  0
LINE
  5
10A4
  8
1
 10
988.24687079096202
 20
445.99427544771771
 30
0.0
 11
988.24687079096202
 21
385.99427544771771
 31
0.0
  0
LINE
  5
10A5
  8
2
 10
2461.422119835644
 20
1074.2819854423631
 30
0.0
 11
2461.422119835644
 21
261.2037254106724
 31
0.0
  0
LINE
  5
10A6
  8
2
 10
3461.4221198356358
 20
1142.3436190430809
 30
0.0
 11
3461.422119835644
 21
261.2037254106724
 31
0.0
  0
LINE
  5
10A7
  8
2
 10
1773.7468707909611
 20
314.20019819985822
 30
0.0
 11
1773.7468707909611
 21
268.56444018943682
 31
0.0
  0
LINE
  5
10A8
  8
2
 10
953.74687079096145
 20
314.20019819985822
 30
0.0
 11
953.74687079096145
 21
268.56444018943682
 31
0.0
  0
LINE
  5
10A9
  8
SP
 10
3511.4221198356449
 20
280.99427544771783
 30
0.0
 11
3511.4221198356449
 21
-79.652845322665598
 31
0.0
  0
LINE
  5
10AA
  8
SP
 10
2411.422119835644
 20
280.99427544771783
 30
0.0
 11
2411.422119835644
 21
-79.652845322665598
 31
0.0
  0
LINE
  5
10AB
  8
SP
 10
3481.422119835644
 20
-64.652845322665598
 30
0.0
 11
2441.422119835644
 21
-64.652845322665598
 31
0.0
  0
INSERT
  5
10AC
  8
SP
  2
_OPEN
 10
3511.4221198356449
 20
-64.652845322665598
 30
0.0
 41
30.0
 42
30.0
 43
30.0
  0
INSERT
  5
10AD
  8
SP
  2
_OPEN
 10
2411.422119835644
 20
-64.652845322665598
 30
0.0
 41
30.0
 42
30.0
 43
30.0
 50
180.0
  0
TEXT
  5
10AE
  8
SP
 10
2882.018256397082
 20
-57.152845322665598
 30
0.0
 40
45.0
  1
1100
 51
15.0
  0
DIMENSION
  5
10AF
  8
SP
  2
*D5
 10
1743.7468707909611
 20
1630.9859655536891
 30
0.0
 11
1363.7468707909611
 21
1660.9859655536891
 31
0.0
 70
     0
 13
983.74687079096202
 23
1325.9942754477181
 33
0.0
 14
1743.7468707909611
 24
1325.9942754477181
 34
0.0
1001
ACAD
1000
DSTYLE
1002
{
1070
   287
1070
     0
1070
   287
1070
     0
1070
    40
1040
15.0
1070
   279
1070
     0
1070
   289
1070
     0
1002
}
  0
DIMENSION
  5
10BC
  8
SP
  2
*D6
 10
1793.7468707909611
 20
-35.956857470006071
 30
0.0
 11
1363.7468707909611
 21
-5.9568574700060699
 31
0.0
 70
     0
 13
933.74687079096157
 23
290.99427544771783
 33
0.0
 14
1793.7468707909611
 24
290.99427544771783
 34
0.0
1001
ACAD
1000
DSTYLE
1002
{
1070
   287
1070
     0
1070
   287
1070
     0
1070
    40
1040
15.0
1070
   279
1070
     0
1070
   289
1070
     0
1002
}
  0
DIMENSION
  5
10C9
  8
SP
  2
*D7
 10
772.59838936839844
 20
485.9942754477176
 30
0.0
 11
742.59838936839833
 21
885.99427544771765
 31
0.0
 70
     0
 13
943.74687079096191
 23
1285.994275447717
 33
0.0
 14
943.74687079096191
 24
485.9942754477176
 34
0.0
 50
90.0
1001
ACAD
1000
DSTYLE
1002
{
1070
   287
1070
     0
1070
   287
1070
     0
1070
    40
1040
15.0
1070
   279
1070
     0
1070
   289
1070
     0
1002
}
  0
DIMENSION
  5
10D6
  8
SP
  2
*D8
 10
3401.4221198356422
 20
1667.550018275866
 30
0.0
 11
2961.4221198356431
 21
1697.550018275866
 31
0.0
 70
     0
 13
2521.422119835644
 23
885.99427544771765
 33
0.0
 14
3401.4221198356422
 24
885.99427544771765
 34
0.0
1001
ACAD
1000
DSTYLE
1002
{
1070
   287
1070
     0
1070
   287
1070
     0
1070
    40
1040
15.0
1070
   279
1070
     0
1070
   289
1070
     0
1002
}
  0
LINE
  5
10E3
  8
4
 10
3351.8818821514142
 20
-458.10447347184169
 30
0.0
 11
3351.8818821514151
 21
-758.10447347184163
 31
0.0
  0
LINE
  5
10E4
  8
4
 10
2301.8818821514142
 20
-458.10447347184169
 30
0.0
 11
2301.8818821514142
 21
-758.10447347184163
 31
0.0
  0
LINE
  5
10E5
  8
4
 10
1551.881882151413
 20
-458.10447347184169
 30
0.0
 11
1551.881882151413
 21
-758.10447347184163
 31
0.0
  0
LINE
  5
10E8
  8
4
 10
1551.881882151413
 20
-758.10447347184163
 30
0.0
 11
3351.8818821514142
 21
-758.10447347184163
 31
0.0
  0
LINE
  5
10E9
  8
4
 10
1551.881882151413
 20
-608.10447347184163
 30
0.0
 11
3351.8818821514142
 21
-608.10447347184163
 31
0.0
  0
TEXT
  5
10EA
  8
4
 10
1609.635003421766
 20
-560.78993467192208
 30
0.0
 40
75.0
  1
機器名称
  0
TEXT
  5
10EB
  8
4
 10
1606.2690411886099
 20
-725.63673837382498
 30
0.0
 40
75.0
  1
機器型番
  0
TEXT
  5
10EC
  8
4
 10
2343.4000003829101
 20
-574.24682003548867
 30
0.0
 40
75.0
  1
ミツヤ軸流ファン
  0
TEXT
  5
10ED
  8
4
 10
2356.8636255296351
 20
-732.36509705192645
 30
0.0
 40
75.0
  1
AP＃800-1
  0
TEXT
  5
10EF
  8
4
 10
1837.617967641271
 20
2369.801695021958
 30
0.0
 40
80.999999999999986
  1
天井吊防振ベット
  0
TEXT
  5
10F0
  8
4
 10
1051.1332721455831
 20
2592.7169908271048
 30
0.0
 40
108.0
  1
電動機直動式横型軸流ファン
  0
LINE
  5
10F1
  8
4
 10
951.88188215141406
 20
2496.0086579253648
 30
0.0
 11
3351.8818821514142
 21
2496.0086579253648
 31
0.0
  0
LINE
  5
10F2
  8
4
 10
951.88188215141406
 20
2796.0086579253662
 30
0.0
 11
3351.8818821514142
 21
2796.0086579253662
 31
0.0
  0
LINE
  5
10F3
  8
4
 10
1551.881882151413
 20
-458.10447347184169
 30
0.0
 11
3351.8818821514142
 21
-458.10447347184169
 31
0.0
  0
LINE
  5
10F4
  8
4
 10
951.88188215141406
 20
2796.0086579253662
 30
0.0
 11
951.88188215141406
 21
2496.0086579253648
 31
0.0
  0
TEXT
  5
10F5
  8
4
 10
1034.4347563938461
 20
2372.7830213086149
 30
0.0
 40
80.999999999999986
  1
左回転後方吐出
  0
TEXT
  5
10F6
  8
4
 10
2780.336221025349
 20
2850.9871487711212
 30
0.0
 40
84.000000000000014
  1
No.
  0
TEXT
  5
10F7
  8
4
 10
2787.9430356107041
 20
2374.530378966374
 30
0.0
 40
80.999999999999986
  1
縮尺：1/15
  0
LINE
  5
10F8
  8
4
 10
3351.8818821514142
 20
2796.0086579253662
 30
0.0
 11
3351.8818821514142
 21
2496.0086579253648
 31
0.0
  0
LINE
  5
10F9
  8
4
 10
3726.8818821514142
 20
3216.895526528157
 30
0.0
 11
3726.8818821514142
 21
3216.895526528157
 31
0.0
  0
LINE
  5
10FA
  8
4
 10
2737.808015691211
 20
2813.790901216259
 30
0.0
 11
2737.808015691211
 21
2971.873918852787
 31
0.0
  0
LINE
  5
10FB
  8
4
 10
2737.808015691211
 20
2971.873918852787
 30
0.0
 11
3351.8818821514142
 21
2971.873918852787
 31
0.0
  0
LINE
  5
10FC
  8
4
 10
3351.8818821514142
 20
2971.873918852787
 30
0.0
 11
3351.8818821514142
 21
2813.790901216259
 31
0.0
  0
LINE
  5
10FD
  8
4
 10
3351.8818821514142
 20
2813.790901216259
 30
0.0
 11
2737.808015691211
 21
2813.790901216259
 31
0.0
  0
LINE
  5
10FE
  8
4
 10
576.88188215141395
 20
-1208.10447347184
 30
0.0
 11
576.88188215141395
 21
3216.895526528157
 31
0.0
  0
LINE
  5
10FF
  8
4
 10
576.88188215141395
 20
3216.895526528157
 30
0.0
 11
3726.8818821514142
 21
3216.895526528157
 31
0.0
  0
LINE
  5
1100
  8
4
 10
3726.8818821514142
 20
3216.895526528157
 30
0.0
 11
3726.8818821514142
 21
-1208.10447347184
 31
0.0
  0
LINE
  5
1101
  8
4
 10
3726.8818821514142
 20
-1208.10447347184
 30
0.0
 11
576.88188215141395
 21
-1208.10447347184
 31
0.0
  0
LINE
  5
1102
  8
1
 10
3316.422119835644
 20
385.9942754477176
 30
0.0
 11
2606.4221198356449
 21
385.99427544771771
 31
0.0
  0
LINE
  5
1103
  8
1
 10
2606.422119835644
 20
626.04235681659827
 30
0.0
 11
2606.4221198356449
 21
385.99427544771771
 31
0.0
  0
LINE
  5
1104
  8
1
 10
3316.422119835644
 20
626.04235681659884
 30
0.0
 11
3316.422119835644
 21
385.99427544771771
 31
0.0
  0
LINE
  5
1105
  8
1
 10
992.74687079096191
 20
605.99427544771777
 30
0.0
 11
988.24687079096202
 21
605.99427544771777
 31
0.0
  0
LINE
  5
1106
  8
1
 10
992.74687079096191
 20
605.99427544771777
 30
0.0
 11
992.74687079096191
 21
390.49427544771771
 31
0.0
  0
LINE
  5
1107
  8
1
 10
1048.246870790962
 20
385.99427544771771
 30
0.0
 11
988.24687079096202
 21
385.99427544771771
 31
0.0
  0
LINE
  5
1108
  8
1
 10
1048.246870790962
 20
390.49427544771771
 30
0.0
 11
992.74687079096191
 21
390.49427544771771
 31
0.0
  0
LINE
  5
1109
  8
1
 10
1048.246870790962
 20
390.49427544771771
 30
0.0
 11
1048.246870790962
 21
385.99427544771771
 31
0.0
  0
LINE
  5
110A
  8
1
 10
1679.246870790962
 20
385.99427544771771
 30
0.0
 11
1739.246870790962
 21
385.99427544771771
 31
0.0
  0
LINE
  5
110B
  8
1
 10
1739.246870790962
 20
445.99427544771771
 30
0.0
 11
1739.246870790962
 21
385.99427544771771
 31
0.0
  0
LINE
  5
110C
  8
1
 10
1734.746870790962
 20
605.99427544771777
 30
0.0
 11
1734.746870790962
 21
390.49427544771771
 31
0.0
  0
LINE
  5
110D
  8
1
 10
1679.246870790962
 20
390.49427544771771
 30
0.0
 11
1734.746870790962
 21
390.49427544771771
 31
0.0
  0
LINE
  5
110E
  8
1
 10
1679.246870790962
 20
390.49427544771771
 30
0.0
 11
1679.246870790962
 21
385.99427544771771
 31
0.0
  0
LINE
  5
110F
  8
1
 10
1734.746870790962
 20
605.99427544771777
 30
0.0
 11
1739.246870790962
 21
605.99427544771777
 31
0.0
  0
DIMENSION
  5
1110
  8
SP
  2
*D9
 10
2227.6883545298001
 20
385.99427544771783
 30
0.0
 11
2197.6883545298001
 21
635.99427544771811
 31
0.0
 70
     0
 13
2369.1600311874481
 23
885.99427544771765
 33
0.0
 14
2606.4221198356449
 24
385.99427544771771
 34
0.0
 50
90.0
1001
ACAD
1000
DSTYLE
1002
{
1070
   287
1070
     0
1070
   287
1070
     0
1070
    40
1040
15.0
1070
   279
1070
     0
1070
   289
1070
     0
1002
}
  0
DIMENSION
  5
111D
  8
SP
  2
*D10
 10
2227.6883545298001
 20
340.99427544771783
 30
0.0
 11
2210.862892810379
 21
368.79661692667992
 31
0.0
 70
   128
  1
(<>)
 13
2606.4221198356449
 23
385.99427544771771
 33
0.0
 14
2411.422119835644
 24
340.99427544771783
 34
0.0
 50
90.0
1001
ACAD
1000
DSTYLE
1002
{
1070
   287
1070
     4
1070
   287
1070
     4
1070
    40
1040
15.0
1070
   279
1070
     1
1070
     6
1000
NONE
1070
     7
1000
NONE
1002
}
  0
DIMENSION
  5
1128
  8
SP
  2
*D11
 10
2227.6883545298001
 20
295.99427544771783
 30
0.0
 11
2226.377739404561
 21
186.67757185463401
 31
0.0
 70
   128
 13
2411.422119835644
 23
340.99427544771783
 33
0.0
 14
2411.422119835644
 24
295.99427544771783
 34
0.0
 50
90.0
1001
ACAD
1000
DSTYLE
1002
{
1070
   287
1070
     4
1070
   287
1070
     4
1070
    40
1040
15.0
1070
   279
1070
     1
1070
     6
1000
DOTSMALL
1002
}
  0
DIMENSION
  5
1144
  8
SP
  2
*D12
 10
3461.422119835644
 20
91.17900659710358
 30
0.0
 11
2961.422119835644
 21
121.17900659710349
 31
0.0
 70
     0
 13
2461.422119835644
 23
261.2037254106724
 33
0.0
 14
3461.422119835644
 24
261.2037254106724
 34
0.0
1001
ACAD
1000
DSTYLE
1002
{
1070
   287
1070
     3
1070
   287
1070
     3
1070
   287
1070
     3
1070
    40
1040
15.0
1070
   271
1070
     4
1070
   272
1070
     4
1070
   279
1070
     0
1070
   284
1070
     0
1070
   285
1070
     0
1070
   286
1070
     0
1070
   340
1005
F3E
1070
   341
1005
F63
1070
     6
1000
OPEN
1070
     7
1000
OPEN
1002
}
  0
DIMENSION
  5
1151
  8
SP
  2
*D13
 10
1773.7468707909611
 20
82.370796443645304
 30
0.0
 11
1363.7468707909611
 21
112.3707964436453
 31
0.0
 70
     0
 13
953.74687079096145
 23
268.56444018943682
 33
0.0
 14
1773.7468707909611
 24
268.56444018943682
 34
0.0
1001
ACAD
1000
DSTYLE
1002
{
1070
   287
1070
     3
1070
   287
1070
     3
1070
   287
1070
     3
1070
    40
1040
15.0
1070
   271
1070
     4
1070
   272
1070
     4
1070
   279
1070
     0
1070
   284
1070
     0
1070
   285
1070
     0
1070
   286
1070
     0
1070
   340
1005
F3E
1070
   341
1005
F63
1070
     6
1000
OPEN
1070
     7
1000
OPEN
1002
}
  0
ENDSEC
  0
EOF
