  0
SECTION
  2
HEADER
  9
$ACADVER
  1
AC1009
  9
$INSBASE
 10
0.0
 20
0.0
 30
0.0
  9
$EXTMIN
 10
0.0
 20
0.0
 30
0.0
  9
$EXTMAX
 10
3150.0
 20
4425.0
 30
0.0
  9
$LIMMIN
 10
0.0
 20
0.0
  9
$LIMMAX
 10
297.0
 20
210.0
  9
$ORTHOMODE
 70
     0
  9
$REGENMODE
 70
     1
  9
$FILLMODE
 70
     1
  9
$QTEXTMODE
 70
     0
  9
$MIRRTEXT
 70
     0
  9
$DRAGMODE
 70
     2
  9
$LTSCALE
 40
75.0
  9
$OSMODE
 70
    37
  9
$ATTMODE
 70
     1
  9
$TEXTSIZE
 40
3.0
  9
$TRACEWID
 40
0.05
  9
$TEXTSTYLE
  7
STANDARD
  9
$CLAYER
  8
3
  9
$CELTYPE
  6
BYLAYER
  9
$CECOLOR
 62
   256
  9
$DIMSCALE
 40
15.0
  9
$DIMASZ
 40
2.0
  9
$DIMEXO
 40
1.0
  9
$DIMDLI
 40
10.0
  9
$DIMRND
 40
0.0
  9
$DIMDLE
 40
0.0
  9
$DIMEXE
 40
1.0
  9
$DIMTP
 40
0.0
  9
$DIMTM
 40
0.0
  9
$DIMTXT
 40
3.0
  9
$DIMCEN
 40
0.0
  9
$DIMTSZ
 40
0.0
  9
$DIMTOL
 70
     0
  9
$DIMLIM
 70
     0
  9
$DIMTIH
 70
     0
  9
$DIMTOH
 70
     0
  9
$DIMSE1
 70
     0
  9
$DIMSE2
 70
     0
  9
$DIMTAD
 70
     1
  9
$DIMZIN
 70
     8
  9
$DIMBLK
  1

  9
$DIMASO
 70
     1
  9
$DIMSHO
 70
     1
  9
$DIMPOST
  1

  9
$DIMAPOST
  1

  9
$DIMALT
 70
     0
  9
$DIMALTD
 70
     2
  9
$DIMALTF
 40
0.03937
  9
$DIMLFAC
 40
1.0
  9
$DIMTOFL
 70
     1
  9
$DIMTVP
 40
0.0
  9
$DIMTIX
 70
     0
  9
$DIMSOXD
 70
     0
  9
$DIMSAH
 70
     1
  9
$DIMBLK1
  1
OPEN
  9
$DIMBLK2
  1
OPEN
  9
$DIMSTYLE
  2
MATSU
  9
$DIMCLRD
 70
   256
  9
$DIMCLRE
 70
   256
  9
$DIMCLRT
 70
   256
  9
$DIMTFAC
 40
1.0
  9
$DIMGAP
 40
0.5
  9
$LUNITS
 70
     2
  9
$LUPREC
 70
     4
  9
$SKETCHINC
 40
0.1
  9
$FILLETRAD
 40
0.0
  9
$AUNITS
 70
     0
  9
$AUPREC
 70
     2
  9
$MENU
  1
acad
  9
$ELEVATION
 40
0.0
  9
$PELEVATION
 40
0.0
  9
$THICKNESS
 40
0.0
  9
$LIMCHECK
 70
     0
  9
$BLIPMODE
 70
     0
  9
$CHAMFERA
 40
10.0
  9
$CHAMFERB
 40
10.0
  9
$SKPOLY
 70
     0
  9
$TDCREATE
 40
2453328.629712095
  9
$TDUPDATE
 40
2454953.631728333
  9
$TDINDWG
 40
0.1186924653
  9
$TDUSRTIMER
 40
0.1186924653
  9
$USRTIMER
 70
     1
  9
$ANGBASE
 50
0.0
  9
$ANGDIR
 70
     0
  9
$PDMODE
 70
     0
  9
$PDSIZE
 40
1.0
  9
$PLINEWID
 40
0.0
  9
$COORDS
 70
     1
  9
$SPLFRAME
 70
     0
  9
$SPLINETYPE
 70
     6
  9
$SPLINESEGS
 70
     8
  9
$ATTDIA
 70
     0
  9
$ATTREQ
 70
     1
  9
$HANDLING
 70
 10241
  9
$HANDSEED
  5
73C
  9
$SURFTAB1
 70
     6
  9
$SURFTAB2
 70
     6
  9
$SURFTYPE
 70
     6
  9
$SURFU
 70
     6
  9
$SURFV
 70
     6
  9
$UCSNAME
  2

  9
$UCSORG
 10
0.0
 20
0.0
 30
0.0
  9
$UCSXDIR
 10
1.0
 20
0.0
 30
0.0
  9
$UCSYDIR
 10
0.0
 20
1.0
 30
0.0
  9
$PUCSNAME
  2

  9
$PUCSORG
 10
0.0
 20
0.0
 30
0.0
  9
$PUCSXDIR
 10
1.0
 20
0.0
 30
0.0
  9
$PUCSYDIR
 10
0.0
 20
1.0
 30
0.0
  9
$USERI1
 70
     0
  9
$USERI2
 70
     0
  9
$USERI3
 70
     0
  9
$USERI4
 70
     0
  9
$USERI5
 70
     0
  9
$USERR1
 40
0.0
  9
$USERR2
 40
0.0
  9
$USERR3
 40
0.0
  9
$USERR4
 40
0.0
  9
$USERR5
 40
0.0
  9
$WORLDVIEW
 70
     1
  9
$SHADEDGE
 70
     3
  9
$SHADEDIF
 70
    70
  9
$TILEMODE
 70
     1
  9
$MAXACTVP
 70
    16
  9
$PLIMCHECK
 70
     0
  9
$PEXTMIN
 10
1.0000000000000000E+020
 20
1.0000000000000000E+020
 30
1.0000000000000000E+020
  9
$PEXTMAX
 10
-1.0000000000000000E+020
 20
-1.0000000000000000E+020
 30
-1.0000000000000000E+020
  9
$PLIMMIN
 10
0.0
 20
0.0
  9
$PLIMMAX
 10
12.0
 20
9.0
  9
$UNITMODE
 70
     0
  9
$VISRETAIN
 70
     0
  9
$PLINEGEN
 70
     0
  9
$PSLTSCALE
 70
     0
  0
ENDSEC
  0
SECTION
  2
TABLES
  0
TABLE
  2
VPORT
 70
     2
  0
VPORT
  2
*ACTIVE
 70
     0
 10
0.0
 20
0.0
 11
1.0
 21
1.0
 12
2911.4296640689381
 22
528.76358154354227
 13
0.0
 23
0.0
 14
5.0
 24
5.0
 15
0.0
 25
0.0
 16
0.0
 26
0.0
 36
1.0
 17
0.0
 27
0.0
 37
0.0
 40
1256.9932519279689
 41
3.1666666666666661
 42
50.0
 43
0.0
 44
0.0
 50
0.0
 51
0.0
 71
     0
 72
   100
 73
     1
 74
     0
 75
     0
 76
     0
 77
     0
 78
     0
  0
ENDTAB
  0
TABLE
  2
LTYPE
 70
     2
  0
LTYPE
  2
CONTINUOUS
 70
     0
  3
Solid line
 72
    65
 73
     0
 40
0.0
  0
LTYPE
  2
CENTER
 70
     0
  3
____ _ ____ _ ____ _ ____ _ ____ _ ____ _ ____ 
 72
    65
 73
     4
 40
2.0
 49
1.25
 49
-0.25
 49
0.25
 49
-0.25
  0
ENDTAB
  0
TABLE
  2
LAYER
 70
     6
  0
LAYER
  2
0
 70
     0
 62
     7
  6
CONTINUOUS
  0
LAYER
  2
DEFPOINTS
 70
     0
 62
     7
  6
CONTINUOUS
  0
LAYER
  2
3
 70
     0
 62
     2
  6
CONTINUOUS
  0
LAYER
  2
2
 70
     0
 62
     3
  6
CENTER
  0
LAYER
  2
1
 70
     0
 62
     4
  6
CONTINUOUS
  0
LAYER
  2
4
 70
     0
 62
     7
  6
CONTINUOUS
  0
ENDTAB
  0
TABLE
  2
STYLE
 70
     1
  0
STYLE
  2
STANDARD
 70
     0
 40
0.0
 41
1.0
 50
15.0
 71
     0
 42
3.0
  3
C:\Program Files\AutoCAD LT\simplex.shx
  4
C:\Program Files\AutoCAD LT\extfont.shx
  0
ENDTAB
  0
TABLE
  2
VIEW
 70
     0
  0
ENDTAB
  0
TABLE
  2
UCS
 70
     0
  0
ENDTAB
  0
TABLE
  2
APPID
 70
     1
  0
APPID
  2
ACAD
 70
     0
  0
ENDTAB
  0
TABLE
  2
DIMSTYLE
 70
     2
  0
DIMSTYLE
  2
MATSU
 70
     0
  3

  4

  5

  6
OPEN
  7
OPEN
 40
1.0
 41
2.0
 42
1.0
 43
10.0
 44
1.0
 45
0.0
 46
0.0
 47
0.0
 48
0.0
140
3.0
141
0.0
142
0.0
143
0.03937
144
1.0
145
0.0
146
1.0
147
0.5
 71
     0
 72
     0
 73
     0
 74
     0
 75
     0
 76
     0
 77
     1
 78
     8
170
     0
171
     2
172
     1
173
     1
174
     0
175
     0
176
   256
177
   256
178
   256
  0
DIMSTYLE
  2
STANDARD
 70
     0
  3

  4

  5

  6

  7

 40
1.0
 41
0.18
 42
0.0625
 43
0.38
 44
0.18
 45
0.0
 46
0.0
 47
0.0
 48
0.0
140
0.18
141
0.09
142
0.0
143
25.399999999999999
144
1.0
145
0.0
146
1.0
147
0.09
 71
     0
 72
     0
 73
     1
 74
     1
 75
     0
 76
     0
 77
     0
 78
     0
170
     0
171
     2
172
     0
173
     0
174
     0
175
     0
176
     0
177
     0
178
     0
  0
ENDTAB
  0
ENDSEC
  0
SECTION
  2
BLOCKS
  0
BLOCK
  8
0
  2
$MODEL_SPACE
 70
     0
 10
0.0
 20
0.0
 30
0.0
  3
$MODEL_SPACE
  1

  0
ENDBLK
  5
7
  8
0
  0
BLOCK
 67
     1
  8
0
  2
$PAPER_SPACE
 70
     0
 10
0.0
 20
0.0
 30
0.0
  3
$PAPER_SPACE
  1

  0
ENDBLK
  5
A
 67
     1
  8
0
  0
BLOCK
  8
0
  2
_OPEN
 70
     0
 10
0.0
 20
0.0
 30
0.0
  3
_OPEN
  1

  0
LINE
  5
3F
  8
0
  6
BYBLOCK
 62
     0
 10
-1.0
 20
0.1666666666666666
 30
0.0
 11
0.0
 21
0.0
 31
0.0
  0
LINE
  5
40
  8
0
  6
BYBLOCK
 62
     0
 10
0.0
 20
0.0
 30
0.0
 11
-1.0
 21
-0.1666666666666666
 31
0.0
  0
LINE
  5
41
  8
0
  6
BYBLOCK
 62
     0
 10
0.0
 20
0.0
 30
0.0
 11
-1.0
 21
0.0
 31
0.0
  0
ENDBLK
  5
43
  8
0
  0
BLOCK
  8
0
  2
*D1
 70
     1
 10
0.0
 20
0.0
 30
0.0
  3
*D1
  1

  0
LINE
  5
3A
  8
0
  6
BYBLOCK
 10
361.69680669518118
 20
2534.4241286463562
 30
0.0
 11
231.7772030286778
 21
2534.4241286463562
 31
0.0
  0
LINE
  5
3B
  8
0
  6
BYBLOCK
 10
361.69680669518118
 20
1824.4241286463559
 30
0.0
 11
231.7772030286778
 21
1824.4241286463559
 31
0.0
  0
LINE
  5
3C
  8
0
  6
BYBLOCK
 10
246.7772030286778
 20
2504.4241286463562
 30
0.0
 11
246.7772030286778
 21
1854.424128646355
 31
0.0
  0
INSERT
  5
3D
  8
0
  6
BYBLOCK
  2
_OPEN
 10
246.7772030286778
 20
2534.4241286463562
 30
0.0
 41
30.0
 42
30.0
 43
30.0
 50
90.0
  0
INSERT
  5
44
  8
0
  6
BYBLOCK
  2
_OPEN
 10
246.7772030286778
 20
1824.4241286463559
 30
0.0
 41
30.0
 42
30.0
 43
30.0
 50
270.0
  0
TEXT
  5
45
  8
3
 10
239.2772030286778
 20
2085.3608884752002
 30
0.0
 40
45.0
  1
φ710
 50
90.0
 51
15.0
  0
POINT
  5
46
  8
DEFPOINTS
  6
BYBLOCK
 62
     0
 10
376.69680669518118
 20
2534.4241286463562
 30
0.0
  0
POINT
  5
4A
  8
DEFPOINTS
  6
BYBLOCK
 62
     0
 10
376.69680669518118
 20
1824.4241286463559
 30
0.0
  0
POINT
  5
4B
  8
DEFPOINTS
  6
BYBLOCK
 62
     0
 10
246.7772030286778
 20
1824.4241286463559
 30
0.0
  0
ENDBLK
  5
4D
  8
0
  0
BLOCK
  8
0
  2
*D2
 70
     1
 10
0.0
 20
0.0
 30
0.0
  3
*D2
  1

  0
LINE
  5
5DE
  8
3
 10
1816.214957443249
 20
2179.4241286463562
 30
0.0
 11
1670.513843569649
 21
2179.4241286463562
 31
0.0
  0
LINE
  5
5DF
  8
3
 10
2288.812022451978
 20
2942.4241286463562
 30
0.0
 11
1670.5138435696499
 21
2942.4241286463562
 31
0.0
  0
LINE
  5
5E0
  8
3
 10
1685.513843569649
 20
2209.4241286463562
 30
0.0
 11
1685.513843569649
 21
2912.4241286463562
 31
0.0
  0
INSERT
  5
5E1
  8
3
  2
_OPEN
 10
1685.513843569649
 20
2179.4241286463562
 30
0.0
 41
30.0
 42
30.0
 43
30.0
 50
270.0
  0
INSERT
  5
5E2
  8
3
  2
_OPEN
 10
1685.513843569649
 20
2942.4241286463562
 30
0.0
 41
30.0
 42
30.0
 43
30.0
 50
90.0
  0
TEXT
  5
5E3
  8
3
 10
1678.013843569649
 20
2417.829339784219
 30
0.0
 40
45.0
  1
MAX.900
 50
90.0
 51
15.0
  0
POINT
  5
5E4
  8
DEFPOINTS
 62
     0
 10
1831.214957443249
 20
2179.4241286463562
 30
0.0
  0
POINT
  5
5E5
  8
DEFPOINTS
 62
     0
 10
2303.812022451978
 20
2942.4241286463562
 30
0.0
  0
POINT
  5
5E6
  8
DEFPOINTS
 62
     0
 10
1685.513843569649
 20
2942.4241286463562
 30
0.0
  0
ENDBLK
  5
5E8
  8
0
  0
BLOCK
  8
0
  2
L-50-6
 70
     0
 10
0.0
 20
0.0
 30
0.0
  3
L-50-6
  1

  0
LINE
  5
5F9
  8
0
 10
120.38788803395499
 20
87.205995755295433
 30
0.0
 11
170.38788803395499
 21
87.205995755295433
 31
0.0
  0
LINE
  5
5FA
  8
0
 10
120.38788803395499
 20
87.205995755295433
 30
0.0
 11
120.38788803395499
 21
137.20599575529539
 31
0.0
  0
LINE
  5
5FB
  8
0
 10
170.38788803395499
 20
87.205995755295433
 30
0.0
 11
170.38788803395499
 21
88.705995755295433
 31
0.0
  0
LINE
  5
5FC
  8
0
 10
120.38788803395499
 20
137.20599575529539
 30
0.0
 11
121.88788803395499
 21
137.20599575529539
 31
0.0
  0
LINE
  5
5FD
  8
0
 10
132.88788803395499
 20
93.205995755295433
 30
0.0
 11
165.88788803395499
 21
93.205995755295433
 31
0.0
  0
LINE
  5
5FE
  8
0
 10
126.38788803395499
 20
99.705995755295433
 30
0.0
 11
126.38788803395499
 21
132.70599575529539
 31
0.0
  0
ARC
  5
5FF
  8
0
 10
165.88788803395499
 20
88.705995755295433
 30
0.0
 40
4.5
 50
0.0
 51
90.0
  0
ARC
  5
600
  8
0
 10
121.88788803395499
 20
132.70599575529539
 30
0.0
 40
4.5
 50
0.0
 51
90.0
  0
ARC
  5
601
  8
0
 10
132.88788803395499
 20
99.705995755295433
 30
0.0
 40
6.5
 50
180.0
 51
270.0
  0
ENDBLK
  5
603
  8
0
  0
BLOCK
  8
0
  2
*D4
 70
     1
 10
0.0
 20
0.0
 30
0.0
  3
*D4
  1

  0
LINE
  5
628
  8
3
 10
1898.8120224519789
 20
3107.129297572355
 30
0.0
 11
1898.8120224519789
 21
3216.583732020259
 31
0.0
  0
LINE
  5
629
  8
3
 10
2708.8120224519789
 20
3107.129297572355
 30
0.0
 11
2708.8120224519789
 21
3216.583732020259
 31
0.0
  0
LINE
  5
62A
  8
3
 10
1928.8120224519789
 20
3201.583732020259
 30
0.0
 11
2678.8120224519798
 21
3201.583732020259
 31
0.0
  0
INSERT
  5
62B
  8
3
  2
_OPEN
 10
1898.8120224519789
 20
3201.583732020259
 30
0.0
 41
30.0
 42
30.0
 43
30.0
 50
180.0
  0
INSERT
  5
62C
  8
3
  2
_OPEN
 10
2708.8120224519789
 20
3201.583732020259
 30
0.0
 41
30.0
 42
30.0
 43
30.0
  0
TEXT
  5
62D
  8
3
 10
2245.2831656222779
 20
3209.083732020259
 30
0.0
 40
45.0
  1
810
 51
15.0
  0
POINT
  5
62E
  8
DEFPOINTS
 62
     0
 10
1898.8120224519789
 20
3092.129297572355
 30
0.0
  0
POINT
  5
62F
  8
DEFPOINTS
 62
     0
 10
2708.8120224519789
 20
3092.129297572355
 30
0.0
  0
POINT
  5
630
  8
DEFPOINTS
 62
     0
 10
2708.8120224519789
 20
3201.583732020259
 30
0.0
  0
ENDBLK
  5
632
  8
0
  0
BLOCK
  8
0
  2
*D5
 70
     1
 10
0.0
 20
0.0
 30
0.0
  3
*D5
  1

  0
LINE
  5
635
  8
3
 10
506.41257662572337
 20
3107.1292975723559
 30
0.0
 11
506.41257662572337
 21
3198.4282637407669
 31
0.0
  0
LINE
  5
636
  8
3
 10
1220.412576625723
 20
3107.1292975723559
 30
0.0
 11
1220.412576625723
 21
3198.4282637407669
 31
0.0
  0
LINE
  5
637
  8
3
 10
536.41257662572343
 20
3183.4282637407669
 30
0.0
 11
1190.412576625723
 21
3183.4282637407669
 31
0.0
  0
INSERT
  5
638
  8
3
  2
_OPEN
 10
506.41257662572337
 20
3183.4282637407669
 30
0.0
 41
30.0
 42
30.0
 43
30.0
 50
180.0
  0
INSERT
  5
639
  8
3
  2
_OPEN
 10
1220.412576625723
 20
3183.4282637407669
 30
0.0
 41
30.0
 42
30.0
 43
30.0
  0
TEXT
  5
63A
  8
3
 10
802.47438625391851
 20
3190.9282637407669
 30
0.0
 40
45.0
  1
714
 51
15.0
  0
POINT
  5
63B
  8
DEFPOINTS
 62
     0
 10
506.41257662572337
 20
3092.129297572355
 30
0.0
  0
POINT
  5
63C
  8
DEFPOINTS
 62
     0
 10
1220.412576625723
 20
3092.129297572355
 30
0.0
  0
POINT
  5
63D
  8
DEFPOINTS
 62
     0
 10
1220.412576625723
 20
3183.4282637407669
 30
0.0
  0
ENDBLK
  5
63F
  8
0
  0
BLOCK
  8
0
  2
*D6
 70
     1
 10
0.0
 20
0.0
 30
0.0
  3
*D6
  1

  0
LINE
  5
642
  8
3
 10
483.41257662572389
 20
2589.4241286463562
 30
0.0
 11
483.41257662572389
 21
3321.8854562842789
 31
0.0
  0
LINE
  5
643
  8
3
 10
1243.4125766257239
 20
2589.4241286463562
 30
0.0
 11
1243.4125766257239
 21
3321.8854562842789
 31
0.0
  0
LINE
  5
644
  8
3
 10
513.41257662572389
 20
3306.8854562842789
 30
0.0
 11
1213.412576625723
 21
3306.8854562842789
 31
0.0
  0
INSERT
  5
645
  8
3
  2
_OPEN
 10
483.41257662572389
 20
3306.8854562842789
 30
0.0
 41
30.0
 42
30.0
 43
30.0
 50
180.0
  0
INSERT
  5
646
  8
3
  2
_OPEN
 10
1243.4125766257239
 20
3306.8854562842789
 30
0.0
 41
30.0
 42
30.0
 43
30.0
  0
TEXT
  5
647
  8
3
 10
797.46064490644267
 20
3314.3854562842789
 30
0.0
 40
45.0
  1
760
 51
15.0
  0
POINT
  5
648
  8
DEFPOINTS
 62
     0
 10
483.41257662572389
 20
2574.4241286463562
 30
0.0
  0
POINT
  5
649
  8
DEFPOINTS
 62
     0
 10
1243.4125766257239
 20
2574.4241286463562
 30
0.0
  0
POINT
  5
64A
  8
DEFPOINTS
 62
     0
 10
1243.4125766257239
 20
3306.8854562842789
 30
0.0
  0
ENDBLK
  5
64C
  8
0
  0
BLOCK
  8
0
  2
*D7
 70
     1
 10
0.0
 20
0.0
 30
0.0
  3
*D7
  1

  0
LINE
  5
724
  8
3
 10
1220.412576625723
 20
3107.1292975723559
 30
0.0
 11
1220.412576625723
 21
3198.4282637407669
 31
0.0
  0
LINE
  5
725
  8
3
 10
1243.4125766257239
 20
2589.4241286463562
 30
0.0
 11
1243.4125766257239
 21
3198.4282637407669
 31
0.0
  0
LINE
  5
726
  8
3
 10
1190.412576625723
 20
3183.4282637407669
 30
0.0
 11
1160.412576625723
 21
3183.4282637407669
 31
0.0
  0
LINE
  5
727
  8
3
 10
1273.4125766257239
 20
3183.4282637407669
 30
0.0
 11
1303.412576625723
 21
3183.4282637407669
 31
0.0
  0
TEXT
  8
3
  40
45
  5
73A
  72
0
  71
0
 10
1253.88
 20
3133.78
 30
0.000000
  1
23
  0
LINE
  5
729
  8
3
 10
1220.412576625723
 20
3183.4282637407669
 30
0.0
 11
1243.4125766257239
 21
3183.4282637407669
 31
0.0
  0
INSERT
  5
72A
  8
3
  2
_OPEN
 10
1220.412576625723
 20
3183.4282637407669
 30
0.0
 41
30.0
 42
30.0
 43
30.0
  0
INSERT
  5
72B
  8
3
  2
_OPEN
 10
1243.4125766257239
 20
3183.4282637407669
 30
0.0
 41
30.0
 42
30.0
 43
30.0
 50
180.0
  0
POINT
  5
72C
  8
DEFPOINTS
 62
     0
 10
1220.412576625723
 20
3092.129297572355
 30
0.0
  0
POINT
  5
72D
  8
DEFPOINTS
 62
     0
 10
1243.4125766257239
 20
2574.4241286463562
 30
0.0
  0
POINT
  5
72E
  8
DEFPOINTS
 62
     0
 10
1243.4125766257239
 20
3183.4282637407669
 30
0.0
  0
ENDBLK
  5
65E
  8
0
  0
BLOCK
  8
0
  2
*D8
 70
     1
 10
0.0
 20
0.0
 30
0.0
  3
*D8
  1

  0
LINE
  5
72F
  8
3
 10
506.41257662572337
 20
3107.1292975723559
 30
0.0
 11
506.41257662572337
 21
3198.4282637407669
 31
0.0
  0
LINE
  5
730
  8
3
 10
483.41257662572389
 20
2589.4241286463562
 30
0.0
 11
483.41257662572389
 21
3198.4282637407669
 31
0.0
  0
LINE
  5
731
  8
3
 10
536.41257662572343
 20
3183.4282637407669
 30
0.0
 11
566.41257662572343
 21
3183.4282637407669
 31
0.0
  0
LINE
  5
732
  8
3
 10
453.41257662572389
 20
3183.4282637407669
 30
0.0
 11
423.41257662572389
 21
3183.4282637407669
 31
0.0
  0
TEXT
  8
3
  40
45
  5
73B
  72
0
  71
0
 10
290.682
 20
3130.15
 30
0.000000
  1
23
  0
LINE
  5
734
  8
3
 10
506.41257662572337
 20
3183.4282637407669
 30
0.0
 11
483.41257662572389
 21
3183.4282637407669
 31
0.0
  0
INSERT
  5
735
  8
3
  2
_OPEN
 10
506.41257662572337
 20
3183.4282637407669
 30
0.0
 41
30.0
 42
30.0
 43
30.0
 50
180.0
  0
INSERT
  5
736
  8
3
  2
_OPEN
 10
483.41257662572389
 20
3183.4282637407669
 30
0.0
 41
30.0
 42
30.0
 43
30.0
  0
POINT
  5
737
  8
DEFPOINTS
 62
     0
 10
506.41257662572337
 20
3092.129297572355
 30
0.0
  0
POINT
  5
738
  8
DEFPOINTS
 62
     0
 10
483.41257662572389
 20
2574.4241286463562
 30
0.0
  0
POINT
  5
739
  8
DEFPOINTS
 62
     0
 10
483.41257662572389
 20
3183.4282637407669
 30
0.0
  0
ENDBLK
  5
670
  8
0
  0
ENDSEC
  0
SECTION
  2
ENTITIES
  0
LINE
  5
1D
  8
4
 10
3150.0
 20
0.0
 30
0.0
 11
0.0
 21
0.0
 31
0.0
  0
LINE
  5
1F
  8
4
 10
0.0
 20
4425.0
 30
0.0
 11
3150.0
 21
4425.0
 31
0.0
  0
LINE
  5
20
  8
4
 10
975.0
 20
750.0
 30
0.0
 11
2775.0
 21
750.0
 31
0.0
  0
LINE
  5
21
  8
4
 10
375.0
 20
4004.1131313972069
 30
0.0
 11
2775.0
 21
4004.1131313972069
 31
0.0
  0
LINE
  5
22
  8
4
 10
375.0
 20
3704.1131313972069
 30
0.0
 11
2775.0
 21
3704.1131313972069
 31
0.0
  0
TEXT
  5
23
  8
4
 10
474.25138999416959
 20
3800.8214642989469
 30
0.0
 40
108.0
  1
ベルト駆動式横形軸流ファン
  0
TEXT
  5
24
  8
4
 10
1226.1533655760829
 20
3566.4154574076128
 30
0.0
 40
80.999999999999986
  1
天井吊本体形
  0
LINE
  5
25
  8
4
 10
975.0
 20
600.0
 30
0.0
 11
2775.0
 21
600.0
 31
0.0
  0
LINE
  5
26
  8
4
 10
975.0
 20
450.0
 30
0.0
 11
2775.0
 21
450.0
 31
0.0
  0
LINE
  5
28
  8
1
 10
643.41257662572377
 20
2356.9241286463562
 30
0.0
 11
643.41257662572377
 21
2001.9241286463559
 31
0.0
  0
LINE
  5
2B
  8
1
 10
493.41257662572377
 20
2356.9241286463562
 30
0.0
 11
493.41257662572377
 21
2001.9241286463559
 31
0.0
  0
LINE
  5
2C
  8
1
 10
1243.4125766257239
 20
2574.4241286463562
 30
0.0
 11
1243.4125766257239
 21
1784.424128646355
 31
0.0
  0
LINE
  5
2E
  8
1
 10
1240.2125766257229
 20
2574.4241286463562
 30
0.0
 11
1240.2125766257229
 21
1784.424128646355
 31
0.0
  0
LINE
  5
2F
  8
1
 10
1246.4125766257239
 20
2572.4241286463562
 30
0.0
 11
1246.4125766257239
 21
1786.424128646355
 31
0.0
  0
LINE
  5
30
  8
1
 10
1283.4125766257239
 20
2534.4241286463562
 30
0.0
 11
1283.4125766257239
 21
1824.4241286463559
 31
0.0
  0
LINE
  5
31
  8
1
 10
1055.4125766257239
 20
2255.9241286463562
 30
0.0
 11
1055.4125766257239
 21
2102.9241286463562
 31
0.0
  0
LINE
  5
32
  8
1
 10
1108.4125766257239
 20
2102.9241286463562
 30
0.0
 11
1108.4125766257239
 21
2843.4241286463562
 31
0.0
  0
LINE
  5
33
  8
1
 10
486.6125766257237
 20
2574.4241286463562
 30
0.0
 11
486.61257662572359
 21
1784.424128646355
 31
0.0
  0
LINE
  5
34
  8
1
 10
483.41257662572389
 20
2574.4241286463562
 30
0.0
 11
483.41257662572389
 21
1784.424128646355
 31
0.0
  0
LINE
  5
35
  8
1
 10
443.41257662572377
 20
2534.4241286463562
 30
0.0
 11
443.41257662572377
 21
1824.4241286463559
 31
0.0
  0
LINE
  5
36
  8
1
 10
480.41257662572377
 20
2572.4241286463562
 30
0.0
 11
480.41257662572377
 21
1786.424128646355
 31
0.0
  0
DIMENSION
  5
37
  8
3
  2
*D1
 10
313.49297295922042
 20
1824.4241286463559
 30
0.0
 11
313.49297295922042
 21
2163.2317726798192
 31
0.0
 12
66.715769930542592
 22
0.0
 32
0.0
 70
   128
  1
φ<>
 13
443.41257662572377
 23
2534.4241286463562
 33
0.0
 14
443.41257662572377
 24
1824.4241286463559
 34
0.0
 50
90.0
1001
ACAD
1000
DSTYLE
1002
{
1070
    40
1040
15.0
1002
}
  0
LINE
  5
4E
  8
4
 10
0.0
 20
0.0
 30
0.0
 11
0.0
 21
4425.0
 31
0.0
  0
LINE
  5
58
  8
1
 10
533.41257662572389
 20
1827.4241286463559
 30
0.0
 11
603.41257662572389
 21
1827.4241286463559
 31
0.0
  0
LINE
  5
59
  8
1
 10
493.41257662572377
 20
2013.9241286463559
 30
0.0
 11
643.41257662572377
 21
2013.9241286463559
 31
0.0
  0
LINE
  5
5A
  8
1
 10
493.41257662572377
 20
2001.9241286463559
 30
0.0
 11
643.41257662572377
 21
2001.9241286463559
 31
0.0
  0
LINE
  5
5B
  8
1
 10
486.6125766257237
 20
1821.224128646355
 30
0.0
 11
1240.2125766257229
 21
1821.224128646355
 31
0.0
  0
LINE
  5
5C
  8
2
 10
398.41257662572389
 20
2179.4241286463562
 30
0.0
 11
1328.412576625723
 21
2179.4241286463548
 31
0.0
  0
LINE
  5
6C
  8
1
 10
533.41257662572389
 20
1827.4241286463559
 30
0.0
 11
493.41257662572377
 21
2001.9241286463559
 31
0.0
  0
LINE
  5
76
  8
1
 10
443.41257662572377
 20
1824.4241286463559
 30
0.0
 11
480.41257662572377
 21
1824.4241286463559
 31
0.0
  0
LINE
  5
77
  8
1
 10
475.91257662572389
 20
1821.424128646355
 30
0.0
 11
445.41257662572389
 21
1821.424128646355
 31
0.0
  0
LINE
  5
78
  8
1
 10
474.23877300129141
 20
1821.424128646355
 30
0.0
 11
443.73877300129152
 21
1821.424128646355
 31
0.0
  0
LINE
  5
89
  8
1
 10
443.41257662572377
 20
1823.424128646355
 30
0.0
 11
443.41257662572377
 21
1824.4241286463559
 31
0.0
  0
ARC
  5
8A
  8
1
 10
445.41257662572389
 20
1823.424128646355
 30
0.0
 40
2.0
 50
180.0
 51
270.0
  0
LINE
  5
A3
  8
1
 10
486.6125766257237
 20
1784.424128646355
 30
0.0
 11
483.41257662572389
 21
1784.424128646355
 31
0.0
  0
ARC
  5
A4
  8
1
 10
475.91257662572389
 20
1816.924128646355
 30
0.0
 40
4.5
 50
0.0
 51
90.0
  0
ARC
  5
A5
  8
1
 10
482.41257662572377
 20
1786.424128646355
 30
0.0
 40
2.0
 50
180.0
 51
270.0
  0
LINE
  5
A6
  8
1
 10
483.41257662572389
 20
1784.424128646355
 30
0.0
 11
482.41257662572377
 21
1784.424128646355
 31
0.0
  0
LINE
  5
A7
  8
1
 10
484.93877300129128
 20
1784.424128646355
 30
0.0
 11
482.41257662572377
 21
1784.424128646355
 31
0.0
  0
TEXT
  5
A8
  8
4
 10
1029.3871590371959
 20
482.46773509801642
 30
0.0
 40
75.0
  1
機器型番
  0
TEXT
  5
A9
  8
4
 10
1032.753121270352
 20
647.31453879991932
 30
0.0
 40
75.0
  1
機器名称
  0
LINE
  5
AB
  8
4
 10
975.0
 20
750.0
 30
0.0
 11
975.0
 21
450.0
 31
0.0
  0
LINE
  5
AE
  8
1
 10
1055.4125766257239
 20
2102.9241286463562
 30
0.0
 11
1108.4125766257239
 21
2102.9241286463562
 31
0.0
  0
LINE
  5
B4
  8
1
 10
603.41257662572389
 20
1827.4241286463559
 30
0.0
 11
643.41257662572377
 21
2001.9241286463559
 31
0.0
  0
LINE
  5
F0
  8
1
 10
1250.9125766257239
 20
1821.424128646355
 30
0.0
 11
1281.4125766257239
 21
1821.424128646355
 31
0.0
  0
LINE
  5
F1
  8
1
 10
1283.4125766257239
 20
1824.4241286463559
 30
0.0
 11
1246.4125766257239
 21
1824.4241286463559
 31
0.0
  0
LINE
  5
F2
  8
1
 10
1281.7387730012911
 20
1824.4241286463559
 30
0.0
 11
1244.7387730012911
 21
1824.4241286463559
 31
0.0
  0
LINE
  5
FA
  8
1
 10
1240.2125766257229
 20
1784.424128646355
 30
0.0
 11
1243.4125766257239
 21
1784.424128646355
 31
0.0
  0
LINE
  5
FB
  8
1
 10
1243.4125766257239
 20
1784.424128646355
 30
0.0
 11
1244.412576625723
 21
1784.424128646355
 31
0.0
  0
ARC
  5
FC
  8
1
 10
1244.412576625723
 20
1786.424128646355
 30
0.0
 40
2.0
 50
270.0
 51
0.0
  0
ARC
  5
FD
  8
1
 10
1250.9125766257239
 20
1816.924128646355
 30
0.0
 40
4.5
 50
90.0
 51
180.0
  0
LINE
  5
FE
  8
1
 10
1241.7387730012911
 20
1784.424128646355
 30
0.0
 11
1242.7387730012911
 21
1784.424128646355
 31
0.0
  0
ARC
  5
105
  8
1
 10
1281.4125766257239
 20
1823.424128646355
 30
0.0
 40
2.0
 50
270.0
 51
0.0
  0
LINE
  5
106
  8
1
 10
1283.4125766257239
 20
1823.424128646355
 30
0.0
 11
1283.4125766257239
 21
1824.4241286463559
 31
0.0
  0
LINE
  5
107
  8
1
 10
493.41257662572377
 20
2344.9241286463562
 30
0.0
 11
643.41257662572377
 21
2344.9241286463562
 31
0.0
  0
LINE
  5
108
  8
1
 10
493.41257662572377
 20
2356.9241286463562
 30
0.0
 11
643.41257662572377
 21
2356.9241286463562
 31
0.0
  0
LINE
  5
109
  8
1
 10
533.41257662572389
 20
2531.4241286463562
 30
0.0
 11
603.41257662572389
 21
2531.4241286463562
 31
0.0
  0
LINE
  5
10A
  8
1
 10
486.6125766257237
 20
2537.624128646356
 30
0.0
 11
1240.2125766257229
 21
2537.624128646356
 31
0.0
  0
LINE
  5
10B
  8
1
 10
1193.412576625723
 20
2492.4241286463548
 30
0.0
 11
533.41257662572389
 21
2492.4241286463548
 31
0.0
  0
LINE
  5
10C
  8
1
 10
1193.412576625723
 20
2446.4241286463562
 30
0.0
 11
533.41257662572389
 21
2446.4241286463562
 31
0.0
  0
LINE
  5
10D
  8
1
 10
1193.412576625723
 20
2486.4241286463548
 30
0.0
 11
533.41257662572389
 21
2486.4241286463548
 31
0.0
  0
TEXT
  5
11B
  8
4
 10
432.60480866188658
 20
3573.4792163195152
 30
0.0
 40
80.999999999999986
  1
左回転後方吐出
  0
LINE
  5
11C
  8
1
 10
475.91257662572389
 20
2537.4241286463562
 30
0.0
 11
445.41257662572389
 21
2537.4241286463562
 31
0.0
  0
LINE
  5
11D
  8
1
 10
443.41257662572377
 20
2534.4241286463562
 30
0.0
 11
480.41257662572377
 21
2534.4241286463562
 31
0.0
  0
ARC
  5
11E
  8
1
 10
445.41257662572389
 20
2535.4241286463562
 30
0.0
 40
2.0
 50
90.0
 51
180.0
  0
LINE
  5
11F
  8
1
 10
443.41257662572377
 20
2535.4241286463562
 30
0.0
 11
443.41257662572377
 21
2534.4241286463562
 31
0.0
  0
LINE
  5
120
  8
1
 10
533.41257662572389
 20
2531.4241286463562
 30
0.0
 11
493.41257662572377
 21
2356.9241286463562
 31
0.0
  0
ARC
  5
121
  8
1
 10
475.91257662572389
 20
2541.9241286463562
 30
0.0
 40
4.5
 50
270.0
 51
0.0
  0
LINE
  5
122
  8
1
 10
533.41257662572389
 20
2492.4241286463548
 30
0.0
 11
533.41257662572389
 21
2446.4241286463562
 31
0.0
  0
LINE
  5
123
  8
1
 10
486.6125766257237
 20
2574.4241286463562
 30
0.0
 11
483.41257662572389
 21
2574.4241286463562
 31
0.0
  0
LINE
  5
124
  8
1
 10
483.41257662572389
 20
2574.4241286463562
 30
0.0
 11
482.41257662572377
 21
2574.4241286463562
 31
0.0
  0
ARC
  5
125
  8
1
 10
482.41257662572377
 20
2572.4241286463562
 30
0.0
 40
2.0
 50
90.0
 51
180.0
  0
LINE
  5
126
  8
4
 10
375.0
 20
4004.1131313972069
 30
0.0
 11
375.0
 21
3704.1131313972069
 31
0.0
  0
LINE
  5
127
  8
1
 10
1055.4125766257239
 20
2843.4241286463562
 30
0.0
 11
1108.4125766257239
 21
2843.4241286463562
 31
0.0
  0
LINE
  5
128
  8
1
 10
1099.9830601966471
 20
2773.4241286463562
 30
0.0
 11
1033.412576625723
 21
2773.4241286463571
 31
0.0
  0
LINE
  5
129
  8
1
 10
1099.9830601966471
 20
2735.4241286463571
 30
0.0
 11
1033.412576625723
 21
2735.4241286463571
 31
0.0
  0
LINE
  5
12A
  8
2
 10
623.80871592795665
 20
2754.4241286463562
 30
0.0
 11
1100.027841187379
 21
2754.4241286463562
 31
0.0
  0
LINE
  5
12B
  8
1
 10
1148.4125766257239
 20
2902.852003966249
 30
0.0
 11
1033.4125766257239
 21
2902.852003966249
 31
0.0
  0
LINE
  5
12C
  8
1
 10
1193.412576625723
 20
2492.4241286463548
 30
0.0
 11
1073.4125766257239
 21
2672.4241286463562
 31
0.0
  0
LINE
  5
12D
  8
1
 10
1055.4125766257239
 20
2665.4241286463562
 30
0.0
 11
1108.4125766257239
 21
2665.4241286463562
 31
0.0
  0
LINE
  5
12E
  8
1
 10
1055.4125766257239
 20
2255.9241286463562
 30
0.0
 11
1108.4125766257239
 21
2255.9241286463562
 31
0.0
  0
LINE
  5
12F
  8
1
 10
867.82993757115582
 20
2942.4241286463562
 30
0.0
 11
867.82993757115582
 21
2901.7324278638712
 31
0.0
  0
LINE
  5
130
  8
1
 10
854.13618282213793
 20
2942.4241286463562
 30
0.0
 11
854.13618282213793
 21
2901.7324278638712
 31
0.0
  0
LINE
  5
131
  8
2
 10
860.98306019664585
 20
2927.9889837109272
 30
0.0
 11
860.98306019664585
 21
2589.1242666800981
 31
0.0
  0
LINE
  5
132
  8
1
 10
933.51365202533816
 20
2896.4241286463562
 30
0.0
 11
776.25350066976898
 21
2896.4241286463562
 31
0.0
  0
LINE
  5
133
  8
1
 10
792.79455834023236
 20
2896.4241286463562
 30
0.0
 11
933.51365202533816
 21
2896.4241286463562
 31
0.0
  0
LINE
  5
134
  8
1
 10
914.48306019664585
 20
2860.5786323685138
 30
0.0
 11
807.48306019664585
 21
2860.5786323685138
 31
0.0
  0
LINE
  5
135
  8
1
 10
914.48306019664585
 20
2870.5786323685138
 30
0.0
 11
807.48306019664585
 21
2870.5786323685138
 31
0.0
  0
LINE
  5
136
  8
1
 10
807.48306019664585
 20
2737.546796083238
 30
0.0
 11
914.48306019664585
 21
2737.546796083238
 31
0.0
  0
LINE
  5
137
  8
1
 10
807.48306019664585
 20
2727.546796083238
 30
0.0
 11
914.48306019664585
 21
2727.546796083238
 31
0.0
  0
LINE
  5
138
  8
1
 10
773.48306019664585
 20
2637.4241286463562
 30
0.0
 11
839.95305648135945
 21
2637.4241286463571
 31
0.0
  0
LINE
  5
139
  8
1
 10
948.48306019664585
 20
2622.4241286463562
 30
0.0
 11
773.48306019664585
 21
2622.4241286463562
 31
0.0
  0
LINE
  5
13A
  8
1
 10
1001.412576625724
 20
2622.4241286463562
 30
0.0
 11
625.41257662572389
 21
2622.4241286463562
 31
0.0
  0
LINE
  5
13B
  8
1
 10
1001.412576625724
 20
2616.4241286463562
 30
0.0
 11
625.41257662572389
 21
2616.4241286463562
 31
0.0
  0
LINE
  5
13C
  8
1
 10
953.41257662572377
 20
2578.4241286463562
 30
0.0
 11
673.41257662572377
 21
2578.4241286463548
 31
0.0
  0
LINE
  5
13D
  8
1
 10
979.91257662572389
 20
2622.4241286463562
 30
0.0
 11
804.91257662572389
 21
2622.4241286463562
 31
0.0
  0
LINE
  5
13E
  8
1
 10
672.21257662572395
 20
2600.4241286463562
 30
0.0
 11
672.21257662572395
 21
2492.4241286463548
 31
0.0
  0
LINE
  5
13F
  8
1
 10
673.41257662572377
 20
2600.4241286463562
 30
0.0
 11
673.41257662572377
 21
2492.4241286463548
 31
0.0
  0
LINE
  5
140
  8
1
 10
654.6125766257237
 20
2600.4241286463562
 30
0.0
 11
654.6125766257237
 21
2492.4241286463548
 31
0.0
  0
LINE
  5
141
  8
1
 10
653.41257662572389
 20
2600.4241286463562
 30
0.0
 11
653.41257662572389
 21
2492.4241286463548
 31
0.0
  0
LINE
  5
142
  8
2
 10
663.41257662572389
 20
2701.7797629151491
 30
0.0
 11
663.41257662572389
 21
2481.7797629151491
 31
0.0
  0
LINE
  5
143
  8
1
 10
603.41257662572389
 20
2531.4241286463562
 30
0.0
 11
643.41257662572377
 21
2356.9241286463562
 31
0.0
  0
LINE
  5
144
  8
1
 10
722.38516143238303
 20
2896.4241286463562
 30
0.0
 11
650.98306019664585
 21
2876.5988016291722
 31
0.0
  0
LINE
  5
145
  8
1
 10
650.98306019664585
 20
2633.1160846172711
 30
0.0
 11
722.38516143238303
 21
2626.3018783892121
 31
0.0
  0
LINE
  5
146
  8
1
 10
650.98306019664585
 20
2633.1160846172711
 30
0.0
 11
650.98306019664585
 21
2876.5988016291722
 31
0.0
  0
LINE
  5
147
  8
1
 10
678.41257662572389
 20
2638.4241286463562
 30
0.0
 11
648.41257662572377
 21
2638.4241286463562
 31
0.0
  0
ARC
  5
148
  8
1
 10
650.42219556895725
 20
2630.7566604010872
 30
0.0
 40
7.6674682452692551
 50
55.615752531956872
 51
124.3842474680431
  0
ARC
  5
149
  8
1
 10
650.42219556895725
 20
2608.0915968916252
 30
0.0
 40
7.6674682452692551
 50
235.61575253195679
 51
304.3842474680431
  0
LINE
  5
14A
  8
1
 10
678.41257662572389
 20
2600.4241286463562
 30
0.0
 11
648.41257662572377
 21
2600.4241286463562
 31
0.0
  0
LINE
  5
14B
  8
1
 10
653.41257662572389
 20
2578.4241286463548
 30
0.0
 11
619.41257662572377
 21
2578.4241286463562
 31
0.0
  0
ARC
  5
14C
  8
1
 10
625.41257662572389
 20
2610.4241286463562
 30
0.0
 40
6.0
 50
89.999999999999986
 51
179.99999999999989
  0
ARC
  5
14D
  8
1
 10
625.41257662572389
 20
2610.4241286463562
 30
0.0
 40
12.0
 50
90.0
 51
179.99999999999989
  0
LINE
  5
14E
  8
1
 10
619.41257662572377
 20
2572.4241286463548
 30
0.0
 11
613.41257662572389
 21
2572.4241286463548
 31
0.0
  0
LINE
  5
14F
  8
1
 10
613.41257662572389
 20
2610.4241286463562
 30
0.0
 11
613.41257662572389
 21
2572.4241286463548
 31
0.0
  0
LINE
  5
150
  8
1
 10
619.41257662572377
 20
2610.4241286463562
 30
0.0
 11
619.41257662572377
 21
2572.4241286463548
 31
0.0
  0
LINE
  5
151
  8
1
 10
646.09206855003504
 20
2637.0843826842001
 30
0.0
 11
646.09206855003504
 21
2622.4241286463562
 31
0.0
  0
LINE
  5
152
  8
1
 10
648.41257662572377
 20
2638.4241286463562
 30
0.0
 11
646.09206855003504
 21
2637.0843826842001
 31
0.0
  0
LINE
  5
153
  8
1
 10
648.41257662572377
 20
2600.4241286463562
 30
0.0
 11
646.09206855003504
 21
2601.7638746085108
 31
0.0
  0
LINE
  5
154
  8
1
 10
646.09206855003504
 20
2601.7638746085108
 30
0.0
 11
646.09206855003504
 21
2616.4241286463562
 31
0.0
  0
LINE
  5
155
  8
1
 10
672.21257662572395
 20
2692.4241286463562
 30
0.0
 11
672.21257662572395
 21
2638.4241286463562
 31
0.0
  0
LINE
  5
156
  8
1
 10
654.6125766257237
 20
2692.4241286463562
 30
0.0
 11
654.6125766257237
 21
2638.4241286463562
 31
0.0
  0
LINE
  5
157
  8
1
 10
673.41257662572377
 20
2691.4241286463562
 30
0.0
 11
673.41257662572377
 21
2638.4241286463562
 31
0.0
  0
LINE
  5
158
  8
1
 10
653.41257662572389
 20
2691.4241286463562
 30
0.0
 11
653.41257662572389
 21
2638.4241286463562
 31
0.0
  0
LINE
  5
159
  8
1
 10
680.73308470141274
 20
2637.0843826842001
 30
0.0
 11
680.73308470141274
 21
2622.4241286463562
 31
0.0
  0
LINE
  5
15A
  8
1
 10
672.07283066356831
 20
2637.0843826842001
 30
0.0
 11
672.07283066356831
 21
2622.4241286463562
 31
0.0
  0
LINE
  5
15B
  8
1
 10
654.75232258787935
 20
2637.0843826842001
 30
0.0
 11
654.75232258787935
 21
2622.4241286463562
 31
0.0
  0
LINE
  5
15C
  8
1
 10
678.41257662572389
 20
2638.4241286463562
 30
0.0
 11
680.73308470141274
 21
2637.0843826842001
 31
0.0
  0
ARC
  5
15D
  8
1
 10
663.41257662572389
 20
2609.7638746085122
 30
0.0
 40
28.660254037843568
 50
72.412046226005614
 51
107.5879537739943
  0
ARC
  5
15E
  8
1
 10
676.40295768249052
 20
2630.7566604010872
 30
0.0
 40
7.6674682452692551
 50
55.615752531956872
 51
124.3842474680431
  0
ARC
  5
15F
  8
1
 10
676.40295768249052
 20
2608.0915968916252
 30
0.0
 40
7.6674682452692551
 50
235.61575253195679
 51
304.3842474680431
  0
ARC
  5
160
  8
1
 10
663.41257662572389
 20
2629.0843826841992
 30
0.0
 40
28.660254037843568
 50
252.4120462260056
 51
287.58795377399429
  0
LINE
  5
161
  8
1
 10
678.41257662572389
 20
2600.4241286463562
 30
0.0
 11
680.73308470141274
 21
2601.7638746085108
 31
0.0
  0
LINE
  5
162
  8
1
 10
654.75232258787935
 20
2601.7638746085108
 30
0.0
 11
654.75232258787935
 21
2616.4241286463562
 31
0.0
  0
LINE
  5
163
  8
1
 10
672.07283066356831
 20
2601.7638746085108
 30
0.0
 11
672.07283066356831
 21
2616.4241286463562
 31
0.0
  0
LINE
  5
164
  8
1
 10
680.73308470141274
 20
2601.7638746085108
 30
0.0
 11
680.73308470141274
 21
2616.4241286463562
 31
0.0
  0
LINE
  5
165
  8
1
 10
653.41257662572389
 20
2691.4241286463562
 30
0.0
 11
673.41257662572377
 21
2691.4241286463562
 31
0.0
  0
LINE
  5
166
  8
1
 10
672.41257662572377
 20
2692.4241286463562
 30
0.0
 11
673.41257662572377
 21
2691.4241286463562
 31
0.0
  0
LINE
  5
167
  8
1
 10
654.41257662572389
 20
2692.4241286463562
 30
0.0
 11
653.41257662572389
 21
2691.4241286463562
 31
0.0
  0
LINE
  5
168
  8
1
 10
672.41257662572377
 20
2692.4241286463562
 30
0.0
 11
654.41257662572389
 21
2692.4241286463562
 31
0.0
  0
ARC
  5
169
  8
1
 10
807.48306019664585
 20
2737.546796083238
 30
0.0
 40
10.0
 50
180.0
 51
270.0
  0
LINE
  5
16A
  8
1
 10
722.38516143238303
 20
2896.4241286463548
 30
0.0
 11
722.38516143238303
 21
2626.3018783892121
 31
0.0
  0
LINE
  5
16B
  8
1
 10
767.22835225006736
 20
2680.878466612779
 30
0.0
 11
767.22835225006736
 21
2896.4241286463562
 31
0.0
  0
LINE
  5
16C
  8
1
 10
749.84710514460664
 20
2626.3018783892121
 30
0.0
 11
749.84710514460664
 21
2664.6336995011952
 31
0.0
  0
LINE
  5
16D
  8
1
 10
722.38516143238303
 20
2626.3018783892121
 30
0.0
 11
749.84710514460664
 21
2626.3018783892121
 31
0.0
  0
LINE
  5
16E
  8
1
 10
773.48306019664585
 20
2622.4241286463562
 30
0.0
 11
773.48306019664585
 21
2637.4241286463562
 31
0.0
  0
LINE
  5
16F
  8
1
 10
749.84710514460664
 20
2637.5590876485571
 30
0.0
 11
773.48306019664585
 21
2626.3018783892121
 31
0.0
  0
LINE
  5
170
  8
1
 10
749.84710514460664
 20
2664.6336995011952
 30
0.0
 11
767.22835225006736
 21
2680.878466612779
 31
0.0
  0
LINE
  5
171
  8
1
 10
790.98306019664597
 20
2649.2989455442489
 30
0.0
 11
790.98306019664597
 21
2605.1477722039522
 31
0.0
  0
LINE
  5
172
  8
1
 10
776.25350066976898
 20
2896.4241286463562
 30
0.0
 11
767.22835225006736
 21
2876.4357752394471
 31
0.0
  0
LINE
  5
173
  8
1
 10
767.22835225006736
 20
2896.4241286463562
 30
0.0
 11
722.38516143238303
 21
2896.4241286463562
 31
0.0
  0
LINE
  5
174
  8
1
 10
807.48306019664585
 20
2860.5786323685138
 30
0.0
 11
807.48306019664585
 21
2737.546796083238
 31
0.0
  0
LINE
  5
175
  8
1
 10
797.48306019664585
 20
2860.5786323685138
 30
0.0
 11
797.48306019664585
 21
2737.546796083238
 31
0.0
  0
ARC
  5
176
  8
1
 10
807.48306019664585
 20
2860.5786323685138
 30
0.0
 40
10.0
 50
90.0
 51
180.0
  0
LINE
  5
177
  8
1
 10
953.41257662572377
 20
2600.4241286463562
 30
0.0
 11
953.41257662572377
 21
2492.4241286463548
 31
0.0
  0
LINE
  5
178
  8
1
 10
954.6125766257237
 20
2600.4241286463562
 30
0.0
 11
954.6125766257237
 21
2492.4241286463548
 31
0.0
  0
LINE
  5
179
  8
1
 10
973.41257662572389
 20
2600.4241286463562
 30
0.0
 11
973.41257662572389
 21
2492.4241286463548
 31
0.0
  0
LINE
  5
17A
  8
1
 10
972.21257662572316
 20
2600.4241286463562
 30
0.0
 11
972.21257662572316
 21
2492.4241286463548
 31
0.0
  0
LINE
  5
17B
  8
1
 10
1013.412576625724
 20
2672.4241286463571
 30
0.0
 11
1013.412576625724
 21
2492.4241286463562
 31
0.0
  0
LINE
  5
17C
  8
1
 10
1019.412576625723
 20
2672.4241286463562
 30
0.0
 11
1019.412576625723
 21
2492.4241286463548
 31
0.0
  0
LINE
  5
17D
  8
2
 10
963.41257662572389
 20
2701.7797629151491
 30
0.0
 11
963.41257662572389
 21
2481.7797629151491
 31
0.0
  0
LINE
  5
17E
  8
1
 10
1055.4125766257239
 20
2843.4241286463562
 30
0.0
 11
1055.4125766257239
 21
2255.9241286463562
 31
0.0
  0
LINE
  5
17F
  8
1
 10
1033.412576625723
 20
2902.852003966249
 30
0.0
 11
1033.4125766257239
 21
2537.624128646356
 31
0.0
  0
LINE
  5
180
  8
1
 10
1002.104780015066
 20
2639.3640617720662
 30
0.0
 11
946.1488598129198
 21
2639.3640617720662
 31
0.0
  0
LINE
  5
181
  8
1
 10
1002.104780015066
 20
2876.5694132877552
 30
0.0
 11
956.97903791656063
 21
2876.5694132877552
 31
0.0
  0
LINE
  5
182
  8
1
 10
972.41257662572389
 20
2692.4241286463562
 30
0.0
 11
954.41257662572377
 21
2692.4241286463562
 31
0.0
  0
LINE
  5
183
  8
1
 10
953.41257662572377
 20
2691.4241286463562
 30
0.0
 11
973.41257662572389
 21
2691.4241286463562
 31
0.0
  0
ARC
  5
184
  8
1
 10
963.41257662572389
 20
2609.7638746085122
 30
0.0
 40
28.660254037843568
 50
72.412046226005614
 51
107.5879537739943
  0
LINE
  5
185
  8
1
 10
978.41257662572377
 20
2638.4241286463562
 30
0.0
 11
948.41257662572389
 21
2638.4241286463562
 31
0.0
  0
LINE
  5
186
  8
1
 10
897.41257662572389
 20
2622.4241286463562
 30
0.0
 11
981.41257662572389
 21
2622.4241286463562
 31
0.0
  0
LINE
  5
187
  8
1
 10
944.9830048245276
 20
2622.4241286463562
 30
0.0
 11
982.98300482452748
 21
2622.4241286463562
 31
0.0
  0
ARC
  5
188
  8
1
 10
963.41257662572389
 20
2629.0843826841992
 30
0.0
 40
28.660254037843568
 50
252.4120462260056
 51
287.58795377399429
  0
LINE
  5
189
  8
1
 10
978.41257662572377
 20
2600.4241286463562
 30
0.0
 11
948.41257662572389
 21
2600.4241286463562
 31
0.0
  0
ARC
  5
18A
  8
1
 10
914.48306019664585
 20
2737.546796083238
 30
0.0
 40
10.0
 50
270.0
 51
0.0
  0
LINE
  5
18B
  8
1
 10
956.97903791656063
 20
2876.5694132877552
 30
0.0
 11
956.97903791656063
 21
2639.3640617720662
 31
0.0
  0
LINE
  5
18C
  8
1
 10
882.0130639119343
 20
2637.4241286463571
 30
0.0
 11
948.48306019664585
 21
2637.4241286463562
 31
0.0
  0
ARC
  5
18D
  8
1
 10
839.95305648135945
 20
2647.4241286463571
 30
0.0
 40
10.0
 50
270.0
 51
0.0
  0
ARC
  5
18E
  8
1
 10
882.0130639119343
 20
2647.4241286463571
 30
0.0
 40
10.0
 50
180.0
 51
270.0
  0
LINE
  5
18F
  8
1
 10
849.95305648135945
 20
2647.4241286463571
 30
0.0
 11
849.95305648135945
 21
2684.4884148597971
 31
0.0
  0
LINE
  5
190
  8
1
 10
872.0130639119343
 20
2684.4884148597971
 30
0.0
 11
872.0130639119343
 21
2647.4241286463571
 31
0.0
  0
LINE
  5
191
  8
1
 10
930.98306019664597
 20
2649.2989455442489
 30
0.0
 11
930.98306019664597
 21
2605.1477722039522
 31
0.0
  0
LINE
  5
192
  8
1
 10
953.41257662572377
 20
2691.4241286463562
 30
0.0
 11
953.41257662572377
 21
2638.4241286463562
 31
0.0
  0
LINE
  5
193
  8
1
 10
954.6125766257237
 20
2692.4241286463562
 30
0.0
 11
954.6125766257237
 21
2638.4241286463562
 31
0.0
  0
LINE
  5
194
  8
1
 10
948.48306019664585
 20
2637.4241286463562
 30
0.0
 11
948.48306019664585
 21
2622.4241286463562
 31
0.0
  0
LINE
  5
195
  8
1
 10
954.75232258787935
 20
2637.0843826842001
 30
0.0
 11
954.75232258787935
 21
2622.4241286463562
 31
0.0
  0
LINE
  5
196
  8
1
 10
948.41257662572389
 20
2638.4241286463562
 30
0.0
 11
946.09206855003515
 21
2637.0843826842001
 31
0.0
  0
LINE
  5
197
  8
1
 10
946.09206855003515
 20
2637.0843826842001
 30
0.0
 11
946.09206855003515
 21
2622.4241286463562
 31
0.0
  0
ARC
  5
198
  8
1
 10
950.42219556895725
 20
2630.7566604010872
 30
0.0
 40
7.6674682452692551
 50
55.615752531956872
 51
124.3842474680431
  0
LINE
  5
199
  8
1
 10
948.41257662572389
 20
2600.4241286463562
 30
0.0
 11
946.09206855003515
 21
2601.7638746085108
 31
0.0
  0
ARC
  5
19A
  8
1
 10
950.42219556895725
 20
2608.0915968916252
 30
0.0
 40
7.6674682452692551
 50
235.61575253195679
 51
304.3842474680431
  0
LINE
  5
19B
  8
1
 10
946.09206855003515
 20
2601.7638746085108
 30
0.0
 11
946.09206855003515
 21
2616.4241286463562
 31
0.0
  0
LINE
  5
19C
  8
1
 10
954.75232258787935
 20
2601.7638746085108
 30
0.0
 11
954.75232258787935
 21
2616.4241286463562
 31
0.0
  0
LINE
  5
19D
  8
1
 10
954.41257662572377
 20
2692.4241286463562
 30
0.0
 11
953.41257662572377
 21
2691.4241286463562
 31
0.0
  0
LINE
  5
19E
  8
1
 10
848.88154287008717
 20
2901.7324278638712
 30
0.0
 11
873.08457752320646
 21
2901.7324278638712
 31
0.0
  0
LINE
  5
19F
  8
1
 10
848.88154287008717
 20
2896.4241286463571
 30
0.0
 11
848.88154287008717
 21
2901.7324278638712
 31
0.0
  0
LINE
  5
1A0
  8
1
 10
873.08457752320646
 20
2896.4241286463571
 30
0.0
 11
873.08457752320646
 21
2901.7324278638712
 31
0.0
  0
LINE
  5
1A1
  8
1
 10
914.48306019664585
 20
2737.546796083238
 30
0.0
 11
914.48306019664585
 21
2860.5786323685138
 31
0.0
  0
LINE
  5
1A2
  8
1
 10
924.48306019664585
 20
2737.546796083238
 30
0.0
 11
924.48306019664585
 21
2860.5786323685138
 31
0.0
  0
ARC
  5
1A3
  8
1
 10
914.48306019664585
 20
2860.5786323685138
 30
0.0
 40
10.0
 50
0.0
 51
90.0
  0
LINE
  5
1A4
  8
1
 10
956.97903791656063
 20
2869.3789051351359
 30
0.0
 11
933.51365202533816
 21
2896.4241286463562
 31
0.0
  0
LINE
  5
1A5
  8
1
 10
1019.983060196647
 20
2726.002819700509
 30
0.0
 11
1019.9830601966451
 21
2782.845437592202
 31
0.0
  0
LINE
  5
1A6
  8
1
 10
1012.9830601966451
 20
2696.2066796637582
 30
0.0
 11
1012.9830601966451
 21
2812.641577628955
 31
0.0
  0
LINE
  5
1A7
  8
1
 10
1002.104780015066
 20
2876.5694132877552
 30
0.0
 11
1002.104780015066
 21
2639.3640617720662
 31
0.0
  0
LINE
  5
1A8
  8
1
 10
1031.9989161239851
 20
2592.4241286463548
 30
0.0
 11
995.7480463199189
 21
2592.4241286463562
 31
0.0
  0
LINE
  5
1A9
  8
1
 10
1073.4125766257239
 20
2672.4241286463562
 30
0.0
 11
1013.412576625724
 21
2672.4241286463562
 31
0.0
  0
LINE
  5
1AA
  8
1
 10
973.41257662572389
 20
2691.4241286463562
 30
0.0
 11
973.41257662572389
 21
2638.4241286463562
 31
0.0
  0
LINE
  5
1AB
  8
1
 10
972.21257662572316
 20
2692.4241286463562
 30
0.0
 11
972.21257662572316
 21
2638.4241286463562
 31
0.0
  0
LINE
  5
1AC
  8
1
 10
1007.412576625724
 20
2578.4241286463562
 30
0.0
 11
973.41257662572389
 21
2578.4241286463562
 31
0.0
  0
ARC
  5
1AD
  8
1
 10
976.40295768249052
 20
2630.7566604010872
 30
0.0
 40
7.6674682452692551
 50
55.615752531956872
 51
124.3842474680431
  0
LINE
  5
1AE
  8
1
 10
978.41257662572377
 20
2638.4241286463562
 30
0.0
 11
980.73308470141262
 21
2637.0843826842001
 31
0.0
  0
LINE
  5
1AF
  8
1
 10
972.07283066356831
 20
2637.0843826842001
 30
0.0
 11
972.07283066356831
 21
2622.4241286463562
 31
0.0
  0
LINE
  5
1B0
  8
1
 10
980.73308470141262
 20
2637.0843826842001
 30
0.0
 11
980.73308470141262
 21
2622.4241286463562
 31
0.0
  0
LINE
  5
1B1
  8
1
 10
966.98300482452748
 20
2617.8697286463562
 30
0.0
 11
966.98300482452748
 21
2632.464528646356
 31
0.0
  0
LINE
  5
1B2
  8
1
 10
978.41257662572377
 20
2600.4241286463562
 30
0.0
 11
980.73308470141262
 21
2601.7638746085108
 31
0.0
  0
ARC
  5
1B3
  8
1
 10
976.40295768249052
 20
2608.0915968916252
 30
0.0
 40
7.6674682452692551
 50
235.61575253195679
 51
304.3842474680431
  0
LINE
  5
1B4
  8
1
 10
980.73308470141262
 20
2601.7638746085108
 30
0.0
 11
980.73308470141262
 21
2616.4241286463562
 31
0.0
  0
LINE
  5
1B5
  8
1
 10
972.07283066356831
 20
2601.7638746085108
 30
0.0
 11
972.07283066356831
 21
2616.4241286463562
 31
0.0
  0
ARC
  5
1B6
  8
1
 10
1001.412576625724
 20
2610.4241286463562
 30
0.0
 40
6.0
 50
359.99999999999989
 51
90.0
  0
ARC
  5
1B7
  8
1
 10
1001.412576625724
 20
2610.4241286463562
 30
0.0
 40
12.0
 50
0.0
 51
90.0
  0
LINE
  5
1B8
  8
1
 10
1013.412576625724
 20
2572.4241286463548
 30
0.0
 11
1007.412576625724
 21
2572.4241286463548
 31
0.0
  0
LINE
  5
1B9
  8
1
 10
1007.412576625724
 20
2610.4241286463562
 30
0.0
 11
1007.412576625724
 21
2572.4241286463548
 31
0.0
  0
LINE
  5
1BA
  8
1
 10
972.41257662572389
 20
2692.4241286463562
 30
0.0
 11
973.41257662572389
 21
2691.4241286463562
 31
0.0
  0
LINE
  5
1BB
  8
1
 10
1002.104780015066
 20
2696.2066796637582
 30
0.0
 11
1012.9830601966451
 21
2696.2066796637582
 31
0.0
  0
LINE
  5
1BC
  8
1
 10
1019.9830601966451
 20
2726.002819700509
 30
0.0
 11
1012.9830601966451
 21
2726.0028197005108
 31
0.0
  0
LINE
  5
1BD
  8
1
 10
1033.412576625723
 20
2735.4241286463571
 30
0.0
 11
1019.983060196647
 21
2735.4241286463571
 31
0.0
  0
LINE
  5
1BE
  8
1
 10
1033.412576625723
 20
2773.4241286463571
 30
0.0
 11
1019.983060196647
 21
2773.4241286463571
 31
0.0
  0
LINE
  5
1BF
  8
1
 10
1002.104780015066
 20
2812.641577628955
 30
0.0
 11
1012.9830601966451
 21
2812.641577628955
 31
0.0
  0
LINE
  5
1C0
  8
1
 10
1019.9830601966451
 20
2782.845437592202
 30
0.0
 11
1012.9830601966451
 21
2782.845437592202
 31
0.0
  0
LINE
  5
1C1
  8
1
 10
867.82993757115582
 20
2942.4241286463562
 30
0.0
 11
854.13618282213793
 21
2942.4241286463562
 31
0.0
  0
LINE
  5
1C2
  8
1
 10
1148.412576625723
 20
2902.852003966249
 30
0.0
 11
1148.4125766257239
 21
2537.624128646356
 31
0.0
  0
LINE
  5
1C3
  8
1
 10
1193.412576625723
 20
2492.4241286463548
 30
0.0
 11
1193.412576625723
 21
2446.4241286463562
 31
0.0
  0
LINE
  5
1C4
  8
1
 10
1283.4125766257239
 20
2534.4241286463562
 30
0.0
 11
1246.4125766257239
 21
2534.4241286463562
 31
0.0
  0
LINE
  5
1C5
  8
1
 10
1250.9125766257239
 20
2537.4241286463562
 30
0.0
 11
1281.4125766257239
 21
2537.4241286463562
 31
0.0
  0
ARC
  5
1C6
  8
1
 10
1250.9125766257239
 20
2541.9241286463562
 30
0.0
 40
4.5
 50
180.0
 51
270.0
  0
LINE
  5
1C7
  8
1
 10
1283.4125766257239
 20
2535.4241286463562
 30
0.0
 11
1283.4125766257239
 21
2534.4241286463562
 31
0.0
  0
ARC
  5
1C8
  8
1
 10
1281.4125766257239
 20
2535.4241286463562
 30
0.0
 40
2.0
 50
0.0
 51
90.0
  0
LINE
  5
1C9
  8
1
 10
1099.9830601966471
 20
2773.4241286463562
 30
0.0
 11
1099.9830601966471
 21
2735.4241286463562
 31
0.0
  0
LINE
  5
1CA
  8
1
 10
1240.2125766257229
 20
2574.4241286463562
 30
0.0
 11
1243.4125766257239
 21
2574.4241286463562
 31
0.0
  0
ARC
  5
1CB
  8
1
 10
1244.412576625723
 20
2572.4241286463562
 30
0.0
 40
2.0
 50
0.0
 51
90.0
  0
LINE
  5
1CC
  8
1
 10
1243.4125766257239
 20
2574.4241286463562
 30
0.0
 11
1244.412576625723
 21
2574.4241286463562
 31
0.0
  0
LINE
  5
1CD
  8
1
 10
2214.8330551829822
 20
2752.4893460376602
 30
0.0
 11
2227.3301011477279
 21
2177.7610851680952
 31
0.0
  0
LINE
  5
1CE
  8
1
 10
2392.7909897209738
 20
2752.489346037662
 30
0.0
 11
2380.2939437562281
 21
2177.7610851680952
 31
0.0
  0
LINE
  5
1CF
  8
2
 10
2303.8120224519798
 20
1631.8622417720389
 30
0.0
 11
2303.8120224519789
 21
2987.4241286463562
 31
0.0
  0
CIRCLE
  5
1D0
  8
1
 10
2303.8120224519789
 20
2179.4241286463562
 30
0.0
 40
76.5
  0
CIRCLE
  5
1D1
  8
1
 10
2303.8120224519789
 20
2179.4241286463562
 30
0.0
 40
395.0
  0
CIRCLE
  5
1D2
  8
1
 10
2303.8120224519789
 20
2179.4241286463562
 30
0.0
 40
355.0
  0
CIRCLE
  5
1D3
  8
1
 10
2303.8120224519789
 20
2179.4241286463562
 30
0.0
 40
358.19999999999987
  0
DIMENSION
  5
1D4
  8
3
  2
*D2
 10
1685.513843569649
 20
2942.4241286463562
 30
0.0
 11
1655.513843569649
 21
2560.9241286463571
 31
0.0
 70
     0
  1
MAX.900
 13
1831.214957443249
 23
2179.4241286463562
 33
0.0
 14
2303.812022451978
 24
2942.4241286463562
 34
0.0
 50
90.0
1001
ACAD
1000
DSTYLE
1002
{
1070
    40
1040
15.0
1002
}
  0
LINE
  5
1EE
  8
4
 10
3150.0
 20
4425.0
 30
0.0
 11
3150.0
 21
0.0
 31
0.0
  0
LINE
  5
1F9
  8
2
 10
1831.214957443249
 20
2179.4241286463562
 30
0.0
 11
2743.8120224519789
 21
2179.4241286463562
 31
0.0
  0
TEXT
  5
208
  8
4
 10
1779.9817433782209
 20
475.739376419915
 30
0.0
 40
75.0
  1
AP＃710-2
  0
TEXT
  5
209
  8
4
 10
1766.5181182314971
 20
633.85765343635285
 30
0.0
 40
75.0
  1
ミツヤ軸流ファン
  0
LINE
  5
20A
  8
4
 10
1725.0
 20
750.0
 30
0.0
 11
1725.0
 21
450.0
 31
0.0
  0
LINE
  5
25E
  8
4
 10
2775.0
 20
750.0
 30
0.0
 11
2775.0
 21
450.0
 31
0.0
  0
LINE
  5
267
  8
4
 10
2775.0
 20
4021.895374688102
 30
0.0
 11
2160.9261335397969
 21
4021.895374688102
 31
0.0
  0
LINE
  5
268
  8
4
 10
2160.9261335397969
 20
4179.9783923246277
 30
0.0
 11
2775.0
 21
4179.9783923246277
 31
0.0
  0
TEXT
  5
269
  8
4
 10
1966.944093900019
 20
3575.1432619987731
 30
0.0
 40
80.999999999999986
  1
縮尺：1/15
  0
LINE
  5
26A
  8
1
 10
2113.812022451978
 20
2672.4241286463571
 30
0.0
 11
2063.812022451978
 21
2672.4241286463571
 31
0.0
  0
LINE
  5
26B
  8
1
 10
2063.812022451978
 20
2492.4241286463562
 30
0.0
 11
2063.812022451978
 21
2672.4241286463571
 31
0.0
  0
CIRCLE
  5
26C
  8
1
 10
2303.8120224519789
 20
2922.1741286463562
 30
0.0
 40
20.249999999999989
  0
CIRCLE
  5
26D
  8
1
 10
2303.8120224519789
 20
2754.4241286463562
 30
0.0
 40
89.0
  0
CIRCLE
  5
26E
  8
1
 10
2303.8120224519789
 20
2754.4241286463562
 30
0.0
 40
121.3080440290846
  0
ARC
  5
26F
  8
1
 10
2303.8120224519789
 20
2754.4241286463562
 30
0.0
 40
143.0
 50
296.41738025990082
 51
243.58261974009909
  0
LINE
  5
270
  8
1
 10
2240.4127939897812
 20
2626.8044286373188
 30
0.0
 11
2367.2112509141798
 21
2626.8044286373188
 31
0.0
  0
LINE
  5
271
  8
2
 10
2151.312022451978
 20
2754.4241286463562
 30
0.0
 11
2462.4120224519788
 21
2754.4241286463562
 31
0.0
  0
LINE
  5
272
  8
1
 10
2158.8120224519789
 20
2869.4241286463562
 30
0.0
 11
2448.8120224519789
 21
2869.4241286463562
 31
0.0
  0
LINE
  5
273
  8
1
 10
2158.8120224519789
 20
2589.4241286463562
 30
0.0
 11
2448.8120224519789
 21
2589.4241286463562
 31
0.0
  0
LINE
  5
274
  8
1
 10
2443.8120224519789
 20
2609.4241286463562
 30
0.0
 11
2163.8120224519789
 21
2609.4241286463562
 31
0.0
  0
LINE
  5
275
  8
1
 10
2113.812022451978
 20
2622.4241286463562
 30
0.0
 11
2493.8120224519789
 21
2622.4241286463562
 31
0.0
  0
LINE
  5
276
  8
1
 10
2113.812022451978
 20
2616.4241286463562
 30
0.0
 11
2493.8120224519789
 21
2616.4241286463562
 31
0.0
  0
LINE
  5
277
  8
1
 10
2163.812022451978
 20
2548.7816789956082
 30
0.0
 11
2163.8120224519789
 21
2609.4241286463562
 31
0.0
  0
ARC
  5
278
  8
1
 10
2083.8120224519789
 20
2552.4241286463562
 30
0.0
 40
7.5
 50
180.0
 51
0.0000000000017302
  0
LINE
  5
279
  8
1
 10
2076.3120224519789
 20
2632.4241286463562
 30
0.0
 11
2076.3120224519789
 21
2552.4241286463562
 31
0.0
  0
LINE
  5
27A
  8
1
 10
2091.3120224519789
 20
2632.4241286463562
 30
0.0
 11
2091.3120224519789
 21
2552.4241286463562
 31
0.0
  0
LINE
  5
27B
  8
1
 10
2107.812022451978
 20
2522.3658146514272
 30
0.0
 11
2107.812022451978
 21
2672.4241286463571
 31
0.0
  0
LINE
  5
27C
  8
1
 10
2113.812022451978
 20
2525.726020064812
 30
0.0
 11
2113.812022451978
 21
2672.4241286463571
 31
0.0
  0
LINE
  5
27D
  8
1
 10
2155.212022451979
 20
2851.4629841064561
 30
0.0
 11
2200.6661435853121
 21
2852.019864582016
 31
0.0
  0
LINE
  5
27E
  8
1
 10
2173.8120224519789
 20
2637.4241286463562
 30
0.0
 11
2222.4655412742441
 21
2637.4241286463562
 31
0.0
  0
LINE
  5
27F
  8
1
 10
2173.8120224519798
 20
2622.4241286463562
 30
0.0
 11
2223.8120224519789
 21
2622.4241286463562
 31
0.0
  0
LINE
  5
280
  8
1
 10
2113.812022451978
 20
2572.4241286463562
 30
0.0
 11
2264.1131559694199
 21
2572.4241286463562
 31
0.0
  0
LINE
  5
281
  8
1
 10
2150.8597660862761
 20
2868.6186161124378
 30
0.0
 11
2094.8468799413308
 21
2727.5467960832389
 31
0.0
  0
LINE
  5
282
  8
1
 10
2146.259946929405
 20
2870.5786323685138
 30
0.0
 11
2090.2470607844589
 21
2729.5068123393148
 31
0.0
  0
LINE
  5
283
  8
1
 10
2158.8120224519789
 20
2589.4241286463562
 30
0.0
 11
2158.8120224519789
 21
2869.4241286463562
 31
0.0
  0
ARC
  5
284
  8
1
 10
2083.8120224519789
 20
2632.4241286463562
 30
0.0
 40
7.5
 50
359.99999999999829
 51
180.0
  0
LINE
  5
285
  8
1
 10
2090.2470607844589
 20
2729.5068123393148
 30
0.0
 11
2094.8468799413299
 21
2727.5467960832389
 31
0.0
  0
LINE
  5
286
  8
1
 10
2173.8120224519789
 20
2637.4241286463562
 30
0.0
 11
2187.8413000318351
 21
2671.6168732797519
 31
0.0
  0
LINE
  5
287
  8
1
 10
2173.8120224519789
 20
2622.4241286463562
 30
0.0
 11
2173.8120224519789
 21
2637.4241286463562
 31
0.0
  0
LINE
  5
288
  8
1
 10
2143.4409616045868
 20
2863.9629613709708
 30
0.0
 11
2107.97140937015
 21
2857.8028069602801
 31
0.0
  0
LINE
  5
289
  8
1
 10
2150.2120224519799
 20
2734.4241286463571
 30
0.0
 11
2098.206408266386
 21
2734.4241286463562
 31
0.0
  0
LINE
  5
28A
  8
1
 10
2097.97140937015
 20
2847.8028069602801
 30
0.0
 11
2091.812022451978
 21
2754.4241286463562
 31
0.0
  0
ARC
  5
28B
  8
1
 10
2146.8516226652559
 20
2754.1988959991272
 30
0.0
 40
55.040061059039289
 50
179.76553594120759
 51
197.3163745518037
  0
ARC
  5
28C
  8
1
 10
2107.9714093701491
 20
2847.8028069602801
 30
0.0
 40
10.0
 50
89.999999999999588
 51
180.0
  0
LINE
  5
28D
  8
1
 10
2155.2120224519799
 20
2739.4241286463571
 30
0.0
 11
2155.212022451979
 21
2855.7627970720018
 31
0.0
  0
LINE
  5
28E
  8
1
 10
2155.2120224519799
 20
2747.2204417322901
 30
0.0
 11
2161.994862366028
 21
2747.220441732291
 31
0.0
  0
ARC
  5
28F
  8
1
 10
2150.2120224519799
 20
2739.4241286463571
 30
0.0
 40
5.0
 50
270.00000000000023
 51
359.99999999999972
  0
ARC
  5
290
  8
1
 10
2150.212022451979
 20
2855.7627970720018
 30
0.0
 40
5.0
 50
0.0000000000005343
 51
90.0
  0
LINE
  5
291
  8
1
 10
2147.7405953164071
 20
2860.7627970720018
 30
0.0
 11
2150.212022451979
 21
2860.7627970720018
 31
0.0
  0
LINE
  5
292
  8
1
 10
2146.259946929405
 20
2870.5786323685138
 30
0.0
 11
2150.8597660862761
 21
2868.6186161124378
 31
0.0
  0
LINE
  5
293
  8
2
 10
2195.8120224519789
 20
2601.9241286463571
 30
0.0
 11
2195.8120224519789
 21
2670.1197394056189
 31
0.0
  0
LINE
  5
294
  8
1
 10
2223.8120224519789
 20
2636.4993644956489
 30
0.0
 11
2223.8120224519789
 21
2622.4241286463562
 31
0.0
  0
LINE
  5
295
  8
1
 10
2308.5698513793918
 20
2902.4909997310392
 30
0.0
 11
2308.5698513793918
 21
2896.3443987415649
 31
0.0
  0
LINE
  5
296
  8
1
 10
2299.0541935245642
 20
2902.4909997310392
 30
0.0
 11
2299.0541935245642
 21
2896.3443987415649
 31
0.0
  0
ARC
  5
297
  8
1
 10
2523.8120224519789
 20
2552.4241286463562
 30
0.0
 40
7.5
 50
179.99999999999821
 51
0.0
  0
LINE
  5
298
  8
1
 10
2543.812022451978
 20
2492.4241286463562
 30
0.0
 11
2543.812022451978
 21
2672.4241286463571
 31
0.0
  0
LINE
  5
299
  8
1
 10
2493.8120224519789
 20
2525.726020064812
 30
0.0
 11
2493.8120224519789
 21
2672.4241286463571
 31
0.0
  0
LINE
  5
29A
  8
1
 10
2499.8120224519789
 20
2522.3658146514272
 30
0.0
 11
2499.8120224519789
 21
2672.4241286463571
 31
0.0
  0
LINE
  5
29B
  8
1
 10
2523.8120224519789
 20
2536.6132276055241
 30
0.0
 11
2523.8120224519789
 21
2648.2350296871891
 31
0.0
  0
LINE
  5
29C
  8
1
 10
2516.3120224519789
 20
2632.4241286463562
 30
0.0
 11
2516.3120224519789
 21
2552.4241286463562
 31
0.0
  0
LINE
  5
29D
  8
1
 10
2531.3120224519789
 20
2632.4241286463562
 30
0.0
 11
2531.3120224519789
 21
2552.4241286463562
 31
0.0
  0
LINE
  5
29E
  8
1
 10
2443.8120224519789
 20
2548.7816789956091
 30
0.0
 11
2443.8120224519789
 21
2609.4241286463562
 31
0.0
  0
LINE
  5
29F
  8
1
 10
2343.510888934537
 20
2572.4241286463562
 30
0.0
 11
2493.8120224519789
 21
2572.4241286463562
 31
0.0
  0
LINE
  5
2A0
  8
2
 10
2411.8120224519789
 20
2601.9241286463571
 30
0.0
 11
2411.8120224519789
 21
2670.1197394056189
 31
0.0
  0
LINE
  5
2A1
  8
1
 10
2433.8120224519789
 20
2637.4241286463562
 30
0.0
 11
2419.7827448721218
 21
2671.6168732797519
 31
0.0
  0
LINE
  5
2A2
  8
1
 10
2433.812022451978
 20
2622.4241286463562
 30
0.0
 11
2383.8120224519789
 21
2622.4241286463562
 31
0.0
  0
LINE
  5
2A3
  8
1
 10
2433.8120224519789
 20
2637.4241286463562
 30
0.0
 11
2385.1585036297138
 21
2637.4241286463562
 31
0.0
  0
LINE
  5
2A4
  8
1
 10
2383.8120224519789
 20
2636.4993644956489
 30
0.0
 11
2383.8120224519789
 21
2622.4241286463562
 31
0.0
  0
LINE
  5
2A5
  8
1
 10
2433.8120224519789
 20
2622.4241286463562
 30
0.0
 11
2433.8120224519789
 21
2637.4241286463562
 31
0.0
  0
LINE
  5
2A6
  8
1
 10
2448.8120224519789
 20
2589.4241286463562
 30
0.0
 11
2448.8120224519789
 21
2869.4241286463562
 31
0.0
  0
LINE
  5
2A7
  8
1
 10
2493.8120224519789
 20
2672.4241286463571
 30
0.0
 11
2543.812022451978
 21
2672.4241286463571
 31
0.0
  0
ARC
  5
2A8
  8
1
 10
2523.8120224519789
 20
2632.4241286463562
 30
0.0
 40
7.5
 50
0.0
 51
180.00000000000171
  0
CIRCLE
  5
2A9
  8
1
 10
2303.8120224519789
 20
2922.1741286463562
 30
0.0
 40
12.75
  0
TEXT
  5
2AA
  8
4
 10
2203.4543388739339
 20
4059.0916222429628
 30
0.0
 40
84.000000000000014
  1
No.
  0
LINE
  5
2AB
  8
4
 10
2160.9261335397969
 20
4021.895374688102
 30
0.0
 11
2160.9261335397969
 21
4179.9783923246277
 31
0.0
  0
LINE
  5
2AC
  8
4
 10
2775.0
 20
4004.1131313972069
 30
0.0
 11
2775.0
 21
3704.1131313972069
 31
0.0
  0
LINE
  5
2AD
  8
4
 10
2775.0
 20
4179.9783923246277
 30
0.0
 11
2775.0
 21
4021.895374688102
 31
0.0
  0
LINE
  5
2AE
  8
4
 10
3150.0
 20
4425.0
 30
0.0
 11
3150.0
 21
4425.0
 31
0.0
  0
LINE
  5
5D7
  8
2
 10
1898.8120224519789
 20
2112.987877936544
 30
0.0
 11
1898.8120224519789
 21
3092.129297572355
 31
0.0
  0
LINE
  5
5D9
  8
1
 10
1870.8120224519789
 20
2154.4241286463562
 30
0.0
 11
1870.8120224519789
 21
2204.4241286463571
 31
0.0
  0
LINE
  5
5DA
  8
1
 10
1945.8120224519789
 20
2154.4241286463571
 30
0.0
 11
1945.8120224519789
 21
2204.4241286463562
 31
0.0
  0
LINE
  5
5DB
  8
1
 10
1870.8120224519789
 20
2204.4241286463562
 30
0.0
 11
1945.8120224519789
 21
2204.4241286463571
 31
0.0
  0
LINE
  5
5DC
  8
1
 10
1870.8120224519789
 20
2154.4241286463562
 30
0.0
 11
1945.8120224519789
 21
2154.4241286463571
 31
0.0
  0
LINE
  5
5E9
  8
1
 10
1870.8120224519789
 20
2160.4241286463562
 30
0.0
 11
1945.8120224519789
 21
2160.4241286463571
 31
0.0
  0
LINE
  5
5EB
  8
1
 10
2736.8120224519789
 20
2160.4241286463562
 30
0.0
 11
2661.8120224519789
 21
2160.4241286463571
 31
0.0
  0
LINE
  5
5EC
  8
1
 10
2736.8120224519789
 20
2154.4241286463562
 30
0.0
 11
2661.8120224519789
 21
2154.4241286463571
 31
0.0
  0
LINE
  5
5ED
  8
1
 10
2736.8120224519798
 20
2204.4241286463562
 30
0.0
 11
2661.8120224519789
 21
2204.4241286463571
 31
0.0
  0
LINE
  5
5EE
  8
1
 10
2736.8120224519798
 20
2154.4241286463562
 30
0.0
 11
2736.8120224519798
 21
2204.4241286463571
 31
0.0
  0
LINE
  5
5EF
  8
1
 10
2661.8120224519789
 20
2154.4241286463571
 30
0.0
 11
2661.8120224519798
 21
2204.4241286463562
 31
0.0
  0
LINE
  5
5F0
  8
2
 10
2708.8120224519789
 20
2112.987877936544
 30
0.0
 11
2708.8120224519789
 21
3092.129297572355
 31
0.0
  0
LINE
  5
5F4
  8
2
 10
1220.412576625723
 20
3092.129297572355
 30
0.0
 11
1220.412576625723
 21
2104.9263770394432
 31
0.0
  0
LINE
  5
605
  8
1
 10
1190.2125766257229
 20
2154.4241286463548
 30
0.0
 11
1240.2125766257229
 21
2154.4241286463548
 31
0.0
  0
LINE
  5
606
  8
1
 10
1190.2125766257229
 20
2154.4241286463548
 30
0.0
 11
1190.2125766257229
 21
2204.4241286463548
 31
0.0
  0
LINE
  5
607
  8
1
 10
1240.2125766257229
 20
2154.4241286463548
 30
0.0
 11
1240.2125766257229
 21
2155.9241286463548
 31
0.0
  0
LINE
  5
608
  8
1
 10
1190.2125766257229
 20
2204.4241286463548
 30
0.0
 11
1191.7125766257229
 21
2204.4241286463548
 31
0.0
  0
LINE
  5
609
  8
1
 10
1202.7125766257229
 20
2160.4241286463562
 30
0.0
 11
1235.7125766257229
 21
2160.4241286463562
 31
0.0
  0
LINE
  5
60A
  8
1
 10
1196.2125766257229
 20
2166.9241286463548
 30
0.0
 11
1196.2125766257229
 21
2199.9241286463562
 31
0.0
  0
ARC
  5
60B
  8
1
 10
1235.7125766257229
 20
2155.9241286463548
 30
0.0
 40
4.5
 50
0.0
 51
90.0
  0
ARC
  5
60C
  8
1
 10
1191.7125766257229
 20
2199.9241286463562
 30
0.0
 40
4.5
 50
0.0
 51
90.0
  0
ARC
  5
60D
  8
1
 10
1202.7125766257229
 20
2166.9241286463548
 30
0.0
 40
6.5
 50
180.0
 51
270.0
  0
LINE
  5
60F
  8
1
 10
524.1125766257237
 20
2160.4241286463562
 30
0.0
 11
491.1125766257237
 21
2160.4241286463562
 31
0.0
  0
LINE
  5
610
  8
1
 10
536.6125766257237
 20
2154.4241286463548
 30
0.0
 11
486.6125766257237
 21
2154.4241286463548
 31
0.0
  0
ARC
  5
611
  8
1
 10
524.1125766257237
 20
2166.9241286463548
 30
0.0
 40
6.5
 50
270.0
 51
0.000000000000007
  0
ARC
  5
612
  8
1
 10
535.11257662572359
 20
2199.9241286463562
 30
0.0
 40
4.5
 50
90.0
 51
180.0
  0
LINE
  5
613
  8
1
 10
530.61257662572359
 20
2166.9241286463548
 30
0.0
 11
530.61257662572359
 21
2199.9241286463562
 31
0.0
  0
LINE
  5
614
  8
1
 10
536.6125766257237
 20
2204.4241286463548
 30
0.0
 11
535.11257662572359
 21
2204.4241286463548
 31
0.0
  0
LINE
  5
615
  8
1
 10
536.6125766257237
 20
2154.4241286463548
 30
0.0
 11
536.6125766257237
 21
2204.4241286463548
 31
0.0
  0
ARC
  5
616
  8
1
 10
491.1125766257237
 20
2155.9241286463548
 30
0.0
 40
4.5
 50
90.0
 51
180.0
  0
LINE
  5
617
  8
1
 10
486.6125766257237
 20
2154.4241286463548
 30
0.0
 11
486.6125766257237
 21
2155.9241286463548
 31
0.0
  0
LINE
  5
618
  8
2
 10
506.41257662572337
 20
3092.129297572355
 30
0.0
 11
506.4125766257236
 21
2104.9263770394432
 31
0.0
  0
DIMENSION
  5
626
  8
3
  2
*D4
 10
2708.8120224519789
 20
3201.583732020259
 30
0.0
 11
2303.8120224519789
 21
3231.583732020259
 31
0.0
 70
     0
 13
1898.8120224519789
 23
3092.129297572355
 33
0.0
 14
2708.8120224519789
 24
3092.129297572355
 34
0.0
1001
ACAD
1000
DSTYLE
1002
{
1070
    40
1040
15.0
1002
}
  0
DIMENSION
  5
633
  8
3
  2
*D5
 10
1220.412576625723
 20
3183.4282637407669
 30
0.0
 11
863.41257662572343
 21
3213.4282637407669
 31
0.0
 70
     0
 13
506.41257662572337
 23
3092.129297572355
 33
0.0
 14
1220.412576625723
 24
3092.129297572355
 34
0.0
1001
ACAD
1000
DSTYLE
1002
{
1070
    40
1040
15.0
1002
}
  0
DIMENSION
  5
640
  8
3
  2
*D6
 10
1243.4125766257239
 20
3306.8854562842789
 30
0.0
 11
863.41257662572389
 21
3336.8854562842789
 31
0.0
 70
     0
 13
483.41257662572389
 23
2574.4241286463562
 33
0.0
 14
1243.4125766257239
 24
2574.4241286463562
 34
0.0
1001
ACAD
1000
DSTYLE
1002
{
1070
    40
1040
15.0
1002
}
  0
DIMENSION
  5
64D
  8
3
  2
*D7
 10
1243.4125766257239
 20
3183.4282637407669
 30
0.0
 11
1343.8755472047631
 21
3183.4282637407669
 31
0.0
 70
   128
 13
1220.412576625723
 23
3092.129297572355
 33
0.0
 14
1243.4125766257239
 24
2574.4241286463562
 34
0.0
1001
ACAD
1000
DSTYLE
1002
{
1070
   287
1070
     4
1070
    40
1040
15.0
1070
   279
1070
     1
1070
   289
1070
     3
1002
}
  0
DIMENSION
  5
65F
  8
3
  2
*D8
 10
483.41257662572389
 20
3183.4282637407669
 30
0.0
 11
380.68231394662138
 21
3179.797168024128
 31
0.0
 70
   128
 13
506.41257662572337
 23
3092.129297572355
 33
0.0
 14
483.41257662572389
 24
2574.4241286463562
 34
0.0
1001
ACAD
1000
DSTYLE
1002
{
1070
   287
1070
     4
1070
    40
1040
15.0
1070
   279
1070
     1
1070
   289
1070
     3
1002
}
  0
ENDSEC
  0
EOF
