  0
SECTION
  2
HEADER
  9
$ACADVER
  1
AC1009
  9
$INSBASE
 10
0.0
 20
0.0
 30
0.0
  9
$EXTMIN
 10
0.0
 20
0.0
 30
0.0
  9
$EXTMAX
 10
3150.0
 20
4425.0
 30
0.0
  9
$LIMMIN
 10
0.0
 20
0.0
  9
$LIMMAX
 10
297.0
 20
210.0
  9
$ORTHOMODE
 70
     0
  9
$REGENMODE
 70
     1
  9
$FILLMODE
 70
     0
  9
$QTEXTMODE
 70
     0
  9
$MIRRTEXT
 70
     1
  9
$DRAGMODE
 70
     2
  9
$LTSCALE
 40
100.0
  9
$OSMODE
 70
    37
  9
$ATTMODE
 70
     1
  9
$TEXTSIZE
 40
180.0
  9
$TRACEWID
 40
0.05
  9
$TEXTSTYLE
  7
STANDARD
  9
$CLAYER
  8
3
  9
$CELTYPE
  6
BYLAYER
  9
$CECOLOR
 62
   256
  9
$DIMSCALE
 40
15.0
  9
$DIMASZ
 40
2.0
  9
$DIMEXO
 40
0.5
  9
$DIMDLI
 40
10.0
  9
$DIMRND
 40
0.0
  9
$DIMDLE
 40
0.0
  9
$DIMEXE
 40
1.0
  9
$DIMTP
 40
1.0
  9
$DIMTM
 40
1.0
  9
$DIMTXT
 40
3.0
  9
$DIMCEN
 40
0.0
  9
$DIMTSZ
 40
0.0
  9
$DIMTOL
 70
     0
  9
$DIMLIM
 70
     0
  9
$DIMTIH
 70
     0
  9
$DIMTOH
 70
     0
  9
$DIMSE1
 70
     0
  9
$DIMSE2
 70
     0
  9
$DIMTAD
 70
     1
  9
$DIMZIN
 70
     8
  9
$DIMBLK
  1

  9
$DIMASO
 70
     1
  9
$DIMSHO
 70
     1
  9
$DIMPOST
  1

  9
$DIMAPOST
  1

  9
$DIMALT
 70
     0
  9
$DIMALTD
 70
     2
  9
$DIMALTF
 40
0.039
  9
$DIMLFAC
 40
1.0
  9
$DIMTOFL
 70
     1
  9
$DIMTVP
 40
0.0
  9
$DIMTIX
 70
     0
  9
$DIMSOXD
 70
     0
  9
$DIMSAH
 70
     1
  9
$DIMBLK1
  1
OPEN
  9
$DIMBLK2
  1
OPEN
  9
$DIMSTYLE
  2
IGA
  9
$DIMCLRD
 70
     0
  9
$DIMCLRE
 70
     0
  9
$DIMCLRT
 70
     0
  9
$DIMTFAC
 40
10.0
  9
$DIMGAP
 40
1.0
  9
$LUNITS
 70
     2
  9
$LUPREC
 70
     3
  9
$SKETCHINC
 40
0.1
  9
$FILLETRAD
 40
50.0
  9
$AUNITS
 70
     0
  9
$AUPREC
 70
     0
  9
$MENU
  1
acad
  9
$ELEVATION
 40
0.0
  9
$PELEVATION
 40
0.0
  9
$THICKNESS
 40
0.0
  9
$LIMCHECK
 70
     0
  9
$BLIPMODE
 70
     0
  9
$CHAMFERA
 40
0.5
  9
$CHAMFERB
 40
0.5
  9
$SKPOLY
 70
     0
  9
$TDCREATE
 40
2452618.5927902772
  9
$TDUPDATE
 40
2454953.625697338
  9
$TDINDWG
 40
0.0143004514
  9
$TDUSRTIMER
 40
0.0143004514
  9
$USRTIMER
 70
     1
  9
$ANGBASE
 50
0.0
  9
$ANGDIR
 70
     0
  9
$PDMODE
 70
     0
  9
$PDSIZE
 40
0.0
  9
$PLINEWID
 40
0.0
  9
$COORDS
 70
     1
  9
$SPLFRAME
 70
     0
  9
$SPLINETYPE
 70
     6
  9
$SPLINESEGS
 70
     8
  9
$ATTDIA
 70
     0
  9
$ATTREQ
 70
     1
  9
$HANDLING
 70
 10241
  9
$HANDSEED
  5
7EDB
  9
$SURFTAB1
 70
     6
  9
$SURFTAB2
 70
     6
  9
$SURFTYPE
 70
     6
  9
$SURFU
 70
     6
  9
$SURFV
 70
     6
  9
$UCSNAME
  2

  9
$UCSORG
 10
0.0
 20
0.0
 30
0.0
  9
$UCSXDIR
 10
1.0
 20
0.0
 30
0.0
  9
$UCSYDIR
 10
0.0
 20
1.0
 30
0.0
  9
$PUCSNAME
  2

  9
$PUCSORG
 10
0.0
 20
0.0
 30
0.0
  9
$PUCSXDIR
 10
1.0
 20
0.0
 30
0.0
  9
$PUCSYDIR
 10
0.0
 20
1.0
 30
0.0
  9
$USERI1
 70
     0
  9
$USERI2
 70
     0
  9
$USERI3
 70
     0
  9
$USERI4
 70
     0
  9
$USERI5
 70
     0
  9
$USERR1
 40
0.0
  9
$USERR2
 40
0.0
  9
$USERR3
 40
0.0
  9
$USERR4
 40
0.0
  9
$USERR5
 40
0.0
  9
$WORLDVIEW
 70
     1
  9
$SHADEDGE
 70
     3
  9
$SHADEDIF
 70
    70
  9
$TILEMODE
 70
     1
  9
$MAXACTVP
 70
    16
  9
$PLIMCHECK
 70
     0
  9
$PEXTMIN
 10
1.0000000000000000E+020
 20
1.0000000000000000E+020
 30
1.0000000000000000E+020
  9
$PEXTMAX
 10
-1.0000000000000000E+020
 20
-1.0000000000000000E+020
 30
-1.0000000000000000E+020
  9
$PLIMMIN
 10
0.0
 20
0.0
  9
$PLIMMAX
 10
12.0
 20
9.0
  9
$UNITMODE
 70
     0
  9
$VISRETAIN
 70
     0
  9
$PLINEGEN
 70
     0
  9
$PSLTSCALE
 70
     1
  0
ENDSEC
  0
SECTION
  2
TABLES
  0
TABLE
  2
VPORT
 70
     2
  0
VPORT
  2
*ACTIVE
 70
     0
 10
0.0
 20
0.0
 11
1.0
 21
1.0
 12
3055.6017954479821
 22
536.71488089675495
 13
0.0
 23
0.0
 14
10.0
 24
10.0
 15
10.0
 25
10.0
 16
0.0
 26
0.0
 36
1.0
 17
0.0
 27
0.0
 37
0.0
 40
1403.6853102733439
 41
3.1666666666666661
 42
50.0
 43
0.0
 44
0.0
 50
0.0
 51
0.0
 71
     0
 72
   100
 73
     1
 74
     0
 75
     0
 76
     0
 77
     0
 78
     0
  0
ENDTAB
  0
TABLE
  2
LTYPE
 70
     2
  0
LTYPE
  2
CONTINUOUS
 70
     0
  3
Solid line
 72
    65
 73
     0
 40
0.0
  0
LTYPE
  2
CENTER
 70
     0
  3
____ _ ____ _ ____ _ ____ _ ____ _ ____ _ ____ 
 72
    65
 73
     4
 40
2.0
 49
1.25
 49
-0.25
 49
0.25
 49
-0.25
  0
ENDTAB
  0
TABLE
  2
LAYER
 70
     6
  0
LAYER
  2
0
 70
     0
 62
     7
  6
CONTINUOUS
  0
LAYER
  2
3
 70
     0
 62
     2
  6
CONTINUOUS
  0
LAYER
  2
2
 70
     0
 62
     3
  6
CENTER
  0
LAYER
  2
1
 70
     0
 62
     4
  6
CONTINUOUS
  0
LAYER
  2
4
 70
     0
 62
     7
  6
CONTINUOUS
  0
LAYER
  2
DEFPOINTS
 70
     0
 62
     7
  6
CONTINUOUS
  0
ENDTAB
  0
TABLE
  2
STYLE
 70
     1
  0
STYLE
  2
STANDARD
 70
     0
 40
0.0
 41
1.0
 50
0.0
 71
     0
 42
180.0
  3
simplex.shx
  4
extfont.shx
  0
ENDTAB
  0
TABLE
  2
VIEW
 70
     0
  0
ENDTAB
  0
TABLE
  2
UCS
 70
     0
  0
ENDTAB
  0
TABLE
  2
APPID
 70
     1
  0
APPID
  2
ACAD
 70
     0
  0
ENDTAB
  0
TABLE
  2
DIMSTYLE
 70
     1
  0
DIMSTYLE
  2
IGA
 70
     0
  3

  4

  5

  6
OPEN
  7
OPEN
 40
2.0
 41
2.0
 42
0.5
 43
10.0
 44
1.0
 45
0.0
 46
0.0
 47
1.0
 48
1.0
140
3.0
141
0.0
142
0.0
143
0.03937
144
1.0
145
0.0
146
10.0
147
1.0
 71
     0
 72
     0
 73
     0
 74
     0
 75
     0
 76
     0
 77
     1
 78
     8
170
     0
171
     2
172
     0
173
     1
174
     0
175
     0
176
     0
177
     0
178
     0
  0
ENDTAB
  0
ENDSEC
  0
SECTION
  2
BLOCKS
  0
BLOCK
  8
0
  2
$MODEL_SPACE
 70
     0
 10
0.0
 20
0.0
 30
0.0
  3
$MODEL_SPACE
  1

  0
ENDBLK
  5
1B
  8
0
  0
BLOCK
 67
     1
  8
0
  2
$PAPER_SPACE
 70
     0
 10
0.0
 20
0.0
 30
0.0
  3
$PAPER_SPACE
  1

  0
ENDBLK
  5
18
 67
     1
  8
0
  0
BLOCK
  8
0
  2
_OPEN
 70
     0
 10
0.0
 20
0.0
 30
0.0
  3
_OPEN
  1

  0
LINE
  5
79FD
  8
0
  6
BYBLOCK
 62
     0
 10
-1.0
 20
0.1666666666666666
 30
0.0
 11
0.0
 21
0.0
 31
0.0
  0
LINE
  5
79FE
  8
0
  6
BYBLOCK
 62
     0
 10
0.0
 20
0.0
 30
0.0
 11
-1.0
 21
-0.1666666666666666
 31
0.0
  0
LINE
  5
79FF
  8
0
  6
BYBLOCK
 62
     0
 10
0.0
 20
0.0
 30
0.0
 11
-1.0
 21
0.0
 31
0.0
  0
ENDBLK
  5
7A01
  8
0
  0
BLOCK
  8
0
  2
YA_N
 70
     0
 10
0.0
 20
0.0
 30
0.0
  3
YA_N
  1

  0
ENDBLK
  5
7A04
  8
0
  0
BLOCK
  8
0
  2
*D2
 70
     1
 10
0.0
 20
0.0
 30
0.0
  3
*D2
  1

  0
LINE
  5
7E90
  8
3
 62
     0
 10
530.0
 20
2770.2891152162961
 30
0.0
 11
530.0
 21
3004.068568947559
 31
0.0
  0
LINE
  5
7E91
  8
3
 62
     0
 10
1370.0
 20
2770.2891152162961
 30
0.0
 11
1370.0
 21
3004.068568947559
 31
0.0
  0
LINE
  5
7E92
  8
3
 62
     0
 10
560.0
 20
2989.068568947559
 30
0.0
 11
1340.0
 21
2989.068568947559
 31
0.0
  0
INSERT
  5
7E93
  8
3
 62
     0
  2
_OPEN
 10
530.0
 20
2989.068568947559
 30
0.0
 41
30.0
 42
30.0
 43
30.0
 50
180.0
  0
INSERT
  5
7E94
  8
3
 62
     0
  2
_OPEN
 10
1370.0
 20
2989.068568947559
 30
0.0
 41
30.0
 42
30.0
 43
30.0
  0
TEXT
  8
3
  40
45
  5
7ED4
  62
0
  72
0
  71
0
 10
834.697
 20
2946.92
 30
0.000000
  1
840
  0
POINT
  5
7E96
  8
DEFPOINTS
 62
     0
 10
530.0
 20
2762.7891152162961
 30
0.0
  0
POINT
  5
7E97
  8
DEFPOINTS
 62
     0
 10
1370.0
 20
2762.7891152162961
 30
0.0
  0
POINT
  5
7E98
  8
DEFPOINTS
 62
     0
 10
1370.0
 20
2989.068568947559
 30
0.0
  0
ENDBLK
  5
7B9F
  8
0
  0
BLOCK
  8
0
  2
*D3
 70
     1
 10
0.0
 20
0.0
 30
0.0
  3
*D3
  1

  0
LINE
  5
7E99
  8
3
 62
     0
 10
1970.324917901607
 20
2413.2891152162961
 30
0.0
 11
1970.324917901607
 21
3004.068568947559
 31
0.0
  0
LINE
  5
7E9A
  8
3
 62
     0
 10
2760.324917901607
 20
2413.2891152162961
 30
0.0
 11
2760.324917901607
 21
3004.068568947559
 31
0.0
  0
LINE
  5
7E9B
  8
3
 62
     0
 10
2000.324917901607
 20
2989.068568947559
 30
0.0
 11
2730.324917901607
 21
2989.068568947559
 31
0.0
  0
INSERT
  5
7E9C
  8
3
 62
     0
  2
_OPEN
 10
1970.324917901607
 20
2989.068568947559
 30
0.0
 41
30.0
 42
30.0
 43
30.0
 50
180.0
  0
INSERT
  5
7E9D
  8
3
 62
     0
  2
_OPEN
 10
2760.324917901607
 20
2989.068568947559
 30
0.0
 41
30.0
 42
30.0
 43
30.0
  0
TEXT
  8
3
  40
45
  5
7ED5
  62
0
  72
0
  71
0
 10
2275.72
 20
2946.92
 30
0.000000
  1
790
  0
POINT
  5
7E9F
  8
DEFPOINTS
 62
     0
 10
1970.324917901607
 20
2405.7891152162961
 30
0.0
  0
POINT
  5
7EA0
  8
DEFPOINTS
 62
     0
 10
2760.324917901607
 20
2405.7891152162961
 30
0.0
  0
POINT
  5
7EA1
  8
DEFPOINTS
 62
     0
 10
2760.324917901607
 20
2989.068568947559
 30
0.0
  0
ENDBLK
  5
7BAC
  8
0
  0
BLOCK
  8
0
  2
*D4
 70
     1
 10
0.0
 20
0.0
 30
0.0
  3
*D4
  1

  0
LINE
  5
7EA2
  8
3
 62
     0
 10
520.0
 20
1804.7891152162961
 30
0.0
 11
520.0
 21
1595.638606113276
 31
0.0
  0
LINE
  5
7EA3
  8
3
 62
     0
 10
1380.0
 20
1803.2891152162961
 30
0.0
 11
1380.0
 21
1595.638606113276
 31
0.0
  0
LINE
  5
7EA4
  8
3
 62
     0
 10
550.0
 20
1610.638606113276
 30
0.0
 11
1350.0
 21
1610.638606113276
 31
0.0
  0
INSERT
  5
7EA5
  8
3
 62
     0
  2
_OPEN
 10
520.0
 20
1610.638606113276
 30
0.0
 41
30.0
 42
30.0
 43
30.0
 50
180.0
  0
INSERT
  5
7EA6
  8
3
 62
     0
  2
_OPEN
 10
1380.0
 20
1610.638606113276
 30
0.0
 41
30.0
 42
30.0
 43
30.0
  0
TEXT
  8
3
  40
45
  5
7ED6
  62
0
  72
0
  71
0
 10
827.668
 20
1568.49
 30
0.000000
  1
860
  0
POINT
  5
7EA8
  8
DEFPOINTS
 62
     0
 10
520.0
 20
1812.2891152162961
 30
0.0
  0
POINT
  5
7EA9
  8
DEFPOINTS
 62
     0
 10
1380.0
 20
1810.7891152162961
 30
0.0
  0
POINT
  5
7EAA
  8
DEFPOINTS
 62
     0
 10
1380.0
 20
1610.638606113276
 30
0.0
  0
ENDBLK
  5
7BB9
  8
0
  0
BLOCK
  8
0
  2
*D5
 70
     1
 10
0.0
 20
0.0
 30
0.0
  3
*D5
  1

  0
LINE
  5
7EAB
  8
3
 62
     0
 10
1935.324917901607
 20
1803.2891152162961
 30
0.0
 11
1935.324917901607
 21
1595.638606113276
 31
0.0
  0
LINE
  5
7EAC
  8
3
 62
     0
 10
2795.324917901607
 20
1803.2891152162961
 30
0.0
 11
2795.324917901607
 21
1595.638606113276
 31
0.0
  0
LINE
  5
7EAD
  8
3
 62
     0
 10
1965.324917901607
 20
1610.638606113276
 30
0.0
 11
2765.324917901607
 21
1610.638606113276
 31
0.0
  0
INSERT
  5
7EAE
  8
3
 62
     0
  2
_OPEN
 10
1935.324917901607
 20
1610.638606113276
 30
0.0
 41
30.0
 42
30.0
 43
30.0
 50
180.0
  0
INSERT
  5
7EAF
  8
3
 62
     0
  2
_OPEN
 10
2795.324917901607
 20
1610.638606113276
 30
0.0
 41
30.0
 42
30.0
 43
30.0
  0
TEXT
  8
3
  40
45
  5
7ED7
  62
0
  72
0
  71
0
 10
2275.72
 20
1568.49
 30
0.000000
  1
860
  0
POINT
  5
7EB1
  8
DEFPOINTS
 62
     0
 10
1935.324917901607
 20
1810.7891152162961
 30
0.0
  0
POINT
  5
7EB2
  8
DEFPOINTS
 62
     0
 10
2795.324917901607
 20
1810.7891152162961
 30
0.0
  0
POINT
  5
7EB3
  8
DEFPOINTS
 62
     0
 10
2795.324917901607
 20
1610.638606113276
 30
0.0
  0
ENDBLK
  5
7BC6
  8
0
  0
BLOCK
  8
0
  2
*D6
 70
     1
 10
0.0
 20
0.0
 30
0.0
  3
*D6
  1

  0
LINE
  5
7EB4
  8
3
 62
     0
 10
562.5
 20
2800.7891152162961
 30
0.0
 11
332.58655310701448
 21
2800.7891152162961
 31
0.0
  0
LINE
  5
7EB5
  8
3
 62
     0
 10
512.5
 20
1810.7891152162961
 30
0.0
 11
332.5865531070142
 21
1810.7891152162961
 31
0.0
  0
LINE
  5
7EB6
  8
3
 62
     0
 10
347.58655310701442
 20
2770.7891152162961
 30
0.0
 11
347.5865531070142
 21
1840.7891152162961
 31
0.0
  0
INSERT
  5
7EB7
  8
3
 62
     0
  2
_OPEN
 10
347.58655310701442
 20
2800.7891152162961
 30
0.0
 41
30.0
 42
30.0
 43
30.0
 50
90.0
  0
INSERT
  5
7EB8
  8
3
 62
     0
  2
_OPEN
 10
347.5865531070142
 20
1810.7891152162961
 30
0.0
 41
30.0
 42
30.0
 43
30.0
 50
270.0
  0
TEXT
  8
3
  40
45
  5
7ED8
  62
0
  72
0
  71
0
 10
220.087
 20
2219.30
 30
0.000000
  1
990
  0
POINT
  5
7EBA
  8
DEFPOINTS
 62
     0
 10
570.0
 20
2800.7891152162961
 30
0.0
  0
POINT
  5
7EBB
  8
DEFPOINTS
 62
     0
 10
520.0
 20
1810.7891152162961
 30
0.0
  0
POINT
  5
7EBC
  8
DEFPOINTS
 62
     0
 10
347.5865531070142
 20
1810.7891152162961
 30
0.0
  0
ENDBLK
  5
7BD3
  8
0
  0
BLOCK
  8
0
  2
*D7
 70
     1
 10
0.0
 20
0.0
 30
0.0
  3
*D7
  1

  0
LINE
  5
7EBD
  8
3
 62
     0
 10
1833.824917901607
 20
2405.7891152162961
 30
0.0
 11
1766.576905906473
 21
2405.7891152162961
 31
0.0
  0
LINE
  5
7EBE
  8
3
 62
     0
 10
2042.824917901607
 20
1955.7891152162961
 30
0.0
 11
1766.576905906473
 21
1955.7891152162961
 31
0.0
  0
LINE
  5
7EBF
  8
3
 62
     0
 10
1781.576905906473
 20
2375.7891152162961
 30
0.0
 11
1781.576905906473
 21
1985.7891152162961
 31
0.0
  0
INSERT
  5
7EC0
  8
3
 62
     0
  2
_OPEN
 10
1781.576905906473
 20
2405.7891152162961
 30
0.0
 41
30.0
 42
30.0
 43
30.0
 50
90.0
  0
INSERT
  5
7EC1
  8
3
 62
     0
  2
_OPEN
 10
1781.576905906473
 20
1955.7891152162961
 30
0.0
 41
30.0
 42
30.0
 43
30.0
 50
270.0
  0
TEXT
  8
3
  40
45
  5
7ED9
  62
0
  72
0
  71
0
 10
1654.08
 20
2098.20
 30
0.000000
  1
450
  0
POINT
  5
7EC3
  8
DEFPOINTS
 62
     0
 10
1841.324917901607
 20
2405.7891152162961
 30
0.0
  0
POINT
  5
7EC4
  8
DEFPOINTS
 62
     0
 10
2050.324917901607
 20
1955.7891152162961
 30
0.0
  0
POINT
  5
7EC5
  8
DEFPOINTS
 62
     0
 10
1781.576905906473
 20
1955.7891152162961
 30
0.0
  0
ENDBLK
  5
7BE0
  8
0
  0
BLOCK
  8
0
  2
*D8
 70
     1
 10
0.0
 20
0.0
 30
0.0
  3
*D8
  1

  0
LINE
  5
7E03
  8
3
 62
     0
 10
1927.824917901607
 20
1860.7891152162961
 30
0.0
 11
1766.576905906473
 21
1860.7891152162961
 31
0.0
  0
LINE
  5
7E04
  8
3
 62
     0
 10
1781.576905906473
 20
1925.7891152162961
 30
0.0
 11
1781.576905906473
 21
1890.7891152162961
 31
0.0
  0
TEXT
  5
7E05
  8
3
 62
     0
 10
1724.791191620759
 20
1842.9319723591541
 30
0.0
 40
45.0
  1
(95)
 50
90.0
  0
INSERT
  5
7E06
  8
3
 62
     0
  2
_OPEN
 10
1781.576905906473
 20
1955.7891152162961
 30
0.0
 41
30.0
 42
30.0
 43
30.0
 50
90.0
  0
INSERT
  5
7E07
  8
3
 62
     0
  2
_DOT
 10
1781.576905906473
 20
1860.7891152162961
 30
0.0
 41
30.0
 42
30.0
 43
30.0
 50
270.0
  0
POINT
  5
7E08
  8
DEFPOINTS
 62
     0
 10
2050.324917901607
 20
1955.7891152162961
 30
0.0
  0
POINT
  5
7E09
  8
DEFPOINTS
 62
     0
 10
1935.324917901607
 20
1860.7891152162961
 30
0.0
  0
POINT
  5
7E0A
  8
DEFPOINTS
 62
     0
 10
1781.576905906473
 20
1860.7891152162961
 30
0.0
  0
ENDBLK
  5
7C5E
  8
0
  0
BLOCK
  8
0
  2
*D9
 70
     1
 10
0.0
 20
0.0
 30
0.0
  3
*D9
  1

  0
LINE
  5
7EC6
  8
3
 62
     0
 10
1927.824917901607
 20
1860.7891152162961
 30
0.0
 11
1766.576905906473
 21
1860.7891152162961
 31
0.0
  0
LINE
  5
7EC7
  8
3
 62
     0
 10
1927.824917901607
 20
1810.7891152162961
 30
0.0
 11
1766.576905906473
 21
1810.7891152162961
 31
0.0
  0
LINE
  5
7EC8
  8
3
 62
     0
 10
1781.576905906473
 20
1890.7891152162961
 30
0.0
 11
1781.576905906473
 21
1920.7891152162961
 31
0.0
  0
LINE
  5
7EC9
  8
3
 62
     0
 10
1781.576905906473
 20
1780.7891152162961
 30
0.0
 11
1781.576905906473
 21
1647.931972359153
 31
0.0
  0
LINE
  5
7ECA
  8
3
 62
     0
 10
1781.576905906473
 20
1860.7891152162961
 30
0.0
 11
1781.576905906473
 21
1810.7891152162961
 31
0.0
  0
INSERT
  5
7ECB
  8
3
 62
     0
  2
_DOT
 10
1781.576905906473
 20
1860.7891152162961
 30
0.0
 41
30.0
 42
30.0
 43
30.0
 50
270.0
  0
INSERT
  5
7ECC
  8
3
 62
     0
  2
_OPEN
 10
1781.576905906473
 20
1810.7891152162961
 30
0.0
 41
30.0
 42
30.0
 43
30.0
 50
90.0
  0
TEXT
  8
3
  40
45
  5
7EDA
  62
0
  72
0
  71
0
 10
1654.08
 20
1619.71
 30
0.000000
  1
50
  0
POINT
  5
7ECE
  8
DEFPOINTS
 62
     0
 10
1935.324917901607
 20
1860.7891152162961
 30
0.0
  0
POINT
  5
7ECF
  8
DEFPOINTS
 62
     0
 10
1935.324917901607
 20
1810.7891152162961
 30
0.0
  0
POINT
  5
7ED0
  8
DEFPOINTS
 62
     0
 10
1781.576905906473
 20
1810.7891152162961
 30
0.0
  0
ENDBLK
  5
7C6B
  8
0
  0
BLOCK
  8
0
  2
_DOT
 70
     0
 10
0.0
 20
0.0
 30
0.0
  3
_DOT
  1

  0
LINE
  5
7C6C
  8
0
  6
BYBLOCK
 62
     0
 10
0.0
 20
0.0
 30
0.0
 11
-1.0
 21
-0.0000000000000284
 31
0.0
  0
POLYLINE
  5
7C6D
  8
0
  6
BYBLOCK
 62
     0
 66
     1
 10
0.0
 20
0.0
 30
0.0
 70
     1
 40
0.1666666666666666
 41
0.1666666666666666
  0
VERTEX
  5
7ED1
  8
0
  6
BYBLOCK
 62
     0
 10
-0.0833333333333286
 20
-0.0000000000000284
 30
0.0
 42
1.0
  0
VERTEX
  5
7ED2
  8
0
  6
BYBLOCK
 62
     0
 10
0.0833333333333286
 20
-0.0000000000000284
 30
0.0
 42
1.0
  0
SEQEND
  5
7ED3
  8
0
  6
BYBLOCK
 62
     0
  0
ENDBLK
  5
7C52
  8
0
  0
ENDSEC
  0
SECTION
  2
ENTITIES
  0
LINE
  5
7AC4
  8
2
 10
1841.324917901607
 20
2405.7891152162961
 30
0.0
 11
2843.2486882688609
 21
2405.7891152162961
 31
0.0
  0
LINE
  5
7AC5
  8
2
 10
2365.324917901607
 20
2884.5414222947252
 30
0.0
 11
2365.324917901607
 21
1784.7891152162961
 31
0.0
  0
CIRCLE
  5
7AC6
  8
1
 10
2365.324917901607
 20
2405.7891152162961
 30
0.0
 40
355.0
  0
CIRCLE
  5
7AC7
  8
1
 10
2365.324917901607
 20
2405.7891152162961
 30
0.0
 40
395.0
  0
LINE
  5
7AC8
  8
1
 10
1935.324917901607
 20
1860.7891152162961
 30
0.0
 11
2795.324917901607
 21
1860.7891152162961
 31
0.0
  0
LINE
  5
7AC9
  8
1
 10
1935.324917901607
 20
1810.7891152162961
 30
0.0
 11
2795.324917901607
 21
1810.7891152162961
 31
0.0
  0
LINE
  5
7ACA
  8
1
 10
1330.0
 20
2800.7891152162961
 30
0.0
 11
1330.0
 21
2010.7891152162961
 31
0.0
  0
LINE
  5
7ACB
  8
2
 10
1411.122245156788
 20
2405.7891152162961
 30
0.0
 11
491.75388790699071
 21
2405.7891152162961
 31
0.0
  0
LINE
  5
7ACC
  8
1
 10
1330.0
 20
2800.7891152162961
 30
0.0
 11
1326.8
 21
2800.7891152162961
 31
0.0
  0
LINE
  5
7ACD
  8
1
 10
1330.0
 20
2010.7891152162961
 30
0.0
 11
1326.8
 21
2010.7891152162961
 31
0.0
  0
LINE
  5
7ACE
  8
1
 10
1326.8
 20
2800.7891152162961
 30
0.0
 11
1326.8
 21
2010.7891152162961
 31
0.0
  0
LINE
  5
7ACF
  8
1
 10
1326.8
 20
2763.9891152162959
 30
0.0
 11
573.19999999999982
 21
2763.9891152162959
 31
0.0
  0
LINE
  5
7AD0
  8
1
 10
1320.8
 20
2047.589115216296
 30
0.0
 11
579.19999999999982
 21
2047.589115216296
 31
0.0
  0
LINE
  5
7AD1
  8
1
 10
1330.0
 20
2800.7891152162961
 30
0.0
 11
1332.0
 21
2800.7891152162961
 31
0.0
  0
LINE
  5
7AD2
  8
1
 10
1370.0
 20
2762.7891152162961
 30
0.0
 11
1370.0
 21
2048.7891152162961
 31
0.0
  0
LINE
  5
7AD3
  8
1
 10
1339.5
 20
2765.7891152162961
 30
0.0
 11
1367.0
 21
2765.7891152162961
 31
0.0
  0
LINE
  5
7AD4
  8
1
 10
1335.0
 20
2797.7891152162961
 30
0.0
 11
1335.0
 21
2013.7891152162961
 31
0.0
  0
ARC
  5
7AD5
  8
1
 10
1339.5
 20
2770.2891152162961
 30
0.0
 40
4.5
 50
180.0
 51
270.0
  0
ARC
  5
7AD6
  8
1
 10
1332.0
 20
2797.7891152162961
 30
0.0
 40
3.0
 50
0.0
 51
90.0
  0
ARC
  5
7AD7
  8
1
 10
1367.0
 20
2762.7891152162961
 30
0.0
 40
3.0
 50
0.0
 51
90.0
  0
LINE
  5
7AD8
  8
1
 10
1339.5
 20
2045.7891152162961
 30
0.0
 11
1367.0
 21
2045.7891152162961
 31
0.0
  0
ARC
  5
7AD9
  8
1
 10
1339.5
 20
2041.2891152162961
 30
0.0
 40
4.5
 50
90.0
 51
180.0
  0
ARC
  5
7ADA
  8
1
 10
1367.0
 20
2048.7891152162961
 30
0.0
 40
3.0
 50
270.0
 51
0.0
  0
ARC
  5
7ADB
  8
1
 10
1332.0
 20
2013.7891152162961
 30
0.0
 40
3.0
 50
270.0
 51
0.0
  0
LINE
  5
7ADC
  8
1
 10
1330.0
 20
2010.7891152162961
 30
0.0
 11
1332.0
 21
2010.7891152162961
 31
0.0
  0
LINE
  5
7ADD
  8
1
 10
565.0
 20
2797.7891152162961
 30
0.0
 11
565.0
 21
2013.7891152162961
 31
0.0
  0
LINE
  5
7ADE
  8
1
 10
530.0
 20
2762.7891152162961
 30
0.0
 11
529.99999999999977
 21
2048.7891152162961
 31
0.0
  0
LINE
  5
7ADF
  8
1
 10
573.20000000000005
 20
2800.7891152162961
 30
0.0
 11
573.20000000000005
 21
2010.7891152162961
 31
0.0
  0
LINE
  5
7AE0
  8
1
 10
570.0
 20
2800.7891152162961
 30
0.0
 11
570.0
 21
2010.7891152162961
 31
0.0
  0
ARC
  5
7AE1
  8
1
 10
533.0
 20
2048.7891152162961
 30
0.0
 40
3.0
 50
180.0
 51
270.0
  0
ARC
  5
7AE2
  8
1
 10
560.5
 20
2041.2891152162961
 30
0.0
 40
4.5
 50
0.0
 51
90.0
  0
LINE
  5
7AE3
  8
1
 10
560.5
 20
2045.7891152162961
 30
0.0
 11
533.0
 21
2045.7891152162961
 31
0.0
  0
LINE
  5
7AE4
  8
1
 10
570.0
 20
2010.7891152162961
 30
0.0
 11
568.0
 21
2010.7891152162961
 31
0.0
  0
ARC
  5
7AE5
  8
1
 10
568.0
 20
2013.7891152162961
 30
0.0
 40
3.0
 50
180.0
 51
270.0
  0
LINE
  5
7AE6
  8
1
 10
570.0
 20
2010.7891152162961
 30
0.0
 11
573.20000000000005
 21
2010.7891152162961
 31
0.0
  0
LINE
  5
7AE7
  8
1
 10
560.5
 20
2765.7891152162961
 30
0.0
 11
533.0
 21
2765.7891152162961
 31
0.0
  0
ARC
  5
7AE8
  8
1
 10
560.5
 20
2770.2891152162961
 30
0.0
 40
4.5
 50
270.0
 51
0.0
  0
ARC
  5
7AE9
  8
1
 10
533.0
 20
2762.7891152162961
 30
0.0
 40
3.0
 50
90.0
 51
180.0
  0
ARC
  5
7AEA
  8
1
 10
568.0
 20
2797.7891152162961
 30
0.0
 40
3.0
 50
90.0
 51
180.0
  0
LINE
  5
7AEB
  8
1
 10
570.0
 20
2800.7891152162961
 30
0.0
 11
568.0
 21
2800.7891152162961
 31
0.0
  0
LINE
  5
7AEC
  8
1
 10
570.0
 20
2800.7891152162961
 30
0.0
 11
573.20000000000005
 21
2800.7891152162961
 31
0.0
  0
LINE
  5
7AED
  8
2
 10
1359.0
 20
2783.289115216297
 30
0.0
 11
1302.8
 21
2783.2891152162952
 31
0.0
  0
LINE
  5
7AEE
  8
2
 10
1359.0
 20
2028.2891152162961
 30
0.0
 11
1302.8
 21
2028.289115216297
 31
0.0
  0
LINE
  5
7AEF
  8
2
 10
541.0
 20
2783.289115216297
 30
0.0
 11
597.20000000000005
 21
2783.2891152162952
 31
0.0
  0
LINE
  5
7AF0
  8
2
 10
541.0
 20
2028.2891152162961
 30
0.0
 11
597.20000000000005
 21
2028.289115216297
 31
0.0
  0
LINE
  5
7AF1
  8
1
 10
750.0
 20
2583.2891152162961
 30
0.0
 11
600.0
 21
2583.2891152162961
 31
0.0
  0
LINE
  5
7AF2
  8
1
 10
750.00000000000023
 20
2228.2891152162961
 30
0.0
 11
599.99999999999977
 21
2228.2891152162961
 31
0.0
  0
LINE
  5
7AF3
  8
1
 10
600.0
 20
2583.2891152162961
 30
0.0
 11
599.99999999999977
 21
2228.2891152162961
 31
0.0
  0
LINE
  5
7AF4
  8
1
 10
750.0
 20
2583.2891152162961
 30
0.0
 11
750.00000000000023
 21
2228.2891152162961
 31
0.0
  0
LINE
  5
7AF5
  8
1
 10
610.0
 20
2583.2891152162961
 30
0.0
 11
640.76905813362691
 21
2757.7891152162961
 31
0.0
  0
LINE
  5
7AF6
  8
1
 10
740.0
 20
2583.2891152162961
 30
0.0
 11
709.23094186637309
 21
2757.7891152162961
 31
0.0
  0
LINE
  5
7AF7
  8
1
 10
709.23094186637309
 20
2757.7891152162961
 30
0.0
 11
640.76905813362691
 21
2757.7891152162961
 31
0.0
  0
LINE
  5
7AF8
  8
1
 10
709.23094186637309
 20
2053.7891152162961
 30
0.0
 11
640.76905813362691
 21
2053.7891152162961
 31
0.0
  0
LINE
  5
7AF9
  8
1
 10
740.0
 20
2228.2891152162961
 30
0.0
 11
709.23094186637309
 21
2053.7891152162961
 31
0.0
  0
LINE
  5
7AFA
  8
1
 10
610.0
 20
2228.2891152162961
 30
0.0
 11
640.76905813362691
 21
2053.7891152162961
 31
0.0
  0
LINE
  5
7AFB
  8
1
 10
1330.0
 20
1810.7891152162961
 30
0.0
 11
570.0
 21
1810.7891152162961
 31
0.0
  0
LINE
  5
7AFC
  8
1
 10
1330.0
 20
1860.7891152162961
 30
0.0
 11
570.0
 21
1860.7891152162961
 31
0.0
  0
INSERT
  5
7AFE
  8
0
  2
YA_N
 10
-0.8650111581082455
 20
4165.8392519947738
 30
0.0
  0
INSERT
  5
7AFF
  8
0
  2
YA_N
 10
-0.8650111581082455
 20
4165.8392519947738
 30
0.0
  0
INSERT
  5
7B01
  8
0
  2
YA_N
 10
-0.8650111581082455
 20
4165.8392519947738
 30
0.0
  0
INSERT
  5
7B03
  8
0
  2
YA_N
 10
-1025.4081351281779
 20
7020.4201291175495
 30
0.0
  0
INSERT
  5
7B04
  8
0
  2
YA_N
 10
284.78779968238553
 20
5199.1281167756679
 30
0.0
  0
INSERT
  5
7B05
  8
0
  2
YA_N
 10
3056.267382176608
 20
6970.9049074884533
 30
0.0
  0
INSERT
  5
7B06
  8
0
  2
YA_N
 10
3574.628983890967
 20
6407.0340984136083
 30
0.0
  0
INSERT
  5
7B07
  8
0
  2
YA_N
 10
4299.4962243231603
 20
7549.4681790474624
 30
0.0
  0
INSERT
  5
7B08
  8
0
  2
YA_N
 10
-626.5464799940346
 20
3760.7562851639518
 30
0.0
 41
15.0
 42
15.0
 43
15.0
  0
INSERT
  5
7B0A
  8
0
  2
YA_N
 10
64623.732689539938
 20
4885.7562851639523
 30
0.0
 41
225.0
 42
225.0
 43
225.0
  0
INSERT
  5
7B0C
  8
0
  2
YA_N
 10
96214.107620873183
 20
6183.899720080306
 30
0.0
 41
225.0
 42
225.0
 43
225.0
  0
INSERT
  5
7B0E
  8
0
  2
YA_N
 10
64623.732689539938
 20
4885.7562851639523
 30
0.0
 41
225.0
 42
225.0
 43
225.0
  0
INSERT
  5
7B10
  8
0
  2
YA_N
 10
4835.0546054105289
 20
3947.3496906929649
 30
0.0
 41
15.0
 42
15.0
 43
15.0
  0
INSERT
  5
7B17
  8
0
  2
YA_N
 10
3696.662273865431
 20
4545.4731355958029
 30
0.0
  0
LINE
  5
7B1C
  8
1
 10
573.19999999999982
 20
2101.028111899439
 30
0.0
 11
573.19999999999982
 21
1955.7891152162961
 31
0.0
  0
LINE
  5
7B1D
  8
1
 10
1330.0
 20
1854.7891152162961
 30
0.0
 11
570.0
 21
1854.7891152162961
 31
0.0
  0
LINE
  5
7B33
  8
1
 10
633.20000000000005
 20
1955.7891152162961
 30
0.0
 11
573.19999999999982
 21
1955.7891152162961
 31
0.0
  0
LINE
  5
7B34
  8
1
 10
633.20000000000005
 20
1960.2891152162961
 30
0.0
 11
577.69999999999982
 21
1960.2891152162961
 31
0.0
  0
LINE
  5
7B35
  8
1
 10
633.20000000000005
 20
1960.2891152162961
 30
0.0
 11
633.20000000000005
 21
1955.7891152162961
 31
0.0
  0
LINE
  5
7B36
  8
1
 10
577.69999999999982
 20
2150.2891152162961
 30
0.0
 11
577.69999999999982
 21
1960.2891152162961
 31
0.0
  0
LINE
  5
7B37
  8
1
 10
577.69999999999982
 20
2150.2891152162961
 30
0.0
 11
573.19999999999982
 21
2150.2891152162961
 31
0.0
  0
LINE
  5
7B38
  8
1
 10
585.19999999999982
 20
1860.7891152162961
 30
0.0
 11
635.19999999999982
 21
1860.7891152162961
 31
0.0
  0
LINE
  5
7B39
  8
1
 10
585.19999999999982
 20
1955.7891152162961
 30
0.0
 11
633.20000000000005
 21
1955.7891152162961
 31
0.0
  0
LINE
  5
7B43
  8
1
 10
1322.3
 20
2150.2891152162961
 30
0.0
 11
1322.3
 21
1960.2891152162961
 31
0.0
  0
LINE
  5
7B44
  8
1
 10
1322.3
 20
2150.2891152162961
 30
0.0
 11
1326.8
 21
2150.2891152162961
 31
0.0
  0
LINE
  5
7B45
  8
1
 10
1314.8
 20
1860.7891152162961
 30
0.0
 11
1264.8
 21
1860.7891152162961
 31
0.0
  0
LINE
  5
7B48
  8
1
 10
1314.8
 20
1955.7891152162961
 30
0.0
 11
1266.799999999999
 21
1955.7891152162961
 31
0.0
  0
LINE
  5
7B49
  8
1
 10
1266.799999999999
 20
1960.2891152162961
 30
0.0
 11
1322.3
 21
1960.2891152162961
 31
0.0
  0
LINE
  5
7B4A
  8
1
 10
1266.799999999999
 20
1955.7891152162961
 30
0.0
 11
1326.8
 21
1955.7891152162961
 31
0.0
  0
LINE
  5
7B4F
  8
1
 10
1266.799999999999
 20
1960.2891152162961
 30
0.0
 11
1266.799999999999
 21
1955.7891152162961
 31
0.0
  0
LINE
  5
7B52
  8
1
 10
1326.8
 20
2101.028111899439
 30
0.0
 11
1326.8
 21
1955.7891152162961
 31
0.0
  0
LINE
  5
7B54
  8
1
 10
2050.324917901607
 20
2125.7891152162961
 30
0.0
 11
2050.324917901607
 21
1955.7891152162961
 31
0.0
  0
LINE
  5
7B55
  8
1
 10
2050.324917901607
 20
1955.7891152162961
 30
0.0
 11
2680.324917901607
 21
1955.7891152162961
 31
0.0
  0
LINE
  5
7B56
  8
1
 10
2050.324917901607
 20
2125.7891152162961
 30
0.0
 11
2070.65987589319
 21
2142.7349135426161
 31
0.0
  0
LINE
  5
7B57
  8
1
 10
2680.324917901607
 20
2125.7891152162961
 30
0.0
 11
2680.324917901607
 21
1955.7891152162961
 31
0.0
  0
LINE
  5
7B58
  8
1
 10
2680.324917901607
 20
2125.7891152162961
 30
0.0
 11
2659.9899599100249
 21
2142.7349135426161
 31
0.0
  0
LINE
  5
7B59
  8
1
 10
2795.324917901607
 20
1860.7891152162961
 30
0.0
 11
2795.324917901607
 21
1810.7891152162961
 31
0.0
  0
LINE
  5
7B5A
  8
1
 10
1935.324917901607
 20
1860.7891152162961
 30
0.0
 11
1935.324917901607
 21
1810.7891152162961
 31
0.0
  0
LINE
  5
7B5B
  8
2
 10
1960.324917901607
 20
1832.113005702254
 30
0.0
 11
1960.324917901607
 21
1794.904540623214
 31
0.0
  0
LINE
  5
7B5C
  8
2
 10
2770.324917901607
 20
1832.113005702254
 30
0.0
 11
2770.324917901607
 21
1794.904540623214
 31
0.0
  0
LINE
  5
7B5D
  8
2
 10
540.0
 20
1832.113005702254
 30
0.0
 11
540.0
 21
1794.904540623214
 31
0.0
  0
LINE
  5
7B5E
  8
2
 10
1360.0
 20
1832.113005702254
 30
0.0
 11
1360.0
 21
1794.904540623214
 31
0.0
  0
LINE
  5
7B5F
  8
1
 10
570.0
 20
1810.7891152162961
 30
0.0
 11
570.0
 21
1860.7891152162961
 31
0.0
  0
LINE
  5
7B60
  8
1
 10
570.0
 20
1810.7891152162961
 30
0.0
 11
520.0
 21
1810.7891152162961
 31
0.0
  0
LINE
  5
7B61
  8
1
 10
570.0
 20
1860.7891152162961
 30
0.0
 11
568.5
 21
1860.7891152162961
 31
0.0
  0
LINE
  5
7B62
  8
1
 10
520.0
 20
1810.7891152162961
 30
0.0
 11
520.0
 21
1812.2891152162961
 31
0.0
  0
LINE
  5
7B63
  8
1
 10
564.0
 20
1823.2891152162961
 30
0.0
 11
564.0
 21
1856.2891152162961
 31
0.0
  0
LINE
  5
7B64
  8
1
 10
557.5
 20
1816.7891152162961
 30
0.0
 11
524.5
 21
1816.7891152162961
 31
0.0
  0
ARC
  5
7B65
  8
1
 10
568.5
 20
1856.2891152162961
 30
0.0
 40
4.5
 50
90.0
 51
180.0
  0
ARC
  5
7B66
  8
1
 10
524.5
 20
1812.2891152162961
 30
0.0
 40
4.5
 50
90.0
 51
180.0
  0
ARC
  5
7B67
  8
1
 10
557.5
 20
1823.2891152162961
 30
0.0
 40
6.5
 50
270.0
 51
0.0
  0
LINE
  5
7B68
  8
1
 10
1330.0
 20
1810.7891152162961
 30
0.0
 11
1330.0
 21
1860.7891152162961
 31
0.0
  0
LINE
  5
7B69
  8
1
 10
1330.0
 20
1810.7891152162961
 30
0.0
 11
1380.0
 21
1810.7891152162961
 31
0.0
  0
LINE
  5
7B6A
  8
1
 10
1330.0
 20
1860.7891152162961
 30
0.0
 11
1331.5
 21
1860.7891152162961
 31
0.0
  0
LINE
  5
7B6B
  8
1
 10
1380.0
 20
1810.7891152162961
 30
0.0
 11
1380.0
 21
1812.2891152162961
 31
0.0
  0
LINE
  5
7B6C
  8
1
 10
1336.0
 20
1823.2891152162961
 30
0.0
 11
1336.0
 21
1856.2891152162961
 31
0.0
  0
LINE
  5
7B6D
  8
1
 10
1342.5
 20
1816.7891152162961
 30
0.0
 11
1375.5
 21
1816.7891152162961
 31
0.0
  0
ARC
  5
7B6E
  8
1
 10
1331.5
 20
1856.2891152162961
 30
0.0
 40
4.5
 50
0.0
 51
90.0
  0
ARC
  5
7B6F
  8
1
 10
1375.5
 20
1812.2891152162961
 30
0.0
 40
4.5
 50
0.0
 51
90.0
  0
ARC
  5
7B70
  8
1
 10
1342.5
 20
1823.2891152162961
 30
0.0
 40
6.5
 50
180.0
 51
270.0
  0
LINE
  5
7B71
  8
1
 10
1935.324917901607
 20
1816.7891152162961
 30
0.0
 11
2795.324917901607
 21
1816.7891152162961
 31
0.0
  0
LINE
  5
7B73
  8
4
 10
2775.0
 20
750.0
 30
0.0
 11
2775.0
 21
450.0
 31
0.0
  0
LINE
  5
7B74
  8
4
 10
1725.0
 20
750.0
 30
0.0
 11
1725.0
 21
450.0
 31
0.0
  0
LINE
  5
7B75
  8
4
 10
975.0
 20
750.0
 30
0.0
 11
975.0
 21
450.0
 31
0.0
  0
LINE
  5
7B78
  8
4
 10
975.0
 20
450.0
 30
0.0
 11
2775.0
 21
450.0
 31
0.0
  0
LINE
  5
7B79
  8
4
 10
975.0
 20
600.0
 30
0.0
 11
2775.0
 21
600.0
 31
0.0
  0
TEXT
  5
7B7A
  8
4
 10
1032.753121270352
 20
647.31453879991932
 30
0.0
 40
75.0
  1
機器名称
  0
TEXT
  5
7B7B
  8
4
 10
1029.3871590371959
 20
482.46773509801642
 30
0.0
 40
75.0
  1
機器型番
  0
TEXT
  5
7B7C
  8
4
 10
1766.5181182314971
 20
633.85765343635285
 30
0.0
 40
75.0
  1
ミツヤ軸流ファン
  0
TEXT
  5
7B7D
  8
4
 10
1779.9817433782209
 20
475.739376419915
 30
0.0
 40
75.0
  1
AP#710-1
  0
TEXT
  5
7B7F
  8
4
 10
1234.8883915033
 20
3575.1432619987731
 30
0.0
 40
80.999999999999986
  1
床置防振ベット
  0
TEXT
  5
7B80
  8
4
 10
474.25138999416959
 20
3800.8214642989469
 30
0.0
 40
108.0
  1
電動機直動式横形軸流ファン
  0
LINE
  5
7B81
  8
4
 10
375.0
 20
3704.1131313972069
 30
0.0
 11
2775.0
 21
3704.1131313972069
 31
0.0
  0
LINE
  5
7B82
  8
4
 10
375.0
 20
4004.1131313972069
 30
0.0
 11
2775.0
 21
4004.1131313972069
 31
0.0
  0
LINE
  5
7B83
  8
4
 10
975.0
 20
750.0
 30
0.0
 11
2775.0
 21
750.0
 31
0.0
  0
LINE
  5
7B84
  8
4
 10
375.0
 20
4004.1131313972069
 30
0.0
 11
375.0
 21
3704.1131313972069
 31
0.0
  0
TEXT
  5
7B85
  8
4
 10
441.3398345891037
 20
3573.4792163195152
 30
0.0
 40
80.999999999999986
  1
左回転後方吐出
  0
TEXT
  5
7B86
  8
4
 10
2203.4543388739339
 20
4059.0916222429628
 30
0.0
 40
84.000000000000014
  1
No.
  0
TEXT
  5
7B87
  8
4
 10
2167.8495307980152
 20
3575.1432619987731
 30
0.0
 40
80.999999999999986
  1
縮尺：1/15
  0
LINE
  5
7B88
  8
4
 10
2775.0
 20
4004.1131313972069
 30
0.0
 11
2775.0
 21
3704.1131313972069
 31
0.0
  0
LINE
  5
7B89
  8
4
 10
3150.0
 20
4425.0
 30
0.0
 11
3150.0
 21
4425.0
 31
0.0
  0
LINE
  5
7B8A
  8
4
 10
2160.9261335397969
 20
4021.895374688102
 30
0.0
 11
2160.9261335397969
 21
4179.9783923246277
 31
0.0
  0
LINE
  5
7B8B
  8
4
 10
2160.9261335397969
 20
4179.9783923246277
 30
0.0
 11
2775.0
 21
4179.9783923246277
 31
0.0
  0
LINE
  5
7B8C
  8
4
 10
2775.0
 20
4179.9783923246277
 30
0.0
 11
2775.0
 21
4021.895374688102
 31
0.0
  0
LINE
  5
7B8D
  8
4
 10
2775.0
 20
4021.895374688102
 30
0.0
 11
2160.9261335397969
 21
4021.895374688102
 31
0.0
  0
LINE
  5
7B8E
  8
4
 10
0.0
 20
0.0
 30
0.0
 11
0.0
 21
4425.0
 31
0.0
  0
LINE
  5
7B8F
  8
4
 10
0.0
 20
4425.0
 30
0.0
 11
3150.0
 21
4425.0
 31
0.0
  0
LINE
  5
7B90
  8
4
 10
3150.0
 20
4425.0
 30
0.0
 11
3150.0
 21
0.0
 31
0.0
  0
LINE
  5
7B91
  8
4
 10
3150.0
 20
0.0
 30
0.0
 11
0.0
 21
0.0
 31
0.0
  0
DIMENSION
  5
7BA0
  8
3
  2
*D2
 10
1370.0
 20
2989.068568947559
 30
0.0
 11
924.69737709794208
 21
2989.068568947559
 31
0.0
 70
   128
 13
530.0
 23
2762.7891152162961
 33
0.0
 14
1370.0
 24
2762.7891152162961
 34
0.0
1001
ACAD
1000
DSTYLE
1002
{
1070
   287
1070
     3
1070
   287
1070
     3
1070
   287
1070
     3
1070
    40
1040
15.0
1070
   143
1040
0.039
1070
   172
1070
     1
1070
   271
1070
     0
1070
   279
1070
     0
1070
   288
1070
     1
1002
}
  0
DIMENSION
  5
7BAD
  8
3
  2
*D3
 10
2760.324917901607
 20
2989.068568947559
 30
0.0
 11
2365.7170885540031
 21
2989.068568947559
 31
0.0
 70
   128
 13
1970.324917901607
 23
2405.7891152162961
 33
0.0
 14
2760.324917901607
 24
2405.7891152162961
 34
0.0
1001
ACAD
1000
DSTYLE
1002
{
1070
   287
1070
     3
1070
   287
1070
     3
1070
   287
1070
     3
1070
    40
1040
15.0
1070
   143
1040
0.039
1070
   172
1070
     1
1070
   271
1070
     0
1070
   279
1070
     0
1070
   288
1070
     1
1002
}
  0
DIMENSION
  5
7BBA
  8
3
  2
*D4
 10
1380.0
 20
1610.638606113276
 30
0.0
 11
917.66800072711885
 21
1610.638606113276
 31
0.0
 70
   128
 13
520.0
 23
1812.2891152162961
 33
0.0
 14
1380.0
 24
1810.7891152162961
 34
0.0
1001
ACAD
1000
DSTYLE
1002
{
1070
   287
1070
     3
1070
   287
1070
     3
1070
   287
1070
     3
1070
    40
1040
15.0
1070
   143
1040
0.039
1070
   172
1070
     1
1070
   271
1070
     0
1070
   279
1070
     0
1070
   288
1070
     1
1002
}
  0
DIMENSION
  5
7BC7
  8
3
  2
*D5
 10
2795.324917901607
 20
1610.638606113276
 30
0.0
 11
2365.7170885540031
 21
1610.638606113276
 31
0.0
 70
   128
 13
1935.324917901607
 23
1810.7891152162961
 33
0.0
 14
2795.324917901607
 24
1810.7891152162961
 34
0.0
1001
ACAD
1000
DSTYLE
1002
{
1070
   287
1070
     3
1070
   287
1070
     3
1070
   287
1070
     3
1070
    40
1040
15.0
1070
   143
1040
0.039
1070
   172
1070
     1
1070
   271
1070
     0
1070
   279
1070
     0
1070
   288
1070
     1
1002
}
  0
DIMENSION
  5
7BD4
  8
3
  2
*D6
 10
347.5865531070142
 20
1810.7891152162961
 30
0.0
 11
347.58655310701391
 21
2298.947848306223
 31
0.0
 70
   128
 13
570.0
 23
2800.7891152162961
 33
0.0
 14
520.0
 24
1810.7891152162961
 34
0.0
 50
90.0
1001
ACAD
1000
DSTYLE
1002
{
1070
   287
1070
     3
1070
   287
1070
     3
1070
   287
1070
     3
1070
    40
1040
15.0
1070
   143
1040
0.039
1070
   172
1070
     1
1070
   271
1070
     0
1070
   279
1070
     0
1070
   288
1070
     1
1002
}
  0
DIMENSION
  5
7BE1
  8
3
  2
*D7
 10
1781.576905906473
 20
1955.7891152162961
 30
0.0
 11
1781.576905906473
 21
2177.8469738518788
 31
0.0
 70
   128
 13
1841.324917901607
 23
2405.7891152162961
 33
0.0
 14
2050.324917901607
 24
1955.7891152162961
 34
0.0
 50
90.0
1001
ACAD
1000
DSTYLE
1002
{
1070
   287
1070
     3
1070
   287
1070
     3
1070
   287
1070
     3
1070
    40
1040
15.0
1070
   143
1040
0.039
1070
   172
1070
     1
1070
   271
1070
     0
1070
   279
1070
     0
1070
   288
1070
     1
1002
}
  0
DIMENSION
  5
7BF1
  8
3
  2
*D8
 10
1781.576905906473
 20
1860.7891152162961
 30
0.0
 11
1709.791191620759
 21
1908.2891152162961
 31
0.0
 70
     0
  1
(<>)
 13
2050.324917901607
 23
1955.7891152162961
 33
0.0
 14
1935.324917901607
 24
1860.7891152162961
 34
0.0
 50
90.0
1001
ACAD
1000
DSTYLE
1002
{
1070
   288
1070
     1
1070
   172
1070
     1
1070
    75
1070
     1
1070
    40
1040
15.0
1070
   271
1070
     0
1070
     7
1000
_DOT
1070
   143
1040
0.039
1002
}
  0
DIMENSION
  5
7C01
  8
3
  2
*D9
 10
1781.576905906473
 20
1810.7891152162961
 30
0.0
 11
1744.0769059064719
 21
1699.360543787725
 31
0.0
 70
     0
 13
1935.324917901607
 23
1860.7891152162961
 33
0.0
 14
1935.324917901607
 24
1810.7891152162961
 34
0.0
 50
90.0
1001
ACAD
1000
DSTYLE
1002
{
1070
   287
1070
     3
1070
   287
1070
     3
1070
   287
1070
     3
1070
    40
1040
15.0
1070
   143
1040
0.039
1070
   172
1070
     1
1070
   271
1070
     0
1070
   279
1070
     0
1070
   288
1070
     1
1070
     6
1000
DOT
1002
}
  0
ENDSEC
  0
EOF
