  0
SECTION
  2
HEADER
  9
$ACADVER
  1
AC1009
  9
$INSBASE
 10
0.0
 20
0.0
 30
0.0
  9
$EXTMIN
 10
0.0
 20
0.0
 30
0.0
  9
$EXTMAX
 10
3150.0
 20
4425.0
 30
0.0
  9
$LIMMIN
 10
0.0
 20
0.0
  9
$LIMMAX
 10
297.0
 20
210.0
  9
$ORTHOMODE
 70
     0
  9
$REGENMODE
 70
     1
  9
$FILLMODE
 70
     0
  9
$QTEXTMODE
 70
     0
  9
$MIRRTEXT
 70
     1
  9
$DRAGMODE
 70
     2
  9
$LTSCALE
 40
100.0
  9
$OSMODE
 70
    37
  9
$ATTMODE
 70
     1
  9
$TEXTSIZE
 40
180.0
  9
$TRACEWID
 40
0.05
  9
$TEXTSTYLE
  7
STANDARD
  9
$CLAYER
  8
3
  9
$CELTYPE
  6
BYLAYER
  9
$CECOLOR
 62
   256
  9
$DIMSCALE
 40
15.0
  9
$DIMASZ
 40
2.0
  9
$DIMEXO
 40
0.5
  9
$DIMDLI
 40
10.0
  9
$DIMRND
 40
0.0
  9
$DIMDLE
 40
0.0
  9
$DIMEXE
 40
1.0
  9
$DIMTP
 40
1.0
  9
$DIMTM
 40
1.0
  9
$DIMTXT
 40
3.0
  9
$DIMCEN
 40
0.0
  9
$DIMTSZ
 40
0.0
  9
$DIMTOL
 70
     0
  9
$DIMLIM
 70
     0
  9
$DIMTIH
 70
     0
  9
$DIMTOH
 70
     0
  9
$DIMSE1
 70
     0
  9
$DIMSE2
 70
     0
  9
$DIMTAD
 70
     1
  9
$DIMZIN
 70
     8
  9
$DIMBLK
  1

  9
$DIMASO
 70
     1
  9
$DIMSHO
 70
     1
  9
$DIMPOST
  1

  9
$DIMAPOST
  1

  9
$DIMALT
 70
     0
  9
$DIMALTD
 70
     2
  9
$DIMALTF
 40
0.039
  9
$DIMLFAC
 40
1.0
  9
$DIMTOFL
 70
     1
  9
$DIMTVP
 40
0.0
  9
$DIMTIX
 70
     0
  9
$DIMSOXD
 70
     0
  9
$DIMSAH
 70
     1
  9
$DIMBLK1
  1
OPEN
  9
$DIMBLK2
  1
OPEN
  9
$DIMSTYLE
  2
IGA
  9
$DIMCLRD
 70
     0
  9
$DIMCLRE
 70
     0
  9
$DIMCLRT
 70
     0
  9
$DIMTFAC
 40
10.0
  9
$DIMGAP
 40
1.0
  9
$LUNITS
 70
     2
  9
$LUPREC
 70
     3
  9
$SKETCHINC
 40
0.1
  9
$FILLETRAD
 40
50.0
  9
$AUNITS
 70
     0
  9
$AUPREC
 70
     0
  9
$MENU
  1
acad
  9
$ELEVATION
 40
0.0
  9
$PELEVATION
 40
0.0
  9
$THICKNESS
 40
0.0
  9
$LIMCHECK
 70
     0
  9
$BLIPMODE
 70
     0
  9
$CHAMFERA
 40
0.5
  9
$CHAMFERB
 40
0.5
  9
$SKPOLY
 70
     0
  9
$TDCREATE
 40
2452618.5927902772
  9
$TDUPDATE
 40
2454953.6254483098
  9
$TDINDWG
 40
0.023935463
  9
$TDUSRTIMER
 40
0.023935463
  9
$USRTIMER
 70
     1
  9
$ANGBASE
 50
0.0
  9
$ANGDIR
 70
     0
  9
$PDMODE
 70
     0
  9
$PDSIZE
 40
0.0
  9
$PLINEWID
 40
0.0
  9
$COORDS
 70
     1
  9
$SPLFRAME
 70
     0
  9
$SPLINETYPE
 70
     6
  9
$SPLINESEGS
 70
     8
  9
$ATTDIA
 70
     0
  9
$ATTREQ
 70
     1
  9
$HANDLING
 70
 10241
  9
$HANDSEED
  5
8693
  9
$SURFTAB1
 70
     6
  9
$SURFTAB2
 70
     6
  9
$SURFTYPE
 70
     6
  9
$SURFU
 70
     6
  9
$SURFV
 70
     6
  9
$UCSNAME
  2

  9
$UCSORG
 10
0.0
 20
0.0
 30
0.0
  9
$UCSXDIR
 10
1.0
 20
0.0
 30
0.0
  9
$UCSYDIR
 10
0.0
 20
1.0
 30
0.0
  9
$PUCSNAME
  2

  9
$PUCSORG
 10
0.0
 20
0.0
 30
0.0
  9
$PUCSXDIR
 10
1.0
 20
0.0
 30
0.0
  9
$PUCSYDIR
 10
0.0
 20
1.0
 30
0.0
  9
$USERI1
 70
     0
  9
$USERI2
 70
     0
  9
$USERI3
 70
     0
  9
$USERI4
 70
     0
  9
$USERI5
 70
     0
  9
$USERR1
 40
0.0
  9
$USERR2
 40
0.0
  9
$USERR3
 40
0.0
  9
$USERR4
 40
0.0
  9
$USERR5
 40
0.0
  9
$WORLDVIEW
 70
     1
  9
$SHADEDGE
 70
     3
  9
$SHADEDIF
 70
    70
  9
$TILEMODE
 70
     1
  9
$MAXACTVP
 70
    16
  9
$PLIMCHECK
 70
     0
  9
$PEXTMIN
 10
1.0000000000000000E+020
 20
1.0000000000000000E+020
 30
1.0000000000000000E+020
  9
$PEXTMAX
 10
-1.0000000000000000E+020
 20
-1.0000000000000000E+020
 30
-1.0000000000000000E+020
  9
$PLIMMIN
 10
0.0
 20
0.0
  9
$PLIMMAX
 10
12.0
 20
9.0
  9
$UNITMODE
 70
     0
  9
$VISRETAIN
 70
     0
  9
$PLINEGEN
 70
     0
  9
$PSLTSCALE
 70
     1
  0
ENDSEC
  0
SECTION
  2
TABLES
  0
TABLE
  2
VPORT
 70
     2
  0
VPORT
  2
*ACTIVE
 70
     0
 10
0.0
 20
0.0
 11
1.0
 21
1.0
 12
3004.5673080674019
 22
536.86830690743136
 13
0.0
 23
0.0
 14
10.0
 24
10.0
 15
10.0
 25
10.0
 16
0.0
 26
0.0
 36
1.0
 17
0.0
 27
0.0
 37
0.0
 40
1351.185271464597
 41
3.1666666666666661
 42
50.0
 43
0.0
 44
0.0
 50
0.0
 51
0.0
 71
     0
 72
   100
 73
     1
 74
     0
 75
     0
 76
     0
 77
     0
 78
     0
  0
ENDTAB
  0
TABLE
  2
LTYPE
 70
     2
  0
LTYPE
  2
CONTINUOUS
 70
     0
  3
Solid line
 72
    65
 73
     0
 40
0.0
  0
LTYPE
  2
CENTER
 70
     0
  3
____ _ ____ _ ____ _ ____ _ ____ _ ____ _ ____ 
 72
    65
 73
     4
 40
2.0
 49
1.25
 49
-0.25
 49
0.25
 49
-0.25
  0
ENDTAB
  0
TABLE
  2
LAYER
 70
     6
  0
LAYER
  2
0
 70
     0
 62
     7
  6
CONTINUOUS
  0
LAYER
  2
3
 70
     0
 62
     2
  6
CONTINUOUS
  0
LAYER
  2
2
 70
     0
 62
     3
  6
CENTER
  0
LAYER
  2
1
 70
     0
 62
     4
  6
CONTINUOUS
  0
LAYER
  2
4
 70
     0
 62
     7
  6
CONTINUOUS
  0
LAYER
  2
DEFPOINTS
 70
     0
 62
     7
  6
CONTINUOUS
  0
ENDTAB
  0
TABLE
  2
STYLE
 70
     1
  0
STYLE
  2
STANDARD
 70
     0
 40
0.0
 41
1.0
 50
0.0
 71
     0
 42
180.0
  3
simplex.shx
  4
extfont.shx
  0
ENDTAB
  0
TABLE
  2
VIEW
 70
     0
  0
ENDTAB
  0
TABLE
  2
UCS
 70
     0
  0
ENDTAB
  0
TABLE
  2
APPID
 70
     1
  0
APPID
  2
ACAD
 70
     0
  0
ENDTAB
  0
TABLE
  2
DIMSTYLE
 70
     2
  0
DIMSTYLE
  2
IGA
 70
     0
  3

  4

  5

  6
OPEN
  7
OPEN
 40
2.0
 41
2.0
 42
0.5
 43
10.0
 44
1.0
 45
0.0
 46
0.0
 47
1.0
 48
1.0
140
3.0
141
0.0
142
0.0
143
0.03937
144
1.0
145
0.0
146
10.0
147
1.0
 71
     0
 72
     0
 73
     0
 74
     0
 75
     0
 76
     0
 77
     1
 78
     8
170
     0
171
     2
172
     0
173
     1
174
     0
175
     0
176
     0
177
     0
178
     0
  0
DIMSTYLE
  2
STANDARD
 70
     0
  3

  4

  5

  6

  7

 40
1.0
 41
0.18
 42
0.0625
 43
0.38
 44
0.18
 45
0.0
 46
0.0
 47
0.0
 48
0.0
140
0.18
141
0.09
142
0.0
143
25.399999999999999
144
1.0
145
0.0
146
1.0
147
0.09
 71
     0
 72
     0
 73
     1
 74
     1
 75
     0
 76
     0
 77
     0
 78
     0
170
     0
171
     2
172
     0
173
     0
174
     0
175
     0
176
     0
177
     0
178
     0
  0
ENDTAB
  0
ENDSEC
  0
SECTION
  2
BLOCKS
  0
BLOCK
  8
0
  2
$MODEL_SPACE
 70
     0
 10
0.0
 20
0.0
 30
0.0
  3
$MODEL_SPACE
  1

  0
ENDBLK
  5
1B
  8
0
  0
BLOCK
 67
     1
  8
0
  2
$PAPER_SPACE
 70
     0
 10
0.0
 20
0.0
 30
0.0
  3
$PAPER_SPACE
  1

  0
ENDBLK
  5
18
 67
     1
  8
0
  0
BLOCK
  8
0
  2
_OPEN
 70
     0
 10
0.0
 20
0.0
 30
0.0
  3
_OPEN
  1

  0
LINE
  5
79FD
  8
0
  6
BYBLOCK
 62
     0
 10
-1.0
 20
0.1666666666666666
 30
0.0
 11
0.0
 21
0.0
 31
0.0
  0
LINE
  5
79FE
  8
0
  6
BYBLOCK
 62
     0
 10
0.0
 20
0.0
 30
0.0
 11
-1.0
 21
-0.1666666666666666
 31
0.0
  0
LINE
  5
79FF
  8
0
  6
BYBLOCK
 62
     0
 10
0.0
 20
0.0
 30
0.0
 11
-1.0
 21
0.0
 31
0.0
  0
ENDBLK
  5
7A01
  8
0
  0
BLOCK
  8
0
  2
YA_N
 70
     0
 10
0.0
 20
0.0
 30
0.0
  3
YA_N
  1

  0
ENDBLK
  5
7A04
  8
0
  0
BLOCK
  8
0
  2
*D2
 70
     1
 10
0.0
 20
0.0
 30
0.0
  3
*D2
  1

  0
LINE
  5
865D
  8
3
 62
     0
 10
1960.324917901607
 20
3054.2875567295482
 30
0.0
 11
1960.324917901607
 21
3117.1578821217859
 31
0.0
  0
LINE
  5
865E
  8
3
 62
     0
 10
2770.3249179016079
 20
3054.2875567295482
 30
0.0
 11
2770.3249179016079
 21
3117.1578821217859
 31
0.0
  0
LINE
  5
865F
  8
3
 62
     0
 10
1990.324917901607
 20
3102.1578821217859
 30
0.0
 11
2740.3249179016079
 21
3102.1578821217859
 31
0.0
  0
INSERT
  5
8660
  8
3
 62
     0
  2
_OPEN
 10
1960.324917901607
 20
3102.1578821217859
 30
0.0
 41
30.0
 42
30.0
 43
30.0
 50
180.0
  0
INSERT
  5
8661
  8
3
 62
     0
  2
_OPEN
 10
2770.3249179016079
 20
3102.1578821217859
 30
0.0
 41
30.0
 42
30.0
 43
30.0
  0
TEXT
  8
3
  40
45
  5
868E
  62
0
  72
0
  71
0
 10
2261.33
 20
3060.01
 30
0.000000
  1
810
  0
POINT
  5
8663
  8
DEFPOINTS
 62
     0
 10
1960.324917901607
 20
3046.7875567295468
 30
0.0
  0
POINT
  5
8664
  8
DEFPOINTS
 62
     0
 10
2770.3249179016079
 20
3046.7875567295468
 30
0.0
  0
POINT
  5
8665
  8
DEFPOINTS
 62
     0
 10
2770.3249179016079
 20
3102.1578821217859
 30
0.0
  0
ENDBLK
  5
8523
  8
0
  0
BLOCK
  8
0
  2
*D3
 70
     1
 10
0.0
 20
0.0
 30
0.0
  3
*D3
  1

  0
LINE
  5
8666
  8
3
 62
     0
 10
570.0
 20
2808.2891152162961
 30
0.0
 11
570.0
 21
3221.8085767360922
 31
0.0
  0
LINE
  5
8667
  8
3
 62
     0
 10
1330.0
 20
2808.2891152162961
 30
0.0
 11
1330.0
 21
3221.8085767360922
 31
0.0
  0
LINE
  5
8668
  8
3
 62
     0
 10
600.0
 20
3206.8085767360922
 30
0.0
 11
1300.0
 21
3206.8085767360922
 31
0.0
  0
INSERT
  5
8669
  8
3
 62
     0
  2
_OPEN
 10
570.0
 20
3206.8085767360922
 30
0.0
 41
30.0
 42
30.0
 43
30.0
 50
180.0
  0
INSERT
  5
866A
  8
3
 62
     0
  2
_OPEN
 10
1330.0
 20
3206.8085767360922
 30
0.0
 41
30.0
 42
30.0
 43
30.0
  0
TEXT
  8
3
  40
45
  5
868F
  62
0
  72
0
  71
0
 10
845.421
 20
3164.66
 30
0.000000
  1
760
  0
POINT
  5
866C
  8
DEFPOINTS
 62
     0
 10
570.0
 20
2800.7891152162961
 30
0.0
  0
POINT
  5
866D
  8
DEFPOINTS
 62
     0
 10
1330.0
 20
2800.7891152162961
 30
0.0
  0
POINT
  5
866E
  8
DEFPOINTS
 62
     0
 10
1330.0
 20
3206.8085767360922
 30
0.0
  0
ENDBLK
  5
8530
  8
0
  0
BLOCK
  8
0
  2
*D4
 70
     1
 10
0.0
 20
0.0
 30
0.0
  3
*D4
  1

  0
LINE
  5
866F
  8
3
 62
     0
 10
593.00000000000023
 20
3054.2875567295482
 30
0.0
 11
593.00000000000023
 21
3086.976874251397
 31
0.0
  0
LINE
  5
8670
  8
3
 62
     0
 10
1306.9999999999991
 20
3054.2875567295482
 30
0.0
 11
1306.9999999999991
 21
3086.976874251397
 31
0.0
  0
LINE
  5
8671
  8
3
 62
     0
 10
623.00000000000023
 20
3071.976874251397
 30
0.0
 11
1276.9999999999991
 21
3071.976874251397
 31
0.0
  0
INSERT
  5
8672
  8
3
 62
     0
  2
_OPEN
 10
593.00000000000023
 20
3071.976874251397
 30
0.0
 41
30.0
 42
30.0
 43
30.0
 50
180.0
  0
INSERT
  5
8673
  8
3
 62
     0
  2
_OPEN
 10
1306.9999999999991
 20
3071.976874251397
 30
0.0
 41
30.0
 42
30.0
 43
30.0
  0
TEXT
  8
3
  40
45
  5
8690
  62
0
  72
0
  71
0
 10
843.312
 20
3029.83
 30
0.000000
  1
714
  0
POINT
  5
8675
  8
DEFPOINTS
 62
     0
 10
593.00000000000023
 20
3046.7875567295468
 30
0.0
  0
POINT
  5
8676
  8
DEFPOINTS
 62
     0
 10
1306.9999999999991
 20
3046.7875567295468
 30
0.0
  0
POINT
  5
8677
  8
DEFPOINTS
 62
     0
 10
1306.9999999999991
 20
3071.976874251397
 30
0.0
  0
ENDBLK
  5
853D
  8
0
  0
BLOCK
  8
0
  2
*D5
 70
     1
 10
0.0
 20
0.0
 30
0.0
  3
*D5
  1

  0
LINE
  5
8678
  8
3
 62
     0
 10
1306.9999999999991
 20
3054.2875567295482
 30
0.0
 11
1306.9999999999991
 21
3086.976874251397
 31
0.0
  0
LINE
  5
8679
  8
3
 62
     0
 10
1330.0
 20
2808.2891152162961
 30
0.0
 11
1330.0
 21
3086.976874251397
 31
0.0
  0
LINE
  5
867A
  8
3
 62
     0
 10
1276.9999999999991
 20
3071.976874251397
 30
0.0
 11
1246.9999999999991
 21
3071.976874251397
 31
0.0
  0
LINE
  5
867B
  8
3
 62
     0
 10
1360.0
 20
3071.976874251397
 30
0.0
 11
1390.0
 21
3071.976874251397
 31
0.0
  0
TEXT
  8
3
  40
45
  5
8691
  62
0
  72
0
  71
0
 10
1330.45
 20
3029.83
 30
0.000000
  1
23
  0
LINE
  5
867D
  8
3
 62
     0
 10
1306.9999999999991
 20
3071.976874251397
 30
0.0
 11
1330.0
 21
3071.976874251397
 31
0.0
  0
INSERT
  5
867E
  8
3
 62
     0
  2
_OPEN
 10
1306.9999999999991
 20
3071.976874251397
 30
0.0
 41
30.0
 42
30.0
 43
30.0
  0
INSERT
  5
867F
  8
3
 62
     0
  2
_OPEN
 10
1330.0
 20
3071.976874251397
 30
0.0
 41
30.0
 42
30.0
 43
30.0
 50
180.0
  0
POINT
  5
8680
  8
DEFPOINTS
 62
     0
 10
1306.9999999999991
 20
3046.7875567295468
 30
0.0
  0
POINT
  5
8681
  8
DEFPOINTS
 62
     0
 10
1330.0
 20
2800.7891152162961
 30
0.0
  0
POINT
  5
8682
  8
DEFPOINTS
 62
     0
 10
1330.0
 20
3071.976874251397
 30
0.0
  0
ENDBLK
  5
854F
  8
0
  0
BLOCK
  8
0
  2
*D6
 70
     1
 10
0.0
 20
0.0
 30
0.0
  3
*D6
  1

  0
LINE
  5
8683
  8
3
 62
     0
 10
593.00000000000023
 20
3054.2875567295482
 30
0.0
 11
593.00000000000023
 21
3086.976874251397
 31
0.0
  0
LINE
  5
8684
  8
3
 62
     0
 10
570.0
 20
2808.2891152162961
 30
0.0
 11
570.0
 21
3086.976874251397
 31
0.0
  0
LINE
  5
8685
  8
3
 62
     0
 10
623.00000000000023
 20
3071.976874251397
 30
0.0
 11
653.00000000000023
 21
3071.976874251397
 31
0.0
  0
LINE
  5
8686
  8
3
 62
     0
 10
540.0
 20
3071.976874251397
 30
0.0
 11
510.0
 21
3071.976874251397
 31
0.0
  0
TEXT
  8
3
  40
45
  5
8692
  62
0
  72
0
  71
0
 10
411.002
 20
3029.83
 30
0.000000
  1
23
  0
LINE
  5
8688
  8
3
 62
     0
 10
593.00000000000023
 20
3071.976874251397
 30
0.0
 11
570.0
 21
3071.976874251397
 31
0.0
  0
INSERT
  5
8689
  8
3
 62
     0
  2
_OPEN
 10
593.00000000000023
 20
3071.976874251397
 30
0.0
 41
30.0
 42
30.0
 43
30.0
 50
180.0
  0
INSERT
  5
868A
  8
3
 62
     0
  2
_OPEN
 10
570.0
 20
3071.976874251397
 30
0.0
 41
30.0
 42
30.0
 43
30.0
  0
POINT
  5
868B
  8
DEFPOINTS
 62
     0
 10
593.00000000000023
 20
3046.7875567295468
 30
0.0
  0
POINT
  5
868C
  8
DEFPOINTS
 62
     0
 10
570.0
 20
2800.7891152162961
 30
0.0
  0
POINT
  5
868D
  8
DEFPOINTS
 62
     0
 10
570.0
 20
3071.976874251397
 30
0.0
  0
ENDBLK
  5
8561
  8
0
  0
ENDSEC
  0
SECTION
  2
ENTITIES
  0
LINE
  5
7AC4
  8
2
 10
1703.6388164054549
 20
2405.7891152162961
 30
0.0
 11
2999.2151747755452
 21
2405.7891152162961
 31
0.0
  0
LINE
  5
7AC5
  8
2
 10
2365.324917901607
 20
2884.5414222947252
 30
0.0
 11
2365.324917901607
 21
1842.7891152162961
 31
0.0
  0
CIRCLE
  5
7AC6
  8
1
 10
2365.324917901607
 20
2405.7891152162961
 30
0.0
 40
355.0
  0
CIRCLE
  5
7AC7
  8
1
 10
2365.324917901607
 20
2405.7891152162961
 30
0.0
 40
395.0
  0
LINE
  5
7ACA
  8
1
 10
1330.0
 20
2800.7891152162961
 30
0.0
 11
1330.0
 21
2010.7891152162961
 31
0.0
  0
LINE
  5
7ACB
  8
2
 10
1411.122245156788
 20
2405.7891152162961
 30
0.0
 11
491.75388790699071
 21
2405.7891152162961
 31
0.0
  0
LINE
  5
7ACC
  8
1
 10
1330.0
 20
2800.7891152162961
 30
0.0
 11
1326.8
 21
2800.7891152162961
 31
0.0
  0
LINE
  5
7ACD
  8
1
 10
1330.0
 20
2010.7891152162961
 30
0.0
 11
1326.8
 21
2010.7891152162961
 31
0.0
  0
LINE
  5
7ACE
  8
1
 10
1326.8
 20
2800.7891152162961
 30
0.0
 11
1326.8
 21
2010.7891152162961
 31
0.0
  0
LINE
  5
7ACF
  8
1
 10
1326.8
 20
2763.9891152162959
 30
0.0
 11
573.19999999999982
 21
2763.9891152162959
 31
0.0
  0
LINE
  5
7AD0
  8
1
 10
1320.8
 20
2047.589115216296
 30
0.0
 11
579.19999999999982
 21
2047.589115216296
 31
0.0
  0
LINE
  5
7AD1
  8
1
 10
1330.0
 20
2800.7891152162961
 30
0.0
 11
1332.0
 21
2800.7891152162961
 31
0.0
  0
LINE
  5
7AD2
  8
1
 10
1370.0
 20
2762.7891152162961
 30
0.0
 11
1370.0
 21
2048.7891152162961
 31
0.0
  0
LINE
  5
7AD3
  8
1
 10
1339.5
 20
2765.7891152162961
 30
0.0
 11
1367.0
 21
2765.7891152162961
 31
0.0
  0
LINE
  5
7AD4
  8
1
 10
1335.0
 20
2797.7891152162961
 30
0.0
 11
1335.0
 21
2013.7891152162961
 31
0.0
  0
ARC
  5
7AD5
  8
1
 10
1339.5
 20
2770.2891152162961
 30
0.0
 40
4.5
 50
180.0
 51
270.0
  0
ARC
  5
7AD6
  8
1
 10
1332.0
 20
2797.7891152162961
 30
0.0
 40
3.0
 50
0.0
 51
90.0
  0
ARC
  5
7AD7
  8
1
 10
1367.0
 20
2762.7891152162961
 30
0.0
 40
3.0
 50
0.0
 51
90.0
  0
LINE
  5
7AD8
  8
1
 10
1339.5
 20
2045.7891152162961
 30
0.0
 11
1367.0
 21
2045.7891152162961
 31
0.0
  0
ARC
  5
7AD9
  8
1
 10
1339.5
 20
2041.2891152162961
 30
0.0
 40
4.5
 50
90.0
 51
180.0
  0
ARC
  5
7ADA
  8
1
 10
1367.0
 20
2048.7891152162961
 30
0.0
 40
3.0
 50
270.0
 51
0.0
  0
ARC
  5
7ADB
  8
1
 10
1332.0
 20
2013.7891152162961
 30
0.0
 40
3.0
 50
270.0
 51
0.0
  0
LINE
  5
7ADC
  8
1
 10
1330.0
 20
2010.7891152162961
 30
0.0
 11
1332.0
 21
2010.7891152162961
 31
0.0
  0
LINE
  5
7ADD
  8
1
 10
565.0
 20
2797.7891152162961
 30
0.0
 11
565.0
 21
2013.7891152162961
 31
0.0
  0
LINE
  5
7ADE
  8
1
 10
530.0
 20
2762.7891152162961
 30
0.0
 11
529.99999999999977
 21
2048.7891152162961
 31
0.0
  0
LINE
  5
7ADF
  8
1
 10
573.20000000000005
 20
2800.7891152162961
 30
0.0
 11
573.20000000000005
 21
2010.7891152162961
 31
0.0
  0
LINE
  5
7AE0
  8
1
 10
570.0
 20
2800.7891152162961
 30
0.0
 11
570.0
 21
2010.7891152162961
 31
0.0
  0
ARC
  5
7AE1
  8
1
 10
533.0
 20
2048.7891152162961
 30
0.0
 40
3.0
 50
180.0
 51
270.0
  0
ARC
  5
7AE2
  8
1
 10
560.5
 20
2041.2891152162961
 30
0.0
 40
4.5
 50
0.0
 51
90.0
  0
LINE
  5
7AE3
  8
1
 10
560.5
 20
2045.7891152162961
 30
0.0
 11
533.0
 21
2045.7891152162961
 31
0.0
  0
LINE
  5
7AE4
  8
1
 10
570.0
 20
2010.7891152162961
 30
0.0
 11
568.0
 21
2010.7891152162961
 31
0.0
  0
ARC
  5
7AE5
  8
1
 10
568.0
 20
2013.7891152162961
 30
0.0
 40
3.0
 50
180.0
 51
270.0
  0
LINE
  5
7AE6
  8
1
 10
570.0
 20
2010.7891152162961
 30
0.0
 11
573.20000000000005
 21
2010.7891152162961
 31
0.0
  0
LINE
  5
7AE7
  8
1
 10
560.5
 20
2765.7891152162961
 30
0.0
 11
533.0
 21
2765.7891152162961
 31
0.0
  0
ARC
  5
7AE8
  8
1
 10
560.5
 20
2770.2891152162961
 30
0.0
 40
4.5
 50
270.0
 51
0.0
  0
ARC
  5
7AE9
  8
1
 10
533.0
 20
2762.7891152162961
 30
0.0
 40
3.0
 50
90.0
 51
180.0
  0
ARC
  5
7AEA
  8
1
 10
568.0
 20
2797.7891152162961
 30
0.0
 40
3.0
 50
90.0
 51
180.0
  0
LINE
  5
7AEB
  8
1
 10
570.0
 20
2800.7891152162961
 30
0.0
 11
568.0
 21
2800.7891152162961
 31
0.0
  0
LINE
  5
7AEC
  8
1
 10
570.0
 20
2800.7891152162961
 30
0.0
 11
573.20000000000005
 21
2800.7891152162961
 31
0.0
  0
LINE
  5
7AED
  8
2
 10
1359.0
 20
2783.289115216297
 30
0.0
 11
1302.8
 21
2783.2891152162952
 31
0.0
  0
LINE
  5
7AEE
  8
2
 10
1359.0
 20
2028.2891152162961
 30
0.0
 11
1302.8
 21
2028.289115216297
 31
0.0
  0
LINE
  5
7AEF
  8
2
 10
541.0
 20
2783.289115216297
 30
0.0
 11
597.20000000000005
 21
2783.2891152162952
 31
0.0
  0
LINE
  5
7AF0
  8
2
 10
541.0
 20
2028.2891152162961
 30
0.0
 11
597.20000000000005
 21
2028.289115216297
 31
0.0
  0
LINE
  5
7AF1
  8
1
 10
750.0
 20
2583.2891152162961
 30
0.0
 11
600.0
 21
2583.2891152162961
 31
0.0
  0
LINE
  5
7AF2
  8
1
 10
750.00000000000023
 20
2228.2891152162961
 30
0.0
 11
599.99999999999977
 21
2228.2891152162961
 31
0.0
  0
LINE
  5
7AF3
  8
1
 10
600.0
 20
2583.2891152162961
 30
0.0
 11
599.99999999999977
 21
2228.2891152162961
 31
0.0
  0
LINE
  5
7AF4
  8
1
 10
750.0
 20
2583.2891152162961
 30
0.0
 11
750.00000000000023
 21
2228.2891152162961
 31
0.0
  0
LINE
  5
7AF5
  8
1
 10
610.0
 20
2583.2891152162961
 30
0.0
 11
640.76905813362691
 21
2757.7891152162961
 31
0.0
  0
LINE
  5
7AF6
  8
1
 10
740.0
 20
2583.2891152162961
 30
0.0
 11
709.23094186637309
 21
2757.7891152162961
 31
0.0
  0
LINE
  5
7AF7
  8
1
 10
709.23094186637309
 20
2757.7891152162961
 30
0.0
 11
640.76905813362691
 21
2757.7891152162961
 31
0.0
  0
LINE
  5
7AF8
  8
1
 10
709.23094186637309
 20
2053.7891152162961
 30
0.0
 11
640.76905813362691
 21
2053.7891152162961
 31
0.0
  0
LINE
  5
7AF9
  8
1
 10
740.0
 20
2228.2891152162961
 30
0.0
 11
709.23094186637309
 21
2053.7891152162961
 31
0.0
  0
LINE
  5
7AFA
  8
1
 10
610.0
 20
2228.2891152162961
 30
0.0
 11
640.76905813362691
 21
2053.7891152162961
 31
0.0
  0
INSERT
  5
7AFE
  8
0
  2
YA_N
 10
-0.8650111581082455
 20
4165.8392519947738
 30
0.0
  0
INSERT
  5
7AFF
  8
0
  2
YA_N
 10
-0.8650111581082455
 20
4165.8392519947738
 30
0.0
  0
INSERT
  5
7B01
  8
0
  2
YA_N
 10
-0.8650111581082455
 20
4165.8392519947738
 30
0.0
  0
INSERT
  5
7B03
  8
0
  2
YA_N
 10
-1025.4081351281779
 20
7020.4201291175495
 30
0.0
  0
INSERT
  5
7B04
  8
0
  2
YA_N
 10
284.78779968238553
 20
5199.1281167756679
 30
0.0
  0
INSERT
  5
7B05
  8
0
  2
YA_N
 10
3056.267382176608
 20
6970.9049074884533
 30
0.0
  0
INSERT
  5
7B06
  8
0
  2
YA_N
 10
3574.628983890967
 20
6407.0340984136083
 30
0.0
  0
INSERT
  5
7B07
  8
0
  2
YA_N
 10
4299.4962243231603
 20
7549.4681790474624
 30
0.0
  0
INSERT
  5
7B08
  8
0
  2
YA_N
 10
-626.5464799940346
 20
3760.7562851639518
 30
0.0
 41
15.0
 42
15.0
 43
15.0
  0
INSERT
  5
7B0A
  8
0
  2
YA_N
 10
64623.732689539938
 20
4885.7562851639523
 30
0.0
 41
225.0
 42
225.0
 43
225.0
  0
INSERT
  5
7B0C
  8
0
  2
YA_N
 10
96214.107620873183
 20
6183.899720080306
 30
0.0
 41
225.0
 42
225.0
 43
225.0
  0
INSERT
  5
7B0E
  8
0
  2
YA_N
 10
64623.732689539938
 20
4885.7562851639523
 30
0.0
 41
225.0
 42
225.0
 43
225.0
  0
INSERT
  5
7B10
  8
0
  2
YA_N
 10
4835.0546054105289
 20
3947.3496906929649
 30
0.0
 41
15.0
 42
15.0
 43
15.0
  0
INSERT
  5
7B17
  8
0
  2
YA_N
 10
3696.662273865431
 20
4545.4731355958029
 30
0.0
  0
LINE
  5
7B73
  8
4
 10
2775.0
 20
750.0
 30
0.0
 11
2775.0
 21
450.0
 31
0.0
  0
LINE
  5
7B74
  8
4
 10
1725.0
 20
750.0
 30
0.0
 11
1725.0
 21
450.0
 31
0.0
  0
LINE
  5
7B75
  8
4
 10
975.0
 20
750.0
 30
0.0
 11
975.0
 21
450.0
 31
0.0
  0
LINE
  5
7B78
  8
4
 10
975.0
 20
450.0
 30
0.0
 11
2775.0
 21
450.0
 31
0.0
  0
LINE
  5
7B79
  8
4
 10
975.0
 20
600.0
 30
0.0
 11
2775.0
 21
600.0
 31
0.0
  0
TEXT
  5
7B7A
  8
4
 10
1032.753121270352
 20
647.31453879991932
 30
0.0
 40
75.0
  1
機器名称
  0
TEXT
  5
7B7B
  8
4
 10
1029.3871590371959
 20
482.46773509801642
 30
0.0
 40
75.0
  1
機器型番
  0
TEXT
  5
7B7C
  8
4
 10
1766.5181182314971
 20
633.85765343635285
 30
0.0
 40
75.0
  1
ミツヤ軸流ファン
  0
TEXT
  5
7B7D
  8
4
 10
1779.9817433782209
 20
475.739376419915
 30
0.0
 40
75.0
  1
AP＃710-1
  0
TEXT
  5
7B7F
  8
4
 10
1234.8883915033
 20
3575.1432619987731
 30
0.0
 40
80.999999999999986
  1
天井吊本体形
  0
TEXT
  5
7B80
  8
4
 10
474.25138999416959
 20
3800.8214642989469
 30
0.0
 40
108.0
  1
電動機直動式横形軸流ファン
  0
LINE
  5
7B81
  8
4
 10
375.0
 20
3704.1131313972069
 30
0.0
 11
2775.0
 21
3704.1131313972069
 31
0.0
  0
LINE
  5
7B82
  8
4
 10
375.0
 20
4004.1131313972069
 30
0.0
 11
2775.0
 21
4004.1131313972069
 31
0.0
  0
LINE
  5
7B83
  8
4
 10
975.0
 20
750.0
 30
0.0
 11
2775.0
 21
750.0
 31
0.0
  0
LINE
  5
7B84
  8
4
 10
375.0
 20
4004.1131313972069
 30
0.0
 11
375.0
 21
3704.1131313972069
 31
0.0
  0
TEXT
  5
7B85
  8
4
 10
441.3398345891037
 20
3573.4792163195152
 30
0.0
 40
80.999999999999986
  1
左回転後方吐出
  0
TEXT
  5
7B86
  8
4
 10
2203.4543388739339
 20
4059.0916222429628
 30
0.0
 40
84.000000000000014
  1
No.
  0
TEXT
  5
7B87
  8
4
 10
2167.8495307980152
 20
3575.1432619987731
 30
0.0
 40
80.999999999999986
  1
縮尺：1/15
  0
LINE
  5
7B88
  8
4
 10
2775.0
 20
4004.1131313972069
 30
0.0
 11
2775.0
 21
3704.1131313972069
 31
0.0
  0
LINE
  5
7B89
  8
4
 10
3150.0
 20
4425.0
 30
0.0
 11
3150.0
 21
4425.0
 31
0.0
  0
LINE
  5
7B8A
  8
4
 10
2160.9261335397969
 20
4021.895374688102
 30
0.0
 11
2160.9261335397969
 21
4179.9783923246277
 31
0.0
  0
LINE
  5
7B8B
  8
4
 10
2160.9261335397969
 20
4179.9783923246277
 30
0.0
 11
2775.0
 21
4179.9783923246277
 31
0.0
  0
LINE
  5
7B8C
  8
4
 10
2775.0
 20
4179.9783923246277
 30
0.0
 11
2775.0
 21
4021.895374688102
 31
0.0
  0
LINE
  5
7B8D
  8
4
 10
2775.0
 20
4021.895374688102
 30
0.0
 11
2160.9261335397969
 21
4021.895374688102
 31
0.0
  0
LINE
  5
7B8E
  8
4
 10
0.0
 20
0.0
 30
0.0
 11
0.0
 21
4425.0
 31
0.0
  0
LINE
  5
7B8F
  8
4
 10
0.0
 20
4425.0
 30
0.0
 11
3150.0
 21
4425.0
 31
0.0
  0
LINE
  5
7B90
  8
4
 10
3150.0
 20
4425.0
 30
0.0
 11
3150.0
 21
0.0
 31
0.0
  0
LINE
  5
7B91
  8
4
 10
3150.0
 20
0.0
 30
0.0
 11
0.0
 21
0.0
 31
0.0
  0
LINE
  5
84C4
  8
1
 10
1932.324917901607
 20
2386.7891152162961
 30
0.0
 11
2007.324917901607
 21
2386.7891152162961
 31
0.0
  0
LINE
  5
84C5
  8
1
 10
1932.324917901607
 20
2380.7891152162961
 30
0.0
 11
2007.324917901607
 21
2380.7891152162961
 31
0.0
  0
LINE
  5
84C6
  8
1
 10
1932.324917901607
 20
2430.7891152162961
 30
0.0
 11
2007.324917901607
 21
2430.789115216297
 31
0.0
  0
LINE
  5
84C7
  8
1
 10
1932.324917901607
 20
2380.7891152162961
 30
0.0
 11
1932.324917901607
 21
2430.789115216297
 31
0.0
  0
LINE
  5
84C8
  8
1
 10
2007.324917901607
 20
2380.7891152162961
 30
0.0
 11
2007.324917901607
 21
2430.7891152162961
 31
0.0
  0
LINE
  5
84C9
  8
1
 10
2798.3249179016079
 20
2430.7891152162961
 30
0.0
 11
2723.324917901607
 21
2430.789115216297
 31
0.0
  0
LINE
  5
84CA
  8
1
 10
2798.324917901607
 20
2380.7891152162961
 30
0.0
 11
2723.324917901607
 21
2380.7891152162961
 31
0.0
  0
LINE
  5
84CB
  8
1
 10
2798.324917901607
 20
2386.7891152162961
 30
0.0
 11
2723.324917901607
 21
2386.7891152162961
 31
0.0
  0
LINE
  5
84CC
  8
1
 10
2723.324917901607
 20
2380.7891152162961
 30
0.0
 11
2723.3249179016079
 21
2430.7891152162961
 31
0.0
  0
LINE
  5
84CD
  8
1
 10
2798.3249179016079
 20
2380.7891152162961
 30
0.0
 11
2798.3249179016079
 21
2430.789115216297
 31
0.0
  0
LINE
  5
84CE
  8
2
 10
2770.324917901607
 20
2339.3528645064839
 30
0.0
 11
2770.3249179016079
 21
3046.7875567295468
 31
0.0
  0
LINE
  5
84CF
  8
2
 10
1960.3249179016079
 20
2339.3528645064839
 30
0.0
 11
1960.324917901607
 21
3046.7875567295468
 31
0.0
  0
LINE
  5
84D1
  8
1
 10
1289.299999999999
 20
2386.7891152162961
 30
0.0
 11
1322.299999999999
 21
2386.7891152162961
 31
0.0
  0
LINE
  5
84D2
  8
1
 10
1276.799999999999
 20
2380.7891152162961
 30
0.0
 11
1326.799999999999
 21
2380.7891152162961
 31
0.0
  0
ARC
  5
84D3
  8
1
 10
1289.299999999999
 20
2393.2891152162961
 30
0.0
 40
6.5
 50
180.0
 51
270.0
  0
ARC
  5
84D4
  8
1
 10
1278.299999999999
 20
2426.2891152162961
 30
0.0
 40
4.5
 50
0.0
 51
90.0
  0
LINE
  5
84D5
  8
1
 10
1282.799999999999
 20
2393.2891152162961
 30
0.0
 11
1282.799999999999
 21
2426.2891152162961
 31
0.0
  0
LINE
  5
84D6
  8
1
 10
1276.799999999999
 20
2430.7891152162961
 30
0.0
 11
1278.299999999999
 21
2430.7891152162961
 31
0.0
  0
LINE
  5
84D7
  8
1
 10
1276.799999999999
 20
2380.7891152162961
 30
0.0
 11
1276.799999999999
 21
2430.7891152162961
 31
0.0
  0
ARC
  5
84D8
  8
1
 10
1322.299999999999
 20
2382.2891152162961
 30
0.0
 40
4.5
 50
0.0
 51
90.0
  0
LINE
  5
84D9
  8
1
 10
1326.799999999999
 20
2380.7891152162961
 30
0.0
 11
1326.799999999999
 21
2382.2891152162961
 31
0.0
  0
LINE
  5
84DA
  8
2
 10
1306.9999999999991
 20
3046.7875567295468
 30
0.0
 11
1306.9999999999991
 21
2331.2913636093831
 31
0.0
  0
ARC
  5
84DB
  8
1
 10
577.70000000000073
 20
2382.2891152162961
 30
0.0
 40
4.5
 50
90.0
 51
180.0
  0
LINE
  5
84DC
  8
1
 10
623.20000000000073
 20
2380.7891152162961
 30
0.0
 11
623.20000000000073
 21
2430.7891152162961
 31
0.0
  0
LINE
  5
84DD
  8
1
 10
623.20000000000073
 20
2380.7891152162961
 30
0.0
 11
573.20000000000073
 21
2380.7891152162961
 31
0.0
  0
LINE
  5
84DE
  8
1
 10
573.20000000000073
 20
2380.7891152162961
 30
0.0
 11
573.20000000000073
 21
2382.2891152162961
 31
0.0
  0
LINE
  5
84DF
  8
1
 10
610.70000000000073
 20
2386.7891152162961
 30
0.0
 11
577.70000000000073
 21
2386.7891152162961
 31
0.0
  0
LINE
  5
84E0
  8
1
 10
623.20000000000073
 20
2430.7891152162961
 30
0.0
 11
621.70000000000073
 21
2430.7891152162961
 31
0.0
  0
LINE
  5
84E1
  8
1
 10
617.20000000000073
 20
2393.2891152162961
 30
0.0
 11
617.20000000000073
 21
2426.2891152162961
 31
0.0
  0
ARC
  5
84E2
  8
1
 10
621.70000000000073
 20
2426.2891152162961
 30
0.0
 40
4.5
 50
90.0
 51
180.0
  0
ARC
  5
84E3
  8
1
 10
610.70000000000073
 20
2393.2891152162961
 30
0.0
 40
6.5
 50
270.0
 51
0.000000000000007
  0
LINE
  5
84E4
  8
2
 10
593.00000000000023
 20
3046.7875567295468
 30
0.0
 11
593.00000000000091
 21
2331.2913636093831
 31
0.0
  0
DIMENSION
  5
8517
  8
3
  2
*D2
 10
2770.3249179016079
 20
3102.1578821217859
 30
0.0
 11
2351.3328542820891
 21
3102.1578821217859
 31
0.0
 70
   128
 13
1960.324917901607
 23
3046.7875567295468
 33
0.0
 14
2770.3249179016079
 24
3046.7875567295468
 34
0.0
1001
ACAD
1000
DSTYLE
1002
{
1070
   287
1070
     3
1070
   287
1070
     3
1070
    40
1040
15.0
1070
   143
1040
0.039
1070
   172
1070
     1
1070
   271
1070
     0
1070
   279
1070
     0
1070
   288
1070
     1
1002
}
  0
DIMENSION
  5
8524
  8
3
  2
*D3
 10
1330.0
 20
3206.8085767360922
 30
0.0
 11
935.42122591812949
 21
3206.8085767360922
 31
0.0
 70
   128
 13
570.0
 23
2800.7891152162961
 33
0.0
 14
1330.0
 24
2800.7891152162961
 34
0.0
1001
ACAD
1000
DSTYLE
1002
{
1070
   287
1070
     3
1070
   287
1070
     3
1070
    40
1040
15.0
1070
   143
1040
0.039
1070
   172
1070
     1
1070
   271
1070
     0
1070
   279
1070
     0
1070
   288
1070
     1
1002
}
  0
DIMENSION
  5
8531
  8
3
  2
*D4
 10
1306.9999999999991
 20
3071.976874251397
 30
0.0
 11
933.31238797607875
 21
3071.976874251397
 31
0.0
 70
   128
 13
593.00000000000023
 23
3046.7875567295468
 33
0.0
 14
1306.9999999999991
 24
3046.7875567295468
 34
0.0
1001
ACAD
1000
DSTYLE
1002
{
1070
   287
1070
     3
1070
   287
1070
     3
1070
    40
1040
15.0
1070
   143
1040
0.039
1070
   172
1070
     1
1070
   271
1070
     0
1070
   279
1070
     0
1070
   288
1070
     1
1002
}
  0
DIMENSION
  5
853E
  8
3
  2
*D5
 10
1330.0
 20
3071.976874251397
 30
0.0
 11
1420.452721852165
 21
3071.976874251397
 31
0.0
 70
   128
 13
1306.9999999999991
 23
3046.7875567295468
 33
0.0
 14
1330.0
 24
2800.7891152162961
 34
0.0
1001
ACAD
1000
DSTYLE
1002
{
1070
   287
1070
     4
1070
   287
1070
     4
1070
    40
1040
15.0
1070
   143
1040
0.039
1070
   172
1070
     1
1070
   271
1070
     0
1070
   279
1070
     1
1070
   288
1070
     1
1002
}
  0
DIMENSION
  5
8550
  8
3
  2
*D6
 10
570.0
 20
3071.976874251397
 30
0.0
 11
501.00169936112792
 21
3071.976874251397
 31
0.0
 70
   128
 13
593.00000000000023
 23
3046.7875567295468
 33
0.0
 14
570.0
 24
2800.7891152162961
 34
0.0
1001
ACAD
1000
DSTYLE
1002
{
1070
   287
1070
     4
1070
   287
1070
     4
1070
    40
1040
15.0
1070
   143
1040
0.039
1070
   172
1070
     1
1070
   271
1070
     0
1070
   279
1070
     1
1070
   288
1070
     1
1002
}
  0
ENDSEC
  0
EOF
