  0
SECTION
  2
HEADER
  9
$ACADVER
  1
AC1009
  9
$INSBASE
 10
0.0
 20
0.0
 30
0.0
  9
$EXTMIN
 10
0.0
 20
0.0
 30
0.0
  9
$EXTMAX
 10
3150.0
 20
4425.0
 30
0.0
  9
$LIMMIN
 10
0.0
 20
0.0
  9
$LIMMAX
 10
297.0
 20
210.0
  9
$ORTHOMODE
 70
     0
  9
$REGENMODE
 70
     1
  9
$FILLMODE
 70
     1
  9
$QTEXTMODE
 70
     0
  9
$MIRRTEXT
 70
     0
  9
$DRAGMODE
 70
     2
  9
$LTSCALE
 40
75.0
  9
$OSMODE
 70
    37
  9
$ATTMODE
 70
     1
  9
$TEXTSIZE
 40
3.0
  9
$TRACEWID
 40
0.05
  9
$TEXTSTYLE
  7
STANDARD
  9
$CLAYER
  8
0
  9
$CELTYPE
  6
BYLAYER
  9
$CECOLOR
 62
   256
  9
$DIMSCALE
 40
15.0
  9
$DIMASZ
 40
2.0
  9
$DIMEXO
 40
1.0
  9
$DIMDLI
 40
10.0
  9
$DIMRND
 40
0.0
  9
$DIMDLE
 40
0.0
  9
$DIMEXE
 40
1.0
  9
$DIMTP
 40
0.0
  9
$DIMTM
 40
0.0
  9
$DIMTXT
 40
3.0
  9
$DIMCEN
 40
0.0
  9
$DIMTSZ
 40
0.0
  9
$DIMTOL
 70
     0
  9
$DIMLIM
 70
     0
  9
$DIMTIH
 70
     0
  9
$DIMTOH
 70
     0
  9
$DIMSE1
 70
     0
  9
$DIMSE2
 70
     0
  9
$DIMTAD
 70
     1
  9
$DIMZIN
 70
     8
  9
$DIMBLK
  1

  9
$DIMASO
 70
     1
  9
$DIMSHO
 70
     1
  9
$DIMPOST
  1

  9
$DIMAPOST
  1

  9
$DIMALT
 70
     0
  9
$DIMALTD
 70
     2
  9
$DIMALTF
 40
0.03937
  9
$DIMLFAC
 40
1.0
  9
$DIMTOFL
 70
     1
  9
$DIMTVP
 40
0.0
  9
$DIMTIX
 70
     0
  9
$DIMSOXD
 70
     0
  9
$DIMSAH
 70
     1
  9
$DIMBLK1
  1
OPEN
  9
$DIMBLK2
  1
OPEN
  9
$DIMSTYLE
  2
MATSU
  9
$DIMCLRD
 70
   256
  9
$DIMCLRE
 70
   256
  9
$DIMCLRT
 70
   256
  9
$DIMTFAC
 40
1.0
  9
$DIMGAP
 40
0.5
  9
$LUNITS
 70
     2
  9
$LUPREC
 70
     4
  9
$SKETCHINC
 40
0.1
  9
$FILLETRAD
 40
0.0
  9
$AUNITS
 70
     0
  9
$AUPREC
 70
     2
  9
$MENU
  1
acad
  9
$ELEVATION
 40
0.0
  9
$PELEVATION
 40
0.0
  9
$THICKNESS
 40
0.0
  9
$LIMCHECK
 70
     0
  9
$BLIPMODE
 70
     0
  9
$CHAMFERA
 40
10.0
  9
$CHAMFERB
 40
10.0
  9
$SKPOLY
 70
     0
  9
$TDCREATE
 40
2453327.5369073609
  9
$TDUPDATE
 40
2454953.6316787731
  9
$TDINDWG
 40
0.1794491667
  9
$TDUSRTIMER
 40
0.1794491667
  9
$USRTIMER
 70
     1
  9
$ANGBASE
 50
0.0
  9
$ANGDIR
 70
     0
  9
$PDMODE
 70
     0
  9
$PDSIZE
 40
1.0
  9
$PLINEWID
 40
0.0
  9
$COORDS
 70
     1
  9
$SPLFRAME
 70
     0
  9
$SPLINETYPE
 70
     6
  9
$SPLINESEGS
 70
     8
  9
$ATTDIA
 70
     0
  9
$ATTREQ
 70
     1
  9
$HANDLING
 70
 10241
  9
$HANDSEED
  5
98A6
  9
$SURFTAB1
 70
     6
  9
$SURFTAB2
 70
     6
  9
$SURFTYPE
 70
     6
  9
$SURFU
 70
     6
  9
$SURFV
 70
     6
  9
$UCSNAME
  2

  9
$UCSORG
 10
0.0
 20
0.0
 30
0.0
  9
$UCSXDIR
 10
1.0
 20
0.0
 30
0.0
  9
$UCSYDIR
 10
0.0
 20
1.0
 30
0.0
  9
$PUCSNAME
  2

  9
$PUCSORG
 10
0.0
 20
0.0
 30
0.0
  9
$PUCSXDIR
 10
1.0
 20
0.0
 30
0.0
  9
$PUCSYDIR
 10
0.0
 20
1.0
 30
0.0
  9
$USERI1
 70
     0
  9
$USERI2
 70
     0
  9
$USERI3
 70
     0
  9
$USERI4
 70
     0
  9
$USERI5
 70
     0
  9
$USERR1
 40
0.0
  9
$USERR2
 40
0.0
  9
$USERR3
 40
0.0
  9
$USERR4
 40
0.0
  9
$USERR5
 40
0.0
  9
$WORLDVIEW
 70
     1
  9
$SHADEDGE
 70
     3
  9
$SHADEDIF
 70
    70
  9
$TILEMODE
 70
     1
  9
$MAXACTVP
 70
    16
  9
$PLIMCHECK
 70
     0
  9
$PEXTMIN
 10
1.0000000000000000E+020
 20
1.0000000000000000E+020
 30
1.0000000000000000E+020
  9
$PEXTMAX
 10
-1.0000000000000000E+020
 20
-1.0000000000000000E+020
 30
-1.0000000000000000E+020
  9
$PLIMMIN
 10
0.0
 20
0.0
  9
$PLIMMAX
 10
12.0
 20
9.0
  9
$UNITMODE
 70
     0
  9
$VISRETAIN
 70
     0
  9
$PLINEGEN
 70
     0
  9
$PSLTSCALE
 70
     0
  0
ENDSEC
  0
SECTION
  2
TABLES
  0
TABLE
  2
VPORT
 70
     2
  0
VPORT
  2
*ACTIVE
 70
     0
 10
0.0
 20
0.0
 11
1.0
 21
1.0
 12
3029.4499166496812
 22
557.34941896219777
 13
0.0
 23
0.0
 14
5.0
 24
5.0
 15
0.0
 25
0.0
 16
0.0
 26
0.0
 36
1.0
 17
0.0
 27
0.0
 37
0.0
 40
1342.1858641580709
 41
3.1666666666666661
 42
50.0
 43
0.0
 44
0.0
 50
0.0
 51
0.0
 71
     0
 72
   100
 73
     1
 74
     0
 75
     0
 76
     0
 77
     0
 78
     0
  0
ENDTAB
  0
TABLE
  2
LTYPE
 70
     3
  0
LTYPE
  2
CONTINUOUS
 70
     0
  3
Solid line
 72
    65
 73
     0
 40
0.0
  0
LTYPE
  2
CENTER
 70
     0
  3
____ _ ____ _ ____ _ ____ _ ____ _ ____ _ ____ 
 72
    65
 73
     4
 40
2.0
 49
1.25
 49
-0.25
 49
0.25
 49
-0.25
  0
LTYPE
  2
HIDDEN
 70
     0
  3
__ __ __ __ __ __ __ __ __ __ __ __ __ __ __ __
 72
    65
 73
     2
 40
0.375
 49
0.25
 49
-0.125
  0
ENDTAB
  0
TABLE
  2
LAYER
 70
     7
  0
LAYER
  2
0
 70
     0
 62
     7
  6
CONTINUOUS
  0
LAYER
  2
3
 70
     0
 62
     2
  6
CONTINUOUS
  0
LAYER
  2
2
 70
     0
 62
     3
  6
CENTER
  0
LAYER
  2
1
 70
     0
 62
     4
  6
CONTINUOUS
  0
LAYER
  2
4
 70
     0
 62
     7
  6
CONTINUOUS
  0
LAYER
  2
DEFPOINTS
 70
     0
 62
     7
  6
CONTINUOUS
  0
LAYER
  2
5
 70
     0
 62
     7
  6
HIDDEN
  0
ENDTAB
  0
TABLE
  2
STYLE
 70
     1
  0
STYLE
  2
STANDARD
 70
     0
 40
0.0
 41
1.0
 50
15.0
 71
     0
 42
3.0
  3
C:\Program Files\AutoCAD LT\simplex.shx
  4
C:\Program Files\AutoCAD LT\extfont.shx
  0
ENDTAB
  0
TABLE
  2
VIEW
 70
     0
  0
ENDTAB
  0
TABLE
  2
UCS
 70
     0
  0
ENDTAB
  0
TABLE
  2
APPID
 70
     1
  0
APPID
  2
ACAD
 70
     0
  0
ENDTAB
  0
TABLE
  2
DIMSTYLE
 70
     2
  0
DIMSTYLE
  2
STANDARD
 70
     0
  3

  4

  5

  6

  7

 40
1.0
 41
0.18
 42
0.0625
 43
0.38
 44
0.18
 45
0.0
 46
0.0
 47
0.0
 48
0.0
140
0.18
141
0.09
142
0.0
143
25.399999999999999
144
1.0
145
0.0
146
1.0
147
0.09
 71
     0
 72
     0
 73
     1
 74
     1
 75
     0
 76
     0
 77
     0
 78
     0
170
     0
171
     2
172
     0
173
     0
174
     0
175
     0
176
     0
177
     0
178
     0
  0
DIMSTYLE
  2
MATSU
 70
     0
  3

  4

  5

  6
OPEN
  7
OPEN
 40
1.0
 41
2.0
 42
1.0
 43
10.0
 44
1.0
 45
0.0
 46
0.0
 47
0.0
 48
0.0
140
3.0
141
0.0
142
0.0
143
0.03937
144
1.0
145
0.0
146
1.0
147
0.5
 71
     0
 72
     0
 73
     0
 74
     0
 75
     0
 76
     0
 77
     1
 78
     8
170
     0
171
     2
172
     1
173
     1
174
     0
175
     0
176
   256
177
   256
178
   256
  0
ENDTAB
  0
ENDSEC
  0
SECTION
  2
BLOCKS
  0
BLOCK
  8
0
  2
$MODEL_SPACE
 70
     0
 10
0.0
 20
0.0
 30
0.0
  3
$MODEL_SPACE
  1

  0
ENDBLK
  5
1B
  8
0
  0
BLOCK
 67
     1
  8
0
  2
$PAPER_SPACE
 70
     0
 10
0.0
 20
0.0
 30
0.0
  3
$PAPER_SPACE
  1

  0
ENDBLK
  5
18
 67
     1
  8
0
  0
BLOCK
  8
0
  2
_OPEN
 70
     0
 10
0.0
 20
0.0
 30
0.0
  3
_OPEN
  1

  0
LINE
  5
28
  8
0
  6
BYBLOCK
 62
     0
 10
-1.0
 20
0.1666666666666666
 30
0.0
 11
0.0
 21
0.0
 31
0.0
  0
LINE
  5
29
  8
0
  6
BYBLOCK
 62
     0
 10
0.0
 20
0.0
 30
0.0
 11
-1.0
 21
-0.1666666666666666
 31
0.0
  0
LINE
  5
2A
  8
0
  6
BYBLOCK
 62
     0
 10
0.0
 20
0.0
 30
0.0
 11
-1.0
 21
0.0
 31
0.0
  0
ENDBLK
  5
2B
  8
0
  0
BLOCK
  8
0
  2
*D1
 70
     1
 10
0.0
 20
0.0
 30
0.0
  3
*D1
  1

  0
LINE
  5
97C2
  8
0
  6
BYBLOCK
 10
361.69680669518118
 20
2494.4241286463571
 30
0.0
 11
231.7772030286778
 21
2494.4241286463571
 31
0.0
  0
LINE
  5
97C3
  8
0
  6
BYBLOCK
 10
361.69680669518118
 20
1864.4241286463559
 30
0.0
 11
231.7772030286778
 21
1864.4241286463559
 31
0.0
  0
LINE
  5
97C4
  8
0
  6
BYBLOCK
 10
246.7772030286778
 20
2464.4241286463571
 30
0.0
 11
246.7772030286778
 21
1894.4241286463559
 31
0.0
  0
INSERT
  5
97C5
  8
0
  6
BYBLOCK
  2
_OPEN
 10
246.7772030286778
 20
2494.4241286463571
 30
0.0
 41
30.0
 42
30.0
 43
30.0
 50
90.0
  0
INSERT
  5
97C6
  8
0
  6
BYBLOCK
  2
_OPEN
 10
246.7772030286778
 20
1864.4241286463559
 30
0.0
 41
30.0
 42
30.0
 43
30.0
 50
270.0
  0
TEXT
  5
97C7
  8
0
 10
239.2772030286778
 20
2081.0751741894851
 30
0.0
 40
45.0
  1
φ630
 50
90.0
 51
15.0
  0
POINT
  5
97C8
  8
DEFPOINTS
  6
BYBLOCK
 62
     0
 10
376.69680669518118
 20
2494.4241286463571
 30
0.0
  0
POINT
  5
97C9
  8
DEFPOINTS
  6
BYBLOCK
 62
     0
 10
376.69680669518118
 20
1864.4241286463559
 30
0.0
  0
POINT
  5
97CA
  8
DEFPOINTS
  6
BYBLOCK
 62
     0
 10
246.7772030286778
 20
1864.4241286463559
 30
0.0
  0
ENDBLK
  5
97CB
  8
0
  0
BLOCK
  8
0
  2
*D2
 70
     1
 10
0.0
 20
0.0
 30
0.0
  3
*D2
  1

  0
LINE
  5
97D8
  8
0
  6
BYBLOCK
 10
376.69680669518118
 20
2509.4241286463571
 30
0.0
 11
376.69680669518118
 21
3091.5532572360771
 31
0.0
  0
LINE
  5
97D9
  8
0
  6
BYBLOCK
 10
1126.6968066951811
 20
2509.4241286463571
 30
0.0
 11
1126.6968066951811
 21
3091.5532572360771
 31
0.0
  0
LINE
  5
97DA
  8
0
  6
BYBLOCK
 10
406.69680669518129
 20
3076.5532572360771
 30
0.0
 11
1096.6968066951811
 21
3076.5532572360771
 31
0.0
  0
INSERT
  5
97DB
  8
0
  6
BYBLOCK
  2
_OPEN
 10
376.69680669518118
 20
3076.5532572360771
 30
0.0
 41
30.0
 42
30.0
 43
30.0
 50
180.0
  0
INSERT
  5
97DC
  8
0
  6
BYBLOCK
  2
_OPEN
 10
1126.6968066951811
 20
3076.5532572360771
 30
0.0
 41
30.0
 42
30.0
 43
30.0
  0
TEXT
  5
97DD
  8
0
 10
685.74487497590019
 20
3084.0532572360771
 30
0.0
 40
45.0
  1
750
 51
15.0
  0
POINT
  5
97DE
  8
DEFPOINTS
  6
BYBLOCK
 62
     0
 10
376.69680669518118
 20
2494.4241286463571
 30
0.0
  0
POINT
  5
97DF
  8
DEFPOINTS
  6
BYBLOCK
 62
     0
 10
1126.6968066951811
 20
2494.4241286463571
 30
0.0
  0
POINT
  5
97E0
  8
DEFPOINTS
  6
BYBLOCK
 62
     0
 10
1126.6968066951811
 20
3076.5532572360771
 30
0.0
  0
ENDBLK
  5
97E1
  8
0
  0
BLOCK
  8
0
  2
*D3
 70
     1
 10
0.0
 20
0.0
 30
0.0
  3
*D3
  1

  0
LINE
  5
97CD
  8
0
  6
BYBLOCK
 10
376.69680669518118
 20
1631.4241286463559
 30
0.0
 11
376.69680669518118
 21
1457.5876918433571
 31
0.0
  0
LINE
  5
97CE
  8
0
  6
BYBLOCK
 10
1126.6968066951811
 20
1629.4241286463559
 30
0.0
 11
1126.6968066951811
 21
1457.5876918433571
 31
0.0
  0
LINE
  5
97CF
  8
0
  6
BYBLOCK
 10
406.69680669518129
 20
1472.587691843356
 30
0.0
 11
1096.6968066951811
 21
1472.587691843356
 31
0.0
  0
INSERT
  5
97D0
  8
0
  6
BYBLOCK
  2
_OPEN
 10
376.69680669518118
 20
1472.587691843356
 30
0.0
 41
30.0
 42
30.0
 43
30.0
 50
180.0
  0
INSERT
  5
97D1
  8
0
  6
BYBLOCK
  2
_OPEN
 10
1126.6968066951811
 20
1472.587691843356
 30
0.0
 41
30.0
 42
30.0
 43
30.0
  0
TEXT
  5
97D2
  8
0
 10
685.74487497590019
 20
1480.087691843356
 30
0.0
 40
45.0
  1
750
 51
15.0
  0
POINT
  5
97D3
  8
DEFPOINTS
  6
BYBLOCK
 62
     0
 10
376.69680669518118
 20
1646.4241286463559
 30
0.0
  0
POINT
  5
97D4
  8
DEFPOINTS
  6
BYBLOCK
 62
     0
 10
1126.6968066951811
 20
1644.4241286463559
 30
0.0
  0
POINT
  5
97D5
  8
DEFPOINTS
  6
BYBLOCK
 62
     0
 10
1126.6968066951811
 20
1472.587691843356
 30
0.0
  0
ENDBLK
  5
97D6
  8
0
  0
BLOCK
  8
0
  2
*D4
 70
     1
 10
0.0
 20
0.0
 30
0.0
  3
*D4
  1

  0
LINE
  5
97B7
  8
0
  6
BYBLOCK
 10
1709.01869471328
 20
2179.4241286463562
 30
0.0
 11
1581.1825756071339
 21
2179.4241286463562
 31
0.0
  0
LINE
  5
97B8
  8
0
  6
BYBLOCK
 10
1829.01869471328
 20
1779.4241286463559
 30
0.0
 11
1581.1825756071339
 21
1779.4241286463559
 31
0.0
  0
LINE
  5
97B9
  8
0
  6
BYBLOCK
 10
1596.1825756071339
 20
2149.4241286463562
 30
0.0
 11
1596.1825756071339
 21
1809.4241286463559
 31
0.0
  0
INSERT
  5
97BA
  8
0
  6
BYBLOCK
  2
_OPEN
 10
1596.1825756071339
 20
2179.4241286463562
 30
0.0
 41
30.0
 42
30.0
 43
30.0
 50
90.0
  0
INSERT
  5
97BB
  8
0
  6
BYBLOCK
  2
_OPEN
 10
1596.1825756071339
 20
1779.4241286463559
 30
0.0
 41
30.0
 42
30.0
 43
30.0
 50
270.0
  0
TEXT
  5
97BC
  8
0
 10
1588.682575607133
 20
1873.8809176467871
 30
0.0
 40
45.0
  1
400
 50
90.0
 51
15.0
  0
POINT
  5
97BD
  8
DEFPOINTS
  6
BYBLOCK
 62
     0
 10
1724.01869471328
 20
2179.4241286463562
 30
0.0
  0
POINT
  5
97BE
  8
DEFPOINTS
  6
BYBLOCK
 62
     0
 10
1844.01869471328
 20
1779.4241286463559
 30
0.0
  0
POINT
  5
97BF
  8
DEFPOINTS
  6
BYBLOCK
 62
     0
 10
1596.1825756071339
 20
1779.4241286463559
 30
0.0
  0
ENDBLK
  5
97C0
  8
0
  0
BLOCK
  8
0
  2
*D5
 70
     1
 10
0.0
 20
0.0
 30
0.0
  3
*D5
  1

  0
LINE
  5
989C
  8
3
 10
1829.01869471328
 20
1779.4241286463559
 30
0.0
 11
1581.1825756071339
 21
1779.4241286463559
 31
0.0
  0
LINE
  5
989D
  8
3
 10
1719.01869471328
 20
1684.4241286463559
 30
0.0
 11
1581.1825756071339
 21
1684.4241286463559
 31
0.0
  0
LINE
  5
989E
  8
3
 10
1596.1825756071339
 20
1749.4241286463559
 30
0.0
 11
1596.1825756071339
 21
1714.4241286463559
 31
0.0
  0
TEXT
  8
3
  40
45
  5
98A5
  72
0
  71
0
 10
1445.65
 20
1652.27
 30
0.000000
  1
(95)
  0
INSERT
  5
98A0
  8
3
  2
_OPEN
 10
1596.1825756071339
 20
1779.4241286463559
 30
0.0
 41
30.0
 42
30.0
 43
30.0
 50
90.0
  0
INSERT
  5
98A1
  8
3
  2
_OPEN
 10
1596.1825756071339
 20
1684.4241286463559
 30
0.0
 41
30.0
 42
30.0
 43
30.0
 50
270.0
  0
POINT
  5
98A2
  8
DEFPOINTS
 62
     0
 10
1844.01869471328
 20
1779.4241286463559
 30
0.0
  0
POINT
  5
98A3
  8
DEFPOINTS
 62
     0
 10
1734.01869471328
 20
1684.4241286463559
 30
0.0
  0
POINT
  5
98A4
  8
DEFPOINTS
 62
     0
 10
1596.1825756071339
 20
1684.4241286463559
 30
0.0
  0
ENDBLK
  5
980D
  8
0
  0
BLOCK
  8
0
  2
*D6
 70
     1
 10
0.0
 20
0.0
 30
0.0
  3
*D6
  1

  0
LINE
  5
979D
  8
0
  6
BYBLOCK
 10
1719.01869471328
 20
1684.4241286463559
 30
0.0
 11
1581.1825756071339
 21
1684.4241286463559
 31
0.0
  0
LINE
  5
979E
  8
0
  6
BYBLOCK
 10
1719.01869471328
 20
1644.4241286463559
 30
0.0
 11
1581.1825756071339
 21
1644.4241286463559
 31
0.0
  0
LINE
  5
979F
  8
0
  6
BYBLOCK
 10
1596.1825756071339
 20
1714.4241286463559
 30
0.0
 11
1596.1825756071339
 21
1744.4241286463559
 31
0.0
  0
LINE
  5
97A0
  8
0
  6
BYBLOCK
 10
1596.1825756071339
 20
1614.4241286463559
 30
0.0
 11
1596.1825756071339
 21
1493.3884011429179
 31
0.0
  0
LINE
  5
97A1
  8
0
  6
BYBLOCK
 10
1596.1825756071339
 20
1684.4241286463559
 30
0.0
 11
1596.1825756071339
 21
1644.4241286463559
 31
0.0
  0
INSERT
  5
97A2
  8
0
  6
BYBLOCK
  2
_OPEN
 10
1596.1825756071339
 20
1684.4241286463559
 30
0.0
 41
30.0
 42
30.0
 43
30.0
 50
270.0
  0
INSERT
  5
97A3
  8
0
  6
BYBLOCK
  2
_OPEN
 10
1596.1825756071339
 20
1644.4241286463559
 30
0.0
 41
30.0
 42
30.0
 43
30.0
 50
90.0
  0
TEXT
  5
97A4
  8
0
 10
1588.682575607133
 20
1496.6589999464079
 30
0.0
 40
45.0
  1
40
 50
90.0
 51
15.0
  0
POINT
  5
97A5
  8
DEFPOINTS
  6
BYBLOCK
 62
     0
 10
1734.01869471328
 20
1684.4241286463559
 30
0.0
  0
POINT
  5
97A6
  8
DEFPOINTS
  6
BYBLOCK
 62
     0
 10
1734.01869471328
 20
1644.4241286463559
 30
0.0
  0
POINT
  5
97A7
  8
DEFPOINTS
  6
BYBLOCK
 62
     0
 10
1596.1825756071339
 20
1644.4241286463559
 30
0.0
  0
ENDBLK
  5
97A8
  8
0
  0
BLOCK
  8
0
  2
*D7
 70
     1
 10
0.0
 20
0.0
 30
0.0
  3
*D7
  1

  0
LINE
  5
97EE
  8
0
  6
BYBLOCK
 10
1734.01869471328
 20
1629.4241286463559
 30
0.0
 11
1734.01869471328
 21
1457.4585777052721
 31
0.0
  0
LINE
  5
97EF
  8
0
  6
BYBLOCK
 10
2514.0186947132802
 20
1629.4241286463559
 30
0.0
 11
2514.0186947132802
 21
1457.4585777052721
 31
0.0
  0
LINE
  5
97F0
  8
0
  6
BYBLOCK
 10
1764.01869471328
 20
1472.4585777052721
 30
0.0
 11
2484.0186947132802
 21
1472.4585777052721
 31
0.0
  0
INSERT
  5
97F1
  8
0
  6
BYBLOCK
  2
_OPEN
 10
1734.01869471328
 20
1472.4585777052721
 30
0.0
 41
30.0
 42
30.0
 43
30.0
 50
180.0
  0
INSERT
  5
97F2
  8
0
  6
BYBLOCK
  2
_OPEN
 10
2514.0186947132802
 20
1472.4585777052721
 30
0.0
 41
30.0
 42
30.0
 43
30.0
  0
TEXT
  5
97F3
  8
0
 10
2069.7602264056231
 20
1479.9585777052721
 30
0.0
 40
45.0
  1
780
 51
15.0
  0
POINT
  5
97F4
  8
DEFPOINTS
  6
BYBLOCK
 62
     0
 10
1734.01869471328
 20
1644.4241286463559
 30
0.0
  0
POINT
  5
97F5
  8
DEFPOINTS
  6
BYBLOCK
 62
     0
 10
2514.0186947132802
 20
1644.4241286463559
 30
0.0
  0
POINT
  5
97F6
  8
DEFPOINTS
  6
BYBLOCK
 62
     0
 10
2514.0186947132802
 20
1472.4585777052721
 30
0.0
  0
ENDBLK
  5
97F7
  8
0
  0
BLOCK
  8
0
  2
*D8
 70
     1
 10
0.0
 20
0.0
 30
0.0
  3
*D8
  1

  0
LINE
  5
97E3
  8
0
  6
BYBLOCK
 10
1769.01869471328
 20
2194.4241286463562
 30
0.0
 11
1769.01869471328
 21
3090.3482365925811
 31
0.0
  0
LINE
  5
97E4
  8
0
  6
BYBLOCK
 10
2479.0186947132802
 20
2194.4241286463562
 30
0.0
 11
2479.0186947132802
 21
3090.3482365925811
 31
0.0
  0
LINE
  5
97E5
  8
0
  6
BYBLOCK
 10
1799.01869471328
 20
3075.3482365925811
 30
0.0
 11
2449.0186947132802
 21
3075.3482365925811
 31
0.0
  0
INSERT
  5
97E6
  8
0
  6
BYBLOCK
  2
_OPEN
 10
1769.01869471328
 20
3075.3482365925811
 30
0.0
 41
30.0
 42
30.0
 43
30.0
 50
180.0
  0
INSERT
  5
97E7
  8
0
  6
BYBLOCK
  2
_OPEN
 10
2479.0186947132802
 20
3075.3482365925811
 30
0.0
 41
30.0
 42
30.0
 43
30.0
  0
TEXT
  5
97E8
  8
0
 10
2062.3524772797141
 20
3082.8482365925811
 30
0.0
 40
45.0
  1
710
 51
15.0
  0
POINT
  5
97E9
  8
DEFPOINTS
  6
BYBLOCK
 62
     0
 10
1769.01869471328
 20
2179.4241286463562
 30
0.0
  0
POINT
  5
97EA
  8
DEFPOINTS
  6
BYBLOCK
 62
     0
 10
2479.0186947132802
 20
2179.4241286463562
 30
0.0
  0
POINT
  5
97EB
  8
DEFPOINTS
  6
BYBLOCK
 62
     0
 10
2479.0186947132802
 20
3075.3482365925811
 30
0.0
  0
ENDBLK
  5
97EC
  8
0
  0
BLOCK
  8
0
  2
*D9
 70
     1
 10
0.0
 20
0.0
 30
0.0
  3
*D9
  1

  0
LINE
  5
9792
  8
0
  6
BYBLOCK
 10
1709.01869471328
 20
2179.4241286463562
 30
0.0
 11
1581.1825756071339
 21
2179.4241286463562
 31
0.0
  0
LINE
  5
9793
  8
0
  6
BYBLOCK
 10
2109.0186947132802
 20
2891.4241286463562
 30
0.0
 11
1581.1825756071339
 21
2891.4241286463562
 31
0.0
  0
LINE
  5
9794
  8
0
  6
BYBLOCK
 10
1596.1825756071339
 20
2209.4241286463562
 30
0.0
 11
1596.1825756071339
 21
2861.4241286463562
 31
0.0
  0
INSERT
  5
9795
  8
0
  6
BYBLOCK
  2
_OPEN
 10
1596.1825756071339
 20
2179.4241286463562
 30
0.0
 41
30.0
 42
30.0
 43
30.0
 50
270.0
  0
INSERT
  5
9796
  8
0
  6
BYBLOCK
  2
_OPEN
 10
1596.1825756071339
 20
2891.4241286463562
 30
0.0
 41
30.0
 42
30.0
 43
30.0
 50
90.0
  0
TEXT
  5
9797
  8
0
 10
1588.682575607133
 20
2392.3293397842181
 30
0.0
 40
45.0
  1
MAX.850
 50
90.0
 51
15.0
  0
POINT
  5
9798
  8
DEFPOINTS
  6
BYBLOCK
 62
     0
 10
1724.01869471328
 20
2179.4241286463562
 30
0.0
  0
POINT
  5
9799
  8
DEFPOINTS
  6
BYBLOCK
 62
     0
 10
2124.0186947132802
 20
2891.4241286463562
 30
0.0
  0
POINT
  5
979A
  8
DEFPOINTS
  6
BYBLOCK
 62
     0
 10
1596.1825756071339
 20
2891.4241286463562
 30
0.0
  0
ENDBLK
  5
979B
  8
0
  0
ENDSEC
  0
SECTION
  2
ENTITIES
  0
LINE
  5
9260
  8
1
 10
416.69680669518118
 20
1684.4241286463559
 30
0.0
 11
721.69680669518129
 21
1684.4241286463559
 31
0.0
  0
LINE
  5
926A
  8
1
 10
416.69680669518118
 20
1644.4241286463559
 30
0.0
 11
416.69680669518118
 21
1684.4241286463559
 31
0.0
  0
LINE
  5
926B
  8
1
 10
416.69680669518118
 20
1644.4241286463559
 30
0.0
 11
376.69680669518118
 21
1644.4241286463559
 31
0.0
  0
LINE
  5
926D
  8
1
 10
376.69680669518118
 20
1644.4241286463559
 30
0.0
 11
376.69680669518118
 21
1646.4241286463559
 31
0.0
  0
LINE
  5
926E
  8
1
 10
407.19680669518129
 20
1649.4241286463559
 30
0.0
 11
379.69680669518129
 21
1649.4241286463559
 31
0.0
  0
LINE
  5
926F
  8
1
 10
411.69680669518118
 20
1653.9241286463559
 30
0.0
 11
411.69680669518118
 21
1684.4241286463559
 31
0.0
  0
ARC
  5
9270
  8
1
 10
414.69680669518129
 20
1681.4241286463559
 30
0.0
 40
3.0
 50
90.0
 51
180.0
  0
ARC
  5
9271
  8
1
 10
379.69680669518129
 20
1646.4241286463559
 30
0.0
 40
3.0
 50
90.0
 51
180.0
  0
ARC
  5
9272
  8
1
 10
407.19680669518129
 20
1653.9241286463559
 30
0.0
 40
4.5
 50
270.0
 51
0.0
  0
LINE
  5
9273
  8
1
 10
416.69680669518118
 20
1679.4241286463559
 30
0.0
 11
1086.6968066951811
 21
1679.4241286463559
 31
0.0
  0
LINE
  5
9274
  8
1
 10
1734.01869471328
 20
1649.4241286463559
 30
0.0
 11
2514.0186947132802
 21
1649.4241286463559
 31
0.0
  0
LINE
  5
9275
  8
2
 10
394.69680669518129
 20
1664.4241286463559
 30
0.0
 11
394.69680669518129
 21
1629.4241286463559
 31
0.0
  0
LINE
  5
9277
  8
2
 10
1759.01869471328
 20
1664.4241286463559
 30
0.0
 11
1759.018694713282
 21
1629.424128646355
 31
0.0
  0
LINE
  5
9278
  8
2
 10
2489.0186947132802
 20
1664.4241286463559
 30
0.0
 11
2489.0186947132802
 21
1629.424128646355
 31
0.0
  0
LINE
  5
9279
  8
1
 10
2514.0186947132802
 20
1684.4241286463559
 30
0.0
 11
2334.0186947132802
 21
1684.4241286463559
 31
0.0
  0
LINE
  5
927A
  8
1
 10
2514.0186947132802
 20
1644.4241286463559
 30
0.0
 11
1734.0186947132779
 21
1644.4241286463559
 31
0.0
  0
LINE
  5
927B
  8
2
 10
1724.01869471328
 20
2179.4241286463562
 30
0.0
 11
2524.0186947132802
 21
2179.4241286463562
 31
0.0
  0
LINE
  5
927C
  8
1
 10
1126.6968066951811
 20
1644.4241286463559
 30
0.0
 11
376.69680669518118
 21
1644.4241286463559
 31
0.0
  0
LINE
  5
927D
  8
1
 10
376.69680669518118
 20
2494.4241286463571
 30
0.0
 11
413.69680669518129
 21
2494.4241286463571
 31
0.0
  0
LINE
  5
927E
  8
1
 10
409.19680669518118
 20
2497.4241286463571
 30
0.0
 11
378.69680669518118
 21
2497.4241286463571
 31
0.0
  0
LINE
  5
927F
  8
1
 10
376.69680669518118
 20
1864.4241286463559
 30
0.0
 11
413.69680669518129
 21
1864.4241286463559
 31
0.0
  0
LINE
  5
9280
  8
1
 10
409.19680669518118
 20
1861.4241286463559
 30
0.0
 11
378.69680669518118
 21
1861.4241286463559
 31
0.0
  0
LINE
  5
9281
  8
2
 10
331.69680669518129
 20
2179.4241286463571
 30
0.0
 11
1171.6968066951811
 21
2179.4241286463571
 31
0.0
  0
LINE
  5
9282
  8
1
 10
376.69680669518118
 20
2494.4241286463571
 30
0.0
 11
376.69680669518118
 21
1864.4241286463559
 31
0.0
  0
LINE
  5
9283
  8
1
 10
376.69680669518118
 20
1863.4241286463559
 30
0.0
 11
376.69680669518118
 21
1864.4241286463559
 31
0.0
  0
ARC
  5
9284
  8
1
 10
378.69680669518118
 20
1863.4241286463559
 30
0.0
 40
2.0
 50
180.0
 51
270.0
  0
ARC
  5
9285
  8
1
 10
378.69680669518118
 20
2495.4241286463571
 30
0.0
 40
2.0
 50
90.0
 51
180.0
  0
LINE
  5
9286
  8
1
 10
376.69680669518118
 20
2495.4241286463571
 30
0.0
 11
376.69680669518118
 21
2494.4241286463571
 31
0.0
  0
LINE
  5
9287
  8
5
 10
923.69680669518129
 20
2628.4241286463562
 30
0.0
 11
923.69680669518129
 21
2104.4241286463562
 31
0.0
  0
LINE
  5
9288
  8
5
 10
986.69680669518118
 20
2628.4241286463562
 30
0.0
 11
986.69680669518118
 21
2104.4241286463562
 31
0.0
  0
LINE
  5
9289
  8
1
 10
1126.6968066951811
 20
2494.4241286463571
 30
0.0
 11
1126.6968066951811
 21
1864.4241286463559
 31
0.0
  0
LINE
  5
928A
  8
1
 10
1086.6968066951811
 20
2534.4241286463571
 30
0.0
 11
1086.6968066951811
 21
1824.4241286463559
 31
0.0
  0
LINE
  5
928B
  8
1
 10
1083.4968066951801
 20
2535.6241286463569
 30
0.0
 11
1083.4968066951801
 21
1819.4241286463559
 31
0.0
  0
LINE
  5
928C
  8
1
 10
419.89680669518191
 20
2534.4241286463571
 30
0.0
 11
419.89680669518202
 21
1819.4241286463571
 31
0.0
  0
LINE
  5
928D
  8
1
 10
416.69680669518118
 20
2534.4241286463571
 30
0.0
 11
416.69680669518118
 21
1824.4241286463559
 31
0.0
  0
LINE
  5
928E
  8
1
 10
416.69680669518118
 20
2534.4241286463571
 30
0.0
 11
416.69680669518118
 21
1824.4241286463559
 31
0.0
  0
LINE
  5
928F
  8
1
 10
413.69680669518129
 20
2532.4241286463571
 30
0.0
 11
413.69680669518129
 21
1826.4241286463559
 31
0.0
  0
LINE
  5
9290
  8
1
 10
1089.6968066951811
 20
2532.4241286463571
 30
0.0
 11
1089.6968066951811
 21
1826.4241286463559
 31
0.0
  0
LINE
  5
9291
  8
1
 10
1086.6968066951811
 20
2534.4241286463571
 30
0.0
 11
1086.6968066951811
 21
1824.4241286463559
 31
0.0
  0
LINE
  5
9292
  8
5
 10
416.69680669518118
 20
1864.4241286463559
 30
0.0
 11
1086.6968066951811
 21
1864.4241286463559
 31
0.0
  0
LINE
  5
9297
  8
2
 10
402.12606350459089
 20
1841.9241286463559
 30
0.0
 11
436.0835256945283
 21
1841.9241286463559
 31
0.0
  0
LINE
  5
9298
  8
1
 10
419.89680669518191
 20
1824.4241286463559
 30
0.0
 11
416.69680669518118
 21
1824.4241286463559
 31
0.0
  0
ARC
  5
9299
  8
1
 10
415.69680669518118
 20
1826.4241286463559
 30
0.0
 40
2.0
 50
180.0
 51
270.0
  0
LINE
  5
929A
  8
1
 10
416.69680669518118
 20
1824.4241286463559
 30
0.0
 11
415.69680669518118
 21
1824.4241286463559
 31
0.0
  0
ARC
  5
929D
  8
1
 10
409.19680669518118
 20
1856.9241286463559
 30
0.0
 40
4.5
 50
0.0
 51
90.0
  0
LINE
  5
929F
  8
1
 10
1126.6968066951811
 20
1864.4241286463559
 30
0.0
 11
1089.6968066951811
 21
1864.4241286463559
 31
0.0
  0
LINE
  5
92A0
  8
1
 10
1094.1968066951811
 20
1861.4241286463559
 30
0.0
 11
1124.6968066951811
 21
1861.4241286463559
 31
0.0
  0
LINE
  5
92A1
  8
2
 10
1066.977526342554
 20
1841.9241286463559
 30
0.0
 11
1104.5094640269961
 21
1841.9241286463559
 31
0.0
  0
LINE
  5
92A7
  8
1
 10
1086.6968066951811
 20
1824.4241286463559
 30
0.0
 11
1087.6968066951811
 21
1824.4241286463559
 31
0.0
  0
ARC
  5
92A8
  8
1
 10
1087.6968066951811
 20
1826.4241286463559
 30
0.0
 40
2.0
 50
270.0
 51
0.0
  0
LINE
  5
92A9
  8
1
 10
1083.4968066951801
 20
1824.4241286463559
 30
0.0
 11
1086.6968066951811
 21
1824.4241286463559
 31
0.0
  0
ARC
  5
92AB
  8
1
 10
1094.1968066951811
 20
1856.9241286463559
 30
0.0
 40
4.5
 50
90.0
 51
180.0
  0
LINE
  5
92AC
  8
5
 10
923.69680669518129
 20
2104.4241286463562
 30
0.0
 11
986.69680669518118
 21
2104.4241286463562
 31
0.0
  0
ARC
  5
92AE
  8
1
 10
1124.6968066951811
 20
1863.4241286463559
 30
0.0
 40
2.0
 50
270.0
 51
0.0
  0
LINE
  5
92AF
  8
1
 10
1126.6968066951811
 20
1863.4241286463559
 30
0.0
 11
1126.6968066951811
 21
1864.4241286463559
 31
0.0
  0
LINE
  5
92B0
  8
1
 10
1734.01869471328
 20
1644.4241286463559
 30
0.0
 11
1734.01869471328
 21
1684.4241286463559
 31
0.0
  0
LINE
  5
92B1
  8
1
 10
1026.6968066951811
 20
2831.4241286463562
 30
0.0
 11
1026.6968066951811
 21
2497.6241286463569
 31
0.0
  0
LINE
  5
92B2
  8
1
 10
886.69680669518118
 20
2831.4241286463562
 30
0.0
 11
886.69680669518118
 21
2497.6241286463569
 31
0.0
  0
LINE
  5
92B3
  8
1
 10
493.69680669518129
 20
2565.4241286463562
 30
0.0
 11
869.69680669518129
 21
2565.4241286463562
 31
0.0
  0
LINE
  5
92B4
  8
1
 10
493.69680669518129
 20
2571.4241286463562
 30
0.0
 11
869.69680669518129
 21
2571.4241286463562
 31
0.0
  0
LINE
  5
92B5
  8
1
 10
1046.6968066951811
 20
2461.4241286463562
 30
0.0
 11
456.69680669518129
 21
2461.4241286463562
 31
0.0
  0
LINE
  5
92B6
  8
1
 10
1046.6968066951811
 20
2417.4241286463562
 30
0.0
 11
456.69680669518129
 21
2417.4241286463562
 31
0.0
  0
LINE
  5
92B7
  8
1
 10
416.69680669518118
 20
2494.4241286463562
 30
0.0
 11
1086.6968066951811
 21
2494.4241286463571
 31
0.0
  0
LINE
  5
92B8
  8
1
 10
456.69680669518129
 20
2461.4241286463562
 30
0.0
 11
456.69680669518129
 21
2417.4241286463562
 31
0.0
  0
LINE
  5
92B9
  8
1
 10
581.34859321359897
 20
2571.4241286463562
 30
0.0
 11
687.84859321359909
 21
2571.4241286463562
 31
0.0
  0
LINE
  5
92BA
  8
1
 10
529.89680669518202
 20
2621.4241286463562
 30
0.0
 11
529.89680669518202
 21
2581.4241286463562
 31
0.0
  0
LINE
  5
92BB
  8
1
 10
528.69680669518118
 20
2620.4241286463562
 30
0.0
 11
528.69680669518118
 21
2581.4241286463562
 31
0.0
  0
LINE
  5
92BC
  8
1
 10
543.49680669518239
 20
2621.4241286463571
 30
0.0
 11
543.49680669518239
 21
2581.4241286463562
 31
0.0
  0
LINE
  5
92BD
  8
1
 10
544.69680669518129
 20
2620.4241286463571
 30
0.0
 11
544.69680669518129
 21
2581.4241286463562
 31
0.0
  0
LINE
  5
92BE
  8
2
 10
536.69680669518118
 20
2628.675342072795
 30
0.0
 11
536.69680669518118
 21
2461.4241286463571
 31
0.0
  0
LINE
  5
92BF
  8
1
 10
536.69680669518118
 20
2628.675342072795
 30
0.0
 11
536.69680669518118
 21
2461.4241286463562
 31
0.0
  0
LINE
  5
92C0
  8
1
 10
402.12606350459089
 20
2516.9241286463571
 30
0.0
 11
436.0835256945283
 21
2516.9241286463571
 31
0.0
  0
ARC
  5
92C1
  8
1
 10
409.19680669518118
 20
2501.9241286463571
 30
0.0
 40
4.5
 50
270.0
 51
0.0
  0
LINE
  5
92C2
  8
1
 10
419.89680669518191
 20
2534.4241286463571
 30
0.0
 11
416.69680669518118
 21
2534.4241286463571
 31
0.0
  0
LINE
  5
92C3
  8
1
 10
416.69680669518118
 20
2534.4241286463571
 30
0.0
 11
415.69680669518118
 21
2534.4241286463571
 31
0.0
  0
ARC
  5
92C4
  8
1
 10
415.69680669518118
 20
2532.4241286463571
 30
0.0
 40
2.0
 50
90.0
 51
180.0
  0
ARC
  5
92C5
  8
1
 10
493.69680669518129
 20
2564.4241286463562
 30
0.0
 40
7.0
 50
90.0
 51
180.0
  0
ARC
  5
92C6
  8
1
 10
493.69680669518129
 20
2564.4241286463562
 30
0.0
 40
1.0
 50
90.0
 51
180.0
  0
LINE
  5
92C7
  8
1
 10
486.69680669518118
 20
2536.4241286463562
 30
0.0
 11
492.69680669518129
 21
2536.4241286463562
 31
0.0
  0
LINE
  5
92C8
  8
1
 10
492.69680669518129
 20
2564.4241286463562
 30
0.0
 11
492.69680669518129
 21
2536.4241286463562
 31
0.0
  0
LINE
  5
92C9
  8
1
 10
486.69680669518118
 20
2564.4241286463562
 30
0.0
 11
486.69680669518118
 21
2536.4241286463562
 31
0.0
  0
LINE
  5
92CA
  8
1
 10
528.69680669518118
 20
2555.4241286463562
 30
0.0
 11
528.69680669518118
 21
2461.4241286463571
 31
0.0
  0
LINE
  5
92CB
  8
1
 10
529.89680669518202
 20
2555.4241286463562
 30
0.0
 11
529.89680669518202
 21
2461.4241286463571
 31
0.0
  0
LINE
  5
92CC
  8
1
 10
543.49680669518239
 20
2555.4241286463562
 30
0.0
 11
543.49680669518239
 21
2461.4241286463571
 31
0.0
  0
LINE
  5
92CD
  8
1
 10
544.69680669518129
 20
2555.4241286463562
 30
0.0
 11
544.69680669518129
 21
2461.4241286463571
 31
0.0
  0
LINE
  5
92CE
  8
1
 10
523.99510077301045
 20
2565.4241286463562
 30
0.0
 11
523.99510077301045
 21
2556.6952841531988
 31
0.0
  0
LINE
  5
92CF
  8
1
 10
523.99510077301045
 20
2571.4241286463562
 30
0.0
 11
523.99510077301045
 21
2580.152973139514
 31
0.0
  0
ARC
  5
92D0
  8
1
 10
536.69680669518118
 20
2565.19130116614
 30
0.0
 40
16.253767611608801
 50
67.000000000002444
 51
113.0000000000004
  0
POLYLINE
  5
92D1
  8
1
 66
     1
 10
0.0
 20
0.0
 30
0.0
  0
VERTEX
  5
9890
  8
1
 10
526.19680669518129
 20
2581.4241286463562
 30
0.0
  0
VERTEX
  5
9891
  8
1
 10
547.19680669518129
 20
2581.4241286463562
 30
0.0
  0
SEQEND
  5
9892
  8
1
  0
POLYLINE
  5
92D5
  8
1
 66
     1
 10
0.0
 20
0.0
 30
0.0
  0
VERTEX
  5
9893
  8
1
 10
526.19680669518129
 20
2555.4241286463562
 30
0.0
  0
VERTEX
  5
9894
  8
1
 10
547.19680669518129
 20
2555.4241286463562
 30
0.0
  0
SEQEND
  5
9895
  8
1
  0
ARC
  5
92D9
  8
1
 10
536.69680669518118
 20
2571.6569561265728
 30
0.0
 40
16.253767611608801
 50
246.9999999999996
 51
292.9999999999975
  0
ARC
  5
92DA
  8
1
 10
546.22308613681162
 20
2576.9775466589708
 30
0.0
 40
4.4907311951024482
 50
45.000000000000988
 51
135.00000000000091
  0
LINE
  5
92DB
  8
1
 10
547.19680669518129
 20
2581.4241286463562
 30
0.0
 11
549.39851261735384
 21
2580.152973139514
 31
0.0
  0
LINE
  5
92DC
  8
1
 10
543.04765965626927
 20
2556.6952841531988
 30
0.0
 11
543.04765965626927
 21
2565.4241286463562
 31
0.0
  0
LINE
  5
92DD
  8
1
 10
549.39851261735384
 20
2556.6952841531988
 30
0.0
 11
549.39851261735384
 21
2565.4241286463562
 31
0.0
  0
LINE
  5
92DE
  8
1
 10
549.39851261735384
 20
2580.152973139514
 30
0.0
 11
549.39851261735384
 21
2571.4241286463562
 31
0.0
  0
LINE
  5
92DF
  8
1
 10
543.04765965626927
 20
2580.1529731395131
 30
0.0
 11
543.04765965626927
 21
2571.4241286463562
 31
0.0
  0
LINE
  5
92E0
  8
1
 10
547.19680669518129
 20
2555.4241286463562
 30
0.0
 11
549.39851261735384
 21
2556.6952841531988
 31
0.0
  0
ARC
  5
92E1
  8
1
 10
546.22308613681162
 20
2559.870710633742
 30
0.0
 40
4.4907311951024482
 50
224.99999999999901
 51
314.99999999999898
  0
LINE
  5
92E2
  8
1
 10
530.34595373409684
 20
2556.6952841531988
 30
0.0
 11
530.34595373409684
 21
2565.4241286463562
 31
0.0
  0
LINE
  5
92E3
  8
1
 10
530.34595373409684
 20
2580.1529731395131
 30
0.0
 11
530.34595373409684
 21
2571.4241286463562
 31
0.0
  0
LINE
  5
92E4
  8
1
 10
526.19680669518129
 20
2581.4241286463562
 30
0.0
 11
523.99510077301045
 21
2580.152973139514
 31
0.0
  0
ARC
  5
92E5
  8
1
 10
527.1705272535545
 20
2576.9775466589708
 30
0.0
 40
4.4907311951024482
 50
44.999999999998998
 51
134.99999999999889
  0
ARC
  5
92E6
  8
1
 10
527.1705272535545
 20
2559.870710633742
 30
0.0
 40
4.4907311951024482
 50
225.00000000000099
 51
315.00000000000091
  0
LINE
  5
92E7
  8
1
 10
526.19680669518129
 20
2555.4241286463562
 30
0.0
 11
523.99510077301045
 21
2556.6952841531988
 31
0.0
  0
LINE
  5
92E8
  8
1
 10
544.69680669518129
 20
2620.4241286463571
 30
0.0
 11
528.69680669518118
 21
2620.4241286463562
 31
0.0
  0
LINE
  5
92E9
  8
1
 10
529.69680669518118
 20
2621.4241286463562
 30
0.0
 11
543.69680669518129
 21
2621.4241286463571
 31
0.0
  0
LINE
  5
92EA
  8
1
 10
543.69680669518129
 20
2621.4241286463571
 30
0.0
 11
544.69680669518129
 21
2620.4241286463571
 31
0.0
  0
LINE
  5
92EB
  8
1
 10
529.69680669518118
 20
2621.4241286463562
 30
0.0
 11
528.69680669518118
 21
2620.4241286463562
 31
0.0
  0
LINE
  5
92EC
  8
1
 10
818.69680669518129
 20
2620.4241286463562
 30
0.0
 11
818.69680669518129
 21
2581.4241286463562
 31
0.0
  0
LINE
  5
92ED
  8
1
 10
819.89680669518202
 20
2621.4241286463562
 30
0.0
 11
819.89680669518202
 21
2581.4241286463562
 31
0.0
  0
LINE
  5
92EE
  8
1
 10
834.69680669518129
 20
2620.4241286463571
 30
0.0
 11
834.69680669518129
 21
2581.4241286463562
 31
0.0
  0
LINE
  5
92EF
  8
1
 10
833.49680669518227
 20
2621.4241286463571
 30
0.0
 11
833.49680669518045
 21
2581.4241286463562
 31
0.0
  0
LINE
  5
92F0
  8
2
 10
826.69680669518129
 20
2628.675342072795
 30
0.0
 11
826.69680669518129
 21
2461.4241286463571
 31
0.0
  0
LINE
  5
92F1
  8
1
 10
826.69680669518129
 20
2628.675342072795
 30
0.0
 11
826.69680669518129
 21
2461.4241286463562
 31
0.0
  0
LINE
  5
92F2
  8
1
 10
794.34859321359909
 20
2571.4241286463562
 30
0.0
 11
687.84859321359909
 21
2571.4241286463562
 31
0.0
  0
LINE
  5
92F3
  8
1
 10
834.69680669518129
 20
2555.4241286463562
 30
0.0
 11
834.69680669518311
 21
2461.4241286463571
 31
0.0
  0
LINE
  5
92F4
  8
1
 10
818.69680669518129
 20
2555.4241286463562
 30
0.0
 11
818.696806695183
 21
2461.4241286463571
 31
0.0
  0
LINE
  5
92F5
  8
1
 10
819.89680669518202
 20
2555.4241286463562
 30
0.0
 11
819.89680669518202
 21
2461.4241286463571
 31
0.0
  0
LINE
  5
92F6
  8
1
 10
833.49680669518227
 20
2555.4241286463562
 30
0.0
 11
833.49680669518227
 21
2461.4241286463571
 31
0.0
  0
POLYLINE
  5
92F7
  8
1
 66
     1
 10
0.0
 20
0.0
 30
0.0
  0
VERTEX
  5
9896
  8
1
 10
816.19680669518118
 20
2581.4241286463562
 30
0.0
  0
VERTEX
  5
9897
  8
1
 10
837.19680669518129
 20
2581.4241286463562
 30
0.0
  0
SEQEND
  5
9898
  8
1
  0
ARC
  5
92FB
  8
1
 10
826.69680669518129
 20
2565.19130116614
 30
0.0
 40
16.253767611608801
 50
67.000000000002444
 51
113.0000000000004
  0
POLYLINE
  5
92FC
  8
1
 66
     1
 10
0.0
 20
0.0
 30
0.0
  0
VERTEX
  5
9899
  8
1
 10
816.19680669518118
 20
2555.4241286463562
 30
0.0
  0
VERTEX
  5
989A
  8
1
 10
837.19680669518129
 20
2555.4241286463562
 30
0.0
  0
SEQEND
  5
989B
  8
1
  0
ARC
  5
9300
  8
1
 10
826.69680669518129
 20
2571.6569561265728
 30
0.0
 40
16.253767611608801
 50
246.9999999999996
 51
292.9999999999975
  0
LINE
  5
9301
  8
1
 10
837.19680669518129
 20
2581.4241286463562
 30
0.0
 11
839.39851261735384
 21
2580.152973139514
 31
0.0
  0
ARC
  5
9302
  8
1
 10
836.22308613681162
 20
2576.9775466589708
 30
0.0
 40
4.4907311951024482
 50
45.000000000000988
 51
135.00000000000091
  0
LINE
  5
9303
  8
1
 10
839.39851261735384
 20
2556.6952841531988
 30
0.0
 11
839.39851261735384
 21
2565.4241286463562
 31
0.0
  0
LINE
  5
9304
  8
1
 10
833.04765965626927
 20
2556.6952841531988
 30
0.0
 11
833.04765965626927
 21
2565.4241286463562
 31
0.0
  0
LINE
  5
9305
  8
1
 10
833.04765965626927
 20
2580.1529731395131
 30
0.0
 11
833.04765965626927
 21
2571.4241286463562
 31
0.0
  0
LINE
  5
9306
  8
1
 10
839.39851261735384
 20
2580.152973139514
 30
0.0
 11
839.39851261735384
 21
2571.4241286463562
 31
0.0
  0
ARC
  5
9307
  8
1
 10
836.22308613681162
 20
2559.870710633742
 30
0.0
 40
4.4907311951024482
 50
224.99999999999901
 51
314.99999999999898
  0
LINE
  5
9308
  8
1
 10
837.19680669518129
 20
2555.4241286463562
 30
0.0
 11
839.39851261735384
 21
2556.6952841531988
 31
0.0
  0
ARC
  5
9309
  8
1
 10
817.1705272535545
 20
2576.9775466589708
 30
0.0
 40
4.4907311951024482
 50
44.999999999998998
 51
134.99999999999889
  0
LINE
  5
930A
  8
1
 10
816.19680669518118
 20
2581.4241286463562
 30
0.0
 11
813.99510077301056
 21
2580.152973139514
 31
0.0
  0
LINE
  5
930B
  8
1
 10
813.99510077301056
 20
2565.4241286463562
 30
0.0
 11
813.99510077301056
 21
2556.6952841531988
 31
0.0
  0
LINE
  5
930C
  8
1
 10
820.34595373409684
 20
2556.6952841531988
 30
0.0
 11
820.34595373409684
 21
2565.4241286463562
 31
0.0
  0
LINE
  5
930D
  8
1
 10
820.34595373409684
 20
2580.1529731395131
 30
0.0
 11
820.34595373409684
 21
2571.4241286463562
 31
0.0
  0
LINE
  5
930E
  8
1
 10
813.99510077301056
 20
2571.4241286463562
 30
0.0
 11
813.99510077301056
 21
2580.152973139514
 31
0.0
  0
LINE
  5
930F
  8
1
 10
816.19680669518118
 20
2555.4241286463562
 30
0.0
 11
813.99510077301056
 21
2556.6952841531988
 31
0.0
  0
ARC
  5
9310
  8
1
 10
817.1705272535545
 20
2559.870710633742
 30
0.0
 40
4.4907311951024482
 50
225.00000000000099
 51
315.00000000000091
  0
LINE
  5
9311
  8
1
 10
819.69680669518129
 20
2621.4241286463562
 30
0.0
 11
833.69680669518129
 21
2621.4241286463571
 31
0.0
  0
LINE
  5
9312
  8
1
 10
834.69680669518129
 20
2620.4241286463571
 30
0.0
 11
818.69680669518129
 21
2620.4241286463562
 31
0.0
  0
LINE
  5
9313
  8
1
 10
833.69680669518129
 20
2621.4241286463571
 30
0.0
 11
834.69680669518129
 21
2620.4241286463571
 31
0.0
  0
LINE
  5
9314
  8
1
 10
819.69680669518129
 20
2621.4241286463562
 30
0.0
 11
818.69680669518129
 21
2620.4241286463562
 31
0.0
  0
LINE
  5
9315
  8
1
 10
1046.6968066951811
 20
2461.4241286463562
 30
0.0
 11
1046.6968066951811
 21
2417.4241286463562
 31
0.0
  0
LINE
  5
9316
  8
5
 10
923.69680669518129
 20
2254.4241286463562
 30
0.0
 11
986.69680669518118
 21
2254.4241286463562
 31
0.0
  0
LINE
  5
9317
  8
1
 10
1066.977526342554
 20
2516.9241286463571
 30
0.0
 11
1104.5094640269961
 21
2516.9241286463571
 31
0.0
  0
LINE
  5
9318
  8
1
 10
1126.6968066951811
 20
2494.4241286463571
 30
0.0
 11
1089.6968066951811
 21
2494.4241286463571
 31
0.0
  0
LINE
  5
9319
  8
1
 10
1094.1968066951811
 20
2497.4241286463571
 30
0.0
 11
1124.6968066951811
 21
2497.4241286463571
 31
0.0
  0
LINE
  5
931A
  8
1
 10
1014.696806695181
 20
2461.4241286463571
 30
0.0
 11
931.69680669518141
 21
2611.4241286463571
 31
0.0
  0
LINE
  5
931B
  8
1
 10
881.19680669518129
 20
2461.4241286463562
 30
0.0
 11
881.19680669518129
 21
2611.4241286463571
 31
0.0
  0
LINE
  5
931C
  8
1
 10
876.69680669518129
 20
2461.4241286463562
 30
0.0
 11
876.69680669518129
 21
2611.4241286463571
 31
0.0
  0
LINE
  5
931D
  8
1
 10
876.69680669518129
 20
2611.4241286463571
 30
0.0
 11
931.69680669518141
 21
2611.4241286463571
 31
0.0
  0
ARC
  5
931E
  8
1
 10
869.69680669518129
 20
2564.4241286463562
 30
0.0
 40
7.0
 50
359.99999999999989
 51
89.999999999999986
  0
ARC
  5
931F
  8
1
 10
869.69680669518129
 20
2564.4241286463562
 30
0.0
 40
1.0
 50
0.0
 51
90.0
  0
LINE
  5
9320
  8
1
 10
870.69680669518118
 20
2536.4241286463562
 30
0.0
 11
876.69680669518129
 21
2536.4241286463562
 31
0.0
  0
LINE
  5
9321
  8
1
 10
870.69680669518118
 20
2564.4241286463562
 30
0.0
 11
870.69680669518118
 21
2536.4241286463562
 31
0.0
  0
LINE
  5
9322
  8
1
 10
876.69680669518129
 20
2564.4241286463562
 30
0.0
 11
876.69680669518129
 21
2536.4241286463562
 31
0.0
  0
ARC
  5
9323
  8
1
 10
1094.1968066951811
 20
2501.9241286463571
 30
0.0
 40
4.5
 50
180.0
 51
270.0
  0
ARC
  5
9324
  8
1
 10
1087.6968066951811
 20
2532.4241286463571
 30
0.0
 40
2.0
 50
0.0
 51
90.0
  0
LINE
  5
9325
  8
1
 10
1086.6968066951811
 20
2534.4241286463571
 30
0.0
 11
1087.6968066951811
 21
2534.4241286463571
 31
0.0
  0
LINE
  5
9326
  8
1
 10
1083.4968066951801
 20
2534.4241286463571
 30
0.0
 11
1086.6968066951811
 21
2534.4241286463571
 31
0.0
  0
LINE
  5
9327
  8
5
 10
923.69680669518129
 20
2628.4241286463562
 30
0.0
 11
986.69680669518118
 21
2628.4241286463562
 31
0.0
  0
LINE
  5
9328
  8
5
 10
923.69680669518129
 20
2778.4241286463562
 30
0.0
 11
986.69680669518118
 21
2778.4241286463562
 31
0.0
  0
LINE
  5
9329
  8
5
 10
923.69680669518129
 20
2778.4241286463562
 30
0.0
 11
923.69680669518129
 21
2628.4241286463562
 31
0.0
  0
LINE
  5
932A
  8
5
 10
986.69680669518118
 20
2778.4241286463562
 30
0.0
 11
986.69680669518118
 21
2628.4241286463562
 31
0.0
  0
ARC
  5
932B
  8
1
 10
1124.6968066951811
 20
2495.4241286463571
 30
0.0
 40
2.0
 50
0.0
 51
90.0
  0
LINE
  5
932C
  8
1
 10
1126.6968066951811
 20
2495.4241286463571
 30
0.0
 11
1126.6968066951811
 21
2494.4241286463571
 31
0.0
  0
LINE
  5
932D
  8
1
 10
1026.6968066951811
 20
2831.4241286463562
 30
0.0
 11
886.69680669518118
 21
2831.4241286463562
 31
0.0
  0
CIRCLE
  5
932F
  8
1
 10
2124.0186947132802
 20
2179.4241286463562
 30
0.0
 40
75.0
  0
CIRCLE
  5
9330
  8
1
 10
2124.0186947132802
 20
2179.4241286463562
 30
0.0
 40
315.0
  0
CIRCLE
  5
9331
  8
1
 10
2124.0186947132802
 20
2179.4241286463562
 30
0.0
 40
355.0
  0
LINE
  5
9332
  8
2
 10
2124.0186947132802
 20
2936.4241286463562
 30
0.0
 11
2124.0186947132802
 21
1599.4241286463559
 31
0.0
  0
LINE
  5
9333
  8
1
 10
1844.01869471328
 20
1779.4241286463559
 30
0.0
 11
1914.01869471328
 21
1779.4241286463559
 31
0.0
  0
LINE
  5
9335
  8
1
 10
1844.01869471328
 20
1819.4241286463559
 30
0.0
 11
1844.01869471328
 21
1779.4241286463559
 31
0.0
  0
LINE
  5
9336
  8
1
 10
2514.0186947132802
 20
1684.4241286463559
 30
0.0
 11
2514.0186947132802
 21
1644.4241286463559
 31
0.0
  0
LINE
  5
9338
  8
1
 10
2404.018694713282
 20
1819.4241286463559
 30
0.0
 11
2404.018694713282
 21
1779.4241286463559
 31
0.0
  0
LINE
  5
9339
  8
1
 10
2404.0186947132802
 20
1819.4241286463559
 30
0.0
 11
2404.0186947132802
 21
1779.4241286463559
 31
0.0
  0
LINE
  5
933A
  8
1
 10
1974.01869471328
 20
2831.4241286463548
 30
0.0
 11
1974.01869471328
 21
2456.4169083356469
 31
0.0
  0
LINE
  5
933B
  8
1
 10
2274.0186947132802
 20
2831.4241286463562
 30
0.0
 11
2274.0186947132802
 21
2456.4169083356469
 31
0.0
  0
LINE
  5
933C
  8
1
 10
1966.466619190707
 20
2819.5786323685138
 30
0.0
 11
1910.4537330457599
 21
2678.5068123393139
 31
0.0
  0
LINE
  5
933D
  8
1
 10
1971.0664383475771
 20
2817.6186161124369
 30
0.0
 11
1915.053552202633
 21
2676.546796083238
 31
0.0
  0
LINE
  5
933E
  8
1
 10
1975.4186947132821
 20
2688.4241286463571
 30
0.0
 11
1975.41869471328
 21
2804.7627970720009
 31
0.0
  0
LINE
  5
933F
  8
1
 10
1918.1780816314531
 20
2796.8028069602792
 30
0.0
 11
1912.01869471328
 21
2703.4241286463562
 31
0.0
  0
CIRCLE
  5
9340
  8
1
 10
2124.0186947132802
 20
2703.4241286463562
 30
0.0
 40
121.3080440290846
  0
ARC
  5
9341
  8
1
 10
2124.0186947132802
 20
2703.4241286463562
 30
0.0
 40
142.0
 50
296.41738025990082
 51
243.58261974009909
  0
LINE
  5
9342
  8
1
 10
2254.0186947132779
 20
2571.4241286463562
 30
0.0
 11
2204.0186947132802
 21
2571.4241286463562
 31
0.0
  0
LINE
  5
9343
  8
1
 10
2254.0186947132802
 20
2586.4241286463562
 30
0.0
 11
2205.365175891016
 21
2586.4241286463562
 31
0.0
  0
LINE
  5
9344
  8
2
 10
2276.5186947132802
 20
2703.4241286463562
 30
0.0
 11
1971.51869471328
 21
2703.4241286463562
 31
0.0
  0
LINE
  5
9345
  8
1
 10
1959.01869471328
 20
2571.4241286463562
 30
0.0
 11
2289.0186947132779
 21
2571.4241286463562
 31
0.0
  0
LINE
  5
9346
  8
1
 10
1959.01869471328
 20
2536.4241286463562
 30
0.0
 11
2289.0186947132779
 21
2536.4241286463562
 31
0.0
  0
LINE
  5
9347
  8
1
 10
2049.0186947132802
 20
2703.4241286463562
 30
0.0
 11
2049.0186947132802
 21
2179.4241286463562
 31
0.0
  0
LINE
  5
9348
  8
1
 10
2199.0186947132802
 20
2703.4241286463562
 30
0.0
 11
2199.0186947132802
 21
2179.4241286463562
 31
0.0
  0
POINT
  5
9349
  8
1
 10
1832.807316497255
 20
2307.6706615333042
 30
0.0
  0
POINT
  5
934A
  8
1
 10
2124.0186947132802
 20
2179.4241286463562
 30
0.0
  0
POINT
  5
934B
  8
1
 10
2124.0186947132802
 20
2179.4241286463562
 30
0.0
  0
POINT
  5
934C
  8
1
 10
2124.0186947132802
 20
2179.4241286463562
 30
0.0
  0
LINE
  5
934D
  8
1
 10
1994.0186947132811
 20
2586.4241286463562
 30
0.0
 11
2042.672213535544
 21
2586.4241286463562
 31
0.0
  0
LINE
  5
934E
  8
1
 10
1994.0186947132811
 20
2571.4241286463562
 30
0.0
 11
2044.0186947132811
 21
2571.4241286463562
 31
0.0
  0
LINE
  5
934F
  8
1
 10
1994.0186947132811
 20
2586.4241286463562
 30
0.0
 11
2008.047972293137
 21
2620.6168732797519
 31
0.0
  0
LINE
  5
9350
  8
2
 10
1936.518694713282
 20
2507.6322039929501
 30
0.0
 11
1936.518694713282
 21
2593.4589225597738
 31
0.0
  0
LINE
  5
9351
  8
1
 10
1942.518694713282
 20
2521.4241286463562
 30
0.0
 11
1942.518694713282
 21
2581.4241286463562
 31
0.0
  0
LINE
  5
9352
  8
1
 10
1930.518694713282
 20
2521.4241286463562
 30
0.0
 11
1930.51869471328
 21
2581.4241286463562
 31
0.0
  0
LINE
  5
9353
  8
1
 10
1959.018694713279
 20
2493.7488015563899
 30
0.0
 11
1959.01869471328
 21
2611.4241286463571
 31
0.0
  0
LINE
  5
9354
  8
1
 10
1919.0186947132811
 20
2462.6009618058802
 30
0.0
 11
1919.0186947132811
 21
2611.4241286463571
 31
0.0
  0
LINE
  5
9355
  8
1
 10
1954.51869471328
 20
2491.345192378833
 30
0.0
 11
1954.51869471328
 21
2611.4241286463571
 31
0.0
  0
ARC
  5
9356
  8
1
 10
1936.518694713282
 20
2521.4241286463562
 30
0.0
 40
6.0
 50
180.0
 51
0.0
  0
LINE
  5
9357
  8
1
 10
1959.01869471328
 20
2611.4241286463571
 30
0.0
 11
1919.0186947132779
 21
2611.4241286463571
 31
0.0
  0
ARC
  5
9358
  8
1
 10
1936.518694713282
 20
2581.4241286463562
 30
0.0
 40
6.0
 50
0.0
 51
180.0
  0
LINE
  5
9359
  8
1
 10
1994.0186947132811
 20
2571.4241286463562
 30
0.0
 11
1994.0186947132811
 21
2586.4241286463562
 31
0.0
  0
ARC
  5
935A
  8
1
 10
1967.058294926559
 20
2703.1988959991259
 30
0.0
 40
55.040061059039289
 50
179.76553594120759
 51
197.3163745518037
  0
LINE
  5
935B
  8
1
 10
1970.4186947132821
 20
2683.4241286463562
 30
0.0
 11
1918.413080527687
 21
2683.4241286463562
 31
0.0
  0
LINE
  5
935C
  8
1
 10
1910.4537330457599
 20
2678.5068123393139
 30
0.0
 11
1915.053552202633
 21
2676.546796083238
 31
0.0
  0
LINE
  5
935D
  8
1
 10
1975.4186947132821
 20
2696.2204417322901
 30
0.0
 11
1982.201534627329
 21
2696.2204417322901
 31
0.0
  0
ARC
  5
935E
  8
1
 10
1970.4186947132821
 20
2688.4241286463571
 30
0.0
 40
5.0
 50
270.0
 51
359.99999999999972
  0
LINE
  5
935F
  8
2
 10
2016.01869471328
 20
2550.9241286463562
 30
0.0
 11
2016.01869471328
 21
2619.1197394056189
 31
0.0
  0
LINE
  5
9360
  8
2
 10
2232.0186947132802
 20
2550.9241286463562
 30
0.0
 11
2232.0186947132802
 21
2619.1197394056189
 31
0.0
  0
LINE
  5
9361
  8
1
 10
2187.4179231754779
 20
2575.8044286373179
 30
0.0
 11
2060.6194662510788
 21
2575.8044286373179
 31
0.0
  0
LINE
  5
9362
  8
1
 10
2044.0186947132811
 20
2585.4993644956489
 30
0.0
 11
2044.0186947132811
 21
2571.4241286463562
 31
0.0
  0
LINE
  5
9363
  8
1
 10
2204.0186947132802
 20
2585.4993644956489
 30
0.0
 11
2204.0186947132802
 21
2571.4241286463562
 31
0.0
  0
CIRCLE
  5
9364
  8
1
 10
2124.0186947132802
 20
2703.4241286463562
 30
0.0
 40
75.0
  0
LINE
  5
9366
  8
1
 10
2254.0186947132802
 20
2586.4241286463562
 30
0.0
 11
2239.9894171334231
 21
2620.6168732797519
 31
0.0
  0
LINE
  5
9367
  8
2
 10
2311.5186947132779
 20
2507.6322039929501
 30
0.0
 11
2311.5186947132779
 21
2593.4589225597738
 31
0.0
  0
LINE
  5
9368
  8
1
 10
2317.5186947132788
 20
2521.4241286463562
 30
0.0
 11
2317.5186947132802
 21
2581.4241286463562
 31
0.0
  0
LINE
  5
9369
  8
1
 10
2305.5186947132788
 20
2521.4241286463562
 30
0.0
 11
2305.5186947132788
 21
2581.4241286463562
 31
0.0
  0
LINE
  5
936A
  8
1
 10
2289.0186947132802
 20
2493.7488015563908
 30
0.0
 11
2289.0186947132802
 21
2611.4241286463571
 31
0.0
  0
LINE
  5
936B
  8
1
 10
2329.0186947132802
 20
2469.251663570145
 30
0.0
 11
2329.0186947132802
 21
2611.4241286463571
 31
0.0
  0
LINE
  5
936C
  8
1
 10
2293.5186947132788
 20
2491.3451923788339
 30
0.0
 11
2293.5186947132802
 21
2611.4241286463571
 31
0.0
  0
ARC
  5
936D
  8
1
 10
2311.5186947132779
 20
2521.4241286463562
 30
0.0
 40
6.0
 50
180.0
 51
0.0
  0
LINE
  5
936E
  8
1
 10
2289.0186947132802
 20
2611.4241286463571
 30
0.0
 11
2329.018694713282
 21
2611.4241286463571
 31
0.0
  0
LINE
  5
936F
  8
1
 10
2254.0186947132802
 20
2571.4241286463562
 30
0.0
 11
2254.0186947132802
 21
2586.4241286463562
 31
0.0
  0
ARC
  5
9370
  8
1
 10
2311.5186947132779
 20
2581.4241286463562
 30
0.0
 40
6.0
 50
0.0
 51
180.0
  0
LINE
  5
9371
  8
1
 10
2329.0186947132802
 20
2536.4241286463562
 30
0.0
 11
2329.0186947132802
 21
2571.4241286463562
 31
0.0
  0
LINE
  5
9372
  8
1
 10
1974.01869471328
 20
2831.4241286463562
 30
0.0
 11
2274.0186947132802
 21
2831.4241286463562
 31
0.0
  0
LINE
  5
9373
  8
1
 10
1975.41869471328
 20
2800.4629841064552
 30
0.0
 11
2020.872815846614
 21
2801.0198645820151
 31
0.0
  0
LINE
  5
9374
  8
1
 10
1963.6476338658899
 20
2812.9629613709699
 30
0.0
 11
1928.1780816314531
 21
2806.8028069602792
 31
0.0
  0
ARC
  5
9375
  8
1
 10
1928.1780816314531
 20
2796.8028069602792
 30
0.0
 40
10.0
 50
90.0
 51
180.0
  0
LINE
  5
9376
  8
1
 10
1966.466619190707
 20
2819.5786323685138
 30
0.0
 11
1971.0664383475771
 21
2817.6186161124369
 31
0.0
  0
LINE
  5
9377
  8
1
 10
1967.9472675777099
 20
2809.7627970720009
 30
0.0
 11
1970.41869471328
 21
2809.7627970720009
 31
0.0
  0
ARC
  5
9378
  8
1
 10
1970.41869471328
 20
2804.7627970720009
 30
0.0
 40
5.0
 50
0.0000000000008142
 51
90.0
  0
CIRCLE
  5
9379
  8
1
 10
2124.0186947132802
 20
2871.1741286463562
 30
0.0
 40
20.249999999999989
  0
CIRCLE
  5
937A
  8
1
 10
2124.0186947132802
 20
2871.1741286463562
 30
0.0
 40
12.75
  0
LINE
  5
937B
  8
1
 10
2128.776523640694
 20
2851.4909997310392
 30
0.0
 11
2128.7765236406949
 21
2845.344398741564
 31
0.0
  0
LINE
  5
937C
  8
1
 10
2119.260865785865
 20
2851.4909997310392
 30
0.0
 11
2119.260865785865
 21
2845.344398741564
 31
0.0
  0
LINE
  5
937D
  8
5
 10
431.69680669518129
 20
2335.4241286463562
 30
0.0
 11
431.696806695183
 21
2023.4241286463571
 31
0.0
  0
LINE
  5
937E
  8
5
 10
561.69680669518118
 20
2335.4241286463562
 30
0.0
 11
561.69680669518118
 21
2023.4241286463571
 31
0.0
  0
LINE
  5
937F
  8
5
 10
471.69680669518129
 20
2491.4241286463562
 30
0.0
 11
521.69680669518129
 21
2491.4241286463562
 31
0.0
  0
LINE
  5
9380
  8
5
 10
431.69680669518129
 20
2335.4241286463562
 30
0.0
 11
561.69680669518118
 21
2335.4241286463562
 31
0.0
  0
LINE
  5
9381
  8
5
 10
431.696806695183
 20
2023.4241286463571
 30
0.0
 11
561.69680669518118
 21
2023.4241286463571
 31
0.0
  0
LINE
  5
9382
  8
5
 10
431.69680669518129
 20
2325.4241286463571
 30
0.0
 11
561.69680669518118
 21
2325.4241286463571
 31
0.0
  0
LINE
  5
9383
  8
5
 10
431.696806695183
 20
2033.4241286463559
 30
0.0
 11
561.69680669518118
 21
2033.4241286463559
 31
0.0
  0
LINE
  5
9384
  8
5
 10
471.69680669518129
 20
2491.4241286463562
 30
0.0
 11
431.69680669518129
 21
2335.4241286463562
 31
0.0
  0
LINE
  5
9385
  8
5
 10
521.69680669518129
 20
2491.4241286463562
 30
0.0
 11
561.69680669518118
 21
2335.4241286463562
 31
0.0
  0
LINE
  5
9386
  8
5
 10
521.69680669518129
 20
1867.4241286463559
 30
0.0
 11
561.69680669518118
 21
2023.4241286463571
 31
0.0
  0
LINE
  5
9387
  8
5
 10
471.69680669518129
 20
1867.4241286463559
 30
0.0
 11
431.69680669518129
 21
2023.4241286463571
 31
0.0
  0
LINE
  5
9388
  8
5
 10
471.69680669518129
 20
1867.4241286463559
 30
0.0
 11
521.69680669518129
 21
1867.4241286463559
 31
0.0
  0
LINE
  5
9389
  8
1
 10
820.19680669518129
 20
2571.4241286463562
 30
0.0
 11
607.19680669518129
 21
2571.4241286463562
 31
0.0
  0
LINE
  5
938A
  8
1
 10
734.72681041046962
 20
2586.4241286463571
 30
0.0
 11
820.19680669518129
 21
2586.4241286463562
 31
0.0
  0
LINE
  5
938B
  8
1
 10
805.22739852387156
 20
2845.4241286463571
 30
0.0
 11
610.18981602107306
 21
2845.4241286463571
 31
0.0
  0
LINE
  5
938C
  8
1
 10
626.5083048387678
 20
2845.4241286463571
 30
0.0
 11
805.22739852387156
 21
2845.4241286463571
 31
0.0
  0
LINE
  5
938D
  8
2
 10
429.53939708528202
 20
2703.4241286463562
 30
0.0
 11
1023.560094471067
 21
2703.4241286463562
 31
0.0
  0
LINE
  5
938E
  8
1
 10
650.19680669518118
 20
2809.5786323685152
 30
0.0
 11
650.19680669518118
 21
2686.5467960832389
 31
0.0
  0
LINE
  5
938F
  8
1
 10
777.19680669518129
 20
2686.5467960832389
 30
0.0
 11
777.19680669518129
 21
2809.5786323685152
 31
0.0
  0
LINE
  5
9390
  8
1
 10
660.19680669518129
 20
2809.5786323685152
 30
0.0
 11
660.19680669518129
 21
2686.5467960832389
 31
0.0
  0
LINE
  5
9391
  8
1
 10
767.19680669518118
 20
2686.5467960832389
 30
0.0
 11
767.19680669518118
 21
2809.5786323685152
 31
0.0
  0
LINE
  5
9392
  8
1
 10
555.32605361829326
 20
2845.4241286463548
 30
0.0
 11
555.32605361829326
 21
2575.301878389213
 31
0.0
  0
LINE
  5
9393
  8
1
 10
601.16466760137325
 20
2629.878466612779
 30
0.0
 11
601.16466760137325
 21
2845.4241286463571
 31
0.0
  0
LINE
  5
9394
  8
1
 10
484.69680669518129
 20
2582.116084617272
 30
0.0
 11
484.69680669518129
 21
2825.5988016291731
 31
0.0
  0
LINE
  5
9395
  8
2
 10
713.69680669518129
 20
2876.9889837109272
 30
0.0
 11
713.69680669518129
 21
2538.1242666800981
 31
0.0
  0
LINE
  5
9396
  8
1
 10
555.32605361829326
 20
2575.301878389213
 30
0.0
 11
584.37858609480463
 21
2575.301878389213
 31
0.0
  0
LINE
  5
9397
  8
1
 10
484.69680669518129
 20
2582.116084617272
 30
0.0
 11
555.32605361829326
 21
2575.301878389213
 31
0.0
  0
LINE
  5
9398
  8
1
 10
702.66680297989285
 20
2596.4241286463571
 30
0.0
 11
702.66680297989285
 21
2633.4884148597971
 31
0.0
  0
LINE
  5
9399
  8
1
 10
724.72681041046962
 20
2633.4884148597971
 30
0.0
 11
724.72681041046962
 21
2596.4241286463571
 31
0.0
  0
LINE
  5
939A
  8
1
 10
584.37858609480463
 20
2575.301878389213
 30
0.0
 11
584.37858609480463
 21
2613.6336995011961
 31
0.0
  0
LINE
  5
939B
  8
2
 10
624.19680669518118
 20
2626.9729424869629
 30
0.0
 11
624.69680669518118
 21
2540.1905149546769
 31
0.0
  0
LINE
  5
939C
  8
1
 10
607.19680669518129
 20
2586.4241286463562
 30
0.0
 11
692.66680297989285
 21
2586.4241286463571
 31
0.0
  0
LINE
  5
939D
  8
1
 10
607.19680669518129
 20
2571.4241286463562
 30
0.0
 11
607.19680669518129
 21
2586.4241286463562
 31
0.0
  0
LINE
  5
939E
  8
1
 10
584.37858609480463
 20
2586.559087648558
 30
0.0
 11
607.19680669518129
 21
2575.301878389213
 31
0.0
  0
ARC
  5
939F
  8
1
 10
692.66680297989285
 20
2596.4241286463571
 30
0.0
 40
10.0
 50
270.0
 51
0.0
  0
ARC
  5
93A0
  8
1
 10
734.72681041046962
 20
2596.4241286463571
 30
0.0
 40
10.0
 50
180.0
 51
270.0
  0
LINE
  5
93A1
  8
1
 10
660.19680669518129
 20
2676.546796083238
 30
0.0
 11
767.19680669518118
 21
2676.546796083238
 31
0.0
  0
LINE
  5
93A2
  8
1
 10
660.19680669518129
 20
2686.5467960832389
 30
0.0
 11
767.19680669518118
 21
2686.5467960832389
 31
0.0
  0
LINE
  5
93A3
  8
1
 10
584.37858609480463
 20
2613.6336995011961
 30
0.0
 11
601.16466760137325
 21
2629.878466612779
 31
0.0
  0
ARC
  5
93A4
  8
1
 10
660.19680669518129
 20
2686.5467960832389
 30
0.0
 40
10.0
 50
180.0
 51
270.0
  0
ARC
  5
93A5
  8
1
 10
767.19680669518118
 20
2686.5467960832389
 30
0.0
 40
10.0
 50
270.0
 51
0.0
  0
LINE
  5
93A6
  8
1
 10
601.16466760137325
 20
2845.4241286463571
 30
0.0
 11
555.32605361829326
 21
2845.4241286463571
 31
0.0
  0
LINE
  5
93A7
  8
1
 10
555.32605361829326
 20
2845.4241286463571
 30
0.0
 11
484.69680669518129
 21
2825.5988016291731
 31
0.0
  0
LINE
  5
93A8
  8
1
 10
767.19680669518118
 20
2819.5786323685138
 30
0.0
 11
660.19680669518129
 21
2819.5786323685138
 31
0.0
  0
LINE
  5
93A9
  8
1
 10
767.19680669518118
 20
2809.5786323685152
 30
0.0
 11
660.19680669518129
 21
2809.5786323685152
 31
0.0
  0
LINE
  5
93AA
  8
1
 10
610.18981602107306
 20
2845.4241286463571
 30
0.0
 11
601.16466760137325
 21
2822.8283307535671
 31
0.0
  0
ARC
  5
93AB
  8
1
 10
660.19680669518129
 20
2809.5786323685152
 30
0.0
 40
10.0
 50
90.0
 51
180.0
  0
LINE
  5
93AC
  8
1
 10
725.79832402173997
 20
2845.4241286463571
 30
0.0
 11
725.79832402173997
 21
2850.7324278638712
 31
0.0
  0
LINE
  5
93AD
  8
1
 10
701.5952893686225
 20
2845.4241286463571
 30
0.0
 11
701.5952893686225
 21
2850.7324278638712
 31
0.0
  0
ARC
  5
93AE
  8
1
 10
767.19680669518118
 20
2809.5786323685152
 30
0.0
 40
10.0
 50
0.0
 51
90.0
  0
LINE
  5
93AF
  8
1
 10
720.54368406968933
 20
2891.4241286463562
 30
0.0
 11
706.84992932067325
 21
2891.4241286463562
 31
0.0
  0
LINE
  5
93B0
  8
1
 10
701.5952893686225
 20
2850.7324278638712
 30
0.0
 11
725.79832402173997
 21
2850.7324278638712
 31
0.0
  0
LINE
  5
93B1
  8
1
 10
720.54368406968933
 20
2891.4241286463562
 30
0.0
 11
720.54368406968933
 21
2850.7324278638712
 31
0.0
  0
LINE
  5
93B2
  8
1
 10
706.84992932067325
 20
2891.4241286463562
 30
0.0
 11
706.84992932067325
 21
2850.7324278638712
 31
0.0
  0
LINE
  5
93B3
  8
1
 10
873.81852651360168
 20
2825.5694132877552
 30
0.0
 11
873.81852651360168
 21
2588.3640617720662
 31
0.0
  0
LINE
  5
93B4
  8
1
 10
828.69278441509584
 20
2825.5694132877552
 30
0.0
 11
828.69278441509584
 21
2588.3640617720662
 31
0.0
  0
LINE
  5
93B5
  8
2
 10
802.69680669518129
 20
2540.1905149546769
 30
0.0
 11
802.69680669518129
 21
2623.840477719732
 31
0.0
  0
LINE
  5
93B6
  8
1
 10
873.81852651360168
 20
2588.3640617720662
 30
0.0
 11
828.69278441509584
 21
2588.3640617720662
 31
0.0
  0
LINE
  5
93B7
  8
1
 10
820.19680669518129
 20
2586.4241286463562
 30
0.0
 11
820.19680669518129
 21
2571.4241286463562
 31
0.0
  0
LINE
  5
93B8
  8
1
 10
828.69278441509584
 20
2588.3640617720662
 30
0.0
 11
820.19680669518129
 21
2584.4659892636132
 31
0.0
  0
LINE
  5
93B9
  8
5
 10
971.69680669518118
 20
2722.4241286463562
 30
0.0
 11
891.69680669518129
 21
2722.4241286463571
 31
0.0
  0
LINE
  5
93BA
  8
5
 10
971.69680669518118
 20
2684.4241286463571
 30
0.0
 11
891.69680669518129
 21
2684.4241286463571
 31
0.0
  0
LINE
  5
93BB
  8
5
 10
891.69680669518129
 20
2675.0028197005099
 30
0.0
 11
891.69680669518129
 21
2731.8454375922029
 31
0.0
  0
LINE
  5
93BC
  8
1
 10
884.69680669518129
 20
2645.2066796637582
 30
0.0
 11
884.69680669518129
 21
2761.641577628955
 31
0.0
  0
LINE
  5
93BD
  8
5
 10
891.69680669518129
 20
2675.0028197005099
 30
0.0
 11
884.69680669518129
 21
2675.0028197005108
 31
0.0
  0
LINE
  5
93BE
  8
1
 10
873.81852651360168
 20
2645.2066796637582
 30
0.0
 11
884.69680669518129
 21
2645.2066796637582
 31
0.0
  0
LINE
  5
93BF
  8
5
 10
891.69680669518129
 20
2731.8454375922029
 30
0.0
 11
884.69680669518129
 21
2731.8454375922029
 31
0.0
  0
LINE
  5
93C0
  8
1
 10
873.81852651360168
 20
2761.641577628955
 30
0.0
 11
884.69680669518129
 21
2761.641577628955
 31
0.0
  0
LINE
  5
93C1
  8
5
 10
971.69680669518118
 20
2722.4241286463562
 30
0.0
 11
971.69680669518118
 21
2684.4241286463571
 31
0.0
  0
LINE
  5
93C2
  8
1
 10
873.81852651360168
 20
2825.5694132877552
 30
0.0
 11
828.69278441509584
 21
2825.5694132877561
 31
0.0
  0
LINE
  5
93C3
  8
1
 10
828.69278441509584
 20
2818.3789051351368
 30
0.0
 11
805.22739852387156
 21
2845.4241286463571
 31
0.0
  0
LINE
  5
93C4
  8
4
 10
2775.0
 20
750.0
 30
0.0
 11
2775.0
 21
450.0
 31
0.0
  0
LINE
  5
93C5
  8
4
 10
1725.0
 20
750.0
 30
0.0
 11
1725.0
 21
450.0
 31
0.0
  0
LINE
  5
93C6
  8
4
 10
975.0
 20
750.0
 30
0.0
 11
975.0
 21
450.0
 31
0.0
  0
LINE
  5
93C9
  8
4
 10
975.0
 20
450.0
 30
0.0
 11
2775.0
 21
450.0
 31
0.0
  0
LINE
  5
93CA
  8
4
 10
975.0
 20
600.0
 30
0.0
 11
2775.0
 21
600.0
 31
0.0
  0
TEXT
  5
93CB
  8
4
 10
1032.753121270352
 20
647.31453879991932
 30
0.0
 40
75.0
  1
機器名称
  0
TEXT
  5
93CC
  8
4
 10
1029.3871590371959
 20
482.46773509801642
 30
0.0
 40
75.0
  1
機器型番
  0
TEXT
  5
93CD
  8
4
 10
1766.5181182314971
 20
633.85765343635285
 30
0.0
 40
75.0
  1
ミツヤ軸流ファン
  0
TEXT
  5
93CE
  8
4
 10
1779.9817433782209
 20
475.739376419915
 30
0.0
 40
75.0
  1
AP#630-2
  0
TEXT
  5
93D0
  8
4
 10
1226.1533655760829
 20
3566.4154574076128
 30
0.0
 40
80.999999999999986
  1
床置防振ベット
  0
TEXT
  5
93D1
  8
4
 10
474.25138999416959
 20
3800.8214642989469
 30
0.0
 40
108.0
  1
ベルト駆動式横形軸流ファン
  0
LINE
  5
93D2
  8
4
 10
375.0
 20
3704.1131313972069
 30
0.0
 11
2775.0
 21
3704.1131313972069
 31
0.0
  0
LINE
  5
93D3
  8
4
 10
375.0
 20
4004.1131313972069
 30
0.0
 11
2775.0
 21
4004.1131313972069
 31
0.0
  0
LINE
  5
93D4
  8
4
 10
975.0
 20
750.0
 30
0.0
 11
2775.0
 21
750.0
 31
0.0
  0
LINE
  5
93D5
  8
4
 10
375.0
 20
4004.1131313972069
 30
0.0
 11
375.0
 21
3704.1131313972069
 31
0.0
  0
TEXT
  5
93D6
  8
4
 10
432.60480866188658
 20
3573.4792163195152
 30
0.0
 40
80.999999999999986
  1
左回転後方吐出
  0
TEXT
  5
93D7
  8
4
 10
2203.4543388739339
 20
4059.0916222429628
 30
0.0
 40
84.000000000000014
  1
No.
  0
TEXT
  5
93D8
  8
4
 10
1966.944093900019
 20
3575.1432619987731
 30
0.0
 40
80.999999999999986
  1
縮尺：1/15
  0
LINE
  5
93D9
  8
4
 10
2775.0
 20
4004.1131313972069
 30
0.0
 11
2775.0
 21
3704.1131313972069
 31
0.0
  0
LINE
  5
93DA
  8
4
 10
3150.0
 20
4425.0
 30
0.0
 11
3150.0
 21
4425.0
 31
0.0
  0
LINE
  5
93DB
  8
4
 10
2160.9261335397969
 20
4021.895374688102
 30
0.0
 11
2160.9261335397969
 21
4179.9783923246277
 31
0.0
  0
LINE
  5
93DC
  8
4
 10
2160.9261335397969
 20
4179.9783923246277
 30
0.0
 11
2775.0
 21
4179.9783923246277
 31
0.0
  0
LINE
  5
93DD
  8
4
 10
2775.0
 20
4179.9783923246277
 30
0.0
 11
2775.0
 21
4021.895374688102
 31
0.0
  0
LINE
  5
93DE
  8
4
 10
2775.0
 20
4021.895374688102
 30
0.0
 11
2160.9261335397969
 21
4021.895374688102
 31
0.0
  0
LINE
  5
93DF
  8
4
 10
0.0
 20
0.0
 30
0.0
 11
0.0
 21
4425.0
 31
0.0
  0
LINE
  5
93E0
  8
4
 10
0.0
 20
4425.0
 30
0.0
 11
3150.0
 21
4425.0
 31
0.0
  0
LINE
  5
93E1
  8
4
 10
3150.0
 20
4425.0
 30
0.0
 11
3150.0
 21
0.0
 31
0.0
  0
LINE
  5
93E2
  8
4
 10
3150.0
 20
0.0
 30
0.0
 11
0.0
 21
0.0
 31
0.0
  0
DIMENSION
  5
93E3
  8
3
  2
*D1
 10
246.7772030286778
 20
1864.4241286463559
 30
0.0
 11
246.7772030286778
 21
2163.2317726798192
 31
0.0
 70
   128
  1
φ<>
 13
376.69680669518118
 23
2494.4241286463571
 33
0.0
 14
376.69680669518118
 24
1864.4241286463559
 34
0.0
 50
90.0
1001
ACAD
1000
DSTYLE
1002
{
1070
    40
1040
15.0
1002
}
  0
DIMENSION
  5
93E4
  8
3
  2
*D2
 10
1126.6968066951811
 20
3076.5532572360771
 30
0.0
 11
751.69680669518129
 21
3106.5532572360771
 31
0.0
 70
     0
 13
376.69680669518118
 23
2494.4241286463571
 33
0.0
 14
1126.6968066951811
 24
2494.4241286463571
 34
0.0
1001
ACAD
1000
DSTYLE
1002
{
1070
    40
1040
15.0
1002
}
  0
DIMENSION
  5
93E5
  8
3
  2
*D3
 10
1126.6968066951811
 20
1472.587691843356
 30
0.0
 11
751.69680669518129
 21
1502.587691843356
 31
0.0
 70
     0
 13
376.69680669518118
 23
1646.4241286463559
 33
0.0
 14
1126.6968066951811
 24
1644.4241286463559
 34
0.0
1001
ACAD
1000
DSTYLE
1002
{
1070
    40
1040
15.0
1002
}
  0
DIMENSION
  5
93E6
  8
3
  2
*D4
 10
1596.1825756071339
 20
1779.4241286463559
 30
0.0
 11
1596.1825756071339
 21
1937.5567540235879
 31
0.0
 70
   128
 13
1724.01869471328
 23
2179.4241286463562
 33
0.0
 14
1844.01869471328
 24
1779.4241286463559
 34
0.0
 50
90.0
1001
ACAD
1000
DSTYLE
1002
{
1070
    40
1040
15.0
1002
}
  0
DIMENSION
  5
93E7
  8
3
  2
*D5
 10
1596.1825756071339
 20
1684.4241286463559
 30
0.0
 11
1535.646861321419
 21
1731.9241286463571
 31
0.0
 70
     0
  1
(<>)
 13
1844.01869471328
 23
1779.4241286463559
 33
0.0
 14
1734.01869471328
 24
1684.4241286463559
 34
0.0
 50
90.0
1001
ACAD
1000
DSTYLE
1002
{
1070
   287
1070
     5
1070
   287
1070
     5
1070
    40
1040
15.0
1070
   279
1070
     2
1070
   289
1070
     3
1002
}
  0
DIMENSION
  5
93E8
  8
3
  2
*D6
 10
1596.1825756071339
 20
1644.4241286463559
 30
0.0
 11
1566.182575607133
 21
1538.9062648946369
 31
0.0
 70
     0
 13
1734.01869471328
 23
1684.4241286463559
 33
0.0
 14
1734.01869471328
 24
1644.4241286463559
 34
0.0
 50
90.0
1001
ACAD
1000
DSTYLE
1002
{
1070
    40
1040
15.0
1002
}
  0
DIMENSION
  5
93E9
  8
3
  2
*D7
 10
2514.0186947132802
 20
1472.4585777052721
 30
0.0
 11
2135.7121581249048
 21
1472.4585777052721
 31
0.0
 70
   128
 13
1734.01869471328
 23
1644.4241286463559
 33
0.0
 14
2514.0186947132802
 24
1644.4241286463559
 34
0.0
1001
ACAD
1000
DSTYLE
1002
{
1070
    40
1040
15.0
1002
}
  0
DIMENSION
  5
93EA
  8
3
  2
*D8
 10
2479.0186947132802
 20
3075.3482365925811
 30
0.0
 11
2124.0186947132802
 21
3105.3482365925811
 31
0.0
 70
     0
 13
1769.01869471328
 23
2179.4241286463562
 33
0.0
 14
2479.0186947132802
 24
2179.4241286463562
 34
0.0
1001
ACAD
1000
DSTYLE
1002
{
1070
    40
1040
15.0
1002
}
  0
DIMENSION
  5
93EB
  8
3
  2
*D9
 10
1596.1825756071339
 20
2891.4241286463562
 30
0.0
 11
1566.182575607133
 21
2535.4241286463562
 31
0.0
 70
     0
  1
MAX.850
 13
1724.01869471328
 23
2179.4241286463562
 33
0.0
 14
2124.0186947132802
 24
2891.4241286463562
 34
0.0
 50
90.0
1001
ACAD
1000
DSTYLE
1002
{
1070
    40
1040
15.0
1002
}
  0
LINE
  5
95E8
  8
1
 10
407.19680669518129
 20
1784.4241286463559
 30
0.0
 11
379.69680669518129
 21
1784.4241286463559
 31
0.0
  0
LINE
  5
95E9
  8
1
 10
416.69680669518118
 20
1779.4241286463559
 30
0.0
 11
375.69680669518118
 21
1779.4241286463559
 31
0.0
  0
ARC
  5
95EA
  8
1
 10
379.69680669518129
 20
1781.4241286463559
 30
0.0
 40
3.0
 50
90.0
 51
180.0
  0
LINE
  5
95EB
  8
1
 10
376.69680669518118
 20
1779.4241286463559
 30
0.0
 11
376.69680669518118
 21
1781.4241286463559
 31
0.0
  0
ARC
  5
95EC
  8
1
 10
407.19680669518129
 20
1788.9241286463559
 30
0.0
 40
4.5
 50
270.0
 51
0.0
  0
ARC
  5
95ED
  8
1
 10
414.69680669518129
 20
1816.4241286463559
 30
0.0
 40
3.0
 50
90.0
 51
180.0
  0
LINE
  5
95EE
  8
1
 10
411.69680669518118
 20
1788.9241286463559
 30
0.0
 11
411.69680669518118
 21
1816.4241286463559
 31
0.0
  0
LINE
  5
95EF
  8
1
 10
416.69680669518118
 20
1819.4241286463559
 30
0.0
 11
414.69680669518129
 21
1819.4241286463559
 31
0.0
  0
LINE
  5
95F0
  8
1
 10
416.69680669518118
 20
1779.4241286463559
 30
0.0
 11
416.69680669518118
 21
1819.4241286463559
 31
0.0
  0
LINE
  5
95FF
  8
1
 10
408.69680669518118
 20
1677.4241286463559
 30
0.0
 11
408.69680669518118
 21
1656.4241286463559
 31
0.0
  0
LINE
  5
9600
  8
1
 10
404.69680669518118
 20
1681.4241286463559
 30
0.0
 11
383.69680669518129
 21
1681.4241286463559
 31
0.0
  0
LINE
  5
9601
  8
1
 10
416.69680669518118
 20
1684.4241286463559
 30
0.0
 11
375.69680669518129
 21
1684.4241286463559
 31
0.0
  0
ARC
  5
9602
  8
1
 10
404.69680669518118
 20
1677.4241286463559
 30
0.0
 40
4.0
 50
0.0
 51
90.0
  0
ARC
  5
9603
  8
1
 10
383.69680669518129
 20
1683.4241286463559
 30
0.0
 40
2.0
 50
180.0
 51
270.0
  0
LINE
  5
9604
  8
1
 10
381.69680669518129
 20
1684.4241286463559
 30
0.0
 11
381.69680669518129
 21
1683.4241286463559
 31
0.0
  0
LINE
  5
9605
  8
1
 10
411.69680669518118
 20
1654.4241286463559
 30
0.0
 11
410.69680669518129
 21
1654.4241286463559
 31
0.0
  0
ARC
  5
9606
  8
1
 10
410.69680669518129
 20
1656.4241286463559
 30
0.0
 40
2.0
 50
180.0
 51
270.0
  0
LINE
  5
9607
  8
1
 10
416.69680669518118
 20
1819.4241286463559
 30
0.0
 11
1086.6968066951811
 21
1819.4241286463559
 31
0.0
  0
LINE
  5
9608
  8
1
 10
416.69680669518118
 20
1779.4241286463559
 30
0.0
 11
721.69680669518129
 21
1779.4241286463559
 31
0.0
  0
LINE
  5
9609
  8
1
 10
416.69680669518118
 20
1784.4241286463559
 30
0.0
 11
1086.6968066951811
 21
1784.4241286463559
 31
0.0
  0
LINE
  5
9649
  8
1
 10
1906.51869471328
 20
1713.4241286463571
 30
0.0
 11
1906.51869471328
 21
1765.9241286463571
 31
0.0
  0
LINE
  5
964A
  8
1
 10
1981.5186947132811
 20
1713.4241286463571
 30
0.0
 11
1981.5186947132811
 21
1765.9241286463571
 31
0.0
  0
LINE
  5
964C
  8
1
 10
1916.01869471328
 20
1690.4241286463571
 30
0.0
 11
1916.01869471328
 21
1713.4241286463559
 31
0.0
  0
LINE
  5
964D
  8
1
 10
1972.01869471328
 20
1690.4241286463571
 30
0.0
 11
1972.01869471328
 21
1713.4241286463571
 31
0.0
  0
LINE
  5
964E
  8
1
 10
1914.01869471328
 20
1679.4241286463559
 30
0.0
 11
1974.01869471328
 21
1679.4241286463571
 31
0.0
  0
LINE
  5
9650
  8
1
 10
1914.01869471328
 20
1690.4241286463559
 30
0.0
 11
1974.01869471328
 21
1690.4241286463571
 31
0.0
  0
LINE
  5
9651
  8
1
 10
1914.01869471328
 20
1679.4241286463571
 30
0.0
 11
1914.01869471328
 21
1690.4241286463571
 31
0.0
  0
LINE
  5
9652
  8
1
 10
1974.01869471328
 20
1679.4241286463571
 30
0.0
 11
1974.01869471328
 21
1690.4241286463571
 31
0.0
  0
LINE
  5
9653
  8
1
 10
1906.51869471328
 20
1713.4241286463559
 30
0.0
 11
1981.5186947132811
 21
1713.4241286463571
 31
0.0
  0
ARC
  5
9660
  8
1
 10
1914.01869471328
 20
1765.9241286463571
 30
0.0
 40
7.5
 50
89.999999999999275
 51
180.0
  0
LINE
  5
9663
  8
1
 10
1914.01869471328
 20
1773.4241286463559
 30
0.0
 11
1974.01869471328
 21
1773.4241286463571
 31
0.0
  0
LINE
  5
9664
  8
1
 10
1914.01869471328
 20
1773.4241286463571
 30
0.0
 11
1914.01869471328
 21
1784.4241286463571
 31
0.0
  0
LINE
  5
9665
  8
1
 10
1974.01869471328
 20
1773.4241286463571
 30
0.0
 11
1974.01869471328
 21
1784.4241286463571
 31
0.0
  0
ARC
  5
9666
  8
1
 10
1974.01869471328
 20
1765.9241286463571
 30
0.0
 40
7.5
 50
0.0
 51
90.000000000000725
  0
LINE
  5
9689
  8
1
 10
359.19680669518129
 20
1713.4241286463559
 30
0.0
 11
434.19680669518129
 21
1713.4241286463571
 31
0.0
  0
LINE
  5
968A
  8
1
 10
366.69680669518112
 20
1773.4241286463559
 30
0.0
 11
426.69680669518112
 21
1773.4241286463571
 31
0.0
  0
LINE
  5
968D
  8
1
 10
368.69680669518129
 20
1690.424128646355
 30
0.0
 11
424.69680669518118
 21
1690.4241286463571
 31
0.0
  0
LINE
  5
968E
  8
1
 10
368.69680669518129
 20
1690.4241286463559
 30
0.0
 11
368.69680669518129
 21
1713.4241286463559
 31
0.0
  0
LINE
  5
968F
  8
1
 10
370.69680669518118
 20
1679.424128646355
 30
0.0
 11
375.69680669518129
 21
1679.4241286463559
 31
0.0
  0
LINE
  5
9690
  8
1
 10
375.69680669518129
 20
1679.4241286463559
 30
0.0
 11
375.69680669518129
 21
1684.4241286463559
 31
0.0
  0
LINE
  5
9691
  8
1
 10
370.69680669518118
 20
1679.4241286463559
 30
0.0
 11
370.69680669518118
 21
1690.4241286463571
 31
0.0
  0
LINE
  5
9692
  8
1
 10
370.69680669518118
 20
1773.4241286463571
 30
0.0
 11
370.69680669518118
 21
1784.4241286463559
 31
0.0
  0
LINE
  5
9693
  8
1
 10
375.69680669518129
 20
1779.4241286463559
 30
0.0
 11
375.69680669518129
 21
1784.4241286463559
 31
0.0
  0
ARC
  5
9694
  8
1
 10
366.69680669518129
 20
1765.9241286463559
 30
0.0
 40
7.5
 50
89.999999999999275
 51
180.0
  0
LINE
  5
9695
  8
1
 10
359.19680669518129
 20
1713.4241286463571
 30
0.0
 11
359.19680669518129
 21
1765.9241286463559
 31
0.0
  0
LINE
  5
9696
  8
1
 10
370.69680669518118
 20
1784.4241286463559
 30
0.0
 11
375.69680669518129
 21
1784.4241286463559
 31
0.0
  0
LINE
  5
9697
  8
1
 10
424.69680669518118
 20
1690.4241286463559
 30
0.0
 11
424.69680669518118
 21
1713.4241286463559
 31
0.0
  0
LINE
  5
9698
  8
1
 10
417.69680669518129
 20
1679.4241286463559
 30
0.0
 11
422.69680669518129
 21
1679.4241286463559
 31
0.0
  0
LINE
  5
969A
  8
1
 10
422.69680669518129
 20
1684.4241286463559
 30
0.0
 11
422.69680669518129
 21
1690.4241286463571
 31
0.0
  0
LINE
  5
969B
  8
1
 10
422.69680669518129
 20
1773.4241286463571
 30
0.0
 11
422.69680669518129
 21
1779.4241286463559
 31
0.0
  0
LINE
  5
969D
  8
1
 10
434.19680669518129
 20
1713.4241286463571
 30
0.0
 11
434.19680669518129
 21
1765.9241286463559
 31
0.0
  0
ARC
  5
969E
  8
1
 10
426.69680669518129
 20
1765.9241286463559
 30
0.0
 40
7.5
 50
0.0
 51
90.000000000000725
  0
LINE
  5
96A0
  8
1
 10
723.69680669518129
 20
1690.4241286463571
 30
0.0
 11
723.69680669518129
 21
1713.4241286463559
 31
0.0
  0
LINE
  5
96A1
  8
1
 10
779.69680669518129
 20
1690.4241286463571
 30
0.0
 11
779.69680669518129
 21
1713.4241286463571
 31
0.0
  0
LINE
  5
96A2
  8
1
 10
721.69680669518129
 20
1690.4241286463559
 30
0.0
 11
781.69680669518129
 21
1690.4241286463571
 31
0.0
  0
LINE
  5
96A5
  8
1
 10
721.69680669518129
 20
1679.4241286463571
 30
0.0
 11
721.69680669518129
 21
1690.4241286463571
 31
0.0
  0
LINE
  5
96A6
  8
1
 10
781.69680669518129
 20
1679.4241286463571
 30
0.0
 11
781.69680669518129
 21
1690.4241286463571
 31
0.0
  0
LINE
  5
96A7
  8
1
 10
714.19680669518129
 20
1713.4241286463559
 30
0.0
 11
789.19680669518129
 21
1713.4241286463571
 31
0.0
  0
LINE
  5
96AA
  8
1
 10
721.69680669518129
 20
1773.4241286463559
 30
0.0
 11
781.69680669518118
 21
1773.4241286463571
 31
0.0
  0
LINE
  5
96AB
  8
1
 10
721.69680669518129
 20
1773.4241286463571
 30
0.0
 11
721.69680669518129
 21
1784.4241286463571
 31
0.0
  0
LINE
  5
96AC
  8
1
 10
714.19680669518129
 20
1713.4241286463571
 30
0.0
 11
714.19680669518129
 21
1765.9241286463571
 31
0.0
  0
ARC
  5
96AD
  8
1
 10
721.69680669518129
 20
1765.9241286463571
 30
0.0
 40
7.5
 50
89.999999999999275
 51
180.0
  0
ARC
  5
96AE
  8
1
 10
781.69680669518129
 20
1765.9241286463571
 30
0.0
 40
7.5
 50
0.0
 51
90.000000000000725
  0
LINE
  5
96AF
  8
1
 10
781.69680669518129
 20
1773.4241286463571
 30
0.0
 11
781.69680669518129
 21
1784.4241286463571
 31
0.0
  0
LINE
  5
96B0
  8
1
 10
789.19680669518129
 20
1713.4241286463571
 30
0.0
 11
789.19680669518129
 21
1765.9241286463571
 31
0.0
  0
LINE
  5
96C7
  8
1
 10
781.69680669518141
 20
1779.4241286463559
 30
0.0
 11
1086.6968066951811
 21
1779.4241286463559
 31
0.0
  0
LINE
  5
96C8
  8
1
 10
781.69680669518129
 20
1684.4241286463559
 30
0.0
 11
1086.6968066951811
 21
1684.4241286463559
 31
0.0
  0
LINE
  5
96C9
  8
1
 10
1134.6968066951811
 20
1690.4241286463559
 30
0.0
 11
1134.6968066951811
 21
1713.4241286463559
 31
0.0
  0
LINE
  5
96CA
  8
1
 10
1078.6968066951811
 20
1690.4241286463559
 30
0.0
 11
1078.6968066951811
 21
1713.4241286463559
 31
0.0
  0
LINE
  5
96CB
  8
1
 10
1086.6968066951811
 20
1684.4241286463559
 30
0.0
 11
1127.6968066951811
 21
1684.4241286463559
 31
0.0
  0
LINE
  5
96CC
  8
1
 10
1134.6968066951811
 20
1690.424128646355
 30
0.0
 11
1078.6968066951811
 21
1690.4241286463571
 31
0.0
  0
ARC
  5
96CD
  8
1
 10
1098.6968066951811
 20
1677.4241286463559
 30
0.0
 40
4.0
 50
90.0
 51
180.0
  0
LINE
  5
96CE
  8
1
 10
1096.1968066951811
 20
1649.4241286463559
 30
0.0
 11
1123.6968066951811
 21
1649.4241286463559
 31
0.0
  0
LINE
  5
96CF
  8
1
 10
1086.6968066951811
 20
1644.4241286463559
 30
0.0
 11
1126.6968066951811
 21
1644.4241286463559
 31
0.0
  0
LINE
  5
96D0
  8
1
 10
1132.6968066951811
 20
1679.424128646355
 30
0.0
 11
1127.6968066951811
 21
1679.4241286463559
 31
0.0
  0
LINE
  5
96D1
  8
1
 10
1132.6968066951811
 20
1679.4241286463559
 30
0.0
 11
1132.6968066951811
 21
1690.4241286463571
 31
0.0
  0
LINE
  5
96D2
  8
1
 10
1127.6968066951811
 20
1679.4241286463559
 30
0.0
 11
1127.6968066951811
 21
1684.4241286463559
 31
0.0
  0
LINE
  5
96D3
  8
1
 10
1121.6968066951811
 20
1684.4241286463559
 30
0.0
 11
1121.6968066951811
 21
1683.4241286463559
 31
0.0
  0
ARC
  5
96D4
  8
1
 10
1119.6968066951811
 20
1683.4241286463559
 30
0.0
 40
2.0
 50
270.0
 51
0.0
  0
LINE
  5
96D5
  8
1
 10
1098.6968066951811
 20
1681.4241286463559
 30
0.0
 11
1119.6968066951811
 21
1681.4241286463559
 31
0.0
  0
LINE
  5
96D6
  8
2
 10
1108.6968066951811
 20
1664.4241286463559
 30
0.0
 11
1108.6968066951811
 21
1629.4241286463559
 31
0.0
  0
ARC
  5
96D7
  8
1
 10
1123.6968066951811
 20
1646.4241286463559
 30
0.0
 40
3.0
 50
0.0
 51
90.0
  0
LINE
  5
96D8
  8
1
 10
1126.6968066951811
 20
1644.4241286463559
 30
0.0
 11
1126.6968066951811
 21
1646.4241286463559
 31
0.0
  0
LINE
  5
96D9
  8
1
 10
1080.6968066951811
 20
1684.4241286463559
 30
0.0
 11
1080.6968066951811
 21
1690.4241286463571
 31
0.0
  0
LINE
  5
96DA
  8
1
 10
1085.6968066951811
 20
1679.4241286463559
 30
0.0
 11
1080.6968066951811
 21
1679.4241286463559
 31
0.0
  0
LINE
  5
96DB
  8
1
 10
1091.6968066951811
 20
1653.9241286463559
 30
0.0
 11
1091.6968066951811
 21
1684.4241286463559
 31
0.0
  0
ARC
  5
96DC
  8
1
 10
1092.6968066951811
 20
1656.4241286463559
 30
0.0
 40
2.0
 50
270.0
 51
0.0
  0
LINE
  5
96DD
  8
1
 10
1091.6968066951811
 20
1654.4241286463559
 30
0.0
 11
1092.6968066951811
 21
1654.4241286463559
 31
0.0
  0
LINE
  5
96DE
  8
1
 10
1094.6968066951811
 20
1677.4241286463559
 30
0.0
 11
1094.6968066951811
 21
1656.4241286463559
 31
0.0
  0
ARC
  5
96DF
  8
1
 10
1096.1968066951811
 20
1653.9241286463559
 30
0.0
 40
4.5
 50
180.0
 51
270.0
  0
ARC
  5
96E0
  8
1
 10
1088.6968066951811
 20
1681.4241286463559
 30
0.0
 40
3.0
 50
0.0
 51
90.0
  0
LINE
  5
96E1
  8
1
 10
1086.6968066951811
 20
1644.4241286463559
 30
0.0
 11
1086.6968066951811
 21
1684.4241286463559
 31
0.0
  0
LINE
  5
96E2
  8
1
 10
1086.6968066951811
 20
1779.4241286463559
 30
0.0
 11
1127.6968066951811
 21
1779.4241286463559
 31
0.0
  0
LINE
  5
96E3
  8
1
 10
1136.6968066951811
 20
1773.4241286463559
 30
0.0
 11
1076.6968066951811
 21
1773.4241286463571
 31
0.0
  0
LINE
  5
96E4
  8
1
 10
1144.1968066951811
 20
1713.4241286463559
 30
0.0
 11
1069.1968066951811
 21
1713.4241286463571
 31
0.0
  0
LINE
  5
96E5
  8
1
 10
1096.1968066951811
 20
1784.4241286463559
 30
0.0
 11
1123.6968066951811
 21
1784.4241286463559
 31
0.0
  0
LINE
  5
96E6
  8
1
 10
1127.6968066951811
 20
1779.4241286463559
 30
0.0
 11
1127.6968066951811
 21
1784.4241286463559
 31
0.0
  0
LINE
  5
96E7
  8
1
 10
1132.6968066951811
 20
1773.4241286463571
 30
0.0
 11
1132.6968066951811
 21
1784.4241286463559
 31
0.0
  0
LINE
  5
96E8
  8
1
 10
1126.6968066951811
 20
1779.4241286463559
 30
0.0
 11
1126.6968066951811
 21
1781.4241286463559
 31
0.0
  0
ARC
  5
96E9
  8
1
 10
1136.6968066951811
 20
1765.9241286463559
 30
0.0
 40
7.5
 50
0.0
 51
90.000000000000725
  0
LINE
  5
96EA
  8
1
 10
1144.1968066951811
 20
1713.4241286463571
 30
0.0
 11
1144.1968066951811
 21
1765.9241286463559
 31
0.0
  0
LINE
  5
96EB
  8
1
 10
1132.6968066951811
 20
1784.4241286463559
 30
0.0
 11
1127.6968066951811
 21
1784.4241286463559
 31
0.0
  0
ARC
  5
96EC
  8
1
 10
1123.6968066951811
 20
1781.4241286463559
 30
0.0
 40
3.0
 50
0.0
 51
90.0
  0
LINE
  5
96ED
  8
1
 10
1086.6968066951811
 20
1779.4241286463559
 30
0.0
 11
1086.6968066951811
 21
1819.4241286463559
 31
0.0
  0
LINE
  5
96EE
  8
1
 10
1080.6968066951811
 20
1773.4241286463571
 30
0.0
 11
1080.6968066951811
 21
1779.4241286463559
 31
0.0
  0
LINE
  5
96EF
  8
1
 10
1069.1968066951811
 20
1713.4241286463571
 30
0.0
 11
1069.1968066951811
 21
1765.9241286463559
 31
0.0
  0
ARC
  5
96F0
  8
1
 10
1076.6968066951811
 20
1765.9241286463559
 30
0.0
 40
7.5
 50
89.999999999999275
 51
180.0
  0
LINE
  5
96F1
  8
1
 10
1086.6968066951811
 20
1819.4241286463559
 30
0.0
 11
1088.6968066951811
 21
1819.4241286463559
 31
0.0
  0
LINE
  5
96F2
  8
1
 10
1091.6968066951811
 20
1788.9241286463559
 30
0.0
 11
1091.6968066951811
 21
1816.4241286463559
 31
0.0
  0
ARC
  5
96F3
  8
1
 10
1088.6968066951811
 20
1816.4241286463559
 30
0.0
 40
3.0
 50
0.0
 51
90.0
  0
ARC
  5
96F4
  8
1
 10
1096.1968066951811
 20
1788.9241286463559
 30
0.0
 40
4.5
 50
180.0
 51
270.0
  0
LINE
  5
96F6
  8
1
 10
1844.01869471328
 20
1684.4241286463559
 30
0.0
 11
1844.01869471328
 21
1654.4241286463559
 31
0.0
  0
LINE
  5
96F7
  8
1
 10
2404.0186947132802
 20
1654.4241286463559
 30
0.0
 11
1844.01869471328
 21
1654.4241286463559
 31
0.0
  0
LINE
  5
96F8
  8
1
 10
2404.0186947132802
 20
1681.4241286463559
 30
0.0
 11
2334.0186947132802
 21
1681.4241286463559
 31
0.0
  0
LINE
  5
96F9
  8
1
 10
2404.0186947132802
 20
1684.4241286463559
 30
0.0
 11
2404.0186947132802
 21
1654.4241286463559
 31
0.0
  0
LINE
  5
96FB
  8
1
 10
1844.01869471328
 20
1819.4241286463559
 30
0.0
 11
2404.018694713282
 21
1819.4241286463559
 31
0.0
  0
LINE
  5
96FC
  8
1
 10
1844.01869471328
 20
1784.4241286463559
 30
0.0
 11
2404.018694713282
 21
1784.4241286463559
 31
0.0
  0
LINE
  5
96FD
  8
1
 10
1974.01869471328
 20
1779.4241286463559
 30
0.0
 11
2274.0186947132802
 21
1779.4241286463559
 31
0.0
  0
LINE
  5
96FE
  8
1
 10
1914.01869471328
 20
1684.4241286463559
 30
0.0
 11
1734.01869471328
 21
1684.4241286463559
 31
0.0
  0
LINE
  5
96FF
  8
1
 10
1914.01869471328
 20
1681.4241286463559
 30
0.0
 11
1844.01869471328
 21
1681.4241286463559
 31
0.0
  0
LINE
  5
9701
  8
1
 10
1884.01869471328
 20
1819.4241286463559
 30
0.0
 11
1927.1001250533241
 21
1884.046274156422
 31
0.0
  0
LINE
  5
9702
  8
1
 10
1878.6103678000841
 20
1819.4241286463559
 30
0.0
 11
1923.371720038991
 21
1886.5661570047171
 31
0.0
  0
LINE
  5
9703
  8
1
 10
2369.4270216264772
 20
1819.4241286463559
 30
0.0
 11
2324.6656693875689
 21
1886.5661570047171
 31
0.0
  0
LINE
  5
9704
  8
1
 10
2364.0186947132802
 20
1819.4241286463559
 30
0.0
 11
2320.9372643732358
 21
1884.046274156422
 31
0.0
  0
LINE
  5
9705
  8
1
 10
2341.5186947132802
 20
1713.4241286463559
 30
0.0
 11
2266.5186947132802
 21
1713.4241286463571
 31
0.0
  0
LINE
  5
9706
  8
1
 10
2334.0186947132802
 20
1773.4241286463559
 30
0.0
 11
2274.0186947132802
 21
1773.4241286463571
 31
0.0
  0
LINE
  5
9707
  8
1
 10
2334.0186947132802
 20
1690.4241286463559
 30
0.0
 11
2274.0186947132802
 21
1690.4241286463571
 31
0.0
  0
LINE
  5
9708
  8
1
 10
2334.0186947132802
 20
1679.4241286463559
 30
0.0
 11
2274.0186947132802
 21
1679.4241286463571
 31
0.0
  0
LINE
  5
9709
  8
1
 10
2332.0186947132802
 20
1690.4241286463571
 30
0.0
 11
2332.0186947132802
 21
1713.4241286463559
 31
0.0
  0
LINE
  5
970A
  8
1
 10
2334.0186947132802
 20
1679.4241286463571
 30
0.0
 11
2334.0186947132802
 21
1690.4241286463571
 31
0.0
  0
LINE
  5
970B
  8
1
 10
2334.0186947132802
 20
1773.4241286463571
 30
0.0
 11
2334.0186947132802
 21
1784.4241286463571
 31
0.0
  0
ARC
  5
970C
  8
1
 10
2334.0186947132802
 20
1765.9241286463571
 30
0.0
 40
7.5
 50
0.0
 51
90.000000000000725
  0
LINE
  5
970D
  8
1
 10
2341.5186947132802
 20
1713.4241286463571
 30
0.0
 11
2341.5186947132802
 21
1765.9241286463571
 31
0.0
  0
LINE
  5
970E
  8
1
 10
2276.0186947132802
 20
1690.4241286463571
 30
0.0
 11
2276.0186947132802
 21
1713.4241286463571
 31
0.0
  0
LINE
  5
970F
  8
1
 10
2274.0186947132802
 20
1679.4241286463571
 30
0.0
 11
2274.0186947132802
 21
1690.4241286463571
 31
0.0
  0
LINE
  5
9710
  8
1
 10
2274.0186947132802
 20
1773.4241286463571
 30
0.0
 11
2274.0186947132802
 21
1784.4241286463571
 31
0.0
  0
ARC
  5
9711
  8
1
 10
2274.0186947132802
 20
1765.9241286463571
 30
0.0
 40
7.5
 50
89.999999999999275
 51
180.0
  0
LINE
  5
9712
  8
1
 10
2266.5186947132802
 20
1713.4241286463571
 30
0.0
 11
2266.5186947132802
 21
1765.9241286463571
 31
0.0
  0
LINE
  5
9713
  8
1
 10
2334.0186947132802
 20
1779.4241286463559
 30
0.0
 11
2404.018694713282
 21
1779.4241286463559
 31
0.0
  0
LINE
  5
9714
  8
1
 10
2274.0186947132802
 20
1681.4241286463559
 30
0.0
 11
1974.01869471328
 21
1681.4241286463559
 31
0.0
  0
LINE
  5
9715
  8
1
 10
2274.0186947132802
 20
1684.4241286463559
 30
0.0
 11
1974.01869471328
 21
1684.4241286463559
 31
0.0
  0
LINE
  5
9726
  8
2
 10
531.69680669518129
 20
1695.4241286463559
 30
0.0
 11
531.69680669518129
 21
1808.4241286463559
 31
0.0
  0
LINE
  5
9728
  8
2
 10
971.69680669518118
 20
1695.4241286463559
 30
0.0
 11
971.69680669518118
 21
1808.4241286463559
 31
0.0
  0
LINE
  5
9729
  8
1
 10
1083.4968066951801
 20
1919.8511826513491
 30
0.0
 11
419.89680669518191
 21
1919.8511826513491
 31
0.0
  0
LINE
  5
972A
  8
1
 10
1844.01869471328
 20
1684.4241286463559
 30
0.0
 11
1844.01869471328
 21
1724.4241286463559
 31
0.0
  0
LINE
  5
972B
  8
1
 10
1844.01869471328
 20
1724.4241286463559
 30
0.0
 11
1884.01869471328
 21
1724.4241286463559
 31
0.0
  0
LINE
  5
972C
  8
1
 10
1884.01869471328
 20
1724.4241286463559
 30
0.0
 11
1884.0186947132811
 21
1684.4241286463559
 31
0.0
  0
LINE
  5
972D
  8
2
 10
1862.01869471328
 20
1695.4241286463559
 30
0.0
 11
1862.01869471328
 21
1808.4241286463559
 31
0.0
  0
LINE
  5
972E
  8
1
 10
2364.0186947132802
 20
1724.4241286463559
 30
0.0
 11
2364.0186947132802
 21
1684.4241286463559
 31
0.0
  0
LINE
  5
972F
  8
1
 10
2404.0186947132802
 20
1684.4241286463559
 30
0.0
 11
2404.0186947132802
 21
1724.4241286463559
 31
0.0
  0
LINE
  5
9730
  8
1
 10
2404.0186947132802
 20
1724.4241286463559
 30
0.0
 11
2364.0186947132802
 21
1724.4241286463559
 31
0.0
  0
LINE
  5
9731
  8
2
 10
2386.0186947132802
 20
1695.4241286463559
 30
0.0
 11
2386.0186947132802
 21
1808.4241286463559
 31
0.0
  0
LINE
  5
9810
  8
1
 10
561.30466327607223
 20
1712.1213745883369
 30
0.0
 11
563.40840421058749
 21
1688.075505675366
 31
0.0
  0
LINE
  5
9811
  8
1
 10
502.08895011429041
 20
1712.1213745883369
 30
0.0
 11
499.98520917977493
 21
1688.075505675366
 31
0.0
  0
LINE
  5
9812
  8
1
 10
569.19680669518129
 20
1724.4241286463559
 30
0.0
 11
569.19680669518129
 21
1684.4241286463559
 31
0.0
  0
LINE
  5
9813
  8
1
 10
494.19680669518129
 20
1724.4241286463559
 30
0.0
 11
494.19680669518129
 21
1684.4241286463559
 31
0.0
  0
LINE
  5
9814
  8
1
 10
510.05850769902429
 20
1719.4241286463559
 30
0.0
 11
553.33510569133819
 21
1719.4241286463559
 31
0.0
  0
LINE
  5
9815
  8
1
 10
494.19680669518129
 20
1724.4241286463559
 30
0.0
 11
569.19680669518129
 21
1724.4241286463559
 31
0.0
  0
ARC
  5
9816
  8
1
 10
510.05850769902429
 20
1711.4241286463559
 30
0.0
 40
8.0
 50
90.0
 51
175.0
  0
ARC
  5
9817
  8
1
 10
553.33510569133819
 20
1711.4241286463559
 30
0.0
 40
8.0
 50
5.0000000000000071
 51
90.0
  0
LINE
  5
9818
  8
1
 10
494.19680669518129
 20
1684.4241286463559
 30
0.0
 11
496.0004303874079
 21
1684.4241286463559
 31
0.0
  0
ARC
  5
9819
  8
1
 10
496.0004303874079
 20
1688.4241286463559
 30
0.0
 40
4.0
 50
270.0
 51
355.0
  0
LINE
  5
981A
  8
1
 10
567.39318300295463
 20
1684.4241286463559
 30
0.0
 11
569.19680669518129
 21
1684.4241286463559
 31
0.0
  0
ARC
  5
981B
  8
1
 10
567.39318300295463
 20
1688.4241286463559
 30
0.0
 40
4.0
 50
185.0
 51
270.0
  0
LINE
  5
981C
  8
1
 10
942.08895011429036
 20
1712.1213745883369
 30
0.0
 11
939.98520917977487
 21
1688.075505675366
 31
0.0
  0
LINE
  5
981D
  8
1
 10
1001.304663276072
 20
1712.1213745883369
 30
0.0
 11
1003.408404210587
 21
1688.075505675366
 31
0.0
  0
LINE
  5
981E
  8
1
 10
934.19680669518118
 20
1724.4241286463559
 30
0.0
 11
934.19680669518118
 21
1684.4241286463559
 31
0.0
  0
LINE
  5
981F
  8
1
 10
1009.196806695181
 20
1724.4241286463559
 30
0.0
 11
1009.196806695181
 21
1684.4241286463559
 31
0.0
  0
LINE
  5
9820
  8
1
 10
993.33510569133819
 20
1719.4241286463559
 30
0.0
 11
950.0585076990244
 21
1719.4241286463559
 31
0.0
  0
LINE
  5
9821
  8
1
 10
1009.196806695181
 20
1724.4241286463559
 30
0.0
 11
934.19680669518118
 21
1724.4241286463559
 31
0.0
  0
ARC
  5
9822
  8
1
 10
993.33510569133819
 20
1711.4241286463559
 30
0.0
 40
8.0
 50
4.9999999999999858
 51
90.0
  0
ARC
  5
9823
  8
1
 10
950.0585076990244
 20
1711.4241286463559
 30
0.0
 40
8.0
 50
90.0
 51
175.0
  0
LINE
  5
9824
  8
1
 10
1009.196806695181
 20
1684.4241286463559
 30
0.0
 11
1007.3931830029539
 21
1684.4241286463559
 31
0.0
  0
ARC
  5
9825
  8
1
 10
1007.3931830029539
 20
1688.4241286463559
 30
0.0
 40
4.0
 50
184.9999999999998
 51
270.0
  0
LINE
  5
9826
  8
1
 10
936.00043038740785
 20
1684.4241286463559
 30
0.0
 11
934.19680669518118
 21
1684.4241286463559
 31
0.0
  0
ARC
  5
9827
  8
1
 10
936.00043038740785
 20
1688.4241286463559
 30
0.0
 40
4.0
 50
270.0
 51
355.00000000000011
  0
ENDSEC
  0
EOF
