  0
SECTION
  2
HEADER
  9
$ACADVER
  1
AC1009
  9
$INSBASE
 10
0.0
 20
0.0
 30
0.0
  9
$EXTMIN
 10
0.0
 20
0.0
 30
0.0
  9
$EXTMAX
 10
3150.0
 20
4425.0
 30
0.0
  9
$LIMMIN
 10
0.0
 20
0.0
  9
$LIMMAX
 10
297.0
 20
210.0
  9
$ORTHOMODE
 70
     0
  9
$REGENMODE
 70
     1
  9
$FILLMODE
 70
     0
  9
$QTEXTMODE
 70
     0
  9
$MIRRTEXT
 70
     1
  9
$DRAGMODE
 70
     2
  9
$LTSCALE
 40
100.0
  9
$OSMODE
 70
    37
  9
$ATTMODE
 70
     1
  9
$TEXTSIZE
 40
180.0
  9
$TRACEWID
 40
0.05
  9
$TEXTSTYLE
  7
STANDARD
  9
$CLAYER
  8
3
  9
$CELTYPE
  6
BYLAYER
  9
$CECOLOR
 62
   256
  9
$DIMSCALE
 40
15.0
  9
$DIMASZ
 40
2.0
  9
$DIMEXO
 40
0.5
  9
$DIMDLI
 40
10.0
  9
$DIMRND
 40
0.0
  9
$DIMDLE
 40
0.0
  9
$DIMEXE
 40
1.0
  9
$DIMTP
 40
1.0
  9
$DIMTM
 40
1.0
  9
$DIMTXT
 40
3.0
  9
$DIMCEN
 40
0.0
  9
$DIMTSZ
 40
0.0
  9
$DIMTOL
 70
     0
  9
$DIMLIM
 70
     0
  9
$DIMTIH
 70
     0
  9
$DIMTOH
 70
     0
  9
$DIMSE1
 70
     0
  9
$DIMSE2
 70
     0
  9
$DIMTAD
 70
     1
  9
$DIMZIN
 70
     8
  9
$DIMBLK
  1

  9
$DIMASO
 70
     1
  9
$DIMSHO
 70
     1
  9
$DIMPOST
  1

  9
$DIMAPOST
  1

  9
$DIMALT
 70
     0
  9
$DIMALTD
 70
     2
  9
$DIMALTF
 40
0.039
  9
$DIMLFAC
 40
1.0
  9
$DIMTOFL
 70
     1
  9
$DIMTVP
 40
0.0
  9
$DIMTIX
 70
     0
  9
$DIMSOXD
 70
     0
  9
$DIMSAH
 70
     1
  9
$DIMBLK1
  1
OPEN
  9
$DIMBLK2
  1
OPEN
  9
$DIMSTYLE
  2
IGA
  9
$DIMCLRD
 70
     0
  9
$DIMCLRE
 70
     0
  9
$DIMCLRT
 70
     0
  9
$DIMTFAC
 40
10.0
  9
$DIMGAP
 40
1.0
  9
$LUNITS
 70
     2
  9
$LUPREC
 70
     3
  9
$SKETCHINC
 40
0.1
  9
$FILLETRAD
 40
50.0
  9
$AUNITS
 70
     0
  9
$AUPREC
 70
     0
  9
$MENU
  1
acad
  9
$ELEVATION
 40
0.0
  9
$PELEVATION
 40
0.0
  9
$THICKNESS
 40
0.0
  9
$LIMCHECK
 70
     0
  9
$BLIPMODE
 70
     0
  9
$CHAMFERA
 40
0.5
  9
$CHAMFERB
 40
0.5
  9
$SKPOLY
 70
     0
  9
$TDCREATE
 40
2452654.479350694
  9
$TDUPDATE
 40
2454953.6315746061
  9
$TDINDWG
 40
0.0156531134
  9
$TDUSRTIMER
 40
0.0156531134
  9
$USRTIMER
 70
     1
  9
$ANGBASE
 50
0.0
  9
$ANGDIR
 70
     0
  9
$PDMODE
 70
     0
  9
$PDSIZE
 40
0.0
  9
$PLINEWID
 40
0.0
  9
$COORDS
 70
     1
  9
$SPLFRAME
 70
     0
  9
$SPLINETYPE
 70
     6
  9
$SPLINESEGS
 70
     8
  9
$ATTDIA
 70
     0
  9
$ATTREQ
 70
     1
  9
$HANDLING
 70
 10241
  9
$HANDSEED
  5
84E7
  9
$SURFTAB1
 70
     6
  9
$SURFTAB2
 70
     6
  9
$SURFTYPE
 70
     6
  9
$SURFU
 70
     6
  9
$SURFV
 70
     6
  9
$UCSNAME
  2

  9
$UCSORG
 10
0.0
 20
0.0
 30
0.0
  9
$UCSXDIR
 10
1.0
 20
0.0
 30
0.0
  9
$UCSYDIR
 10
0.0
 20
1.0
 30
0.0
  9
$PUCSNAME
  2

  9
$PUCSORG
 10
0.0
 20
0.0
 30
0.0
  9
$PUCSXDIR
 10
1.0
 20
0.0
 30
0.0
  9
$PUCSYDIR
 10
0.0
 20
1.0
 30
0.0
  9
$USERI1
 70
     0
  9
$USERI2
 70
     0
  9
$USERI3
 70
     0
  9
$USERI4
 70
     0
  9
$USERI5
 70
     0
  9
$USERR1
 40
0.0
  9
$USERR2
 40
0.0
  9
$USERR3
 40
0.0
  9
$USERR4
 40
0.0
  9
$USERR5
 40
0.0
  9
$WORLDVIEW
 70
     1
  9
$SHADEDGE
 70
     3
  9
$SHADEDIF
 70
    70
  9
$TILEMODE
 70
     1
  9
$MAXACTVP
 70
    16
  9
$PLIMCHECK
 70
     0
  9
$PEXTMIN
 10
1.0000000000000000E+020
 20
1.0000000000000000E+020
 30
1.0000000000000000E+020
  9
$PEXTMAX
 10
-1.0000000000000000E+020
 20
-1.0000000000000000E+020
 30
-1.0000000000000000E+020
  9
$PLIMMIN
 10
0.0
 20
0.0
  9
$PLIMMAX
 10
12.0
 20
9.0
  9
$UNITMODE
 70
     0
  9
$VISRETAIN
 70
     0
  9
$PLINEGEN
 70
     0
  9
$PSLTSCALE
 70
     1
  0
ENDSEC
  0
SECTION
  2
TABLES
  0
TABLE
  2
VPORT
 70
     2
  0
VPORT
  2
*ACTIVE
 70
     0
 10
0.0
 20
0.0
 11
1.0
 21
1.0
 12
2935.7346389422942
 22
528.76358854924808
 13
0.0
 23
0.0
 14
10.0
 24
10.0
 15
10.0
 25
10.0
 16
0.0
 26
0.0
 36
1.0
 17
0.0
 27
0.0
 37
0.0
 40
1262.2307313421379
 41
3.1666666666666661
 42
50.0
 43
0.0
 44
0.0
 50
0.0
 51
0.0
 71
     0
 72
   100
 73
     1
 74
     0
 75
     0
 76
     0
 77
     0
 78
     0
  0
ENDTAB
  0
TABLE
  2
LTYPE
 70
     2
  0
LTYPE
  2
CONTINUOUS
 70
     0
  3
Solid line
 72
    65
 73
     0
 40
0.0
  0
LTYPE
  2
CENTER
 70
     0
  3
____ _ ____ _ ____ _ ____ _ ____ _ ____ _ ____ 
 72
    65
 73
     4
 40
2.0
 49
1.25
 49
-0.25
 49
0.25
 49
-0.25
  0
ENDTAB
  0
TABLE
  2
LAYER
 70
     6
  0
LAYER
  2
0
 70
     0
 62
     7
  6
CONTINUOUS
  0
LAYER
  2
3
 70
     0
 62
     2
  6
CONTINUOUS
  0
LAYER
  2
2
 70
     0
 62
     3
  6
CENTER
  0
LAYER
  2
1
 70
     0
 62
     4
  6
CONTINUOUS
  0
LAYER
  2
4
 70
     0
 62
     7
  6
CONTINUOUS
  0
LAYER
  2
DEFPOINTS
 70
     0
 62
     7
  6
CONTINUOUS
  0
ENDTAB
  0
TABLE
  2
STYLE
 70
     1
  0
STYLE
  2
STANDARD
 70
     0
 40
0.0
 41
1.0
 50
0.0
 71
     0
 42
180.0
  3
simplex.shx
  4
extfont.shx
  0
ENDTAB
  0
TABLE
  2
VIEW
 70
     0
  0
ENDTAB
  0
TABLE
  2
UCS
 70
     0
  0
ENDTAB
  0
TABLE
  2
APPID
 70
     1
  0
APPID
  2
ACAD
 70
     0
  0
ENDTAB
  0
TABLE
  2
DIMSTYLE
 70
     1
  0
DIMSTYLE
  2
IGA
 70
     0
  3

  4

  5

  6
OPEN
  7
OPEN
 40
2.0
 41
2.0
 42
0.5
 43
10.0
 44
1.0
 45
0.0
 46
0.0
 47
1.0
 48
1.0
140
3.0
141
0.0
142
0.0
143
0.03937
144
1.0
145
0.0
146
10.0
147
1.0
 71
     0
 72
     0
 73
     0
 74
     0
 75
     0
 76
     0
 77
     1
 78
     8
170
     0
171
     2
172
     0
173
     1
174
     0
175
     0
176
     0
177
     0
178
     0
  0
ENDTAB
  0
ENDSEC
  0
SECTION
  2
BLOCKS
  0
BLOCK
  8
0
  2
$MODEL_SPACE
 70
     0
 10
0.0
 20
0.0
 30
0.0
  3
$MODEL_SPACE
  1

  0
ENDBLK
  5
1B
  8
0
  0
BLOCK
 67
     1
  8
0
  2
$PAPER_SPACE
 70
     0
 10
0.0
 20
0.0
 30
0.0
  3
$PAPER_SPACE
  1

  0
ENDBLK
  5
18
 67
     1
  8
0
  0
BLOCK
  8
0
  2
_OPEN
 70
     0
 10
0.0
 20
0.0
 30
0.0
  3
_OPEN
  1

  0
LINE
  5
7E5C
  8
0
  6
BYBLOCK
 62
     0
 10
-1.0
 20
0.1666666666666666
 30
0.0
 11
0.0
 21
0.0
 31
0.0
  0
LINE
  5
7E5D
  8
0
  6
BYBLOCK
 62
     0
 10
0.0
 20
0.0
 30
0.0
 11
-1.0
 21
-0.1666666666666666
 31
0.0
  0
LINE
  5
7E5E
  8
0
  6
BYBLOCK
 62
     0
 10
0.0
 20
0.0
 30
0.0
 11
-1.0
 21
0.0
 31
0.0
  0
ENDBLK
  5
7E5F
  8
0
  0
BLOCK
  8
0
  2
*D1
 70
     1
 10
0.0
 20
0.0
 30
0.0
  3
*D1
  1

  0
LINE
  5
8465
  8
3
 62
     0
 10
376.69680669518118
 20
2501.9241286463571
 30
0.0
 11
376.69680669518129
 21
3091.5532572360771
 31
0.0
  0
LINE
  5
8466
  8
3
 62
     0
 10
1126.6968066951811
 20
2501.9241286463571
 30
0.0
 11
1126.6968066951811
 21
3091.5532572360771
 31
0.0
  0
LINE
  5
8467
  8
3
 62
     0
 10
406.69680669518141
 20
3076.5532572360771
 30
0.0
 11
1096.6968066951811
 21
3076.5532572360771
 31
0.0
  0
INSERT
  5
8468
  8
3
 62
     0
  2
_OPEN
 10
376.69680669518129
 20
3076.5532572360771
 30
0.0
 41
30.0
 42
30.0
 43
30.0
 50
180.0
  0
INSERT
  5
8469
  8
3
 62
     0
  2
_OPEN
 10
1126.6968066951811
 20
3076.5532572360771
 30
0.0
 41
30.0
 42
30.0
 43
30.0
  0
TEXT
  8
3
  40
45
  5
84DB
  62
0
  72
0
  71
0
 10
621.904
 20
3034.40
 30
0.000000
  1
750
  0
POINT
  5
846B
  8
DEFPOINTS
 62
     0
 10
376.69680669518118
 20
2494.4241286463571
 30
0.0
  0
POINT
  5
846C
  8
DEFPOINTS
 62
     0
 10
1126.6968066951811
 20
2494.4241286463571
 30
0.0
  0
POINT
  5
846D
  8
DEFPOINTS
 62
     0
 10
1126.6968066951811
 20
3076.5532572360771
 30
0.0
  0
ENDBLK
  5
7EB1
  8
0
  0
BLOCK
  8
0
  2
*D2
 70
     1
 10
0.0
 20
0.0
 30
0.0
  3
*D2
  1

  0
LINE
  5
846E
  8
3
 62
     0
 10
1746.51869471328
 20
2179.4241286463562
 30
0.0
 11
1581.1825756071339
 21
2179.4241286463562
 31
0.0
  0
LINE
  5
846F
  8
3
 62
     0
 10
1836.51869471328
 20
1779.4241286463559
 30
0.0
 11
1581.1825756071339
 21
1779.4241286463559
 31
0.0
  0
LINE
  5
8470
  8
3
 62
     0
 10
1596.1825756071339
 20
2149.4241286463562
 30
0.0
 11
1596.1825756071339
 21
1809.4241286463559
 31
0.0
  0
INSERT
  5
8471
  8
3
 62
     0
  2
_OPEN
 10
1596.1825756071339
 20
2179.4241286463562
 30
0.0
 41
30.0
 42
30.0
 43
30.0
 50
90.0
  0
INSERT
  5
8472
  8
3
 62
     0
  2
_OPEN
 10
1596.1825756071339
 20
1779.4241286463559
 30
0.0
 41
30.0
 42
30.0
 43
30.0
 50
270.0
  0
TEXT
  8
3
  40
45
  5
84DC
  62
0
  72
0
  71
0
 10
1468.68
 20
1857.91
 30
0.000000
  1
400
  0
POINT
  5
8474
  8
DEFPOINTS
 62
     0
 10
1754.01869471328
 20
2179.4241286463562
 30
0.0
  0
POINT
  5
8475
  8
DEFPOINTS
 62
     0
 10
1844.01869471328
 20
1779.4241286463559
 30
0.0
  0
POINT
  5
8476
  8
DEFPOINTS
 62
     0
 10
1596.1825756071339
 20
1779.4241286463559
 30
0.0
  0
ENDBLK
  5
7ECB
  8
0
  0
BLOCK
  8
0
  2
_DOT
 70
     0
 10
0.0
 20
0.0
 30
0.0
  3
_DOT
  1

  0
LINE
  5
7F7A
  8
0
  6
BYBLOCK
 62
     0
 10
0.0
 20
0.0
 30
0.0
 11
-1.0
 21
-0.0000000000000284
 31
0.0
  0
POLYLINE
  5
7F7B
  8
0
  6
BYBLOCK
 62
     0
 66
     1
 10
0.0
 20
0.0
 30
0.0
 70
     1
 40
0.1666666666666666
 41
0.1666666666666666
  0
VERTEX
  5
8488
  8
0
  6
BYBLOCK
 62
     0
 10
-0.0833333333333286
 20
-0.0000000000000284
 30
0.0
 42
1.0
  0
VERTEX
  5
8489
  8
0
  6
BYBLOCK
 62
     0
 10
0.0833333333333286
 20
-0.0000000000000284
 30
0.0
 42
1.0
  0
SEQEND
  5
848A
  8
0
  6
BYBLOCK
 62
     0
  0
ENDBLK
  5
7F2D
  8
0
  0
BLOCK
  8
0
  2
*D4
 70
     1
 10
0.0
 20
0.0
 30
0.0
  3
*D4
  1

  0
LINE
  5
8477
  8
3
 62
     0
 10
1769.01869471328
 20
2186.9241286463562
 30
0.0
 11
1769.01869471328
 21
3090.3482365925811
 31
0.0
  0
LINE
  5
8478
  8
3
 62
     0
 10
2479.0186947132802
 20
2186.9241286463562
 30
0.0
 11
2479.0186947132802
 21
3090.3482365925811
 31
0.0
  0
LINE
  5
8479
  8
3
 62
     0
 10
1799.01869471328
 20
3075.3482365925811
 30
0.0
 11
2449.0186947132802
 21
3075.3482365925811
 31
0.0
  0
INSERT
  5
847A
  8
3
 62
     0
  2
_OPEN
 10
1769.01869471328
 20
3075.3482365925811
 30
0.0
 41
30.0
 42
30.0
 43
30.0
 50
180.0
  0
INSERT
  5
847B
  8
3
 62
     0
  2
_OPEN
 10
2479.0186947132802
 20
3075.3482365925811
 30
0.0
 41
30.0
 42
30.0
 43
30.0
  0
TEXT
  8
3
  40
45
  5
84DD
  62
0
  72
0
  71
0
 10
2030.95
 20
3033.20
 30
0.000000
  1
710
  0
POINT
  5
847D
  8
DEFPOINTS
 62
     0
 10
1769.01869471328
 20
2179.4241286463562
 30
0.0
  0
POINT
  5
847E
  8
DEFPOINTS
 62
     0
 10
2479.0186947132802
 20
2179.4241286463562
 30
0.0
  0
POINT
  5
847F
  8
DEFPOINTS
 62
     0
 10
2479.0186947132802
 20
3075.3482365925811
 30
0.0
  0
ENDBLK
  5
7F5F
  8
0
  0
BLOCK
  8
0
  2
*D5
 70
     1
 10
0.0
 20
0.0
 30
0.0
  3
*D5
  1

  0
LINE
  5
8480
  8
3
 62
     0
 10
2116.5186947132802
 20
2891.4241286463562
 30
0.0
 11
1581.1825756071339
 21
2891.4241286463562
 31
0.0
  0
LINE
  5
8481
  8
3
 62
     0
 10
1596.182575607133
 20
2209.4241286463562
 30
0.0
 11
1596.1825756071339
 21
2861.4241286463562
 31
0.0
  0
INSERT
  5
8482
  8
3
 62
     0
  2
_OPEN
 10
1596.182575607133
 20
2179.4241286463562
 30
0.0
 41
30.0
 42
30.0
 43
30.0
 50
270.0
  0
INSERT
  5
8483
  8
3
 62
     0
  2
_OPEN
 10
1596.1825756071339
 20
2891.4241286463562
 30
0.0
 41
30.0
 42
30.0
 43
30.0
 50
90.0
  0
TEXT
  8
3
  40
45
  5
84DE
  62
0
  72
0
  71
0
 10
1468.68
 20
2455.77
 30
0.000000
  1
MAX850
  0
POINT
  5
8485
  8
DEFPOINTS
 62
     0
 10
1754.01869471328
 20
2179.4241286463562
 30
0.0
  0
POINT
  5
8486
  8
DEFPOINTS
 62
     0
 10
2124.0186947132802
 20
2891.4241286463562
 30
0.0
  0
POINT
  5
8487
  8
DEFPOINTS
 62
     0
 10
1596.1825756071339
 20
2891.4241286463562
 30
0.0
  0
ENDBLK
  5
7F78
  8
0
  0
BLOCK
  8
0
  2
*D6
 70
     1
 10
0.0
 20
0.0
 30
0.0
  3
*D6
  1

  0
LINE
  5
848B
  8
3
 62
     0
 10
1869.0186947132811
 20
1745.3746258257361
 30
0.0
 11
1869.0186947132811
 21
1536.317879504476
 31
0.0
  0
LINE
  5
848C
  8
3
 62
     0
 10
2379.0186947132802
 20
1745.3746258257361
 30
0.0
 11
2379.0186947132802
 21
1536.317879504476
 31
0.0
  0
LINE
  5
848D
  8
3
 62
     0
 10
1899.01869471328
 20
1551.3178795044771
 30
0.0
 11
2349.0186947132802
 21
1551.3178795044771
 31
0.0
  0
INSERT
  5
848E
  8
3
 62
     0
  2
_OPEN
 10
1869.0186947132811
 20
1551.3178795044771
 30
0.0
 41
30.0
 42
30.0
 43
30.0
 50
180.0
  0
INSERT
  5
848F
  8
3
 62
     0
  2
_OPEN
 10
2379.0186947132802
 20
1551.3178795044771
 30
0.0
 41
30.0
 42
30.0
 43
30.0
  0
TEXT
  8
3
  40
45
  5
84DF
  62
0
  72
0
  71
0
 10
2038.53
 20
1509.17
 30
0.000000
  1
510
  0
POINT
  5
8491
  8
DEFPOINTS
 62
     0
 10
1869.0186947132811
 20
1752.8746258257361
 30
0.0
  0
POINT
  5
8492
  8
DEFPOINTS
 62
     0
 10
2379.0186947132802
 20
1752.8746258257361
 30
0.0
  0
POINT
  5
8493
  8
DEFPOINTS
 62
     0
 10
2379.0186947132802
 20
1551.3178795044771
 30
0.0
  0
ENDBLK
  5
824A
  8
0
  0
BLOCK
  8
0
  2
*D7
 70
     1
 10
0.0
 20
0.0
 30
0.0
  3
*D7
  1

  0
LINE
  5
8494
  8
3
 62
     0
 10
1844.01869471328
 20
1771.9241286463559
 30
0.0
 11
1844.01869471328
 21
1401.477943339172
 31
0.0
  0
LINE
  5
8495
  8
3
 62
     0
 10
2404.018694713282
 20
1771.9241286463559
 30
0.0
 11
2404.018694713282
 21
1401.477943339172
 31
0.0
  0
LINE
  5
8496
  8
3
 62
     0
 10
1874.01869471328
 20
1416.477943339172
 30
0.0
 11
2374.018694713282
 21
1416.477943339172
 31
0.0
  0
INSERT
  5
8497
  8
3
 62
     0
  2
_OPEN
 10
1844.01869471328
 20
1416.477943339172
 30
0.0
 41
30.0
 42
30.0
 43
30.0
 50
180.0
  0
INSERT
  5
8498
  8
3
 62
     0
  2
_OPEN
 10
2404.018694713282
 20
1416.477943339172
 30
0.0
 41
30.0
 42
30.0
 43
30.0
  0
TEXT
  8
3
  40
45
  5
84E0
  62
0
  72
0
  71
0
 10
2046.96
 20
1374.33
 30
0.000000
  1
560
  0
POINT
  5
849A
  8
DEFPOINTS
 62
     0
 10
1844.01869471328
 20
1779.4241286463559
 30
0.0
  0
POINT
  5
849B
  8
DEFPOINTS
 62
     0
 10
2404.018694713282
 20
1779.4241286463559
 30
0.0
  0
POINT
  5
849C
  8
DEFPOINTS
 62
     0
 10
2404.018694713282
 20
1416.477943339172
 30
0.0
  0
ENDBLK
  5
8257
  8
0
  0
BLOCK
  8
0
  2
*D8
 70
     1
 10
0.0
 20
0.0
 30
0.0
  3
*D8
  1

  0
LINE
  5
849D
  8
3
 62
     0
 10
2379.0186947132802
 20
1745.3746258257361
 30
0.0
 11
2379.0186947132802
 21
1536.317879504476
 31
0.0
  0
LINE
  5
849E
  8
3
 62
     0
 10
2404.018694713282
 20
1764.4241286463559
 30
0.0
 11
2404.018694713282
 21
1536.317879504476
 31
0.0
  0
LINE
  5
849F
  8
3
 62
     0
 10
2349.0186947132802
 20
1551.3178795044771
 30
0.0
 11
2319.0186947132802
 21
1551.3178795044771
 31
0.0
  0
LINE
  5
84A0
  8
3
 62
     0
 10
2434.018694713282
 20
1551.3178795044771
 30
0.0
 11
2464.018694713282
 21
1551.3178795044771
 31
0.0
  0
TEXT
  8
3
  40
45
  5
84E1
  62
0
  72
0
  71
0
 10
2392.83
 20
1507.06
 30
0.000000
  1
25
  0
LINE
  5
84A2
  8
3
 62
     0
 10
2379.0186947132802
 20
1551.3178795044771
 30
0.0
 11
2404.018694713282
 21
1551.3178795044771
 31
0.0
  0
INSERT
  5
84A3
  8
3
 62
     0
  2
_OPEN
 10
2379.0186947132802
 20
1551.3178795044771
 30
0.0
 41
30.0
 42
30.0
 43
30.0
  0
INSERT
  5
84A4
  8
3
 62
     0
  2
_OPEN
 10
2404.018694713282
 20
1551.3178795044771
 30
0.0
 41
30.0
 42
30.0
 43
30.0
 50
180.0
  0
POINT
  5
84A5
  8
DEFPOINTS
 62
     0
 10
2379.0186947132802
 20
1752.8746258257361
 30
0.0
  0
POINT
  5
84A6
  8
DEFPOINTS
 62
     0
 10
2404.018694713282
 20
1771.9241286463559
 30
0.0
  0
POINT
  5
84A7
  8
DEFPOINTS
 62
     0
 10
2404.018694713282
 20
1551.3178795044771
 30
0.0
  0
ENDBLK
  5
8269
  8
0
  0
BLOCK
  8
0
  2
*D9
 70
     1
 10
0.0
 20
0.0
 30
0.0
  3
*D9
  1

  0
LINE
  5
84A8
  8
3
 62
     0
 10
1869.0186947132811
 20
1745.3746258257361
 30
0.0
 11
1869.0186947132811
 21
1536.317879504476
 31
0.0
  0
LINE
  5
84A9
  8
3
 62
     0
 10
1844.01869471328
 20
1764.4241286463559
 30
0.0
 11
1844.01869471328
 21
1536.317879504476
 31
0.0
  0
LINE
  5
84AA
  8
3
 62
     0
 10
1899.01869471328
 20
1551.3178795044771
 30
0.0
 11
1929.01869471328
 21
1551.3178795044771
 31
0.0
  0
LINE
  5
84AB
  8
3
 62
     0
 10
1814.01869471328
 20
1551.3178795044771
 30
0.0
 11
1784.01869471328
 21
1551.3178795044771
 31
0.0
  0
TEXT
  8
3
  40
45
  5
84E2
  62
0
  72
0
  71
0
 10
1675.79
 20
1507.06
 30
0.000000
  1
25
  0
LINE
  5
84AD
  8
3
 62
     0
 10
1869.0186947132811
 20
1551.3178795044771
 30
0.0
 11
1844.01869471328
 21
1551.3178795044771
 31
0.0
  0
INSERT
  5
84AE
  8
3
 62
     0
  2
_OPEN
 10
1869.0186947132811
 20
1551.3178795044771
 30
0.0
 41
30.0
 42
30.0
 43
30.0
 50
180.0
  0
INSERT
  5
84AF
  8
3
 62
     0
  2
_OPEN
 10
1844.01869471328
 20
1551.3178795044771
 30
0.0
 41
30.0
 42
30.0
 43
30.0
  0
POINT
  5
84B0
  8
DEFPOINTS
 62
     0
 10
1869.0186947132811
 20
1752.8746258257361
 30
0.0
  0
POINT
  5
84B1
  8
DEFPOINTS
 62
     0
 10
1844.01869471328
 20
1771.9241286463559
 30
0.0
  0
POINT
  5
84B2
  8
DEFPOINTS
 62
     0
 10
1844.01869471328
 20
1551.3178795044771
 30
0.0
  0
ENDBLK
  5
827B
  8
0
  0
BLOCK
  8
0
  2
*D10
 70
     1
 10
0.0
 20
0.0
 30
0.0
  3
*D10
  1

  0
LINE
  5
84B3
  8
3
 62
     0
 10
456.69680669518141
 20
1745.3746258257361
 30
0.0
 11
456.69680669518141
 21
1577.308236615266
 31
0.0
  0
LINE
  5
84B4
  8
3
 62
     0
 10
1046.6968066951811
 20
1745.3746258257349
 30
0.0
 11
1046.6968066951811
 21
1577.308236615266
 31
0.0
  0
LINE
  5
84B5
  8
3
 62
     0
 10
486.69680669518129
 20
1592.308236615266
 30
0.0
 11
1016.696806695181
 21
1592.308236615266
 31
0.0
  0
INSERT
  5
84B6
  8
3
 62
     0
  2
_OPEN
 10
456.69680669518141
 20
1592.308236615266
 30
0.0
 41
30.0
 42
30.0
 43
30.0
 50
180.0
  0
INSERT
  5
84B7
  8
3
 62
     0
  2
_OPEN
 10
1046.6968066951811
 20
1592.308236615266
 30
0.0
 41
30.0
 42
30.0
 43
30.0
  0
TEXT
  8
3
  40
45
  5
84E3
  62
0
  72
0
  71
0
 10
650.229
 20
1550.16
 30
0.000000
  1
590
  0
POINT
  5
84B9
  8
DEFPOINTS
 62
     0
 10
456.69680669518141
 20
1752.8746258257361
 30
0.0
  0
POINT
  5
84BA
  8
DEFPOINTS
 62
     0
 10
1046.6968066951811
 20
1752.8746258257361
 30
0.0
  0
POINT
  5
84BB
  8
DEFPOINTS
 62
     0
 10
1046.6968066951811
 20
1592.308236615266
 30
0.0
  0
ENDBLK
  5
829E
  8
0
  0
BLOCK
  8
0
  2
*D11
 70
     1
 10
0.0
 20
0.0
 30
0.0
  3
*D11
  1

  0
LINE
  5
84BC
  8
3
 62
     0
 10
416.69680669518118
 20
1816.9241286463559
 30
0.0
 11
416.69680669518118
 21
1438.9956847559349
 31
0.0
  0
LINE
  5
84BD
  8
3
 62
     0
 10
1086.6968066951811
 20
1816.9241286463559
 30
0.0
 11
1086.6968066951811
 21
1438.9956847559349
 31
0.0
  0
LINE
  5
84BE
  8
3
 62
     0
 10
446.69680669518129
 20
1453.9956847559349
 30
0.0
 11
1056.6968066951811
 21
1453.9956847559349
 31
0.0
  0
INSERT
  5
84BF
  8
3
 62
     0
  2
_OPEN
 10
416.69680669518118
 20
1453.9956847559349
 30
0.0
 41
30.0
 42
30.0
 43
30.0
 50
180.0
  0
INSERT
  5
84C0
  8
3
 62
     0
  2
_OPEN
 10
1086.6968066951811
 20
1453.9956847559349
 30
0.0
 41
30.0
 42
30.0
 43
30.0
  0
TEXT
  8
3
  40
45
  5
84E4
  62
0
  72
0
  71
0
 10
643.739
 20
1411.85
 30
0.000000
  1
670
  0
POINT
  5
84C2
  8
DEFPOINTS
 62
     0
 10
416.69680669518118
 20
1824.4241286463559
 30
0.0
  0
POINT
  5
84C3
  8
DEFPOINTS
 62
     0
 10
1086.6968066951811
 20
1824.4241286463559
 30
0.0
  0
POINT
  5
84C4
  8
DEFPOINTS
 62
     0
 10
1086.6968066951811
 20
1453.9956847559349
 30
0.0
  0
ENDBLK
  5
82AB
  8
0
  0
BLOCK
  8
0
  2
*D12
 70
     1
 10
0.0
 20
0.0
 30
0.0
  3
*D12
  1

  0
LINE
  5
84C5
  8
3
 62
     0
 10
1046.6968066951811
 20
1745.3746258257349
 30
0.0
 11
1046.6968066951811
 21
1577.308236615266
 31
0.0
  0
LINE
  5
84C6
  8
3
 62
     0
 10
1086.6968066951811
 20
1816.9241286463559
 30
0.0
 11
1086.6968066951811
 21
1577.308236615266
 31
0.0
  0
LINE
  5
84C7
  8
3
 62
     0
 10
1016.696806695181
 20
1592.308236615266
 30
0.0
 11
986.69680669518118
 21
1592.308236615266
 31
0.0
  0
LINE
  5
84C8
  8
3
 62
     0
 10
1116.6968066951811
 20
1592.308236615266
 30
0.0
 11
1146.6968066951811
 21
1592.308236615266
 31
0.0
  0
TEXT
  8
3
  40
45
  5
84E5
  62
0
  72
0
  71
0
 10
1078.56
 20
1548.00
 30
0.000000
  1
40
  0
LINE
  5
84CA
  8
3
 62
     0
 10
1046.6968066951811
 20
1592.308236615266
 30
0.0
 11
1086.6968066951811
 21
1592.308236615266
 31
0.0
  0
INSERT
  5
84CB
  8
3
 62
     0
  2
_OPEN
 10
1046.6968066951811
 20
1592.308236615266
 30
0.0
 41
30.0
 42
30.0
 43
30.0
  0
INSERT
  5
84CC
  8
3
 62
     0
  2
_OPEN
 10
1086.6968066951811
 20
1592.308236615266
 30
0.0
 41
30.0
 42
30.0
 43
30.0
 50
180.0
  0
POINT
  5
84CD
  8
DEFPOINTS
 62
     0
 10
1046.6968066951811
 20
1752.8746258257361
 30
0.0
  0
POINT
  5
84CE
  8
DEFPOINTS
 62
     0
 10
1086.6968066951811
 20
1824.4241286463559
 30
0.0
  0
POINT
  5
84CF
  8
DEFPOINTS
 62
     0
 10
1086.6968066951811
 20
1592.308236615266
 30
0.0
  0
ENDBLK
  5
82BD
  8
0
  0
BLOCK
  8
0
  2
*D13
 70
     1
 10
0.0
 20
0.0
 30
0.0
  3
*D13
  1

  0
LINE
  5
84D0
  8
3
 62
     0
 10
456.69680669518141
 20
1745.3746258257361
 30
0.0
 11
456.69680669518141
 21
1577.308236615266
 31
0.0
  0
LINE
  5
84D1
  8
3
 62
     0
 10
416.69680669518118
 20
1816.9241286463559
 30
0.0
 11
416.69680669518118
 21
1577.308236615266
 31
0.0
  0
LINE
  5
84D2
  8
3
 62
     0
 10
486.69680669518129
 20
1592.308236615266
 30
0.0
 11
516.69680669518141
 21
1592.308236615266
 31
0.0
  0
LINE
  5
84D3
  8
3
 62
     0
 10
386.69680669518118
 20
1592.308236615266
 30
0.0
 11
356.69680669518129
 21
1592.308236615266
 31
0.0
  0
TEXT
  8
3
  40
45
  5
84E6
  62
0
  72
0
  71
0
 10
245.697
 20
1550.16
 30
0.000000
  1
40
  0
LINE
  5
84D5
  8
3
 62
     0
 10
456.69680669518141
 20
1592.308236615266
 30
0.0
 11
416.69680669518118
 21
1592.308236615266
 31
0.0
  0
INSERT
  5
84D6
  8
3
 62
     0
  2
_OPEN
 10
456.69680669518141
 20
1592.308236615266
 30
0.0
 41
30.0
 42
30.0
 43
30.0
 50
180.0
  0
INSERT
  5
84D7
  8
3
 62
     0
  2
_OPEN
 10
416.69680669518118
 20
1592.308236615266
 30
0.0
 41
30.0
 42
30.0
 43
30.0
  0
POINT
  5
84D8
  8
DEFPOINTS
 62
     0
 10
456.69680669518141
 20
1752.8746258257361
 30
0.0
  0
POINT
  5
84D9
  8
DEFPOINTS
 62
     0
 10
416.69680669518118
 20
1824.4241286463559
 30
0.0
  0
POINT
  5
84DA
  8
DEFPOINTS
 62
     0
 10
416.69680669518118
 20
1592.308236615266
 30
0.0
  0
ENDBLK
  5
82CF
  8
0
  0
ENDSEC
  0
SECTION
  2
ENTITIES
  0
LINE
  5
7D06
  8
2
 10
1754.01869471328
 20
2179.4241286463562
 30
0.0
 11
2494.0186947132811
 21
2179.4241286463562
 31
0.0
  0
LINE
  5
7D08
  8
1
 10
376.69680669518118
 20
2494.4241286463571
 30
0.0
 11
413.69680669518129
 21
2494.4241286463571
 31
0.0
  0
LINE
  5
7D09
  8
1
 10
409.19680669518118
 20
2497.4241286463571
 30
0.0
 11
378.69680669518118
 21
2497.4241286463571
 31
0.0
  0
LINE
  5
7D0A
  8
1
 10
376.69680669518118
 20
1864.4241286463559
 30
0.0
 11
413.69680669518129
 21
1864.4241286463559
 31
0.0
  0
LINE
  5
7D0B
  8
1
 10
409.19680669518118
 20
1861.4241286463559
 30
0.0
 11
378.69680669518118
 21
1861.4241286463559
 31
0.0
  0
LINE
  5
7D0C
  8
2
 10
290.0727863049342
 20
2179.4241286463562
 30
0.0
 11
1165.155136004905
 21
2179.4241286463562
 31
0.0
  0
LINE
  5
7D0D
  8
1
 10
376.69680669518118
 20
2494.4241286463571
 30
0.0
 11
376.69680669518118
 21
1864.4241286463559
 31
0.0
  0
LINE
  5
7D0E
  8
1
 10
376.69680669518118
 20
1863.4241286463559
 30
0.0
 11
376.69680669518118
 21
1864.4241286463559
 31
0.0
  0
ARC
  5
7D0F
  8
1
 10
378.69680669518118
 20
1863.4241286463559
 30
0.0
 40
2.0
 50
180.0
 51
270.0
  0
ARC
  5
7D10
  8
1
 10
378.69680669518118
 20
2495.4241286463571
 30
0.0
 40
2.0
 50
90.0
 51
180.0
  0
LINE
  5
7D11
  8
1
 10
376.69680669518118
 20
2495.4241286463571
 30
0.0
 11
376.69680669518118
 21
2494.4241286463571
 31
0.0
  0
LINE
  5
7D12
  8
1
 10
923.69680669518129
 20
2628.4241286463562
 30
0.0
 11
923.69680669518129
 21
2104.4241286463562
 31
0.0
  0
LINE
  5
7D13
  8
1
 10
986.69680669518118
 20
2628.4241286463562
 30
0.0
 11
986.69680669518118
 21
2104.4241286463562
 31
0.0
  0
LINE
  5
7D14
  8
1
 10
1126.6968066951811
 20
2494.4241286463571
 30
0.0
 11
1126.6968066951811
 21
1864.4241286463559
 31
0.0
  0
LINE
  5
7D15
  8
1
 10
1086.6968066951811
 20
2534.4241286463571
 30
0.0
 11
1086.6968066951811
 21
1824.4241286463559
 31
0.0
  0
LINE
  5
7D16
  8
1
 10
1083.4968066951801
 20
2535.6241286463569
 30
0.0
 11
1083.4968066951801
 21
1824.4241286463559
 31
0.0
  0
LINE
  5
7D17
  8
1
 10
419.89680669518191
 20
2534.4241286463571
 30
0.0
 11
419.89680669518191
 21
1824.4241286463559
 31
0.0
  0
LINE
  5
7D18
  8
1
 10
416.69680669518118
 20
2534.4241286463571
 30
0.0
 11
416.69680669518118
 21
1824.4241286463559
 31
0.0
  0
LINE
  5
7D19
  8
1
 10
416.69680669518118
 20
2534.4241286463571
 30
0.0
 11
416.69680669518118
 21
1824.4241286463559
 31
0.0
  0
LINE
  5
7D1A
  8
1
 10
413.69680669518129
 20
2532.4241286463571
 30
0.0
 11
413.69680669518129
 21
1826.4241286463559
 31
0.0
  0
LINE
  5
7D1B
  8
1
 10
1089.6968066951811
 20
2532.4241286463571
 30
0.0
 11
1089.6968066951811
 21
1826.4241286463559
 31
0.0
  0
LINE
  5
7D1C
  8
1
 10
1086.6968066951811
 20
2534.4241286463571
 30
0.0
 11
1086.6968066951811
 21
1824.4241286463559
 31
0.0
  0
LINE
  5
7D1E
  8
1
 10
416.69680669518118
 20
1864.4241286463559
 30
0.0
 11
1086.6968066951811
 21
1864.4241286463559
 31
0.0
  0
LINE
  5
7D1F
  8
1
 10
419.89680669518191
 20
1949.4241286463559
 30
0.0
 11
419.89680669518191
 21
1779.4241286463559
 31
0.0
  0
LINE
  5
7D20
  8
1
 10
424.39680669518202
 20
1949.4241286463559
 30
0.0
 11
424.39680669518202
 21
1783.9241286463559
 31
0.0
  0
LINE
  5
7D21
  8
1
 10
479.89680669518202
 20
1779.424128646355
 30
0.0
 11
419.89680669518191
 21
1779.4241286463559
 31
0.0
  0
LINE
  5
7D22
  8
1
 10
479.89680669518202
 20
1783.924128646355
 30
0.0
 11
424.39680669518202
 21
1783.9241286463559
 31
0.0
  0
LINE
  5
7D23
  8
2
 10
402.12606350459089
 20
1841.9241286463559
 30
0.0
 11
436.0835256945283
 21
1841.9241286463559
 31
0.0
  0
LINE
  5
7D24
  8
1
 10
419.89680669518191
 20
1824.4241286463559
 30
0.0
 11
416.69680669518118
 21
1824.4241286463559
 31
0.0
  0
ARC
  5
7D25
  8
1
 10
415.69680669518118
 20
1826.4241286463559
 30
0.0
 40
2.0
 50
180.0
 51
270.0
  0
LINE
  5
7D26
  8
1
 10
416.69680669518118
 20
1824.4241286463559
 30
0.0
 11
415.69680669518118
 21
1824.4241286463559
 31
0.0
  0
LINE
  5
7D27
  8
1
 10
479.89680669518202
 20
1783.924128646355
 30
0.0
 11
479.89680669518202
 21
1779.4241286463559
 31
0.0
  0
LINE
  5
7D28
  8
1
 10
424.39680669518202
 20
1939.4241286463559
 30
0.0
 11
419.89680669518191
 21
1939.4241286463559
 31
0.0
  0
ARC
  5
7D29
  8
1
 10
409.19680669518118
 20
1856.9241286463559
 30
0.0
 40
4.5
 50
0.0
 51
90.0
  0
LINE
  5
7D2A
  8
1
 10
424.39680669518202
 20
1949.4241286463559
 30
0.0
 11
419.89680669518191
 21
1949.4241286463559
 31
0.0
  0
LINE
  5
7D2B
  8
1
 10
1126.6968066951811
 20
1864.4241286463559
 30
0.0
 11
1089.6968066951811
 21
1864.4241286463559
 31
0.0
  0
LINE
  5
7D2C
  8
1
 10
1094.1968066951811
 20
1861.4241286463559
 30
0.0
 11
1124.6968066951811
 21
1861.4241286463559
 31
0.0
  0
LINE
  5
7D2D
  8
2
 10
1066.977526342554
 20
1841.9241286463559
 30
0.0
 11
1104.5094640269961
 21
1841.9241286463559
 31
0.0
  0
LINE
  5
7D2E
  8
1
 10
1078.9968066951819
 20
1949.4241286463559
 30
0.0
 11
1078.9968066951819
 21
1783.9241286463559
 31
0.0
  0
LINE
  5
7D2F
  8
1
 10
1083.4968066951801
 20
1949.4241286463559
 30
0.0
 11
1083.4968066951819
 21
1779.4241286463559
 31
0.0
  0
LINE
  5
7D30
  8
1
 10
1023.496806695182
 20
1783.924128646355
 30
0.0
 11
1078.9968066951819
 21
1783.9241286463559
 31
0.0
  0
LINE
  5
7D31
  8
1
 10
1023.496806695182
 20
1779.424128646355
 30
0.0
 11
1083.4968066951819
 21
1779.4241286463559
 31
0.0
  0
LINE
  5
7D32
  8
1
 10
1023.496806695182
 20
1783.924128646355
 30
0.0
 11
1023.496806695182
 21
1779.4241286463559
 31
0.0
  0
LINE
  5
7D33
  8
1
 10
1086.6968066951811
 20
1824.4241286463559
 30
0.0
 11
1087.6968066951811
 21
1824.4241286463559
 31
0.0
  0
ARC
  5
7D34
  8
1
 10
1087.6968066951811
 20
1826.4241286463559
 30
0.0
 40
2.0
 50
270.0
 51
0.0
  0
LINE
  5
7D35
  8
1
 10
1083.4968066951801
 20
1824.4241286463559
 30
0.0
 11
1086.6968066951811
 21
1824.4241286463559
 31
0.0
  0
LINE
  5
7D36
  8
1
 10
1078.9968066951819
 20
1939.4241286463559
 30
0.0
 11
1083.4968066951819
 21
1939.4241286463559
 31
0.0
  0
ARC
  5
7D37
  8
1
 10
1094.1968066951811
 20
1856.9241286463559
 30
0.0
 40
4.5
 50
90.0
 51
180.0
  0
LINE
  5
7D38
  8
1
 10
923.69680669518129
 20
2104.4241286463562
 30
0.0
 11
986.69680669518118
 21
2104.4241286463562
 31
0.0
  0
LINE
  5
7D39
  8
1
 10
1078.9968066951819
 20
1949.4241286463559
 30
0.0
 11
1083.4968066951819
 21
1949.4241286463559
 31
0.0
  0
ARC
  5
7D3A
  8
1
 10
1124.6968066951811
 20
1863.4241286463559
 30
0.0
 40
2.0
 50
270.0
 51
0.0
  0
LINE
  5
7D3B
  8
1
 10
1126.6968066951811
 20
1863.4241286463559
 30
0.0
 11
1126.6968066951811
 21
1864.4241286463559
 31
0.0
  0
LINE
  5
7D3D
  8
1
 10
1026.6968066951811
 20
2831.4241286463562
 30
0.0
 11
1026.6968066951811
 21
2497.6241286463569
 31
0.0
  0
LINE
  5
7D3E
  8
1
 10
886.69680669518118
 20
2831.4241286463562
 30
0.0
 11
886.69680669518118
 21
2497.6241286463569
 31
0.0
  0
LINE
  5
7D3F
  8
1
 10
493.69680669518129
 20
2565.4241286463562
 30
0.0
 11
869.69680669518129
 21
2565.4241286463562
 31
0.0
  0
LINE
  5
7D40
  8
1
 10
493.69680669518129
 20
2571.4241286463562
 30
0.0
 11
869.69680669518129
 21
2571.4241286463562
 31
0.0
  0
LINE
  5
7D41
  8
1
 10
1046.6968066951811
 20
2461.4241286463562
 30
0.0
 11
456.69680669518129
 21
2461.4241286463562
 31
0.0
  0
LINE
  5
7D42
  8
1
 10
1046.6968066951811
 20
2417.4241286463562
 30
0.0
 11
456.69680669518129
 21
2417.4241286463562
 31
0.0
  0
LINE
  5
7D44
  8
1
 10
416.69680669518118
 20
2494.4241286463562
 30
0.0
 11
1086.6968066951811
 21
2494.4241286463571
 31
0.0
  0
LINE
  5
7D46
  8
1
 10
456.69680669518129
 20
2461.4241286463562
 30
0.0
 11
456.69680669518129
 21
2417.4241286463562
 31
0.0
  0
LINE
  5
7D47
  8
1
 10
581.34859321359897
 20
2571.4241286463562
 30
0.0
 11
687.84859321359909
 21
2571.4241286463562
 31
0.0
  0
LINE
  5
7D48
  8
1
 10
529.89680669518202
 20
2621.4241286463562
 30
0.0
 11
529.89680669518202
 21
2581.4241286463562
 31
0.0
  0
LINE
  5
7D49
  8
1
 10
528.69680669518118
 20
2620.4241286463562
 30
0.0
 11
528.69680669518118
 21
2581.4241286463562
 31
0.0
  0
LINE
  5
7D4A
  8
1
 10
543.49680669518239
 20
2621.4241286463571
 30
0.0
 11
543.49680669518239
 21
2581.4241286463562
 31
0.0
  0
LINE
  5
7D4B
  8
1
 10
544.69680669518129
 20
2620.4241286463571
 30
0.0
 11
544.69680669518129
 21
2581.4241286463562
 31
0.0
  0
LINE
  5
7D4C
  8
2
 10
536.69680669518118
 20
2628.675342072795
 30
0.0
 11
536.69680669518118
 21
2461.4241286463571
 31
0.0
  0
LINE
  5
7D4D
  8
1
 10
536.69680669518118
 20
2628.675342072795
 30
0.0
 11
536.69680669518118
 21
2461.4241286463562
 31
0.0
  0
LINE
  5
7D4E
  8
1
 10
402.12606350459089
 20
2516.9241286463571
 30
0.0
 11
436.0835256945283
 21
2516.9241286463571
 31
0.0
  0
ARC
  5
7D4F
  8
1
 10
409.19680669518118
 20
2501.9241286463571
 30
0.0
 40
4.5
 50
270.0
 51
0.0
  0
LINE
  5
7D50
  8
1
 10
419.89680669518191
 20
2534.4241286463571
 30
0.0
 11
416.69680669518118
 21
2534.4241286463571
 31
0.0
  0
LINE
  5
7D51
  8
1
 10
416.69680669518118
 20
2534.4241286463571
 30
0.0
 11
415.69680669518118
 21
2534.4241286463571
 31
0.0
  0
ARC
  5
7D52
  8
1
 10
415.69680669518118
 20
2532.4241286463571
 30
0.0
 40
2.0
 50
90.0
 51
180.0
  0
ARC
  5
7D53
  8
1
 10
493.69680669518129
 20
2564.4241286463562
 30
0.0
 40
7.0
 50
90.0
 51
180.0
  0
ARC
  5
7D54
  8
1
 10
493.69680669518129
 20
2564.4241286463562
 30
0.0
 40
1.0
 50
90.0
 51
180.0
  0
LINE
  5
7D55
  8
1
 10
486.69680669518118
 20
2536.4241286463562
 30
0.0
 11
492.69680669518129
 21
2536.4241286463562
 31
0.0
  0
LINE
  5
7D56
  8
1
 10
492.69680669518129
 20
2564.4241286463562
 30
0.0
 11
492.69680669518129
 21
2536.4241286463562
 31
0.0
  0
LINE
  5
7D57
  8
1
 10
486.69680669518118
 20
2564.4241286463562
 30
0.0
 11
486.69680669518118
 21
2536.4241286463562
 31
0.0
  0
LINE
  5
7D58
  8
1
 10
528.69680669518118
 20
2555.4241286463562
 30
0.0
 11
528.69680669518118
 21
2461.4241286463571
 31
0.0
  0
LINE
  5
7D59
  8
1
 10
529.89680669518202
 20
2555.4241286463562
 30
0.0
 11
529.89680669518202
 21
2461.4241286463571
 31
0.0
  0
LINE
  5
7D5A
  8
1
 10
543.49680669518239
 20
2555.4241286463562
 30
0.0
 11
543.49680669518239
 21
2461.4241286463571
 31
0.0
  0
LINE
  5
7D5B
  8
1
 10
544.69680669518129
 20
2555.4241286463562
 30
0.0
 11
544.69680669518129
 21
2461.4241286463571
 31
0.0
  0
LINE
  5
7D5C
  8
1
 10
523.99510077301045
 20
2565.4241286463562
 30
0.0
 11
523.99510077301045
 21
2556.6952841531988
 31
0.0
  0
LINE
  5
7D5D
  8
1
 10
523.99510077301045
 20
2571.4241286463562
 30
0.0
 11
523.99510077301045
 21
2580.152973139514
 31
0.0
  0
ARC
  5
7D5E
  8
1
 10
536.69680669518118
 20
2565.19130116614
 30
0.0
 40
16.253767611608801
 50
67.000000000002444
 51
113.0000000000004
  0
POLYLINE
  5
7D5F
  8
1
 66
     1
 10
0.0
 20
0.0
 30
0.0
  0
VERTEX
  5
8459
  8
1
 10
526.19680669518129
 20
2581.4241286463562
 30
0.0
  0
VERTEX
  5
845A
  8
1
 10
547.19680669518129
 20
2581.4241286463562
 30
0.0
  0
SEQEND
  5
845B
  8
1
  0
POLYLINE
  5
7D63
  8
1
 66
     1
 10
0.0
 20
0.0
 30
0.0
  0
VERTEX
  5
845C
  8
1
 10
526.19680669518129
 20
2555.4241286463562
 30
0.0
  0
VERTEX
  5
845D
  8
1
 10
547.19680669518129
 20
2555.4241286463562
 30
0.0
  0
SEQEND
  5
845E
  8
1
  0
ARC
  5
7D67
  8
1
 10
536.69680669518118
 20
2571.6569561265728
 30
0.0
 40
16.253767611608801
 50
246.9999999999996
 51
292.9999999999975
  0
ARC
  5
7D68
  8
1
 10
546.22308613681162
 20
2576.9775466589708
 30
0.0
 40
4.4907311951024482
 50
45.000000000000988
 51
135.00000000000091
  0
LINE
  5
7D69
  8
1
 10
547.19680669518129
 20
2581.4241286463562
 30
0.0
 11
549.39851261735384
 21
2580.152973139514
 31
0.0
  0
LINE
  5
7D6A
  8
1
 10
543.04765965626927
 20
2556.6952841531988
 30
0.0
 11
543.04765965626927
 21
2565.4241286463562
 31
0.0
  0
LINE
  5
7D6B
  8
1
 10
549.39851261735384
 20
2556.6952841531988
 30
0.0
 11
549.39851261735384
 21
2565.4241286463562
 31
0.0
  0
LINE
  5
7D6C
  8
1
 10
549.39851261735384
 20
2580.152973139514
 30
0.0
 11
549.39851261735384
 21
2571.4241286463562
 31
0.0
  0
LINE
  5
7D6D
  8
1
 10
543.04765965626927
 20
2580.1529731395131
 30
0.0
 11
543.04765965626927
 21
2571.4241286463562
 31
0.0
  0
LINE
  5
7D6E
  8
1
 10
547.19680669518129
 20
2555.4241286463562
 30
0.0
 11
549.39851261735384
 21
2556.6952841531988
 31
0.0
  0
ARC
  5
7D6F
  8
1
 10
546.22308613681162
 20
2559.870710633742
 30
0.0
 40
4.4907311951024482
 50
224.99999999999901
 51
314.99999999999898
  0
LINE
  5
7D70
  8
1
 10
530.34595373409684
 20
2556.6952841531988
 30
0.0
 11
530.34595373409684
 21
2565.4241286463562
 31
0.0
  0
LINE
  5
7D71
  8
1
 10
530.34595373409684
 20
2580.1529731395131
 30
0.0
 11
530.34595373409684
 21
2571.4241286463562
 31
0.0
  0
LINE
  5
7D72
  8
1
 10
526.19680669518129
 20
2581.4241286463562
 30
0.0
 11
523.99510077301045
 21
2580.152973139514
 31
0.0
  0
ARC
  5
7D73
  8
1
 10
527.1705272535545
 20
2576.9775466589708
 30
0.0
 40
4.4907311951024482
 50
44.999999999998998
 51
134.99999999999889
  0
ARC
  5
7D74
  8
1
 10
527.1705272535545
 20
2559.870710633742
 30
0.0
 40
4.4907311951024482
 50
225.00000000000099
 51
315.00000000000091
  0
LINE
  5
7D75
  8
1
 10
526.19680669518129
 20
2555.4241286463562
 30
0.0
 11
523.99510077301045
 21
2556.6952841531988
 31
0.0
  0
LINE
  5
7D76
  8
1
 10
544.69680669518129
 20
2620.4241286463571
 30
0.0
 11
528.69680669518118
 21
2620.4241286463562
 31
0.0
  0
LINE
  5
7D77
  8
1
 10
529.69680669518118
 20
2621.4241286463562
 30
0.0
 11
543.69680669518129
 21
2621.4241286463571
 31
0.0
  0
LINE
  5
7D78
  8
1
 10
543.69680669518129
 20
2621.4241286463571
 30
0.0
 11
544.69680669518129
 21
2620.4241286463571
 31
0.0
  0
LINE
  5
7D79
  8
1
 10
529.69680669518118
 20
2621.4241286463562
 30
0.0
 11
528.69680669518118
 21
2620.4241286463562
 31
0.0
  0
LINE
  5
7D7A
  8
1
 10
818.69680669518129
 20
2620.4241286463562
 30
0.0
 11
818.69680669518129
 21
2581.4241286463562
 31
0.0
  0
LINE
  5
7D7B
  8
1
 10
819.89680669518202
 20
2621.4241286463562
 30
0.0
 11
819.89680669518202
 21
2581.4241286463562
 31
0.0
  0
LINE
  5
7D7C
  8
1
 10
834.69680669518129
 20
2620.4241286463571
 30
0.0
 11
834.69680669518129
 21
2581.4241286463562
 31
0.0
  0
LINE
  5
7D7D
  8
1
 10
833.49680669518227
 20
2621.4241286463571
 30
0.0
 11
833.49680669518045
 21
2581.4241286463562
 31
0.0
  0
LINE
  5
7D7E
  8
2
 10
826.69680669518129
 20
2628.675342072795
 30
0.0
 11
826.69680669518129
 21
2461.4241286463571
 31
0.0
  0
LINE
  5
7D7F
  8
1
 10
826.69680669518129
 20
2628.675342072795
 30
0.0
 11
826.69680669518129
 21
2461.4241286463562
 31
0.0
  0
LINE
  5
7D80
  8
1
 10
794.34859321359909
 20
2571.4241286463562
 30
0.0
 11
687.84859321359909
 21
2571.4241286463562
 31
0.0
  0
LINE
  5
7D81
  8
1
 10
834.69680669518129
 20
2555.4241286463562
 30
0.0
 11
834.69680669518311
 21
2461.4241286463571
 31
0.0
  0
LINE
  5
7D82
  8
1
 10
818.69680669518129
 20
2555.4241286463562
 30
0.0
 11
818.696806695183
 21
2461.4241286463571
 31
0.0
  0
LINE
  5
7D83
  8
1
 10
819.89680669518202
 20
2555.4241286463562
 30
0.0
 11
819.89680669518202
 21
2461.4241286463571
 31
0.0
  0
LINE
  5
7D84
  8
1
 10
833.49680669518227
 20
2555.4241286463562
 30
0.0
 11
833.49680669518227
 21
2461.4241286463571
 31
0.0
  0
POLYLINE
  5
7D85
  8
1
 66
     1
 10
0.0
 20
0.0
 30
0.0
  0
VERTEX
  5
845F
  8
1
 10
816.19680669518118
 20
2581.4241286463562
 30
0.0
  0
VERTEX
  5
8460
  8
1
 10
837.19680669518129
 20
2581.4241286463562
 30
0.0
  0
SEQEND
  5
8461
  8
1
  0
ARC
  5
7D89
  8
1
 10
826.69680669518129
 20
2565.19130116614
 30
0.0
 40
16.253767611608801
 50
67.000000000002444
 51
113.0000000000004
  0
POLYLINE
  5
7D8A
  8
1
 66
     1
 10
0.0
 20
0.0
 30
0.0
  0
VERTEX
  5
8462
  8
1
 10
816.19680669518118
 20
2555.4241286463562
 30
0.0
  0
VERTEX
  5
8463
  8
1
 10
837.19680669518129
 20
2555.4241286463562
 30
0.0
  0
SEQEND
  5
8464
  8
1
  0
ARC
  5
7D8E
  8
1
 10
826.69680669518129
 20
2571.6569561265728
 30
0.0
 40
16.253767611608801
 50
246.9999999999996
 51
292.9999999999975
  0
LINE
  5
7D8F
  8
1
 10
837.19680669518129
 20
2581.4241286463562
 30
0.0
 11
839.39851261735384
 21
2580.152973139514
 31
0.0
  0
ARC
  5
7D90
  8
1
 10
836.22308613681162
 20
2576.9775466589708
 30
0.0
 40
4.4907311951024482
 50
45.000000000000988
 51
135.00000000000091
  0
LINE
  5
7D91
  8
1
 10
839.39851261735384
 20
2556.6952841531988
 30
0.0
 11
839.39851261735384
 21
2565.4241286463562
 31
0.0
  0
LINE
  5
7D92
  8
1
 10
833.04765965626927
 20
2556.6952841531988
 30
0.0
 11
833.04765965626927
 21
2565.4241286463562
 31
0.0
  0
LINE
  5
7D93
  8
1
 10
833.04765965626927
 20
2580.1529731395131
 30
0.0
 11
833.04765965626927
 21
2571.4241286463562
 31
0.0
  0
LINE
  5
7D94
  8
1
 10
839.39851261735384
 20
2580.152973139514
 30
0.0
 11
839.39851261735384
 21
2571.4241286463562
 31
0.0
  0
ARC
  5
7D95
  8
1
 10
836.22308613681162
 20
2559.870710633742
 30
0.0
 40
4.4907311951024482
 50
224.99999999999901
 51
314.99999999999898
  0
LINE
  5
7D96
  8
1
 10
837.19680669518129
 20
2555.4241286463562
 30
0.0
 11
839.39851261735384
 21
2556.6952841531988
 31
0.0
  0
ARC
  5
7D97
  8
1
 10
817.1705272535545
 20
2576.9775466589708
 30
0.0
 40
4.4907311951024482
 50
44.999999999998998
 51
134.99999999999889
  0
LINE
  5
7D98
  8
1
 10
816.19680669518118
 20
2581.4241286463562
 30
0.0
 11
813.99510077301056
 21
2580.152973139514
 31
0.0
  0
LINE
  5
7D99
  8
1
 10
813.99510077301056
 20
2565.4241286463562
 30
0.0
 11
813.99510077301056
 21
2556.6952841531988
 31
0.0
  0
LINE
  5
7D9A
  8
1
 10
820.34595373409684
 20
2556.6952841531988
 30
0.0
 11
820.34595373409684
 21
2565.4241286463562
 31
0.0
  0
LINE
  5
7D9B
  8
1
 10
820.34595373409684
 20
2580.1529731395131
 30
0.0
 11
820.34595373409684
 21
2571.4241286463562
 31
0.0
  0
LINE
  5
7D9C
  8
1
 10
813.99510077301056
 20
2571.4241286463562
 30
0.0
 11
813.99510077301056
 21
2580.152973139514
 31
0.0
  0
LINE
  5
7D9D
  8
1
 10
816.19680669518118
 20
2555.4241286463562
 30
0.0
 11
813.99510077301056
 21
2556.6952841531988
 31
0.0
  0
ARC
  5
7D9E
  8
1
 10
817.1705272535545
 20
2559.870710633742
 30
0.0
 40
4.4907311951024482
 50
225.00000000000099
 51
315.00000000000091
  0
LINE
  5
7D9F
  8
1
 10
819.69680669518129
 20
2621.4241286463562
 30
0.0
 11
833.69680669518129
 21
2621.4241286463571
 31
0.0
  0
LINE
  5
7DA0
  8
1
 10
834.69680669518129
 20
2620.4241286463571
 30
0.0
 11
818.69680669518129
 21
2620.4241286463562
 31
0.0
  0
LINE
  5
7DA1
  8
1
 10
833.69680669518129
 20
2621.4241286463571
 30
0.0
 11
834.69680669518129
 21
2620.4241286463571
 31
0.0
  0
LINE
  5
7DA2
  8
1
 10
819.69680669518129
 20
2621.4241286463562
 30
0.0
 11
818.69680669518129
 21
2620.4241286463562
 31
0.0
  0
LINE
  5
7DA3
  8
1
 10
1046.6968066951811
 20
2461.4241286463562
 30
0.0
 11
1046.6968066951811
 21
2417.4241286463562
 31
0.0
  0
LINE
  5
7DA4
  8
1
 10
923.69680669518129
 20
2254.4241286463562
 30
0.0
 11
986.69680669518118
 21
2254.4241286463562
 31
0.0
  0
LINE
  5
7DA5
  8
1
 10
1066.977526342554
 20
2516.9241286463571
 30
0.0
 11
1104.5094640269961
 21
2516.9241286463571
 31
0.0
  0
LINE
  5
7DA6
  8
1
 10
1126.6968066951811
 20
2494.4241286463571
 30
0.0
 11
1089.6968066951811
 21
2494.4241286463571
 31
0.0
  0
LINE
  5
7DA7
  8
1
 10
1094.1968066951811
 20
2497.4241286463571
 30
0.0
 11
1124.6968066951811
 21
2497.4241286463571
 31
0.0
  0
LINE
  5
7DA8
  8
1
 10
1014.696806695181
 20
2461.4241286463571
 30
0.0
 11
931.69680669518141
 21
2611.4241286463571
 31
0.0
  0
LINE
  5
7DA9
  8
1
 10
881.19680669518129
 20
2461.4241286463562
 30
0.0
 11
881.19680669518129
 21
2611.4241286463571
 31
0.0
  0
LINE
  5
7DAA
  8
1
 10
876.69680669518129
 20
2461.4241286463562
 30
0.0
 11
876.69680669518129
 21
2611.4241286463571
 31
0.0
  0
LINE
  5
7DAB
  8
1
 10
876.69680669518129
 20
2611.4241286463571
 30
0.0
 11
931.69680669518141
 21
2611.4241286463571
 31
0.0
  0
ARC
  5
7DAC
  8
1
 10
869.69680669518129
 20
2564.4241286463562
 30
0.0
 40
7.0
 50
359.99999999999989
 51
89.999999999999986
  0
ARC
  5
7DAD
  8
1
 10
869.69680669518129
 20
2564.4241286463562
 30
0.0
 40
1.0
 50
0.0
 51
90.0
  0
LINE
  5
7DAE
  8
1
 10
870.69680669518118
 20
2536.4241286463562
 30
0.0
 11
876.69680669518129
 21
2536.4241286463562
 31
0.0
  0
LINE
  5
7DAF
  8
1
 10
870.69680669518118
 20
2564.4241286463562
 30
0.0
 11
870.69680669518118
 21
2536.4241286463562
 31
0.0
  0
LINE
  5
7DB0
  8
1
 10
876.69680669518129
 20
2564.4241286463562
 30
0.0
 11
876.69680669518129
 21
2536.4241286463562
 31
0.0
  0
ARC
  5
7DB2
  8
1
 10
1094.1968066951811
 20
2501.9241286463571
 30
0.0
 40
4.5
 50
180.0
 51
270.0
  0
ARC
  5
7DB3
  8
1
 10
1087.6968066951811
 20
2532.4241286463571
 30
0.0
 40
2.0
 50
0.0
 51
90.0
  0
LINE
  5
7DB4
  8
1
 10
1086.6968066951811
 20
2534.4241286463571
 30
0.0
 11
1087.6968066951811
 21
2534.4241286463571
 31
0.0
  0
LINE
  5
7DB5
  8
1
 10
1083.4968066951801
 20
2534.4241286463571
 30
0.0
 11
1086.6968066951811
 21
2534.4241286463571
 31
0.0
  0
LINE
  5
7DB6
  8
1
 10
923.69680669518129
 20
2628.4241286463562
 30
0.0
 11
986.69680669518118
 21
2628.4241286463562
 31
0.0
  0
LINE
  5
7DB7
  8
1
 10
923.69680669518129
 20
2778.4241286463562
 30
0.0
 11
986.69680669518118
 21
2778.4241286463562
 31
0.0
  0
LINE
  5
7DB8
  8
1
 10
923.69680669518129
 20
2778.4241286463562
 30
0.0
 11
923.69680669518129
 21
2628.4241286463562
 31
0.0
  0
LINE
  5
7DB9
  8
1
 10
986.69680669518118
 20
2778.4241286463562
 30
0.0
 11
986.69680669518118
 21
2628.4241286463562
 31
0.0
  0
ARC
  5
7DBA
  8
1
 10
1124.6968066951811
 20
2495.4241286463571
 30
0.0
 40
2.0
 50
0.0
 51
90.0
  0
LINE
  5
7DBB
  8
1
 10
1126.6968066951811
 20
2495.4241286463571
 30
0.0
 11
1126.6968066951811
 21
2494.4241286463571
 31
0.0
  0
LINE
  5
7DBC
  8
1
 10
1026.6968066951811
 20
2831.4241286463562
 30
0.0
 11
886.69680669518118
 21
2831.4241286463562
 31
0.0
  0
POINT
  5
7DBD
  8
1
 10
1754.01869471328
 20
2179.4241286463562
 30
0.0
  0
CIRCLE
  5
7DBE
  8
1
 10
2124.0186947132802
 20
2179.4241286463562
 30
0.0
 40
75.0
  0
CIRCLE
  5
7DBF
  8
1
 10
2124.0186947132802
 20
2179.4241286463562
 30
0.0
 40
315.0
  0
CIRCLE
  5
7DC0
  8
1
 10
2124.0186947132802
 20
2179.4241286463562
 30
0.0
 40
355.0
  0
LINE
  5
7DC1
  8
2
 10
2124.0186947132802
 20
2935.1929110517131
 30
0.0
 11
2124.0186947132802
 21
1743.695748844164
 31
0.0
  0
LINE
  5
7DC3
  8
1
 10
1844.01869471328
 20
1779.4241286463559
 30
0.0
 11
2404.018694713282
 21
1779.4241286463559
 31
0.0
  0
LINE
  5
7DC5
  8
1
 10
1844.01869471328
 20
1939.4241286463559
 30
0.0
 11
1855.890551122749
 21
1946.760640718629
 31
0.0
  0
LINE
  5
7DC6
  8
1
 10
1844.01869471328
 20
1939.4241286463559
 30
0.0
 11
1844.01869471328
 21
1779.4241286463559
 31
0.0
  0
LINE
  5
7DC8
  8
1
 10
2404.018694713282
 20
1939.4241286463559
 30
0.0
 11
2392.1468383038118
 21
1946.760640718629
 31
0.0
  0
LINE
  5
7DC9
  8
1
 10
2404.018694713282
 20
1939.4241286463559
 30
0.0
 11
2404.018694713282
 21
1779.4241286463559
 31
0.0
  0
LINE
  5
7DCA
  8
1
 10
2404.0186947132802
 20
1819.4241286463559
 30
0.0
 11
2404.0186947132802
 21
1779.4241286463559
 31
0.0
  0
LINE
  5
7DCB
  8
1
 10
1974.01869471328
 20
2831.4241286463548
 30
0.0
 11
1974.01869471328
 21
2456.4169083356469
 31
0.0
  0
LINE
  5
7DCC
  8
1
 10
2274.0186947132802
 20
2831.4241286463562
 30
0.0
 11
2274.0186947132802
 21
2456.4169083356469
 31
0.0
  0
LINE
  5
7DCD
  8
1
 10
1966.466619190707
 20
2819.5786323685138
 30
0.0
 11
1910.4537330457599
 21
2678.5068123393139
 31
0.0
  0
LINE
  5
7DCE
  8
1
 10
1971.0664383475771
 20
2817.6186161124369
 30
0.0
 11
1915.053552202633
 21
2676.546796083238
 31
0.0
  0
LINE
  5
7DCF
  8
1
 10
1975.4186947132821
 20
2688.4241286463571
 30
0.0
 11
1975.41869471328
 21
2804.7627970720009
 31
0.0
  0
LINE
  5
7DD0
  8
1
 10
1918.1780816314531
 20
2796.8028069602792
 30
0.0
 11
1912.01869471328
 21
2703.4241286463562
 31
0.0
  0
CIRCLE
  5
7DD1
  8
1
 10
2124.0186947132802
 20
2703.4241286463562
 30
0.0
 40
121.3080440290846
  0
ARC
  5
7DD2
  8
1
 10
2124.0186947132802
 20
2703.4241286463562
 30
0.0
 40
142.0
 50
296.41738025990082
 51
243.58261974009909
  0
LINE
  5
7DD3
  8
1
 10
2254.0186947132779
 20
2571.4241286463562
 30
0.0
 11
2204.0186947132802
 21
2571.4241286463562
 31
0.0
  0
LINE
  5
7DD4
  8
1
 10
2254.0186947132802
 20
2586.4241286463562
 30
0.0
 11
2205.365175891016
 21
2586.4241286463562
 31
0.0
  0
LINE
  5
7DD5
  8
2
 10
2276.5186947132802
 20
2703.4241286463562
 30
0.0
 11
1971.51869471328
 21
2703.4241286463562
 31
0.0
  0
LINE
  5
7DD6
  8
1
 10
1959.01869471328
 20
2571.4241286463562
 30
0.0
 11
2289.0186947132779
 21
2571.4241286463562
 31
0.0
  0
LINE
  5
7DD7
  8
1
 10
1959.01869471328
 20
2536.4241286463562
 30
0.0
 11
2289.0186947132779
 21
2536.4241286463562
 31
0.0
  0
LINE
  5
7DD9
  8
1
 10
2049.0186947132802
 20
2703.4241286463562
 30
0.0
 11
2049.0186947132802
 21
2179.4241286463562
 31
0.0
  0
LINE
  5
7DDA
  8
1
 10
2199.0186947132802
 20
2703.4241286463562
 30
0.0
 11
2199.0186947132802
 21
2179.4241286463562
 31
0.0
  0
POINT
  5
7DDB
  8
1
 10
1832.807316497255
 20
2307.6706615333042
 30
0.0
  0
POINT
  5
7DDC
  8
1
 10
2124.0186947132802
 20
2179.4241286463562
 30
0.0
  0
POINT
  5
7DDD
  8
1
 10
2124.0186947132802
 20
2179.4241286463562
 30
0.0
  0
POINT
  5
7DDE
  8
1
 10
2124.0186947132802
 20
2179.4241286463562
 30
0.0
  0
LINE
  5
7DDF
  8
1
 10
1994.0186947132811
 20
2586.4241286463562
 30
0.0
 11
2042.672213535544
 21
2586.4241286463562
 31
0.0
  0
LINE
  5
7DE0
  8
1
 10
1994.0186947132811
 20
2571.4241286463562
 30
0.0
 11
2044.0186947132811
 21
2571.4241286463562
 31
0.0
  0
LINE
  5
7DE1
  8
1
 10
1994.0186947132811
 20
2586.4241286463562
 30
0.0
 11
2008.047972293137
 21
2620.6168732797519
 31
0.0
  0
LINE
  5
7DE2
  8
2
 10
1936.518694713282
 20
2507.6322039929501
 30
0.0
 11
1936.518694713282
 21
2593.4589225597738
 31
0.0
  0
LINE
  5
7DE3
  8
1
 10
1942.518694713282
 20
2521.4241286463562
 30
0.0
 11
1942.518694713282
 21
2581.4241286463562
 31
0.0
  0
LINE
  5
7DE4
  8
1
 10
1930.518694713282
 20
2521.4241286463562
 30
0.0
 11
1930.51869471328
 21
2581.4241286463562
 31
0.0
  0
LINE
  5
7DE5
  8
1
 10
1959.018694713279
 20
2493.7488015563899
 30
0.0
 11
1959.01869471328
 21
2611.4241286463571
 31
0.0
  0
LINE
  5
7DE6
  8
1
 10
1919.0186947132811
 20
2462.6009618058802
 30
0.0
 11
1919.0186947132811
 21
2611.4241286463571
 31
0.0
  0
LINE
  5
7DE7
  8
1
 10
1954.51869471328
 20
2491.345192378833
 30
0.0
 11
1954.51869471328
 21
2611.4241286463571
 31
0.0
  0
ARC
  5
7DE8
  8
1
 10
1936.518694713282
 20
2521.4241286463562
 30
0.0
 40
6.0
 50
180.0
 51
0.0
  0
LINE
  5
7DE9
  8
1
 10
1959.01869471328
 20
2611.4241286463571
 30
0.0
 11
1919.0186947132779
 21
2611.4241286463571
 31
0.0
  0
ARC
  5
7DEA
  8
1
 10
1936.518694713282
 20
2581.4241286463562
 30
0.0
 40
6.0
 50
0.0
 51
180.0
  0
LINE
  5
7DEB
  8
1
 10
1994.0186947132811
 20
2571.4241286463562
 30
0.0
 11
1994.0186947132811
 21
2586.4241286463562
 31
0.0
  0
ARC
  5
7DEC
  8
1
 10
1967.058294926559
 20
2703.1988959991259
 30
0.0
 40
55.040061059039289
 50
179.76553594120759
 51
197.3163745518037
  0
LINE
  5
7DED
  8
1
 10
1970.4186947132821
 20
2683.4241286463562
 30
0.0
 11
1918.413080527687
 21
2683.4241286463562
 31
0.0
  0
LINE
  5
7DEE
  8
1
 10
1910.4537330457599
 20
2678.5068123393139
 30
0.0
 11
1915.053552202633
 21
2676.546796083238
 31
0.0
  0
LINE
  5
7DEF
  8
1
 10
1975.4186947132821
 20
2696.2204417322901
 30
0.0
 11
1982.201534627329
 21
2696.2204417322901
 31
0.0
  0
ARC
  5
7DF0
  8
1
 10
1970.4186947132821
 20
2688.4241286463571
 30
0.0
 40
5.0
 50
270.0
 51
359.99999999999972
  0
LINE
  5
7DF1
  8
2
 10
2016.01869471328
 20
2550.9241286463562
 30
0.0
 11
2016.01869471328
 21
2619.1197394056189
 31
0.0
  0
LINE
  5
7DF2
  8
2
 10
2232.0186947132802
 20
2550.9241286463562
 30
0.0
 11
2232.0186947132802
 21
2619.1197394056189
 31
0.0
  0
LINE
  5
7DF3
  8
1
 10
2187.4179231754779
 20
2575.8044286373179
 30
0.0
 11
2060.6194662510788
 21
2575.8044286373179
 31
0.0
  0
LINE
  5
7DF4
  8
1
 10
2044.0186947132811
 20
2585.4993644956489
 30
0.0
 11
2044.0186947132811
 21
2571.4241286463562
 31
0.0
  0
LINE
  5
7DF5
  8
1
 10
2204.0186947132802
 20
2585.4993644956489
 30
0.0
 11
2204.0186947132802
 21
2571.4241286463562
 31
0.0
  0
CIRCLE
  5
7DF6
  8
1
 10
2124.0186947132802
 20
2703.4241286463562
 30
0.0
 40
75.0
  0
POINT
  5
7DF7
  8
1
 10
2494.0186947132811
 20
2179.4241286463562
 30
0.0
  0
LINE
  5
7DF8
  8
1
 10
2254.0186947132802
 20
2586.4241286463562
 30
0.0
 11
2239.9894171334231
 21
2620.6168732797519
 31
0.0
  0
LINE
  5
7DF9
  8
2
 10
2311.5186947132779
 20
2507.6322039929501
 30
0.0
 11
2311.5186947132779
 21
2593.4589225597738
 31
0.0
  0
LINE
  5
7DFA
  8
1
 10
2317.5186947132788
 20
2521.4241286463562
 30
0.0
 11
2317.5186947132802
 21
2581.4241286463562
 31
0.0
  0
LINE
  5
7DFB
  8
1
 10
2305.5186947132788
 20
2521.4241286463562
 30
0.0
 11
2305.5186947132788
 21
2581.4241286463562
 31
0.0
  0
LINE
  5
7DFC
  8
1
 10
2289.0186947132802
 20
2493.7488015563908
 30
0.0
 11
2289.0186947132802
 21
2611.4241286463571
 31
0.0
  0
LINE
  5
7DFD
  8
1
 10
2329.0186947132802
 20
2469.251663570145
 30
0.0
 11
2329.0186947132802
 21
2611.4241286463571
 31
0.0
  0
LINE
  5
7DFE
  8
1
 10
2293.5186947132788
 20
2491.3451923788339
 30
0.0
 11
2293.5186947132802
 21
2611.4241286463571
 31
0.0
  0
ARC
  5
7DFF
  8
1
 10
2311.5186947132779
 20
2521.4241286463562
 30
0.0
 40
6.0
 50
180.0
 51
0.0
  0
LINE
  5
7E00
  8
1
 10
2289.0186947132802
 20
2611.4241286463571
 30
0.0
 11
2329.018694713282
 21
2611.4241286463571
 31
0.0
  0
LINE
  5
7E01
  8
1
 10
2254.0186947132802
 20
2571.4241286463562
 30
0.0
 11
2254.0186947132802
 21
2586.4241286463562
 31
0.0
  0
ARC
  5
7E02
  8
1
 10
2311.5186947132779
 20
2581.4241286463562
 30
0.0
 40
6.0
 50
0.0
 51
180.0
  0
LINE
  5
7E03
  8
1
 10
2329.0186947132802
 20
2536.4241286463562
 30
0.0
 11
2329.0186947132802
 21
2571.4241286463562
 31
0.0
  0
LINE
  5
7E04
  8
1
 10
1974.01869471328
 20
2831.4241286463562
 30
0.0
 11
2274.0186947132802
 21
2831.4241286463562
 31
0.0
  0
LINE
  5
7E05
  8
1
 10
1975.41869471328
 20
2800.4629841064552
 30
0.0
 11
2020.872815846614
 21
2801.0198645820151
 31
0.0
  0
LINE
  5
7E06
  8
1
 10
1963.6476338658899
 20
2812.9629613709699
 30
0.0
 11
1928.1780816314531
 21
2806.8028069602792
 31
0.0
  0
ARC
  5
7E07
  8
1
 10
1928.1780816314531
 20
2796.8028069602792
 30
0.0
 40
10.0
 50
90.0
 51
180.0
  0
LINE
  5
7E08
  8
1
 10
1966.466619190707
 20
2819.5786323685138
 30
0.0
 11
1971.0664383475771
 21
2817.6186161124369
 31
0.0
  0
LINE
  5
7E09
  8
1
 10
1967.9472675777099
 20
2809.7627970720009
 30
0.0
 11
1970.41869471328
 21
2809.7627970720009
 31
0.0
  0
ARC
  5
7E0A
  8
1
 10
1970.41869471328
 20
2804.7627970720009
 30
0.0
 40
5.0
 50
0.0000000000008142
 51
90.0
  0
CIRCLE
  5
7E0B
  8
1
 10
2124.0186947132802
 20
2871.1741286463562
 30
0.0
 40
20.249999999999989
  0
CIRCLE
  5
7E0C
  8
1
 10
2124.0186947132802
 20
2871.1741286463562
 30
0.0
 40
12.75
  0
LINE
  5
7E0D
  8
1
 10
2128.776523640694
 20
2851.4909997310392
 30
0.0
 11
2128.7765236406949
 21
2845.344398741564
 31
0.0
  0
LINE
  5
7E0E
  8
1
 10
2119.260865785865
 20
2851.4909997310392
 30
0.0
 11
2119.260865785865
 21
2845.344398741564
 31
0.0
  0
LINE
  5
7E0F
  8
1
 10
431.69680669518129
 20
2335.4241286463562
 30
0.0
 11
431.696806695183
 21
2023.4241286463571
 31
0.0
  0
LINE
  5
7E10
  8
1
 10
561.69680669518118
 20
2335.4241286463562
 30
0.0
 11
561.69680669518118
 21
2023.4241286463571
 31
0.0
  0
LINE
  5
7E11
  8
1
 10
471.69680669518129
 20
2491.4241286463562
 30
0.0
 11
521.69680669518129
 21
2491.4241286463562
 31
0.0
  0
LINE
  5
7E12
  8
1
 10
431.69680669518129
 20
2335.4241286463562
 30
0.0
 11
561.69680669518118
 21
2335.4241286463562
 31
0.0
  0
LINE
  5
7E13
  8
1
 10
431.696806695183
 20
2023.4241286463571
 30
0.0
 11
561.69680669518118
 21
2023.4241286463571
 31
0.0
  0
LINE
  5
7E14
  8
1
 10
431.69680669518129
 20
2325.4241286463571
 30
0.0
 11
561.69680669518118
 21
2325.4241286463571
 31
0.0
  0
LINE
  5
7E15
  8
1
 10
431.696806695183
 20
2033.4241286463559
 30
0.0
 11
561.69680669518118
 21
2033.4241286463559
 31
0.0
  0
LINE
  5
7E16
  8
1
 10
471.69680669518129
 20
2491.4241286463562
 30
0.0
 11
431.69680669518129
 21
2335.4241286463562
 31
0.0
  0
LINE
  5
7E17
  8
1
 10
521.69680669518129
 20
2491.4241286463562
 30
0.0
 11
561.69680669518118
 21
2335.4241286463562
 31
0.0
  0
LINE
  5
7E18
  8
1
 10
521.69680669518129
 20
1867.4241286463559
 30
0.0
 11
561.69680669518118
 21
2023.4241286463571
 31
0.0
  0
LINE
  5
7E19
  8
1
 10
471.69680669518129
 20
1867.4241286463559
 30
0.0
 11
431.69680669518129
 21
2023.4241286463571
 31
0.0
  0
LINE
  5
7E1A
  8
1
 10
471.69680669518129
 20
1867.4241286463559
 30
0.0
 11
521.69680669518129
 21
1867.4241286463559
 31
0.0
  0
LINE
  5
7E1B
  8
1
 10
820.19680669518129
 20
2571.4241286463562
 30
0.0
 11
607.19680669518129
 21
2571.4241286463562
 31
0.0
  0
LINE
  5
7E1C
  8
1
 10
734.72681041046962
 20
2586.4241286463571
 30
0.0
 11
820.19680669518129
 21
2586.4241286463562
 31
0.0
  0
LINE
  5
7E1D
  8
1
 10
805.22739852387156
 20
2845.4241286463571
 30
0.0
 11
610.18981602107306
 21
2845.4241286463571
 31
0.0
  0
LINE
  5
7E1E
  8
1
 10
626.5083048387678
 20
2845.4241286463571
 30
0.0
 11
805.22739852387156
 21
2845.4241286463571
 31
0.0
  0
LINE
  5
7E1F
  8
2
 10
429.53939708528202
 20
2703.4241286463562
 30
0.0
 11
1023.560094471067
 21
2703.4241286463562
 31
0.0
  0
LINE
  5
7E20
  8
1
 10
650.19680669518118
 20
2809.5786323685152
 30
0.0
 11
650.19680669518118
 21
2686.5467960832389
 31
0.0
  0
LINE
  5
7E21
  8
1
 10
777.19680669518129
 20
2686.5467960832389
 30
0.0
 11
777.19680669518129
 21
2809.5786323685152
 31
0.0
  0
LINE
  5
7E22
  8
1
 10
660.19680669518129
 20
2809.5786323685152
 30
0.0
 11
660.19680669518129
 21
2686.5467960832389
 31
0.0
  0
LINE
  5
7E23
  8
1
 10
767.19680669518118
 20
2686.5467960832389
 30
0.0
 11
767.19680669518118
 21
2809.5786323685152
 31
0.0
  0
LINE
  5
7E24
  8
1
 10
555.32605361829326
 20
2845.4241286463548
 30
0.0
 11
555.32605361829326
 21
2575.301878389213
 31
0.0
  0
LINE
  5
7E25
  8
1
 10
601.16466760137325
 20
2629.878466612779
 30
0.0
 11
601.16466760137325
 21
2845.4241286463571
 31
0.0
  0
LINE
  5
7E26
  8
1
 10
484.69680669518129
 20
2582.116084617272
 30
0.0
 11
484.69680669518129
 21
2825.5988016291731
 31
0.0
  0
LINE
  5
7E27
  8
2
 10
713.69680669518129
 20
2876.9889837109272
 30
0.0
 11
713.69680669518129
 21
2538.1242666800981
 31
0.0
  0
LINE
  5
7E28
  8
1
 10
555.32605361829326
 20
2575.301878389213
 30
0.0
 11
584.37858609480463
 21
2575.301878389213
 31
0.0
  0
LINE
  5
7E29
  8
1
 10
484.69680669518129
 20
2582.116084617272
 30
0.0
 11
555.32605361829326
 21
2575.301878389213
 31
0.0
  0
LINE
  5
7E2A
  8
1
 10
702.66680297989285
 20
2596.4241286463571
 30
0.0
 11
702.66680297989285
 21
2633.4884148597971
 31
0.0
  0
LINE
  5
7E2B
  8
1
 10
724.72681041046962
 20
2633.4884148597971
 30
0.0
 11
724.72681041046962
 21
2596.4241286463571
 31
0.0
  0
LINE
  5
7E2C
  8
1
 10
584.37858609480463
 20
2575.301878389213
 30
0.0
 11
584.37858609480463
 21
2613.6336995011961
 31
0.0
  0
LINE
  5
7E2D
  8
2
 10
624.19680669518118
 20
2626.9729424869629
 30
0.0
 11
624.69680669518118
 21
2540.1905149546769
 31
0.0
  0
LINE
  5
7E2E
  8
1
 10
607.19680669518129
 20
2586.4241286463562
 30
0.0
 11
692.66680297989285
 21
2586.4241286463571
 31
0.0
  0
LINE
  5
7E2F
  8
1
 10
607.19680669518129
 20
2571.4241286463562
 30
0.0
 11
607.19680669518129
 21
2586.4241286463562
 31
0.0
  0
LINE
  5
7E30
  8
1
 10
584.37858609480463
 20
2586.559087648558
 30
0.0
 11
607.19680669518129
 21
2575.301878389213
 31
0.0
  0
ARC
  5
7E31
  8
1
 10
692.66680297989285
 20
2596.4241286463571
 30
0.0
 40
10.0
 50
270.0
 51
0.0
  0
ARC
  5
7E32
  8
1
 10
734.72681041046962
 20
2596.4241286463571
 30
0.0
 40
10.0
 50
180.0
 51
270.0
  0
LINE
  5
7E33
  8
1
 10
660.19680669518129
 20
2676.546796083238
 30
0.0
 11
767.19680669518118
 21
2676.546796083238
 31
0.0
  0
LINE
  5
7E34
  8
1
 10
660.19680669518129
 20
2686.5467960832389
 30
0.0
 11
767.19680669518118
 21
2686.5467960832389
 31
0.0
  0
LINE
  5
7E35
  8
1
 10
584.37858609480463
 20
2613.6336995011961
 30
0.0
 11
601.16466760137325
 21
2629.878466612779
 31
0.0
  0
ARC
  5
7E36
  8
1
 10
660.19680669518129
 20
2686.5467960832389
 30
0.0
 40
10.0
 50
180.0
 51
270.0
  0
ARC
  5
7E37
  8
1
 10
767.19680669518118
 20
2686.5467960832389
 30
0.0
 40
10.0
 50
270.0
 51
0.0
  0
LINE
  5
7E38
  8
1
 10
601.16466760137325
 20
2845.4241286463571
 30
0.0
 11
555.32605361829326
 21
2845.4241286463571
 31
0.0
  0
LINE
  5
7E39
  8
1
 10
555.32605361829326
 20
2845.4241286463571
 30
0.0
 11
484.69680669518129
 21
2825.5988016291731
 31
0.0
  0
LINE
  5
7E3A
  8
1
 10
767.19680669518118
 20
2819.5786323685138
 30
0.0
 11
660.19680669518129
 21
2819.5786323685138
 31
0.0
  0
LINE
  5
7E3B
  8
1
 10
767.19680669518118
 20
2809.5786323685152
 30
0.0
 11
660.19680669518129
 21
2809.5786323685152
 31
0.0
  0
LINE
  5
7E3C
  8
1
 10
610.18981602107306
 20
2845.4241286463571
 30
0.0
 11
601.16466760137325
 21
2822.8283307535671
 31
0.0
  0
ARC
  5
7E3D
  8
1
 10
660.19680669518129
 20
2809.5786323685152
 30
0.0
 40
10.0
 50
90.0
 51
180.0
  0
LINE
  5
7E3E
  8
1
 10
725.79832402173997
 20
2845.4241286463571
 30
0.0
 11
725.79832402173997
 21
2850.7324278638712
 31
0.0
  0
LINE
  5
7E3F
  8
1
 10
701.5952893686225
 20
2845.4241286463571
 30
0.0
 11
701.5952893686225
 21
2850.7324278638712
 31
0.0
  0
ARC
  5
7E40
  8
1
 10
767.19680669518118
 20
2809.5786323685152
 30
0.0
 40
10.0
 50
0.0
 51
90.0
  0
LINE
  5
7E41
  8
1
 10
720.54368406968933
 20
2891.4241286463562
 30
0.0
 11
706.84992932067325
 21
2891.4241286463562
 31
0.0
  0
LINE
  5
7E42
  8
1
 10
701.5952893686225
 20
2850.7324278638712
 30
0.0
 11
725.79832402173997
 21
2850.7324278638712
 31
0.0
  0
LINE
  5
7E43
  8
1
 10
720.54368406968933
 20
2891.4241286463562
 30
0.0
 11
720.54368406968933
 21
2850.7324278638712
 31
0.0
  0
LINE
  5
7E44
  8
1
 10
706.84992932067325
 20
2891.4241286463562
 30
0.0
 11
706.84992932067325
 21
2850.7324278638712
 31
0.0
  0
LINE
  5
7E45
  8
1
 10
873.81852651360168
 20
2825.5694132877552
 30
0.0
 11
873.81852651360168
 21
2588.3640617720662
 31
0.0
  0
LINE
  5
7E46
  8
1
 10
828.69278441509584
 20
2825.5694132877552
 30
0.0
 11
828.69278441509584
 21
2588.3640617720662
 31
0.0
  0
LINE
  5
7E47
  8
2
 10
802.69680669518129
 20
2540.1905149546769
 30
0.0
 11
802.69680669518129
 21
2623.840477719732
 31
0.0
  0
LINE
  5
7E48
  8
1
 10
873.81852651360168
 20
2588.3640617720662
 30
0.0
 11
828.69278441509584
 21
2588.3640617720662
 31
0.0
  0
LINE
  5
7E49
  8
1
 10
820.19680669518129
 20
2586.4241286463562
 30
0.0
 11
820.19680669518129
 21
2571.4241286463562
 31
0.0
  0
LINE
  5
7E4A
  8
1
 10
828.69278441509584
 20
2588.3640617720662
 30
0.0
 11
820.19680669518129
 21
2584.4659892636132
 31
0.0
  0
LINE
  5
7E4B
  8
1
 10
971.69680669518118
 20
2722.4241286463562
 30
0.0
 11
891.69680669518129
 21
2722.4241286463571
 31
0.0
  0
LINE
  5
7E4C
  8
1
 10
971.69680669518118
 20
2684.4241286463571
 30
0.0
 11
891.69680669518129
 21
2684.4241286463571
 31
0.0
  0
LINE
  5
7E4D
  8
1
 10
891.69680669518129
 20
2675.0028197005099
 30
0.0
 11
891.69680669518129
 21
2731.8454375922029
 31
0.0
  0
LINE
  5
7E4E
  8
1
 10
884.69680669518129
 20
2645.2066796637582
 30
0.0
 11
884.69680669518129
 21
2761.641577628955
 31
0.0
  0
LINE
  5
7E4F
  8
1
 10
891.69680669518129
 20
2675.0028197005099
 30
0.0
 11
884.69680669518129
 21
2675.0028197005108
 31
0.0
  0
LINE
  5
7E50
  8
1
 10
873.81852651360168
 20
2645.2066796637582
 30
0.0
 11
884.69680669518129
 21
2645.2066796637582
 31
0.0
  0
LINE
  5
7E51
  8
1
 10
891.69680669518129
 20
2731.8454375922029
 30
0.0
 11
884.69680669518129
 21
2731.8454375922029
 31
0.0
  0
LINE
  5
7E52
  8
1
 10
873.81852651360168
 20
2761.641577628955
 30
0.0
 11
884.69680669518129
 21
2761.641577628955
 31
0.0
  0
LINE
  5
7E53
  8
1
 10
971.69680669518118
 20
2722.4241286463562
 30
0.0
 11
971.69680669518118
 21
2684.4241286463571
 31
0.0
  0
LINE
  5
7E54
  8
1
 10
873.81852651360168
 20
2825.5694132877552
 30
0.0
 11
828.69278441509584
 21
2825.5694132877561
 31
0.0
  0
LINE
  5
7E55
  8
1
 10
828.69278441509584
 20
2818.3789051351368
 30
0.0
 11
805.22739852387156
 21
2845.4241286463571
 31
0.0
  0
LINE
  5
7E60
  8
4
 10
2775.0
 20
750.0
 30
0.0
 11
2775.0
 21
450.0
 31
0.0
  0
LINE
  5
7E61
  8
4
 10
1725.0
 20
750.0
 30
0.0
 11
1725.0
 21
450.0
 31
0.0
  0
LINE
  5
7E62
  8
4
 10
975.0
 20
750.0
 30
0.0
 11
975.0
 21
450.0
 31
0.0
  0
LINE
  5
7E65
  8
4
 10
975.0
 20
450.0
 30
0.0
 11
2775.0
 21
450.0
 31
0.0
  0
LINE
  5
7E66
  8
4
 10
975.0
 20
600.0
 30
0.0
 11
2775.0
 21
600.0
 31
0.0
  0
TEXT
  5
7E67
  8
4
 10
1032.753121270352
 20
647.31453879991932
 30
0.0
 40
75.0
  1
機器名称
  0
TEXT
  5
7E68
  8
4
 10
1029.3871590371959
 20
482.46773509801642
 30
0.0
 40
75.0
  1
機器型番
  0
TEXT
  5
7E69
  8
4
 10
1766.5181182314971
 20
633.85765343635285
 30
0.0
 40
75.0
  1
ミツヤ軸流ファン
  0
TEXT
  5
7E6A
  8
4
 10
1779.9817433782209
 20
475.739376419915
 30
0.0
 40
75.0
  1
AP＃630-2
  0
TEXT
  5
7E6C
  8
4
 10
1226.1533655760829
 20
3566.4154574076128
 30
0.0
 40
80.999999999999986
  1
床置ベット
  0
TEXT
  5
7E6D
  8
4
 10
474.25138999416959
 20
3800.8214642989469
 30
0.0
 40
108.0
  1
ベルト駆動式横形軸流ファン
  0
LINE
  5
7E6E
  8
4
 10
375.0
 20
3704.1131313972069
 30
0.0
 11
2775.0
 21
3704.1131313972069
 31
0.0
  0
LINE
  5
7E6F
  8
4
 10
375.0
 20
4004.1131313972069
 30
0.0
 11
2775.0
 21
4004.1131313972069
 31
0.0
  0
LINE
  5
7E70
  8
4
 10
975.0
 20
750.0
 30
0.0
 11
2775.0
 21
750.0
 31
0.0
  0
LINE
  5
7E71
  8
4
 10
375.0
 20
4004.1131313972069
 30
0.0
 11
375.0
 21
3704.1131313972069
 31
0.0
  0
TEXT
  5
7E72
  8
4
 10
432.60480866188658
 20
3573.4792163195152
 30
0.0
 40
80.999999999999986
  1
左回転後方吐出
  0
TEXT
  5
7E73
  8
4
 10
2203.4543388739339
 20
4059.0916222429628
 30
0.0
 40
84.000000000000014
  1
No.
  0
TEXT
  5
7E74
  8
4
 10
1966.944093900019
 20
3575.1432619987731
 30
0.0
 40
80.999999999999986
  1
縮尺：1/15
  0
LINE
  5
7E75
  8
4
 10
2775.0
 20
4004.1131313972069
 30
0.0
 11
2775.0
 21
3704.1131313972069
 31
0.0
  0
LINE
  5
7E76
  8
4
 10
3150.0
 20
4425.0
 30
0.0
 11
3150.0
 21
4425.0
 31
0.0
  0
LINE
  5
7E77
  8
4
 10
2160.9261335397969
 20
4021.895374688102
 30
0.0
 11
2160.9261335397969
 21
4179.9783923246277
 31
0.0
  0
LINE
  5
7E78
  8
4
 10
2160.9261335397969
 20
4179.9783923246277
 30
0.0
 11
2775.0
 21
4179.9783923246277
 31
0.0
  0
LINE
  5
7E79
  8
4
 10
2775.0
 20
4179.9783923246277
 30
0.0
 11
2775.0
 21
4021.895374688102
 31
0.0
  0
LINE
  5
7E7A
  8
4
 10
2775.0
 20
4021.895374688102
 30
0.0
 11
2160.9261335397969
 21
4021.895374688102
 31
0.0
  0
LINE
  5
7E7B
  8
4
 10
0.0
 20
0.0
 30
0.0
 11
0.0
 21
4425.0
 31
0.0
  0
LINE
  5
7E7C
  8
4
 10
0.0
 20
4425.0
 30
0.0
 11
3150.0
 21
4425.0
 31
0.0
  0
LINE
  5
7E7D
  8
4
 10
3150.0
 20
4425.0
 30
0.0
 11
3150.0
 21
0.0
 31
0.0
  0
LINE
  5
7E7E
  8
4
 10
3150.0
 20
0.0
 30
0.0
 11
0.0
 21
0.0
 31
0.0
  0
DIMENSION
  5
7EB2
  8
3
  2
*D1
 10
1126.6968066951811
 20
3076.5532572360771
 30
0.0
 11
711.90404798450072
 21
3076.5532572360771
 31
0.0
 70
   128
 13
376.69680669518118
 23
2494.4241286463571
 33
0.0
 14
1126.6968066951811
 24
2494.4241286463571
 34
0.0
1001
ACAD
1000
DSTYLE
1002
{
1070
   287
1070
     3
1070
   287
1070
     3
1070
   287
1070
     3
1070
   287
1070
     3
1070
   287
1070
     3
1070
    40
1040
15.0
1070
   143
1040
0.039
1070
   172
1070
     1
1070
   271
1070
     0
1070
   279
1070
     0
1070
   288
1070
     1
1002
}
  0
DIMENSION
  5
7ECC
  8
3
  2
*D2
 10
1596.1825756071339
 20
1779.4241286463559
 30
0.0
 11
1596.1825756071339
 21
1937.5567540235879
 31
0.0
 70
   128
 13
1754.01869471328
 23
2179.4241286463562
 33
0.0
 14
1844.01869471328
 24
1779.4241286463559
 34
0.0
 50
90.0
1001
ACAD
1000
DSTYLE
1002
{
1070
   287
1070
     3
1070
   287
1070
     3
1070
   287
1070
     3
1070
   287
1070
     3
1070
   287
1070
     3
1070
    40
1040
15.0
1070
   143
1040
0.039
1070
   172
1070
     1
1070
   271
1070
     0
1070
   279
1070
     0
1070
   288
1070
     1
1002
}
  0
DIMENSION
  5
7F60
  8
3
  2
*D4
 10
2479.0186947132802
 20
3075.3482365925811
 30
0.0
 11
2120.9470329579999
 21
3075.3482365925811
 31
0.0
 70
   128
 13
1769.01869471328
 23
2179.4241286463562
 33
0.0
 14
2479.0186947132802
 24
2179.4241286463562
 34
0.0
1001
ACAD
1000
DSTYLE
1002
{
1070
   287
1070
     3
1070
   287
1070
     3
1070
   287
1070
     3
1070
   287
1070
     3
1070
   287
1070
     3
1070
    40
1040
15.0
1070
   143
1040
0.039
1070
   172
1070
     1
1070
   271
1070
     0
1070
   279
1070
     0
1070
   288
1070
     1
1002
}
  0
DIMENSION
  5
7F6E
  8
3
  2
*D5
 10
1596.1825756071339
 20
2891.4241286463562
 30
0.0
 11
1558.682575607133
 21
2535.4241286463562
 31
0.0
 70
     0
  1
MAX850
 13
1754.01869471328
 23
2179.4241286463562
 33
0.0
 14
2124.0186947132802
 24
2891.4241286463562
 34
0.0
 50
90.0
1001
ACAD
1000
DSTYLE
1002
{
1070
   287
1070
     4
1070
   287
1070
     4
1070
   287
1070
     4
1070
   287
1070
     4
1070
   287
1070
     4
1070
    40
1040
15.0
1070
    75
1070
     1
1070
   143
1040
0.039
1070
   172
1070
     1
1070
   271
1070
     0
1070
   279
1070
     1
1070
   288
1070
     1
1002
}
  0
LINE
  5
8236
  8
2
 10
1869.0186947132811
 20
1815.9563665417879
 30
0.0
 11
1869.0186947132811
 21
1752.8746258257361
 31
0.0
  0
LINE
  5
8237
  8
2
 10
2379.0186947132802
 20
1815.9563665417879
 30
0.0
 11
2379.0186947132802
 21
1752.8746258257361
 31
0.0
  0
LINE
  5
823C
  8
2
 10
456.69680669518141
 20
1815.9563665417879
 30
0.0
 11
456.69680669518141
 21
1752.8746258257361
 31
0.0
  0
LINE
  5
823D
  8
2
 10
1046.6968066951811
 20
1815.9563665417879
 30
0.0
 11
1046.6968066951811
 21
1752.8746258257361
 31
0.0
  0
DIMENSION
  5
823E
  8
3
  2
*D6
 10
2379.0186947132802
 20
1551.3178795044771
 30
0.0
 11
2128.5270579175012
 21
1551.3178795044771
 31
0.0
 70
   128
 13
1869.0186947132811
 23
1752.8746258257361
 33
0.0
 14
2379.0186947132802
 24
1752.8746258257361
 34
0.0
1001
ACAD
1000
DSTYLE
1002
{
1070
   287
1070
     3
1070
   287
1070
     3
1070
    40
1040
15.0
1070
   143
1040
0.039
1070
   172
1070
     1
1070
   271
1070
     0
1070
   279
1070
     0
1070
   288
1070
     1
1002
}
  0
DIMENSION
  5
824B
  8
3
  2
*D7
 10
2404.018694713282
 20
1416.477943339172
 30
0.0
 11
2136.9629083790528
 21
1416.477943339172
 31
0.0
 70
   128
 13
1844.01869471328
 23
1779.4241286463559
 33
0.0
 14
2404.018694713282
 24
1779.4241286463559
 34
0.0
1001
ACAD
1000
DSTYLE
1002
{
1070
   287
1070
     3
1070
   287
1070
     3
1070
    40
1040
15.0
1070
   143
1040
0.039
1070
   172
1070
     1
1070
   271
1070
     0
1070
   279
1070
     0
1070
   288
1070
     1
1002
}
  0
DIMENSION
  5
8258
  8
3
  2
*D8
 10
2404.018694713282
 20
1551.3178795044771
 30
0.0
 11
2482.8325553867389
 21
1549.2109975166179
 31
0.0
 70
   128
 13
2379.0186947132802
 23
1752.8746258257361
 33
0.0
 14
2404.018694713282
 24
1771.9241286463559
 34
0.0
1001
ACAD
1000
DSTYLE
1002
{
1070
   287
1070
     4
1070
   287
1070
     4
1070
    40
1040
15.0
1070
   143
1040
0.039
1070
   172
1070
     1
1070
   271
1070
     0
1070
   279
1070
     1
1070
   288
1070
     1
1002
}
  0
DIMENSION
  5
826A
  8
3
  2
*D9
 10
1844.01869471328
 20
1551.3178795044771
 30
0.0
 11
1765.785709986714
 21
1549.2109975166179
 31
0.0
 70
   128
 13
1869.0186947132811
 23
1752.8746258257361
 33
0.0
 14
1844.01869471328
 24
1771.9241286463559
 34
0.0
1001
ACAD
1000
DSTYLE
1002
{
1070
   287
1070
     4
1070
   287
1070
     4
1070
    40
1040
15.0
1070
   143
1040
0.039
1070
   172
1070
     1
1070
   271
1070
     0
1070
   279
1070
     1
1070
   288
1070
     1
1002
}
  0
DIMENSION
  5
8292
  8
3
  2
*D10
 10
1046.6968066951811
 20
1592.308236615266
 30
0.0
 11
740.22930387602173
 21
1592.308236615266
 31
0.0
 70
   128
 13
456.69680669518141
 23
1752.8746258257361
 33
0.0
 14
1046.6968066951811
 24
1752.8746258257361
 34
0.0
1001
ACAD
1000
DSTYLE
1002
{
1070
   287
1070
     3
1070
   287
1070
     3
1070
    40
1040
15.0
1070
   143
1040
0.039
1070
   172
1070
     1
1070
   271
1070
     0
1070
   279
1070
     0
1070
   288
1070
     1
1002
}
  0
DIMENSION
  5
829F
  8
3
  2
*D11
 10
1086.6968066951811
 20
1453.9956847559349
 30
0.0
 11
733.73949445519975
 21
1453.9956847559349
 31
0.0
 70
   128
 13
416.69680669518118
 23
1824.4241286463559
 33
0.0
 14
1086.6968066951811
 24
1824.4241286463559
 34
0.0
1001
ACAD
1000
DSTYLE
1002
{
1070
   287
1070
     3
1070
   287
1070
     3
1070
    40
1040
15.0
1070
   143
1040
0.039
1070
   172
1070
     1
1070
   271
1070
     0
1070
   279
1070
     0
1070
   288
1070
     1
1002
}
  0
DIMENSION
  5
82AC
  8
3
  2
*D12
 10
1086.6968066951811
 20
1592.308236615266
 30
0.0
 11
1168.5577343588591
 21
1590.1470990813079
 31
0.0
 70
   128
 13
1046.6968066951811
 23
1752.8746258257361
 33
0.0
 14
1086.6968066951811
 24
1824.4241286463559
 34
0.0
1001
ACAD
1000
DSTYLE
1002
{
1070
   287
1070
     4
1070
   287
1070
     4
1070
    40
1040
15.0
1070
   143
1040
0.039
1070
   172
1070
     1
1070
   271
1070
     0
1070
   279
1070
     1
1070
   288
1070
     1
1002
}
  0
DIMENSION
  5
82BE
  8
3
  2
*D13
 10
416.69680669518118
 20
1592.308236615266
 30
0.0
 11
335.6969152414967
 21
1592.308236615266
 31
0.0
 70
   128
 13
456.69680669518141
 23
1752.8746258257361
 33
0.0
 14
416.69680669518118
 24
1824.4241286463559
 34
0.0
1001
ACAD
1000
DSTYLE
1002
{
1070
   287
1070
     4
1070
   287
1070
     4
1070
    40
1040
15.0
1070
   143
1040
0.039
1070
   172
1070
     1
1070
   271
1070
     0
1070
   279
1070
     1
1070
   288
1070
     1
1002
}
  0
ENDSEC
  0
EOF
