  0
SECTION
  2
HEADER
  9
$ACADVER
  1
AC1009
  9
$INSBASE
 10
0.0
 20
0.0
 30
0.0
  9
$EXTMIN
 10
0.0
 20
0.0
 30
0.0
  9
$EXTMAX
 10
3150.0
 20
4425.0
 30
0.0
  9
$LIMMIN
 10
0.0
 20
0.0
  9
$LIMMAX
 10
297.0
 20
210.0
  9
$ORTHOMODE
 70
     0
  9
$REGENMODE
 70
     1
  9
$FILLMODE
 70
     0
  9
$QTEXTMODE
 70
     0
  9
$MIRRTEXT
 70
     1
  9
$DRAGMODE
 70
     2
  9
$LTSCALE
 40
100.0
  9
$OSMODE
 70
    37
  9
$ATTMODE
 70
     1
  9
$TEXTSIZE
 40
180.0
  9
$TRACEWID
 40
0.05
  9
$TEXTSTYLE
  7
STANDARD
  9
$CLAYER
  8
3
  9
$CELTYPE
  6
BYLAYER
  9
$CECOLOR
 62
   256
  9
$DIMSCALE
 40
15.0
  9
$DIMASZ
 40
2.0
  9
$DIMEXO
 40
0.5
  9
$DIMDLI
 40
10.0
  9
$DIMRND
 40
0.0
  9
$DIMDLE
 40
0.0
  9
$DIMEXE
 40
1.0
  9
$DIMTP
 40
1.0
  9
$DIMTM
 40
1.0
  9
$DIMTXT
 40
3.0
  9
$DIMCEN
 40
0.0
  9
$DIMTSZ
 40
0.0
  9
$DIMTOL
 70
     0
  9
$DIMLIM
 70
     0
  9
$DIMTIH
 70
     0
  9
$DIMTOH
 70
     0
  9
$DIMSE1
 70
     0
  9
$DIMSE2
 70
     0
  9
$DIMTAD
 70
     1
  9
$DIMZIN
 70
     8
  9
$DIMBLK
  1

  9
$DIMASO
 70
     1
  9
$DIMSHO
 70
     1
  9
$DIMPOST
  1

  9
$DIMAPOST
  1

  9
$DIMALT
 70
     0
  9
$DIMALTD
 70
     2
  9
$DIMALTF
 40
0.039
  9
$DIMLFAC
 40
1.0
  9
$DIMTOFL
 70
     1
  9
$DIMTVP
 40
0.0
  9
$DIMTIX
 70
     0
  9
$DIMSOXD
 70
     0
  9
$DIMSAH
 70
     1
  9
$DIMBLK1
  1
OPEN
  9
$DIMBLK2
  1
OPEN
  9
$DIMSTYLE
  2
IGA
  9
$DIMCLRD
 70
     0
  9
$DIMCLRE
 70
     0
  9
$DIMCLRT
 70
     0
  9
$DIMTFAC
 40
10.0
  9
$DIMGAP
 40
1.0
  9
$LUNITS
 70
     2
  9
$LUPREC
 70
     3
  9
$SKETCHINC
 40
0.1
  9
$FILLETRAD
 40
50.0
  9
$AUNITS
 70
     0
  9
$AUPREC
 70
     0
  9
$MENU
  1
acad
  9
$ELEVATION
 40
0.0
  9
$PELEVATION
 40
0.0
  9
$THICKNESS
 40
0.0
  9
$LIMCHECK
 70
     0
  9
$BLIPMODE
 70
     0
  9
$CHAMFERA
 40
0.5
  9
$CHAMFERB
 40
0.5
  9
$SKPOLY
 70
     0
  9
$TDCREATE
 40
2452654.479350694
  9
$TDUPDATE
 40
2454953.6252991091
  9
$TDINDWG
 40
0.0162927778
  9
$TDUSRTIMER
 40
0.0162927778
  9
$USRTIMER
 70
     1
  9
$ANGBASE
 50
0.0
  9
$ANGDIR
 70
     0
  9
$PDMODE
 70
     0
  9
$PDSIZE
 40
0.0
  9
$PLINEWID
 40
0.0
  9
$COORDS
 70
     1
  9
$SPLFRAME
 70
     0
  9
$SPLINETYPE
 70
     6
  9
$SPLINESEGS
 70
     8
  9
$ATTDIA
 70
     0
  9
$ATTREQ
 70
     1
  9
$HANDLING
 70
 10241
  9
$HANDSEED
  5
8502
  9
$SURFTAB1
 70
     6
  9
$SURFTAB2
 70
     6
  9
$SURFTYPE
 70
     6
  9
$SURFU
 70
     6
  9
$SURFV
 70
     6
  9
$UCSNAME
  2

  9
$UCSORG
 10
0.0
 20
0.0
 30
0.0
  9
$UCSXDIR
 10
1.0
 20
0.0
 30
0.0
  9
$UCSYDIR
 10
0.0
 20
1.0
 30
0.0
  9
$PUCSNAME
  2

  9
$PUCSORG
 10
0.0
 20
0.0
 30
0.0
  9
$PUCSXDIR
 10
1.0
 20
0.0
 30
0.0
  9
$PUCSYDIR
 10
0.0
 20
1.0
 30
0.0
  9
$USERI1
 70
     0
  9
$USERI2
 70
     0
  9
$USERI3
 70
     0
  9
$USERI4
 70
     0
  9
$USERI5
 70
     0
  9
$USERR1
 40
0.0
  9
$USERR2
 40
0.0
  9
$USERR3
 40
0.0
  9
$USERR4
 40
0.0
  9
$USERR5
 40
0.0
  9
$WORLDVIEW
 70
     1
  9
$SHADEDGE
 70
     3
  9
$SHADEDIF
 70
    70
  9
$TILEMODE
 70
     1
  9
$MAXACTVP
 70
    16
  9
$PLIMCHECK
 70
     0
  9
$PEXTMIN
 10
1.0000000000000000E+020
 20
1.0000000000000000E+020
 30
1.0000000000000000E+020
  9
$PEXTMAX
 10
-1.0000000000000000E+020
 20
-1.0000000000000000E+020
 30
-1.0000000000000000E+020
  9
$PLIMMIN
 10
0.0
 20
0.0
  9
$PLIMMAX
 10
12.0
 20
9.0
  9
$UNITMODE
 70
     0
  9
$VISRETAIN
 70
     0
  9
$PLINEGEN
 70
     0
  9
$PSLTSCALE
 70
     1
  0
ENDSEC
  0
SECTION
  2
TABLES
  0
TABLE
  2
VPORT
 70
     2
  0
VPORT
  2
*ACTIVE
 70
     0
 10
0.0
 20
0.0
 11
1.0
 21
1.0
 12
2969.9098814730178
 22
552.62750517510904
 13
0.0
 23
0.0
 14
10.0
 24
10.0
 15
10.0
 25
10.0
 16
0.0
 26
0.0
 36
1.0
 17
0.0
 27
0.0
 37
0.0
 40
1304.1105831350369
 41
3.1666666666666661
 42
50.0
 43
0.0
 44
0.0
 50
0.0
 51
0.0
 71
     0
 72
   100
 73
     1
 74
     0
 75
     0
 76
     0
 77
     0
 78
     0
  0
ENDTAB
  0
TABLE
  2
LTYPE
 70
     2
  0
LTYPE
  2
CONTINUOUS
 70
     0
  3
Solid line
 72
    65
 73
     0
 40
0.0
  0
LTYPE
  2
CENTER
 70
     0
  3
____ _ ____ _ ____ _ ____ _ ____ _ ____ _ ____ 
 72
    65
 73
     4
 40
2.0
 49
1.25
 49
-0.25
 49
0.25
 49
-0.25
  0
ENDTAB
  0
TABLE
  2
LAYER
 70
     6
  0
LAYER
  2
0
 70
     0
 62
     7
  6
CONTINUOUS
  0
LAYER
  2
3
 70
     0
 62
     2
  6
CONTINUOUS
  0
LAYER
  2
2
 70
     0
 62
     3
  6
CENTER
  0
LAYER
  2
1
 70
     0
 62
     4
  6
CONTINUOUS
  0
LAYER
  2
4
 70
     0
 62
     7
  6
CONTINUOUS
  0
LAYER
  2
DEFPOINTS
 70
     0
 62
     7
  6
CONTINUOUS
  0
ENDTAB
  0
TABLE
  2
STYLE
 70
     1
  0
STYLE
  2
STANDARD
 70
     0
 40
0.0
 41
1.0
 50
0.0
 71
     0
 42
180.0
  3
simplex.shx
  4
extfont.shx
  0
ENDTAB
  0
TABLE
  2
VIEW
 70
     0
  0
ENDTAB
  0
TABLE
  2
UCS
 70
     0
  0
ENDTAB
  0
TABLE
  2
APPID
 70
     1
  0
APPID
  2
ACAD
 70
     0
  0
ENDTAB
  0
TABLE
  2
DIMSTYLE
 70
     1
  0
DIMSTYLE
  2
IGA
 70
     0
  3

  4

  5

  6
OPEN
  7
OPEN
 40
2.0
 41
2.0
 42
0.5
 43
10.0
 44
1.0
 45
0.0
 46
0.0
 47
1.0
 48
1.0
140
3.0
141
0.0
142
0.0
143
0.03937
144
1.0
145
0.0
146
10.0
147
1.0
 71
     0
 72
     0
 73
     0
 74
     0
 75
     0
 76
     0
 77
     1
 78
     8
170
     0
171
     2
172
     0
173
     1
174
     0
175
     0
176
     0
177
     0
178
     0
  0
ENDTAB
  0
ENDSEC
  0
SECTION
  2
BLOCKS
  0
BLOCK
  8
0
  2
$MODEL_SPACE
 70
     0
 10
0.0
 20
0.0
 30
0.0
  3
$MODEL_SPACE
  1

  0
ENDBLK
  5
1B
  8
0
  0
BLOCK
 67
     1
  8
0
  2
$PAPER_SPACE
 70
     0
 10
0.0
 20
0.0
 30
0.0
  3
$PAPER_SPACE
  1

  0
ENDBLK
  5
18
 67
     1
  8
0
  0
BLOCK
  8
0
  2
_OPEN
 70
     0
 10
0.0
 20
0.0
 30
0.0
  3
_OPEN
  1

  0
LINE
  5
7E5C
  8
0
  6
BYBLOCK
 62
     0
 10
-1.0
 20
0.1666666666666666
 30
0.0
 11
0.0
 21
0.0
 31
0.0
  0
LINE
  5
7E5D
  8
0
  6
BYBLOCK
 62
     0
 10
0.0
 20
0.0
 30
0.0
 11
-1.0
 21
-0.1666666666666666
 31
0.0
  0
LINE
  5
7E5E
  8
0
  6
BYBLOCK
 62
     0
 10
0.0
 20
0.0
 30
0.0
 11
-1.0
 21
0.0
 31
0.0
  0
ENDBLK
  5
7E5F
  8
0
  0
BLOCK
  8
0
  2
*D1
 70
     1
 10
0.0
 20
0.0
 30
0.0
  3
*D1
  1

  0
LINE
  5
8493
  8
3
 62
     0
 10
1746.51869471328
 20
2179.4241286463562
 30
0.0
 11
1581.1825756071339
 21
2179.4241286463562
 31
0.0
  0
LINE
  5
8494
  8
3
 62
     0
 10
1836.51869471328
 20
1779.4241286463559
 30
0.0
 11
1581.1825756071339
 21
1779.4241286463559
 31
0.0
  0
LINE
  5
8495
  8
3
 62
     0
 10
1596.1825756071339
 20
2149.4241286463562
 30
0.0
 11
1596.1825756071339
 21
1809.4241286463559
 31
0.0
  0
INSERT
  5
8496
  8
3
 62
     0
  2
_OPEN
 10
1596.1825756071339
 20
2179.4241286463562
 30
0.0
 41
30.0
 42
30.0
 43
30.0
 50
90.0
  0
INSERT
  5
8497
  8
3
 62
     0
  2
_OPEN
 10
1596.1825756071339
 20
1779.4241286463559
 30
0.0
 41
30.0
 42
30.0
 43
30.0
 50
270.0
  0
TEXT
  8
3
  40
45
  5
84F8
  62
0
  72
0
  71
0
 10
1468.68
 20
1857.91
 30
0.000000
  1
400
  0
POINT
  5
8499
  8
DEFPOINTS
 62
     0
 10
1754.01869471328
 20
2179.4241286463562
 30
0.0
  0
POINT
  5
849A
  8
DEFPOINTS
 62
     0
 10
1844.01869471328
 20
1779.4241286463559
 30
0.0
  0
POINT
  5
849B
  8
DEFPOINTS
 62
     0
 10
1596.1825756071339
 20
1779.4241286463559
 30
0.0
  0
ENDBLK
  5
7ECB
  8
0
  0
BLOCK
  8
0
  2
_DOT
 70
     0
 10
0.0
 20
0.0
 30
0.0
  3
_DOT
  1

  0
LINE
  5
7F7A
  8
0
  6
BYBLOCK
 62
     0
 10
0.0
 20
0.0
 30
0.0
 11
-1.0
 21
-0.0000000000000284
 31
0.0
  0
POLYLINE
  5
7F7B
  8
0
  6
BYBLOCK
 62
     0
 66
     1
 10
0.0
 20
0.0
 30
0.0
 70
     1
 40
0.1666666666666666
 41
0.1666666666666666
  0
VERTEX
  5
84A5
  8
0
  6
BYBLOCK
 62
     0
 10
-0.0833333333333286
 20
-0.0000000000000284
 30
0.0
 42
1.0
  0
VERTEX
  5
84A6
  8
0
  6
BYBLOCK
 62
     0
 10
0.0833333333333286
 20
-0.0000000000000284
 30
0.0
 42
1.0
  0
SEQEND
  5
84A7
  8
0
  6
BYBLOCK
 62
     0
  0
ENDBLK
  5
7F2D
  8
0
  0
BLOCK
  8
0
  2
*D3
 70
     1
 10
0.0
 20
0.0
 30
0.0
  3
*D3
  1

  0
LINE
  5
849C
  8
3
 62
     0
 10
1769.01869471328
 20
2186.9241286463562
 30
0.0
 11
1769.01869471328
 21
2924.4319188707741
 31
0.0
  0
LINE
  5
849D
  8
3
 62
     0
 10
2479.0186947132802
 20
2186.9241286463562
 30
0.0
 11
2479.0186947132802
 21
2924.4319188707741
 31
0.0
  0
LINE
  5
849E
  8
3
 62
     0
 10
1799.01869471328
 20
2909.4319188707741
 30
0.0
 11
2449.0186947132802
 21
2909.4319188707741
 31
0.0
  0
INSERT
  5
849F
  8
3
 62
     0
  2
_OPEN
 10
1769.01869471328
 20
2909.4319188707741
 30
0.0
 41
30.0
 42
30.0
 43
30.0
 50
180.0
  0
INSERT
  5
84A0
  8
3
 62
     0
  2
_OPEN
 10
2479.0186947132802
 20
2909.4319188707741
 30
0.0
 41
30.0
 42
30.0
 43
30.0
  0
TEXT
  8
3
  40
45
  5
84F9
  62
0
  72
0
  71
0
 10
2034.64
 20
2867.28
 30
0.000000
  1
710
  0
POINT
  5
84A2
  8
DEFPOINTS
 62
     0
 10
1769.01869471328
 20
2179.4241286463562
 30
0.0
  0
POINT
  5
84A3
  8
DEFPOINTS
 62
     0
 10
2479.0186947132802
 20
2179.4241286463562
 30
0.0
  0
POINT
  5
84A4
  8
DEFPOINTS
 62
     0
 10
2479.0186947132802
 20
2909.4319188707741
 30
0.0
  0
ENDBLK
  5
7F5F
  8
0
  0
BLOCK
  8
0
  2
*D4
 70
     1
 10
0.0
 20
0.0
 30
0.0
  3
*D4
  1

  0
LINE
  5
84A8
  8
3
 62
     0
 10
1844.01869471328
 20
1771.9241286463559
 30
0.0
 11
1844.01869471328
 21
1450.5152143748601
 31
0.0
  0
LINE
  5
84A9
  8
3
 62
     0
 10
2404.018694713282
 20
1771.9241286463559
 30
0.0
 11
2404.018694713282
 21
1450.5152143748601
 31
0.0
  0
LINE
  5
84AA
  8
3
 62
     0
 10
1874.01869471328
 20
1465.5152143748601
 30
0.0
 11
2374.018694713282
 21
1465.5152143748601
 31
0.0
  0
INSERT
  5
84AB
  8
3
 62
     0
  2
_OPEN
 10
1844.01869471328
 20
1465.5152143748601
 30
0.0
 41
30.0
 42
30.0
 43
30.0
 50
180.0
  0
INSERT
  5
84AC
  8
3
 62
     0
  2
_OPEN
 10
2404.018694713282
 20
1465.5152143748601
 30
0.0
 41
30.0
 42
30.0
 43
30.0
  0
TEXT
  8
3
  40
45
  5
84FA
  62
0
  72
0
  71
0
 10
2041.77
 20
1423.37
 30
0.000000
  1
560
  0
POINT
  5
84AE
  8
DEFPOINTS
 62
     0
 10
1844.01869471328
 20
1779.4241286463559
 30
0.0
  0
POINT
  5
84AF
  8
DEFPOINTS
 62
     0
 10
2404.018694713282
 20
1779.4241286463559
 30
0.0
  0
POINT
  5
84B0
  8
DEFPOINTS
 62
     0
 10
2404.018694713282
 20
1465.5152143748601
 30
0.0
  0
ENDBLK
  5
8351
  8
0
  0
BLOCK
  8
0
  2
*D5
 70
     1
 10
0.0
 20
0.0
 30
0.0
  3
*D5
  1

  0
LINE
  5
84B1
  8
3
 62
     0
 10
1869.0186947132811
 20
1742.585941794563
 30
0.0
 11
1869.0186947132811
 21
1570.7386053308271
 31
0.0
  0
LINE
  5
84B2
  8
3
 62
     0
 10
2379.0186947132802
 20
1742.585941794563
 30
0.0
 11
2379.0186947132802
 21
1570.7386053308271
 31
0.0
  0
LINE
  5
84B3
  8
3
 62
     0
 10
1899.01869471328
 20
1585.7386053308271
 30
0.0
 11
2349.0186947132811
 21
1585.7386053308271
 31
0.0
  0
INSERT
  5
84B4
  8
3
 62
     0
  2
_OPEN
 10
1869.0186947132811
 20
1585.7386053308271
 30
0.0
 41
30.0
 42
30.0
 43
30.0
 50
180.0
  0
INSERT
  5
84B5
  8
3
 62
     0
  2
_OPEN
 10
2379.0186947132802
 20
1585.7386053308271
 30
0.0
 41
30.0
 42
30.0
 43
30.0
  0
TEXT
  8
3
  40
45
  5
84FB
  62
0
  72
0
  71
0
 10
2028.81
 20
1543.59
 30
0.000000
  1
510
  0
POINT
  5
84B7
  8
DEFPOINTS
 62
     0
 10
1869.0186947132811
 20
1750.085941794563
 30
0.0
  0
POINT
  5
84B8
  8
DEFPOINTS
 62
     0
 10
2379.0186947132802
 20
1750.085941794563
 30
0.0
  0
POINT
  5
84B9
  8
DEFPOINTS
 62
     0
 10
2379.0186947132802
 20
1585.7386053308271
 30
0.0
  0
ENDBLK
  5
835E
  8
0
  0
BLOCK
  8
0
  2
*D6
 70
     1
 10
0.0
 20
0.0
 30
0.0
  3
*D6
  1

  0
LINE
  5
84BA
  8
3
 62
     0
 10
2379.0186947132802
 20
1742.585941794563
 30
0.0
 11
2379.0186947132802
 21
1570.7386053308271
 31
0.0
  0
LINE
  5
84BB
  8
3
 62
     0
 10
2404.018694713282
 20
1764.4241286463559
 30
0.0
 11
2404.018694713282
 21
1570.7386053308271
 31
0.0
  0
LINE
  5
84BC
  8
3
 62
     0
 10
2349.0186947132811
 20
1585.7386053308271
 30
0.0
 11
2319.0186947132811
 21
1585.7386053308271
 31
0.0
  0
LINE
  5
84BD
  8
3
 62
     0
 10
2434.018694713282
 20
1585.7386053308271
 30
0.0
 11
2464.018694713282
 21
1585.7386053308271
 31
0.0
  0
TEXT
  8
3
  40
45
  5
84FC
  62
0
  72
0
  71
0
 10
2384.28
 20
1541.74
 30
0.000000
  1
25
  0
LINE
  5
84BF
  8
3
 62
     0
 10
2379.0186947132802
 20
1585.7386053308271
 30
0.0
 11
2404.018694713282
 21
1585.7386053308271
 31
0.0
  0
INSERT
  5
84C0
  8
3
 62
     0
  2
_OPEN
 10
2379.0186947132802
 20
1585.7386053308271
 30
0.0
 41
30.0
 42
30.0
 43
30.0
  0
INSERT
  5
84C1
  8
3
 62
     0
  2
_OPEN
 10
2404.018694713282
 20
1585.7386053308271
 30
0.0
 41
30.0
 42
30.0
 43
30.0
 50
180.0
  0
POINT
  5
84C2
  8
DEFPOINTS
 62
     0
 10
2379.0186947132802
 20
1750.085941794563
 30
0.0
  0
POINT
  5
84C3
  8
DEFPOINTS
 62
     0
 10
2404.018694713282
 20
1771.9241286463559
 30
0.0
  0
POINT
  5
84C4
  8
DEFPOINTS
 62
     0
 10
2404.018694713282
 20
1585.7386053308271
 30
0.0
  0
ENDBLK
  5
8370
  8
0
  0
BLOCK
  8
0
  2
*D7
 70
     1
 10
0.0
 20
0.0
 30
0.0
  3
*D7
  1

  0
LINE
  5
84C5
  8
3
 62
     0
 10
1869.0186947132811
 20
1742.585941794563
 30
0.0
 11
1869.0186947132811
 21
1570.7386053308271
 31
0.0
  0
LINE
  5
84C6
  8
3
 62
     0
 10
1844.01869471328
 20
1764.4241286463559
 30
0.0
 11
1844.01869471328
 21
1570.7386053308271
 31
0.0
  0
LINE
  5
84C7
  8
3
 62
     0
 10
1899.01869471328
 20
1585.7386053308271
 30
0.0
 11
1929.01869471328
 21
1585.7386053308271
 31
0.0
  0
LINE
  5
84C8
  8
3
 62
     0
 10
1814.01869471328
 20
1585.7386053308271
 30
0.0
 11
1784.01869471328
 21
1585.7386053308271
 31
0.0
  0
TEXT
  8
3
  40
45
  5
84FD
  62
0
  72
0
  71
0
 10
1695.55
 20
1545.44
 30
0.000000
  1
25
  0
LINE
  5
84CA
  8
3
 62
     0
 10
1869.0186947132811
 20
1585.7386053308271
 30
0.0
 11
1844.01869471328
 21
1585.7386053308271
 31
0.0
  0
INSERT
  5
84CB
  8
3
 62
     0
  2
_OPEN
 10
1869.0186947132811
 20
1585.7386053308271
 30
0.0
 41
30.0
 42
30.0
 43
30.0
 50
180.0
  0
INSERT
  5
84CC
  8
3
 62
     0
  2
_OPEN
 10
1844.01869471328
 20
1585.7386053308271
 30
0.0
 41
30.0
 42
30.0
 43
30.0
  0
POINT
  5
84CD
  8
DEFPOINTS
 62
     0
 10
1869.0186947132811
 20
1750.085941794563
 30
0.0
  0
POINT
  5
84CE
  8
DEFPOINTS
 62
     0
 10
1844.01869471328
 20
1771.9241286463559
 30
0.0
  0
POINT
  5
84CF
  8
DEFPOINTS
 62
     0
 10
1844.01869471328
 20
1585.7386053308271
 30
0.0
  0
ENDBLK
  5
8382
  8
0
  0
BLOCK
  8
0
  2
*D8
 70
     1
 10
0.0
 20
0.0
 30
0.0
  3
*D8
  1

  0
LINE
  5
84D0
  8
3
 62
     0
 10
456.69680669518141
 20
1742.585941794563
 30
0.0
 11
456.69680669518141
 21
1582.347226373975
 31
0.0
  0
LINE
  5
84D1
  8
3
 62
     0
 10
1046.6968066951811
 20
1742.585941794563
 30
0.0
 11
1046.6968066951811
 21
1582.347226373975
 31
0.0
  0
LINE
  5
84D2
  8
3
 62
     0
 10
486.69680669518129
 20
1597.347226373975
 30
0.0
 11
1016.696806695181
 21
1597.347226373975
 31
0.0
  0
INSERT
  5
84D3
  8
3
 62
     0
  2
_OPEN
 10
456.69680669518141
 20
1597.347226373975
 30
0.0
 41
30.0
 42
30.0
 43
30.0
 50
180.0
  0
INSERT
  5
84D4
  8
3
 62
     0
  2
_OPEN
 10
1046.6968066951811
 20
1597.347226373975
 30
0.0
 41
30.0
 42
30.0
 43
30.0
  0
TEXT
  8
3
  40
45
  5
84FE
  62
0
  72
0
  71
0
 10
660.465
 20
1555.20
 30
0.000000
  1
590
  0
POINT
  5
84D6
  8
DEFPOINTS
 62
     0
 10
456.69680669518141
 20
1750.085941794563
 30
0.0
  0
POINT
  5
84D7
  8
DEFPOINTS
 62
     0
 10
1046.6968066951811
 20
1750.085941794563
 30
0.0
  0
POINT
  5
84D8
  8
DEFPOINTS
 62
     0
 10
1046.6968066951811
 20
1597.347226373975
 30
0.0
  0
ENDBLK
  5
83A5
  8
0
  0
BLOCK
  8
0
  2
*D9
 70
     1
 10
0.0
 20
0.0
 30
0.0
  3
*D9
  1

  0
LINE
  5
84D9
  8
3
 62
     0
 10
416.69680669518118
 20
1816.9241286463559
 30
0.0
 11
416.69680669518118
 21
1457.363564613813
 31
0.0
  0
LINE
  5
84DA
  8
3
 62
     0
 10
1086.6968066951811
 20
1816.9241286463559
 30
0.0
 11
1086.6968066951811
 21
1457.363564613813
 31
0.0
  0
LINE
  5
84DB
  8
3
 62
     0
 10
446.69680669518129
 20
1472.363564613813
 30
0.0
 11
1056.6968066951811
 21
1472.363564613813
 31
0.0
  0
INSERT
  5
84DC
  8
3
 62
     0
  2
_OPEN
 10
416.69680669518118
 20
1472.363564613813
 30
0.0
 41
30.0
 42
30.0
 43
30.0
 50
180.0
  0
INSERT
  5
84DD
  8
3
 62
     0
  2
_OPEN
 10
1086.6968066951811
 20
1472.363564613813
 30
0.0
 41
30.0
 42
30.0
 43
30.0
  0
TEXT
  8
3
  40
45
  5
84FF
  62
0
  72
0
  71
0
 10
646.940
 20
1430.21
 30
0.000000
  1
670
  0
POINT
  5
84DF
  8
DEFPOINTS
 62
     0
 10
416.69680669518118
 20
1824.4241286463559
 30
0.0
  0
POINT
  5
84E0
  8
DEFPOINTS
 62
     0
 10
1086.6968066951811
 20
1824.4241286463559
 30
0.0
  0
POINT
  5
84E1
  8
DEFPOINTS
 62
     0
 10
1086.6968066951811
 20
1472.363564613813
 30
0.0
  0
ENDBLK
  5
83B2
  8
0
  0
BLOCK
  8
0
  2
*D10
 70
     1
 10
0.0
 20
0.0
 30
0.0
  3
*D10
  1

  0
LINE
  5
84E2
  8
3
 62
     0
 10
1046.6968066951811
 20
1742.585941794563
 30
0.0
 11
1046.6968066951811
 21
1582.347226373975
 31
0.0
  0
LINE
  5
84E3
  8
3
 62
     0
 10
1086.6968066951811
 20
1816.9241286463559
 30
0.0
 11
1086.6968066951811
 21
1582.347226373975
 31
0.0
  0
LINE
  5
84E4
  8
3
 62
     0
 10
1016.696806695181
 20
1597.347226373975
 30
0.0
 11
986.69680669518118
 21
1597.347226373975
 31
0.0
  0
LINE
  5
84E5
  8
3
 62
     0
 10
1116.6968066951811
 20
1597.347226373975
 30
0.0
 11
1146.6968066951811
 21
1597.347226373975
 31
0.0
  0
TEXT
  8
3
  40
45
  5
8500
  62
0
  72
0
  71
0
 10
1083.13
 20
1551.82
 30
0.000000
  1
40
  0
LINE
  5
84E7
  8
3
 62
     0
 10
1046.6968066951811
 20
1597.347226373975
 30
0.0
 11
1086.6968066951811
 21
1597.347226373975
 31
0.0
  0
INSERT
  5
84E8
  8
3
 62
     0
  2
_OPEN
 10
1046.6968066951811
 20
1597.347226373975
 30
0.0
 41
30.0
 42
30.0
 43
30.0
  0
INSERT
  5
84E9
  8
3
 62
     0
  2
_OPEN
 10
1086.6968066951811
 20
1597.347226373975
 30
0.0
 41
30.0
 42
30.0
 43
30.0
 50
180.0
  0
POINT
  5
84EA
  8
DEFPOINTS
 62
     0
 10
1046.6968066951811
 20
1750.085941794563
 30
0.0
  0
POINT
  5
84EB
  8
DEFPOINTS
 62
     0
 10
1086.6968066951811
 20
1824.4241286463559
 30
0.0
  0
POINT
  5
84EC
  8
DEFPOINTS
 62
     0
 10
1086.6968066951811
 20
1597.347226373975
 30
0.0
  0
ENDBLK
  5
83C4
  8
0
  0
BLOCK
  8
0
  2
*D11
 70
     1
 10
0.0
 20
0.0
 30
0.0
  3
*D11
  1

  0
LINE
  5
84ED
  8
3
 62
     0
 10
456.69680669518141
 20
1742.585941794563
 30
0.0
 11
456.69680669518141
 21
1582.347226373975
 31
0.0
  0
LINE
  5
84EE
  8
3
 62
     0
 10
416.69680669518118
 20
1816.9241286463559
 30
0.0
 11
416.69680669518118
 21
1582.347226373975
 31
0.0
  0
LINE
  5
84EF
  8
3
 62
     0
 10
486.69680669518129
 20
1597.347226373975
 30
0.0
 11
516.69680669518118
 21
1597.347226373975
 31
0.0
  0
LINE
  5
84F0
  8
3
 62
     0
 10
386.69680669518118
 20
1597.347226373975
 30
0.0
 11
356.69680669518129
 21
1597.347226373975
 31
0.0
  0
TEXT
  8
3
  40
45
  5
8501
  62
0
  72
0
  71
0
 10
247.949
 20
1551.82
 30
0.000000
  1
40
  0
LINE
  5
84F2
  8
3
 62
     0
 10
456.69680669518141
 20
1597.347226373975
 30
0.0
 11
416.69680669518118
 21
1597.347226373975
 31
0.0
  0
INSERT
  5
84F3
  8
3
 62
     0
  2
_OPEN
 10
456.69680669518141
 20
1597.347226373975
 30
0.0
 41
30.0
 42
30.0
 43
30.0
 50
180.0
  0
INSERT
  5
84F4
  8
3
 62
     0
  2
_OPEN
 10
416.69680669518118
 20
1597.347226373975
 30
0.0
 41
30.0
 42
30.0
 43
30.0
  0
POINT
  5
84F5
  8
DEFPOINTS
 62
     0
 10
456.69680669518141
 20
1750.085941794563
 30
0.0
  0
POINT
  5
84F6
  8
DEFPOINTS
 62
     0
 10
416.69680669518118
 20
1824.4241286463559
 30
0.0
  0
POINT
  5
84F7
  8
DEFPOINTS
 62
     0
 10
416.69680669518118
 20
1597.347226373975
 30
0.0
  0
ENDBLK
  5
83D6
  8
0
  0
ENDSEC
  0
SECTION
  2
ENTITIES
  0
LINE
  5
7D06
  8
2
 10
1754.01869471328
 20
2179.4241286463562
 30
0.0
 11
2494.0186947132811
 21
2179.4241286463562
 31
0.0
  0
LINE
  5
7D08
  8
1
 10
376.69680669518118
 20
2494.4241286463571
 30
0.0
 11
413.69680669518129
 21
2494.4241286463571
 31
0.0
  0
LINE
  5
7D09
  8
1
 10
409.19680669518118
 20
2497.4241286463571
 30
0.0
 11
378.69680669518118
 21
2497.4241286463571
 31
0.0
  0
LINE
  5
7D0A
  8
1
 10
376.69680669518118
 20
1864.4241286463559
 30
0.0
 11
413.69680669518129
 21
1864.4241286463559
 31
0.0
  0
LINE
  5
7D0B
  8
1
 10
409.19680669518118
 20
1861.4241286463559
 30
0.0
 11
378.69680669518118
 21
1861.4241286463559
 31
0.0
  0
LINE
  5
7D0C
  8
2
 10
290.0727863049342
 20
2179.4241286463562
 30
0.0
 11
1165.155136004905
 21
2179.4241286463562
 31
0.0
  0
LINE
  5
7D0D
  8
1
 10
376.69680669518118
 20
2494.4241286463571
 30
0.0
 11
376.69680669518118
 21
1864.4241286463559
 31
0.0
  0
LINE
  5
7D0E
  8
1
 10
376.69680669518118
 20
1863.4241286463559
 30
0.0
 11
376.69680669518118
 21
1864.4241286463559
 31
0.0
  0
ARC
  5
7D0F
  8
1
 10
378.69680669518118
 20
1863.4241286463559
 30
0.0
 40
2.0
 50
180.0
 51
270.0
  0
ARC
  5
7D10
  8
1
 10
378.69680669518118
 20
2495.4241286463571
 30
0.0
 40
2.0
 50
90.0
 51
180.0
  0
LINE
  5
7D11
  8
1
 10
376.69680669518118
 20
2495.4241286463571
 30
0.0
 11
376.69680669518118
 21
2494.4241286463571
 31
0.0
  0
LINE
  5
7D14
  8
1
 10
1126.6968066951811
 20
2494.4241286463571
 30
0.0
 11
1126.6968066951811
 21
1864.4241286463559
 31
0.0
  0
LINE
  5
7D15
  8
1
 10
1086.6968066951811
 20
2534.4241286463571
 30
0.0
 11
1086.6968066951811
 21
1824.4241286463559
 31
0.0
  0
LINE
  5
7D16
  8
1
 10
1083.4968066951801
 20
2535.6241286463569
 30
0.0
 11
1083.4968066951801
 21
1824.4241286463559
 31
0.0
  0
LINE
  5
7D17
  8
1
 10
419.89680669518191
 20
2534.4241286463571
 30
0.0
 11
419.89680669518191
 21
1824.4241286463559
 31
0.0
  0
LINE
  5
7D18
  8
1
 10
416.69680669518118
 20
2534.4241286463571
 30
0.0
 11
416.69680669518118
 21
1824.4241286463559
 31
0.0
  0
LINE
  5
7D19
  8
1
 10
416.69680669518118
 20
2534.4241286463571
 30
0.0
 11
416.69680669518118
 21
1824.4241286463559
 31
0.0
  0
LINE
  5
7D1A
  8
1
 10
413.69680669518129
 20
2532.4241286463571
 30
0.0
 11
413.69680669518129
 21
1826.4241286463559
 31
0.0
  0
LINE
  5
7D1B
  8
1
 10
1089.6968066951811
 20
2532.4241286463571
 30
0.0
 11
1089.6968066951811
 21
1826.4241286463559
 31
0.0
  0
LINE
  5
7D1C
  8
1
 10
1086.6968066951811
 20
2534.4241286463571
 30
0.0
 11
1086.6968066951811
 21
1824.4241286463559
 31
0.0
  0
LINE
  5
7D1E
  8
1
 10
416.69680669518118
 20
1864.4241286463559
 30
0.0
 11
1086.6968066951811
 21
1864.4241286463559
 31
0.0
  0
LINE
  5
7D1F
  8
1
 10
419.89680669518191
 20
1949.4241286463559
 30
0.0
 11
419.89680669518191
 21
1779.4241286463559
 31
0.0
  0
LINE
  5
7D20
  8
1
 10
424.39680669518202
 20
1949.4241286463559
 30
0.0
 11
424.39680669518202
 21
1783.9241286463559
 31
0.0
  0
LINE
  5
7D21
  8
1
 10
479.89680669518202
 20
1779.424128646355
 30
0.0
 11
419.89680669518191
 21
1779.4241286463559
 31
0.0
  0
LINE
  5
7D22
  8
1
 10
479.89680669518202
 20
1783.924128646355
 30
0.0
 11
424.39680669518202
 21
1783.9241286463559
 31
0.0
  0
LINE
  5
7D23
  8
2
 10
402.12606350459089
 20
1841.9241286463559
 30
0.0
 11
436.0835256945283
 21
1841.9241286463559
 31
0.0
  0
LINE
  5
7D24
  8
1
 10
419.89680669518191
 20
1824.4241286463559
 30
0.0
 11
416.69680669518118
 21
1824.4241286463559
 31
0.0
  0
ARC
  5
7D25
  8
1
 10
415.69680669518118
 20
1826.4241286463559
 30
0.0
 40
2.0
 50
180.0
 51
270.0
  0
LINE
  5
7D26
  8
1
 10
416.69680669518118
 20
1824.4241286463559
 30
0.0
 11
415.69680669518118
 21
1824.4241286463559
 31
0.0
  0
LINE
  5
7D27
  8
1
 10
479.89680669518202
 20
1783.924128646355
 30
0.0
 11
479.89680669518202
 21
1779.4241286463559
 31
0.0
  0
LINE
  5
7D28
  8
1
 10
424.39680669518202
 20
1939.4241286463559
 30
0.0
 11
419.89680669518191
 21
1939.4241286463559
 31
0.0
  0
ARC
  5
7D29
  8
1
 10
409.19680669518118
 20
1856.9241286463559
 30
0.0
 40
4.5
 50
0.0
 51
90.0
  0
LINE
  5
7D2A
  8
1
 10
424.39680669518202
 20
1949.4241286463559
 30
0.0
 11
419.89680669518191
 21
1949.4241286463559
 31
0.0
  0
LINE
  5
7D2B
  8
1
 10
1126.6968066951811
 20
1864.4241286463559
 30
0.0
 11
1089.6968066951811
 21
1864.4241286463559
 31
0.0
  0
LINE
  5
7D2C
  8
1
 10
1094.1968066951811
 20
1861.4241286463559
 30
0.0
 11
1124.6968066951811
 21
1861.4241286463559
 31
0.0
  0
LINE
  5
7D2D
  8
2
 10
1066.977526342554
 20
1841.9241286463559
 30
0.0
 11
1104.5094640269961
 21
1841.9241286463559
 31
0.0
  0
LINE
  5
7D2E
  8
1
 10
1078.9968066951819
 20
1949.4241286463559
 30
0.0
 11
1078.9968066951819
 21
1783.9241286463559
 31
0.0
  0
LINE
  5
7D2F
  8
1
 10
1083.4968066951801
 20
1949.4241286463559
 30
0.0
 11
1083.4968066951819
 21
1779.4241286463559
 31
0.0
  0
LINE
  5
7D30
  8
1
 10
1023.496806695182
 20
1783.924128646355
 30
0.0
 11
1078.9968066951819
 21
1783.9241286463559
 31
0.0
  0
LINE
  5
7D31
  8
1
 10
1023.496806695182
 20
1779.424128646355
 30
0.0
 11
1083.4968066951819
 21
1779.4241286463559
 31
0.0
  0
LINE
  5
7D32
  8
1
 10
1023.496806695182
 20
1783.924128646355
 30
0.0
 11
1023.496806695182
 21
1779.4241286463559
 31
0.0
  0
LINE
  5
7D33
  8
1
 10
1086.6968066951811
 20
1824.4241286463559
 30
0.0
 11
1087.6968066951811
 21
1824.4241286463559
 31
0.0
  0
ARC
  5
7D34
  8
1
 10
1087.6968066951811
 20
1826.4241286463559
 30
0.0
 40
2.0
 50
270.0
 51
0.0
  0
LINE
  5
7D35
  8
1
 10
1083.4968066951801
 20
1824.4241286463559
 30
0.0
 11
1086.6968066951811
 21
1824.4241286463559
 31
0.0
  0
LINE
  5
7D36
  8
1
 10
1078.9968066951819
 20
1939.4241286463559
 30
0.0
 11
1083.4968066951819
 21
1939.4241286463559
 31
0.0
  0
ARC
  5
7D37
  8
1
 10
1094.1968066951811
 20
1856.9241286463559
 30
0.0
 40
4.5
 50
90.0
 51
180.0
  0
LINE
  5
7D39
  8
1
 10
1078.9968066951819
 20
1949.4241286463559
 30
0.0
 11
1083.4968066951819
 21
1949.4241286463559
 31
0.0
  0
ARC
  5
7D3A
  8
1
 10
1124.6968066951811
 20
1863.4241286463559
 30
0.0
 40
2.0
 50
270.0
 51
0.0
  0
LINE
  5
7D3B
  8
1
 10
1126.6968066951811
 20
1863.4241286463559
 30
0.0
 11
1126.6968066951811
 21
1864.4241286463559
 31
0.0
  0
LINE
  5
7D44
  8
1
 10
416.69680669518118
 20
2494.4241286463562
 30
0.0
 11
1086.6968066951811
 21
2494.4241286463571
 31
0.0
  0
LINE
  5
7D4E
  8
1
 10
402.12606350459089
 20
2516.9241286463571
 30
0.0
 11
436.0835256945283
 21
2516.9241286463571
 31
0.0
  0
ARC
  5
7D4F
  8
1
 10
409.19680669518118
 20
2501.9241286463571
 30
0.0
 40
4.5
 50
270.0
 51
0.0
  0
LINE
  5
7D50
  8
1
 10
419.89680669518191
 20
2534.4241286463571
 30
0.0
 11
416.69680669518118
 21
2534.4241286463571
 31
0.0
  0
LINE
  5
7D51
  8
1
 10
416.69680669518118
 20
2534.4241286463571
 30
0.0
 11
415.69680669518118
 21
2534.4241286463571
 31
0.0
  0
ARC
  5
7D52
  8
1
 10
415.69680669518118
 20
2532.4241286463571
 30
0.0
 40
2.0
 50
90.0
 51
180.0
  0
LINE
  5
7DA5
  8
1
 10
1066.977526342554
 20
2516.9241286463571
 30
0.0
 11
1104.5094640269961
 21
2516.9241286463571
 31
0.0
  0
LINE
  5
7DA6
  8
1
 10
1126.6968066951811
 20
2494.4241286463571
 30
0.0
 11
1089.6968066951811
 21
2494.4241286463571
 31
0.0
  0
LINE
  5
7DA7
  8
1
 10
1094.1968066951811
 20
2497.4241286463571
 30
0.0
 11
1124.6968066951811
 21
2497.4241286463571
 31
0.0
  0
ARC
  5
7DB2
  8
1
 10
1094.1968066951811
 20
2501.9241286463571
 30
0.0
 40
4.5
 50
180.0
 51
270.0
  0
ARC
  5
7DB3
  8
1
 10
1087.6968066951811
 20
2532.4241286463571
 30
0.0
 40
2.0
 50
0.0
 51
90.0
  0
LINE
  5
7DB4
  8
1
 10
1086.6968066951811
 20
2534.4241286463571
 30
0.0
 11
1087.6968066951811
 21
2534.4241286463571
 31
0.0
  0
LINE
  5
7DB5
  8
1
 10
1083.4968066951801
 20
2534.4241286463571
 30
0.0
 11
1086.6968066951811
 21
2534.4241286463571
 31
0.0
  0
ARC
  5
7DBA
  8
1
 10
1124.6968066951811
 20
2495.4241286463571
 30
0.0
 40
2.0
 50
0.0
 51
90.0
  0
LINE
  5
7DBB
  8
1
 10
1126.6968066951811
 20
2495.4241286463571
 30
0.0
 11
1126.6968066951811
 21
2494.4241286463571
 31
0.0
  0
POINT
  5
7DBD
  8
1
 10
1754.01869471328
 20
2179.4241286463562
 30
0.0
  0
CIRCLE
  5
7DBF
  8
1
 10
2124.0186947132802
 20
2179.4241286463562
 30
0.0
 40
315.0
  0
CIRCLE
  5
7DC0
  8
1
 10
2124.0186947132802
 20
2179.4241286463562
 30
0.0
 40
355.0
  0
LINE
  5
7DC1
  8
2
 10
2124.0186947132802
 20
2700.6551965523272
 30
0.0
 11
2124.0186947132802
 21
1743.695748844164
 31
0.0
  0
LINE
  5
7DC3
  8
1
 10
1844.01869471328
 20
1779.4241286463559
 30
0.0
 11
2404.018694713282
 21
1779.4241286463559
 31
0.0
  0
LINE
  5
7DC5
  8
1
 10
1844.01869471328
 20
1939.4241286463559
 30
0.0
 11
1855.890551122749
 21
1946.760640718629
 31
0.0
  0
LINE
  5
7DC6
  8
1
 10
1844.01869471328
 20
1939.4241286463559
 30
0.0
 11
1844.01869471328
 21
1779.4241286463559
 31
0.0
  0
LINE
  5
7DC8
  8
1
 10
2404.018694713282
 20
1939.4241286463559
 30
0.0
 11
2392.1468383038118
 21
1946.760640718629
 31
0.0
  0
LINE
  5
7DC9
  8
1
 10
2404.018694713282
 20
1939.4241286463559
 30
0.0
 11
2404.018694713282
 21
1779.4241286463559
 31
0.0
  0
LINE
  5
7DCA
  8
1
 10
2404.0186947132802
 20
1819.4241286463559
 30
0.0
 11
2404.0186947132802
 21
1779.4241286463559
 31
0.0
  0
POINT
  5
7DDB
  8
1
 10
1832.807316497255
 20
2307.6706615333042
 30
0.0
  0
POINT
  5
7DDC
  8
1
 10
2124.0186947132802
 20
2179.4241286463562
 30
0.0
  0
POINT
  5
7DDD
  8
1
 10
2124.0186947132802
 20
2179.4241286463562
 30
0.0
  0
POINT
  5
7DDE
  8
1
 10
2124.0186947132802
 20
2179.4241286463562
 30
0.0
  0
POINT
  5
7DF7
  8
1
 10
2494.0186947132811
 20
2179.4241286463562
 30
0.0
  0
LINE
  5
7E0F
  8
1
 10
431.69680669518129
 20
2335.4241286463562
 30
0.0
 11
431.696806695183
 21
2023.4241286463571
 31
0.0
  0
LINE
  5
7E10
  8
1
 10
561.69680669518118
 20
2335.4241286463562
 30
0.0
 11
561.69680669518118
 21
2023.4241286463571
 31
0.0
  0
LINE
  5
7E11
  8
1
 10
471.69680669518129
 20
2491.4241286463562
 30
0.0
 11
521.69680669518129
 21
2491.4241286463562
 31
0.0
  0
LINE
  5
7E12
  8
1
 10
431.69680669518129
 20
2335.4241286463562
 30
0.0
 11
561.69680669518118
 21
2335.4241286463562
 31
0.0
  0
LINE
  5
7E13
  8
1
 10
431.696806695183
 20
2023.4241286463571
 30
0.0
 11
561.69680669518118
 21
2023.4241286463571
 31
0.0
  0
LINE
  5
7E14
  8
1
 10
431.69680669518129
 20
2325.4241286463571
 30
0.0
 11
561.69680669518118
 21
2325.4241286463571
 31
0.0
  0
LINE
  5
7E15
  8
1
 10
431.696806695183
 20
2033.4241286463559
 30
0.0
 11
561.69680669518118
 21
2033.4241286463559
 31
0.0
  0
LINE
  5
7E16
  8
1
 10
471.69680669518129
 20
2491.4241286463562
 30
0.0
 11
431.69680669518129
 21
2335.4241286463562
 31
0.0
  0
LINE
  5
7E17
  8
1
 10
521.69680669518129
 20
2491.4241286463562
 30
0.0
 11
561.69680669518118
 21
2335.4241286463562
 31
0.0
  0
LINE
  5
7E18
  8
1
 10
521.69680669518129
 20
1867.4241286463559
 30
0.0
 11
561.69680669518118
 21
2023.4241286463571
 31
0.0
  0
LINE
  5
7E19
  8
1
 10
471.69680669518129
 20
1867.4241286463559
 30
0.0
 11
431.69680669518129
 21
2023.4241286463571
 31
0.0
  0
LINE
  5
7E1A
  8
1
 10
471.69680669518129
 20
1867.4241286463559
 30
0.0
 11
521.69680669518129
 21
1867.4241286463559
 31
0.0
  0
LINE
  5
7E60
  8
4
 10
2775.0
 20
750.0
 30
0.0
 11
2775.0
 21
450.0
 31
0.0
  0
LINE
  5
7E61
  8
4
 10
1725.0
 20
750.0
 30
0.0
 11
1725.0
 21
450.0
 31
0.0
  0
LINE
  5
7E62
  8
4
 10
975.0
 20
750.0
 30
0.0
 11
975.0
 21
450.0
 31
0.0
  0
LINE
  5
7E65
  8
4
 10
975.0
 20
450.0
 30
0.0
 11
2775.0
 21
450.0
 31
0.0
  0
LINE
  5
7E66
  8
4
 10
975.0
 20
600.0
 30
0.0
 11
2775.0
 21
600.0
 31
0.0
  0
TEXT
  5
7E67
  8
4
 10
1032.753121270352
 20
647.31453879991932
 30
0.0
 40
75.0
  1
機器名称
  0
TEXT
  5
7E68
  8
4
 10
1029.3871590371959
 20
482.46773509801642
 30
0.0
 40
75.0
  1
機器型番
  0
TEXT
  5
7E69
  8
4
 10
1766.5181182314971
 20
633.85765343635285
 30
0.0
 40
75.0
  1
ミツヤ軸流ファン
  0
TEXT
  5
7E6A
  8
4
 10
1779.9817433782209
 20
475.739376419915
 30
0.0
 40
75.0
  1
AP＃630-1
  0
TEXT
  5
7E6C
  8
4
 10
1226.1533655760829
 20
3566.4154574076128
 30
0.0
 40
80.999999999999986
  1
床置ベット
  0
TEXT
  5
7E6D
  8
4
 10
474.25138999416959
 20
3800.8214642989469
 30
0.0
 40
108.0
  1
電動機直動式横形軸流ファン
  0
LINE
  5
7E6E
  8
4
 10
375.0
 20
3704.1131313972069
 30
0.0
 11
2775.0
 21
3704.1131313972069
 31
0.0
  0
LINE
  5
7E6F
  8
4
 10
375.0
 20
4004.1131313972069
 30
0.0
 11
2775.0
 21
4004.1131313972069
 31
0.0
  0
LINE
  5
7E70
  8
4
 10
975.0
 20
750.0
 30
0.0
 11
2775.0
 21
750.0
 31
0.0
  0
LINE
  5
7E71
  8
4
 10
375.0
 20
4004.1131313972069
 30
0.0
 11
375.0
 21
3704.1131313972069
 31
0.0
  0
TEXT
  5
7E72
  8
4
 10
432.60480866188658
 20
3573.4792163195152
 30
0.0
 40
80.999999999999986
  1
左回転後方吐出
  0
TEXT
  5
7E73
  8
4
 10
2203.4543388739339
 20
4059.0916222429628
 30
0.0
 40
84.000000000000014
  1
No.
  0
TEXT
  5
7E74
  8
4
 10
1966.944093900019
 20
3575.1432619987731
 30
0.0
 40
80.999999999999986
  1
縮尺：1/15
  0
LINE
  5
7E75
  8
4
 10
2775.0
 20
4004.1131313972069
 30
0.0
 11
2775.0
 21
3704.1131313972069
 31
0.0
  0
LINE
  5
7E76
  8
4
 10
3150.0
 20
4425.0
 30
0.0
 11
3150.0
 21
4425.0
 31
0.0
  0
LINE
  5
7E77
  8
4
 10
2160.9261335397969
 20
4021.895374688102
 30
0.0
 11
2160.9261335397969
 21
4179.9783923246277
 31
0.0
  0
LINE
  5
7E78
  8
4
 10
2160.9261335397969
 20
4179.9783923246277
 30
0.0
 11
2775.0
 21
4179.9783923246277
 31
0.0
  0
LINE
  5
7E79
  8
4
 10
2775.0
 20
4179.9783923246277
 30
0.0
 11
2775.0
 21
4021.895374688102
 31
0.0
  0
LINE
  5
7E7A
  8
4
 10
2775.0
 20
4021.895374688102
 30
0.0
 11
2160.9261335397969
 21
4021.895374688102
 31
0.0
  0
LINE
  5
7E7B
  8
4
 10
0.0
 20
0.0
 30
0.0
 11
0.0
 21
4425.0
 31
0.0
  0
LINE
  5
7E7C
  8
4
 10
0.0
 20
4425.0
 30
0.0
 11
3150.0
 21
4425.0
 31
0.0
  0
LINE
  5
7E7D
  8
4
 10
3150.0
 20
4425.0
 30
0.0
 11
3150.0
 21
0.0
 31
0.0
  0
LINE
  5
7E7E
  8
4
 10
3150.0
 20
0.0
 30
0.0
 11
0.0
 21
0.0
 31
0.0
  0
DIMENSION
  5
7ECC
  8
3
  2
*D1
 10
1596.1825756071339
 20
1779.4241286463559
 30
0.0
 11
1596.1825756071339
 21
1937.5567540235879
 31
0.0
 70
   128
 13
1754.01869471328
 23
2179.4241286463562
 33
0.0
 14
1844.01869471328
 24
1779.4241286463559
 34
0.0
 50
90.0
1001
ACAD
1000
DSTYLE
1002
{
1070
   287
1070
     3
1070
   287
1070
     3
1070
   287
1070
     3
1070
   287
1070
     3
1070
   287
1070
     3
1070
   287
1070
     3
1070
    40
1040
15.0
1070
   143
1040
0.039
1070
   172
1070
     1
1070
   271
1070
     0
1070
   279
1070
     0
1070
   288
1070
     1
1002
}
  0
DIMENSION
  5
7F60
  8
3
  2
*D3
 10
2479.0186947132802
 20
2909.4319188707741
 30
0.0
 11
2124.6377162740418
 21
2909.4319188707741
 31
0.0
 70
   128
 13
1769.01869471328
 23
2179.4241286463562
 33
0.0
 14
2479.0186947132802
 24
2179.4241286463562
 34
0.0
1001
ACAD
1000
DSTYLE
1002
{
1070
   287
1070
     3
1070
   287
1070
     3
1070
   287
1070
     3
1070
   287
1070
     3
1070
   287
1070
     3
1070
   287
1070
     3
1070
    40
1040
15.0
1070
   143
1040
0.039
1070
   172
1070
     1
1070
   271
1070
     0
1070
   279
1070
     0
1070
   288
1070
     1
1002
}
  0
LINE
  5
8340
  8
2
 10
1869.0186947132811
 20
1806.7394278100601
 30
0.0
 11
1869.0186947132811
 21
1750.085941794563
 31
0.0
  0
LINE
  5
8341
  8
2
 10
2379.0186947132811
 20
1806.7394278100601
 30
0.0
 11
2379.0186947132802
 21
1750.085941794563
 31
0.0
  0
LINE
  5
8343
  8
2
 10
456.69680669518129
 20
1806.7394278100601
 30
0.0
 11
456.69680669518141
 21
1750.085941794563
 31
0.0
  0
LINE
  5
8344
  8
2
 10
1046.6968066951811
 20
1806.7394278100601
 30
0.0
 11
1046.6968066951811
 21
1750.085941794563
 31
0.0
  0
DIMENSION
  5
8345
  8
3
  2
*D4
 10
2404.018694713282
 20
1465.5152143748601
 30
0.0
 11
2131.7684566364619
 21
1465.5152143748601
 31
0.0
 70
   128
 13
1844.01869471328
 23
1779.4241286463559
 33
0.0
 14
2404.018694713282
 24
1779.4241286463559
 34
0.0
1001
ACAD
1000
DSTYLE
1002
{
1070
   287
1070
     3
1070
   287
1070
     3
1070
    40
1040
15.0
1070
   143
1040
0.039
1070
   172
1070
     1
1070
   271
1070
     0
1070
   279
1070
     0
1070
   288
1070
     1
1002
}
  0
DIMENSION
  5
8352
  8
3
  2
*D5
 10
2379.0186947132802
 20
1585.7386053308271
 30
0.0
 11
2118.808503441378
 21
1585.7386053308271
 31
0.0
 70
   128
 13
1869.0186947132811
 23
1750.085941794563
 33
0.0
 14
2379.0186947132802
 24
1750.085941794563
 34
0.0
1001
ACAD
1000
DSTYLE
1002
{
1070
   287
1070
     3
1070
   287
1070
     3
1070
    40
1040
15.0
1070
   143
1040
0.039
1070
   172
1070
     1
1070
   271
1070
     0
1070
   279
1070
     0
1070
   288
1070
     1
1002
}
  0
DIMENSION
  5
835F
  8
3
  2
*D6
 10
2404.018694713282
 20
1585.7386053308271
 30
0.0
 11
2474.2817503507072
 21
1583.8890166263441
 31
0.0
 70
   128
 13
2379.0186947132802
 23
1750.085941794563
 33
0.0
 14
2404.018694713282
 24
1771.9241286463559
 34
0.0
1001
ACAD
1000
DSTYLE
1002
{
1070
   287
1070
     4
1070
   287
1070
     4
1070
    40
1040
15.0
1070
   143
1040
0.039
1070
   172
1070
     1
1070
   271
1070
     0
1070
   279
1070
     1
1070
   288
1070
     1
1002
}
  0
DIMENSION
  5
8371
  8
3
  2
*D7
 10
1844.01869471328
 20
1585.7386053308271
 30
0.0
 11
1785.5523306809951
 21
1587.5881940353099
 31
0.0
 70
   128
 13
1869.0186947132811
 23
1750.085941794563
 33
0.0
 14
1844.01869471328
 24
1771.9241286463559
 34
0.0
1001
ACAD
1000
DSTYLE
1002
{
1070
   287
1070
     4
1070
   287
1070
     4
1070
    40
1040
15.0
1070
   143
1040
0.039
1070
   172
1070
     1
1070
   271
1070
     0
1070
   279
1070
     1
1070
   288
1070
     1
1002
}
  0
DIMENSION
  5
8399
  8
3
  2
*D8
 10
1046.6968066951811
 20
1597.347226373975
 30
0.0
 11
750.46549670182867
 21
1597.347226373975
 31
0.0
 70
   128
 13
456.69680669518141
 23
1750.085941794563
 33
0.0
 14
1046.6968066951811
 24
1750.085941794563
 34
0.0
1001
ACAD
1000
DSTYLE
1002
{
1070
   287
1070
     3
1070
   287
1070
     3
1070
    40
1040
15.0
1070
   143
1040
0.039
1070
   172
1070
     1
1070
   271
1070
     0
1070
   279
1070
     0
1070
   288
1070
     1
1002
}
  0
DIMENSION
  5
83A6
  8
3
  2
*D9
 10
1086.6968066951811
 20
1472.363564613813
 30
0.0
 11
736.94034973995804
 21
1472.363564613813
 31
0.0
 70
   128
 13
416.69680669518118
 23
1824.4241286463559
 33
0.0
 14
1086.6968066951811
 24
1824.4241286463559
 34
0.0
1001
ACAD
1000
DSTYLE
1002
{
1070
   287
1070
     3
1070
   287
1070
     3
1070
    40
1040
15.0
1070
   143
1040
0.039
1070
   172
1070
     1
1070
   271
1070
     0
1070
   279
1070
     0
1070
   288
1070
     1
1002
}
  0
DIMENSION
  5
83B3
  8
3
  2
*D10
 10
1086.6968066951811
 20
1597.347226373975
 30
0.0
 11
1173.125905489017
 21
1593.969283931601
 31
0.0
 70
   128
 13
1046.6968066951811
 23
1750.085941794563
 33
0.0
 14
1086.6968066951811
 24
1824.4241286463559
 34
0.0
1001
ACAD
1000
DSTYLE
1002
{
1070
   287
1070
     4
1070
   287
1070
     4
1070
    40
1040
15.0
1070
   143
1040
0.039
1070
   172
1070
     1
1070
   271
1070
     0
1070
   279
1070
     1
1070
   288
1070
     1
1002
}
  0
DIMENSION
  5
83C5
  8
3
  2
*D11
 10
416.69680669518118
 20
1597.347226373975
 30
0.0
 11
337.94891787293091
 21
1593.969283931601
 31
0.0
 70
   128
 13
456.69680669518141
 23
1750.085941794563
 33
0.0
 14
416.69680669518118
 24
1824.4241286463559
 34
0.0
1001
ACAD
1000
DSTYLE
1002
{
1070
   287
1070
     4
1070
   287
1070
     4
1070
    40
1040
15.0
1070
   143
1040
0.039
1070
   172
1070
     1
1070
   271
1070
     0
1070
   279
1070
     1
1070
   288
1070
     1
1002
}
  0
ENDSEC
  0
EOF
