  0
SECTION
  2
HEADER
  9
$ACADVER
  1
AC1009
  9
$INSBASE
 10
0.0
 20
0.0
 30
0.0
  9
$EXTMIN
 10
0.0
 20
0.0
 30
0.0
  9
$EXTMAX
 10
3150.0
 20
4425.0
 30
0.0
  9
$LIMMIN
 10
0.0
 20
0.0
  9
$LIMMAX
 10
297.0
 20
210.0
  9
$ORTHOMODE
 70
     0
  9
$REGENMODE
 70
     1
  9
$FILLMODE
 70
     0
  9
$QTEXTMODE
 70
     0
  9
$MIRRTEXT
 70
     1
  9
$DRAGMODE
 70
     2
  9
$LTSCALE
 40
100.0
  9
$OSMODE
 70
    37
  9
$ATTMODE
 70
     1
  9
$TEXTSIZE
 40
180.0
  9
$TRACEWID
 40
0.05
  9
$TEXTSTYLE
  7
STANDARD
  9
$CLAYER
  8
3
  9
$CELTYPE
  6
BYLAYER
  9
$CECOLOR
 62
   256
  9
$DIMSCALE
 40
15.0
  9
$DIMASZ
 40
2.0
  9
$DIMEXO
 40
0.5
  9
$DIMDLI
 40
10.0
  9
$DIMRND
 40
0.0
  9
$DIMDLE
 40
0.0
  9
$DIMEXE
 40
1.0
  9
$DIMTP
 40
1.0
  9
$DIMTM
 40
1.0
  9
$DIMTXT
 40
3.0
  9
$DIMCEN
 40
0.0
  9
$DIMTSZ
 40
0.0
  9
$DIMTOL
 70
     0
  9
$DIMLIM
 70
     0
  9
$DIMTIH
 70
     0
  9
$DIMTOH
 70
     0
  9
$DIMSE1
 70
     0
  9
$DIMSE2
 70
     0
  9
$DIMTAD
 70
     1
  9
$DIMZIN
 70
     8
  9
$DIMBLK
  1

  9
$DIMASO
 70
     1
  9
$DIMSHO
 70
     1
  9
$DIMPOST
  1

  9
$DIMAPOST
  1

  9
$DIMALT
 70
     0
  9
$DIMALTD
 70
     2
  9
$DIMALTF
 40
0.039
  9
$DIMLFAC
 40
1.0
  9
$DIMTOFL
 70
     1
  9
$DIMTVP
 40
0.0
  9
$DIMTIX
 70
     0
  9
$DIMSOXD
 70
     0
  9
$DIMSAH
 70
     1
  9
$DIMBLK1
  1
OPEN
  9
$DIMBLK2
  1
OPEN
  9
$DIMSTYLE
  2
IGA
  9
$DIMCLRD
 70
     0
  9
$DIMCLRE
 70
     0
  9
$DIMCLRT
 70
     0
  9
$DIMTFAC
 40
10.0
  9
$DIMGAP
 40
1.0
  9
$LUNITS
 70
     2
  9
$LUPREC
 70
     3
  9
$SKETCHINC
 40
0.1
  9
$FILLETRAD
 40
50.0
  9
$AUNITS
 70
     0
  9
$AUPREC
 70
     0
  9
$MENU
  1
acad
  9
$ELEVATION
 40
0.0
  9
$PELEVATION
 40
0.0
  9
$THICKNESS
 40
0.0
  9
$LIMCHECK
 70
     0
  9
$BLIPMODE
 70
     0
  9
$CHAMFERA
 40
0.5
  9
$CHAMFERB
 40
0.5
  9
$SKPOLY
 70
     0
  9
$TDCREATE
 40
2452600.6231836802
  9
$TDUPDATE
 40
2454953.6252510068
  9
$TDINDWG
 40
0.0503989931
  9
$TDUSRTIMER
 40
0.0503989931
  9
$USRTIMER
 70
     1
  9
$ANGBASE
 50
0.0
  9
$ANGDIR
 70
     0
  9
$PDMODE
 70
     0
  9
$PDSIZE
 40
0.0
  9
$PLINEWID
 40
0.0
  9
$COORDS
 70
     1
  9
$SPLFRAME
 70
     0
  9
$SPLINETYPE
 70
     6
  9
$SPLINESEGS
 70
     8
  9
$ATTDIA
 70
     0
  9
$ATTREQ
 70
     1
  9
$HANDLING
 70
 10241
  9
$HANDSEED
  5
8144
  9
$SURFTAB1
 70
     6
  9
$SURFTAB2
 70
     6
  9
$SURFTYPE
 70
     6
  9
$SURFU
 70
     6
  9
$SURFV
 70
     6
  9
$UCSNAME
  2

  9
$UCSORG
 10
0.0
 20
0.0
 30
0.0
  9
$UCSXDIR
 10
1.0
 20
0.0
 30
0.0
  9
$UCSYDIR
 10
0.0
 20
1.0
 30
0.0
  9
$PUCSNAME
  2

  9
$PUCSORG
 10
0.0
 20
0.0
 30
0.0
  9
$PUCSXDIR
 10
1.0
 20
0.0
 30
0.0
  9
$PUCSYDIR
 10
0.0
 20
1.0
 30
0.0
  9
$USERI1
 70
     0
  9
$USERI2
 70
     0
  9
$USERI3
 70
     0
  9
$USERI4
 70
     0
  9
$USERI5
 70
     0
  9
$USERR1
 40
0.0
  9
$USERR2
 40
0.0
  9
$USERR3
 40
0.0
  9
$USERR4
 40
0.0
  9
$USERR5
 40
0.0
  9
$WORLDVIEW
 70
     1
  9
$SHADEDGE
 70
     3
  9
$SHADEDIF
 70
    70
  9
$TILEMODE
 70
     1
  9
$MAXACTVP
 70
    16
  9
$PLIMCHECK
 70
     0
  9
$PEXTMIN
 10
1.0000000000000000E+020
 20
1.0000000000000000E+020
 30
1.0000000000000000E+020
  9
$PEXTMAX
 10
-1.0000000000000000E+020
 20
-1.0000000000000000E+020
 30
-1.0000000000000000E+020
  9
$PLIMMIN
 10
0.0
 20
0.0
  9
$PLIMMAX
 10
12.0
 20
9.0
  9
$UNITMODE
 70
     0
  9
$VISRETAIN
 70
     0
  9
$PLINEGEN
 70
     0
  9
$PSLTSCALE
 70
     1
  0
ENDSEC
  0
SECTION
  2
TABLES
  0
TABLE
  2
VPORT
 70
     2
  0
VPORT
  2
*ACTIVE
 70
     0
 10
0.0
 20
0.0
 11
1.0
 21
1.0
 12
2961.1433385358491
 22
516.81159146836399
 13
0.0
 23
0.0
 14
10.0
 24
10.0
 15
10.0
 25
10.0
 16
0.0
 26
0.0
 36
1.0
 17
0.0
 27
0.0
 37
0.0
 40
1288.378777778295
 41
3.1666666666666661
 42
50.0
 43
0.0
 44
0.0
 50
0.0
 51
0.0
 71
     0
 72
   100
 73
     1
 74
     0
 75
     0
 76
     0
 77
     0
 78
     0
  0
ENDTAB
  0
TABLE
  2
LTYPE
 70
     2
  0
LTYPE
  2
CONTINUOUS
 70
     0
  3
Solid line
 72
    65
 73
     0
 40
0.0
  0
LTYPE
  2
CENTER
 70
     0
  3
____ _ ____ _ ____ _ ____ _ ____ _ ____ _ ____ 
 72
    65
 73
     4
 40
2.0
 49
1.25
 49
-0.25
 49
0.25
 49
-0.25
  0
ENDTAB
  0
TABLE
  2
LAYER
 70
     6
  0
LAYER
  2
0
 70
     0
 62
     7
  6
CONTINUOUS
  0
LAYER
  2
3
 70
     0
 62
     2
  6
CONTINUOUS
  0
LAYER
  2
2
 70
     0
 62
     3
  6
CENTER
  0
LAYER
  2
1
 70
     0
 62
     4
  6
CONTINUOUS
  0
LAYER
  2
4
 70
     0
 62
     7
  6
CONTINUOUS
  0
LAYER
  2
DEFPOINTS
 70
     0
 62
     7
  6
CONTINUOUS
  0
ENDTAB
  0
TABLE
  2
STYLE
 70
     1
  0
STYLE
  2
STANDARD
 70
     0
 40
0.0
 41
1.0
 50
0.0
 71
     0
 42
180.0
  3
simplex.shx
  4
extfont.shx
  0
ENDTAB
  0
TABLE
  2
VIEW
 70
     0
  0
ENDTAB
  0
TABLE
  2
UCS
 70
     0
  0
ENDTAB
  0
TABLE
  2
APPID
 70
     1
  0
APPID
  2
ACAD
 70
     0
  0
ENDTAB
  0
TABLE
  2
DIMSTYLE
 70
     1
  0
DIMSTYLE
  2
IGA
 70
     0
  3

  4

  5

  6
OPEN
  7
OPEN
 40
2.0
 41
2.0
 42
0.5
 43
10.0
 44
1.0
 45
0.0
 46
0.0
 47
1.0
 48
1.0
140
3.0
141
0.0
142
0.0
143
0.03937
144
1.0
145
0.0
146
10.0
147
1.0
 71
     0
 72
     0
 73
     0
 74
     0
 75
     0
 76
     0
 77
     1
 78
     8
170
     0
171
     2
172
     0
173
     1
174
     0
175
     0
176
     0
177
     0
178
     0
  0
ENDTAB
  0
ENDSEC
  0
SECTION
  2
BLOCKS
  0
BLOCK
  8
0
  2
$MODEL_SPACE
 70
     0
 10
0.0
 20
0.0
 30
0.0
  3
$MODEL_SPACE
  1

  0
ENDBLK
  5
1B
  8
0
  0
BLOCK
 67
     1
  8
0
  2
$PAPER_SPACE
 70
     0
 10
0.0
 20
0.0
 30
0.0
  3
$PAPER_SPACE
  1

  0
ENDBLK
  5
18
 67
     1
  8
0
  0
BLOCK
  8
0
  2
_OPEN
 70
     0
 10
0.0
 20
0.0
 30
0.0
  3
_OPEN
  1

  0
LINE
  5
7EBA
  8
0
  6
BYBLOCK
 62
     0
 10
-1.0
 20
0.1666666666666666
 30
0.0
 11
0.0
 21
0.0
 31
0.0
  0
LINE
  5
7EBB
  8
0
  6
BYBLOCK
 62
     0
 10
0.0
 20
0.0
 30
0.0
 11
-1.0
 21
-0.1666666666666666
 31
0.0
  0
LINE
  5
7EBC
  8
0
  6
BYBLOCK
 62
     0
 10
0.0
 20
0.0
 30
0.0
 11
-1.0
 21
0.0
 31
0.0
  0
ENDBLK
  5
7EBD
  8
0
  0
BLOCK
  8
0
  2
*D1
 70
     1
 10
0.0
 20
0.0
 30
0.0
  3
*D1
  1

  0
LINE
  5
80FC
  8
3
 62
     0
 10
634.40862498078957
 20
1809.4336569985139
 30
0.0
 11
634.40862498078957
 21
1558.748863469805
 31
0.0
  0
LINE
  5
80FD
  8
3
 62
     0
 10
1384.408624980789
 20
1807.4336569985139
 30
0.0
 11
1384.408624980789
 21
1558.748863469805
 31
0.0
  0
LINE
  5
80FE
  8
3
 62
     0
 10
664.40862498078957
 20
1573.748863469805
 30
0.0
 11
1354.408624980789
 21
1573.748863469805
 31
0.0
  0
INSERT
  5
80FF
  8
3
 62
     0
  2
_OPEN
 10
634.40862498078957
 20
1573.748863469805
 30
0.0
 41
30.0
 42
30.0
 43
30.0
 50
180.0
  0
INSERT
  5
8100
  8
3
 62
     0
  2
_OPEN
 10
1384.408624980789
 20
1573.748863469805
 30
0.0
 41
30.0
 42
30.0
 43
30.0
  0
TEXT
  8
3
  40
45
  5
813D
  62
0
  72
0
  71
0
 10
907.834
 20
1531.60
 30
0.000000
  1
750
  0
POINT
  5
8102
  8
DEFPOINTS
 62
     0
 10
634.40862498078957
 20
1816.9336569985139
 30
0.0
  0
POINT
  5
8103
  8
DEFPOINTS
 62
     0
 10
1384.408624980789
 20
1814.9336569985139
 30
0.0
  0
POINT
  5
8104
  8
DEFPOINTS
 62
     0
 10
1384.408624980789
 20
1573.748863469805
 30
0.0
  0
ENDBLK
  5
7EEB
  8
0
  0
BLOCK
  8
0
  2
*D2
 70
     1
 10
0.0
 20
0.0
 30
0.0
  3
*D2
  1

  0
LINE
  5
8105
  8
3
 62
     0
 10
1799.586114858763
 20
1807.4336569985151
 30
0.0
 11
1799.586114858763
 21
1543.969209706612
 31
0.0
  0
LINE
  5
8106
  8
3
 62
     0
 10
2579.5861148587628
 20
1807.4336569985151
 30
0.0
 11
2579.5861148587628
 21
1543.969209706612
 31
0.0
  0
LINE
  5
8107
  8
3
 62
     0
 10
1829.586114858763
 20
1558.969209706612
 30
0.0
 11
2549.5861148587628
 21
1558.969209706612
 31
0.0
  0
INSERT
  5
8108
  8
3
 62
     0
  2
_OPEN
 10
1799.586114858763
 20
1558.969209706612
 30
0.0
 41
30.0
 42
30.0
 43
30.0
 50
180.0
  0
INSERT
  5
8109
  8
3
 62
     0
  2
_OPEN
 10
2579.5861148587628
 20
1558.969209706612
 30
0.0
 41
30.0
 42
30.0
 43
30.0
  0
TEXT
  8
3
  40
45
  5
813E
  62
0
  72
0
  71
0
 10
2098.17
 20
1516.82
 30
0.000000
  1
780
  0
POINT
  5
810B
  8
DEFPOINTS
 62
     0
 10
1799.586114858763
 20
1814.9336569985151
 30
0.0
  0
POINT
  5
810C
  8
DEFPOINTS
 62
     0
 10
2579.5861148587628
 20
1814.9336569985151
 30
0.0
  0
POINT
  5
810D
  8
DEFPOINTS
 62
     0
 10
2579.5861148587628
 20
1558.969209706612
 30
0.0
  0
ENDBLK
  5
7EF8
  8
0
  0
BLOCK
  8
0
  2
*D3
 70
     1
 10
0.0
 20
0.0
 30
0.0
  3
*D3
  1

  0
LINE
  5
810E
  8
3
 62
     0
 10
1793.695178148148
 20
2349.9336569985148
 30
0.0
 11
1670.2642940611361
 21
2349.9336569985148
 31
0.0
  0
LINE
  5
810F
  8
3
 62
     0
 10
1902.086114858763
 20
1949.9336569985151
 30
0.0
 11
1670.2642940611361
 21
1949.9336569985151
 31
0.0
  0
LINE
  5
8110
  8
3
 62
     0
 10
1685.264294061137
 20
2319.9336569985148
 30
0.0
 11
1685.264294061137
 21
1979.9336569985151
 31
0.0
  0
INSERT
  5
8111
  8
3
 62
     0
  2
_OPEN
 10
1685.264294061137
 20
2349.9336569985148
 30
0.0
 41
30.0
 42
30.0
 43
30.0
 50
90.0
  0
INSERT
  5
8112
  8
3
 62
     0
  2
_OPEN
 10
1685.264294061137
 20
1949.9336569985151
 30
0.0
 41
30.0
 42
30.0
 43
30.0
 50
270.0
  0
TEXT
  8
3
  40
45
  5
813F
  62
0
  72
0
  71
0
 10
1557.76
 20
2043.45
 30
0.000000
  1
400
  0
POINT
  5
8114
  8
DEFPOINTS
 62
     0
 10
1801.195178148148
 20
2349.9336569985148
 30
0.0
  0
POINT
  5
8115
  8
DEFPOINTS
 62
     0
 10
1909.586114858763
 20
1949.9336569985151
 30
0.0
  0
POINT
  5
8116
  8
DEFPOINTS
 62
     0
 10
1685.264294061137
 20
1949.9336569985151
 30
0.0
  0
ENDBLK
  5
7F05
  8
0
  0
BLOCK
  8
0
  2
*D4
 70
     1
 10
0.0
 20
0.0
 30
0.0
  3
*D4
  1

  0
LINE
  5
7F3D
  8
0
  6
BYBLOCK
 62
     0
 10
2001.7265599697521
 20
2003.3064380757969
 30
0.0
 11
1879.9047391721249
 21
2003.3064380757969
 31
0.0
  0
LINE
  5
7F3E
  8
0
  6
BYBLOCK
 62
     0
 10
1894.9047391721249
 20
2068.3064380757969
 30
0.0
 11
1894.9047391721249
 21
2033.3064380757969
 31
0.0
  0
TEXT
  5
7F3F
  8
3
 62
     0
 10
1838.11902488641
 20
1985.4492952186531
 30
0.0
 40
45.0
  1
(95)
 50
90.0
  0
INSERT
  5
7F40
  8
0
  6
BYBLOCK
 62
     0
  2
_OPEN
 10
1894.9047391721249
 20
2098.306438075796
 30
0.0
 41
30.0
 42
30.0
 43
30.0
 50
90.0
  0
INSERT
  5
7F41
  8
0
  6
BYBLOCK
 62
     0
  2
_OPEN
 10
1894.9047391721249
 20
2003.3064380757969
 30
0.0
 41
30.0
 42
30.0
 43
30.0
 50
270.0
  0
POINT
  5
7F42
  8
DEFPOINTS
  6
BYBLOCK
 62
     0
 10
2119.2265599697521
 20
2098.306438075796
 30
0.0
  0
POINT
  5
7F43
  8
DEFPOINTS
  6
BYBLOCK
 62
     0
 10
2009.226559969751
 20
2003.3064380757969
 30
0.0
  0
POINT
  5
7F44
  8
DEFPOINTS
  6
BYBLOCK
 62
     0
 10
1894.9047391721249
 20
2003.3064380757969
 30
0.0
  0
ENDBLK
  5
7F45
  8
0
  0
BLOCK
  8
0
  2
*D5
 70
     1
 10
0.0
 20
0.0
 30
0.0
  3
*D5
  1

  0
LINE
  5
8117
  8
3
 62
     0
 10
1792.086114858763
 20
1854.9336569985151
 30
0.0
 11
1670.2642940611361
 21
1854.9336569985151
 31
0.0
  0
LINE
  5
8118
  8
3
 62
     0
 10
1792.086114858763
 20
1814.9336569985151
 30
0.0
 11
1670.2642940611361
 21
1814.9336569985151
 31
0.0
  0
LINE
  5
8119
  8
3
 62
     0
 10
1685.2642940611361
 20
1884.9336569985151
 30
0.0
 11
1685.2642940611361
 21
1914.9336569985151
 31
0.0
  0
LINE
  5
811A
  8
3
 62
     0
 10
1685.2642940611361
 20
1784.9336569985151
 30
0.0
 11
1685.2642940611361
 21
1652.0765141413719
 31
0.0
  0
LINE
  5
811B
  8
3
 62
     0
 10
1685.2642940611361
 20
1854.9336569985151
 30
0.0
 11
1685.2642940611361
 21
1814.9336569985151
 31
0.0
  0
INSERT
  5
811C
  8
3
 62
     0
  2
_OPEN
 10
1685.2642940611361
 20
1854.9336569985151
 30
0.0
 41
30.0
 42
30.0
 43
30.0
 50
270.0
  0
INSERT
  5
811D
  8
3
 62
     0
  2
_OPEN
 10
1685.2642940611361
 20
1814.9336569985151
 30
0.0
 41
30.0
 42
30.0
 43
30.0
 50
90.0
  0
TEXT
  8
3
  40
45
  5
8140
  62
0
  72
0
  71
0
 10
1557.76
 20
1623.86
 30
0.000000
  1
40
  0
POINT
  5
811F
  8
DEFPOINTS
 62
     0
 10
1799.586114858763
 20
1854.9336569985151
 30
0.0
  0
POINT
  5
8120
  8
DEFPOINTS
 62
     0
 10
1799.586114858763
 20
1814.9336569985151
 30
0.0
  0
POINT
  5
8121
  8
DEFPOINTS
 62
     0
 10
1685.2642940611361
 20
1814.9336569985151
 30
0.0
  0
ENDBLK
  5
7F31
  8
0
  0
BLOCK
  8
0
  2
*D6
 70
     1
 10
0.0
 20
0.0
 30
0.0
  3
*D6
  1

  0
LINE
  5
8122
  8
3
 62
     0
 10
1834.586114858763
 20
2357.4336569985148
 30
0.0
 11
1834.586114858763
 21
2857.503334289654
 31
0.0
  0
LINE
  5
8123
  8
3
 62
     0
 10
2544.5861148587642
 20
2357.4336569985148
 30
0.0
 11
2544.5861148587642
 21
2857.503334289654
 31
0.0
  0
LINE
  5
8124
  8
3
 62
     0
 10
1864.586114858763
 20
2842.503334289655
 30
0.0
 11
2514.5861148587628
 21
2842.503334289655
 31
0.0
  0
INSERT
  5
8125
  8
3
 62
     0
  2
_OPEN
 10
1834.586114858763
 20
2842.503334289655
 30
0.0
 41
30.0
 42
30.0
 43
30.0
 50
180.0
  0
INSERT
  5
8126
  8
3
 62
     0
  2
_OPEN
 10
2544.5861148587642
 20
2842.503334289655
 30
0.0
 41
30.0
 42
30.0
 43
30.0
  0
TEXT
  8
3
  40
45
  5
8141
  62
0
  72
0
  71
0
 10
2098.17
 20
2800.35
 30
0.000000
  1
710
  0
POINT
  5
8128
  8
DEFPOINTS
 62
     0
 10
1834.586114858763
 20
2349.9336569985148
 30
0.0
  0
POINT
  5
8129
  8
DEFPOINTS
 62
     0
 10
2544.5861148587642
 20
2349.9336569985148
 30
0.0
  0
POINT
  5
812A
  8
DEFPOINTS
 62
     0
 10
2544.5861148587642
 20
2842.503334289655
 30
0.0
  0
ENDBLK
  5
7F51
  8
0
  0
BLOCK
  8
0
  2
*D7
 70
     1
 10
0.0
 20
0.0
 30
0.0
  3
*D7
  1

  0
LINE
  5
812B
  8
3
 62
     0
 10
634.40862498078877
 20
2674.4336569985148
 30
0.0
 11
634.40862498078877
 21
2857.503334289654
 31
0.0
  0
LINE
  5
812C
  8
3
 62
     0
 10
1384.4086249807881
 20
2674.4336569985148
 30
0.0
 11
1384.4086249807881
 21
2857.503334289654
 31
0.0
  0
LINE
  5
812D
  8
3
 62
     0
 10
664.40862498078866
 20
2842.503334289655
 30
0.0
 11
1354.4086249807881
 21
2842.503334289655
 31
0.0
  0
INSERT
  5
812E
  8
3
 62
     0
  2
_OPEN
 10
634.40862498078877
 20
2842.503334289655
 30
0.0
 41
30.0
 42
30.0
 43
30.0
 50
180.0
  0
INSERT
  5
812F
  8
3
 62
     0
  2
_OPEN
 10
1384.4086249807881
 20
2842.503334289655
 30
0.0
 41
30.0
 42
30.0
 43
30.0
  0
TEXT
  8
3
  40
45
  5
8142
  62
0
  72
0
  71
0
 10
896.980
 20
2800.35
 30
0.000000
  1
750
  0
POINT
  5
8131
  8
DEFPOINTS
 62
     0
 10
634.40862498078877
 20
2666.9336569985148
 30
0.0
  0
POINT
  5
8132
  8
DEFPOINTS
 62
     0
 10
1384.4086249807881
 20
2666.9336569985148
 30
0.0
  0
POINT
  5
8133
  8
DEFPOINTS
 62
     0
 10
1384.4086249807881
 20
2842.503334289655
 30
0.0
  0
ENDBLK
  5
7F5E
  8
0
  0
BLOCK
  8
0
  2
*D8
 70
     1
 10
0.0
 20
0.0
 30
0.0
  3
*D8
  1

  0
LINE
  5
8134
  8
3
 62
     0
 10
661.90862498078855
 20
2701.9336569985148
 30
0.0
 11
461.833841279757
 21
2701.9336569985148
 31
0.0
  0
LINE
  5
8135
  8
3
 62
     0
 10
626.90862498078957
 20
1816.9336569985139
 30
0.0
 11
461.83384127975683
 21
1816.9336569985139
 31
0.0
  0
LINE
  5
8136
  8
3
 62
     0
 10
476.833841279757
 20
2671.9336569985148
 30
0.0
 11
476.83384127975683
 21
1846.9336569985139
 31
0.0
  0
INSERT
  5
8137
  8
3
 62
     0
  2
_OPEN
 10
476.833841279757
 20
2701.9336569985148
 30
0.0
 41
30.0
 42
30.0
 43
30.0
 50
90.0
  0
INSERT
  5
8138
  8
3
 62
     0
  2
_OPEN
 10
476.83384127975683
 20
1816.9336569985139
 30
0.0
 41
30.0
 42
30.0
 43
30.0
 50
270.0
  0
TEXT
  8
3
  40
45
  5
8143
  62
0
  72
0
  71
0
 10
349.334
 20
2271.20
 30
0.000000
  1
885
  0
POINT
  5
813A
  8
DEFPOINTS
 62
     0
 10
669.40862498078855
 20
2701.9336569985148
 30
0.0
  0
POINT
  5
813B
  8
DEFPOINTS
 62
     0
 10
634.40862498078957
 20
1816.9336569985139
 30
0.0
  0
POINT
  5
813C
  8
DEFPOINTS
 62
     0
 10
476.83384127975683
 20
1816.9336569985139
 30
0.0
  0
ENDBLK
  5
7F6B
  8
0
  0
ENDSEC
  0
SECTION
  2
ENTITIES
  0
LINE
  5
7D27
  8
2
 10
1801.195178148148
 20
2349.9336569985148
 30
0.0
 11
2577.977051569379
 21
2349.9336569985148
 31
0.0
  0
LINE
  5
7D28
  8
1
 10
634.40862498078832
 20
2032.9336569985151
 30
0.0
 11
634.40862498078877
 21
2666.9336569985148
 31
0.0
  0
LINE
  5
7D29
  8
2
 10
2189.5861148587642
 20
2738.324593709131
 30
0.0
 11
2189.5861148587642
 21
1794.9336569985151
 31
0.0
  0
LINE
  5
7D2E
  8
1
 10
1349.4086249807881
 20
1997.9336569985151
 30
0.0
 11
1349.4086249807881
 21
2701.9336569985148
 31
0.0
  0
LINE
  5
7D31
  8
1
 10
834.40862498078809
 20
2507.4336569985148
 30
0.0
 11
834.40862498078809
 21
2192.4336569985148
 31
0.0
  0
LINE
  5
7D32
  8
1
 10
704.40862498078809
 20
2507.4336569985148
 30
0.0
 11
704.40862498078809
 21
2192.4336569985148
 31
0.0
  0
LINE
  5
7D33
  8
1
 10
1344.4086249807881
 20
2704.9336569985148
 30
0.0
 11
1344.4086249807881
 21
1994.9336569985151
 31
0.0
  0
LINE
  5
7D34
  8
1
 10
1341.208624980788
 20
2704.9336569985148
 30
0.0
 11
1341.208624980788
 21
1994.9336569985151
 31
0.0
  0
LINE
  5
7D35
  8
1
 10
1384.4086249807881
 20
2666.9336569985148
 30
0.0
 11
1384.4086249807881
 21
2032.9336569985151
 31
0.0
  0
LINE
  5
7D36
  8
1
 10
669.40862498078855
 20
2701.9336569985148
 30
0.0
 11
669.40862498078855
 21
1997.9336569985151
 31
0.0
  0
LINE
  5
7D37
  8
1
 10
677.60862498078825
 20
2704.9336569985148
 30
0.0
 11
677.60862498078825
 21
1994.9336569985151
 31
0.0
  0
LINE
  5
7D38
  8
1
 10
674.40862498078855
 20
2704.9336569985148
 30
0.0
 11
674.40862498078855
 21
1994.9336569985151
 31
0.0
  0
CIRCLE
  5
7D3B
  8
1
 10
2189.5861148587642
 20
2349.9336569985148
 30
0.0
 40
355.0
  0
CIRCLE
  5
7D3C
  8
1
 10
2189.5861148587642
 20
2349.9336569985148
 30
0.0
 40
315.0
  0
LINE
  5
7D3D
  8
1
 10
677.60862498078825
 20
2031.733656998515
 30
0.0
 11
1341.208624980788
 21
2031.733656998515
 31
0.0
  0
LINE
  5
7D4A
  8
1
 10
689.40862498078775
 20
1949.9336569985151
 30
0.0
 11
737.60862498078814
 21
1949.9336569985139
 31
0.0
  0
LINE
  5
7D4B
  8
1
 10
737.60862498078814
 20
1954.4336569985151
 30
0.0
 11
682.10862498078814
 21
1954.4336569985151
 31
0.0
  0
LINE
  5
7D4C
  8
1
 10
737.60862498078814
 20
1949.9336569985151
 30
0.0
 11
677.60862498078814
 21
1949.9336569985139
 31
0.0
  0
LINE
  5
7D4D
  8
1
 10
714.40862498078798
 20
2192.4336569985148
 30
0.0
 11
741.65114350024601
 21
2037.9336569985151
 31
0.0
  0
LINE
  5
7D4E
  8
1
 10
834.40862498078809
 20
2192.4336569985148
 30
0.0
 11
704.40862498078809
 21
2192.4336569985148
 31
0.0
  0
LINE
  5
7D4F
  8
1
 10
682.10862498078814
 20
2119.9336569985139
 30
0.0
 11
682.10862498078814
 21
1954.4336569985151
 31
0.0
  0
LINE
  5
7D50
  8
1
 10
677.60862498078814
 20
1994.9336569985139
 30
0.0
 11
677.60862498078814
 21
1949.9336569985139
 31
0.0
  0
LINE
  5
7D63
  8
2
 10
649.40862498078855
 20
2012.4336569985151
 30
0.0
 11
697.60862498078836
 21
2012.4336569985151
 31
0.0
  0
LINE
  5
7D64
  8
1
 10
664.90862498078855
 20
2029.9336569985151
 30
0.0
 11
637.40862498078855
 21
2029.9336569985151
 31
0.0
  0
ARC
  5
7D65
  8
1
 10
637.40862498078855
 20
2032.9336569985151
 30
0.0
 40
3.0
 50
180.0
 51
270.0
  0
LINE
  5
7D66
  8
1
 10
674.40862498078855
 20
1994.9336569985151
 30
0.0
 11
672.40862498078855
 21
1994.9336569985151
 31
0.0
  0
ARC
  5
7D67
  8
1
 10
672.40862498078855
 20
1997.9336569985151
 30
0.0
 40
3.0
 50
180.0
 51
270.0
  0
ARC
  5
7D68
  8
1
 10
664.90862498078855
 20
2025.4336569985151
 30
0.0
 40
4.5
 50
0.0
 51
90.0
  0
LINE
  5
7D69
  8
1
 10
674.40862498078855
 20
1994.9336569985151
 30
0.0
 11
677.60862498078825
 21
1994.9336569985151
 31
0.0
  0
LINE
  5
7D6A
  8
1
 10
682.10862498078814
 20
2119.9336569985139
 30
0.0
 11
677.60862498078814
 21
2119.9336569985139
 31
0.0
  0
LINE
  5
7D70
  8
1
 10
737.60862498078757
 20
1954.4336569985151
 30
0.0
 11
737.60862498078814
 21
1949.9336569985139
 31
0.0
  0
LINE
  5
7D71
  8
1
 10
824.40862498078798
 20
2192.4336569985148
 30
0.0
 11
797.16610646133006
 21
2037.9336569985151
 31
0.0
  0
LINE
  5
7D72
  8
1
 10
797.16610646133006
 20
2037.9336569985151
 30
0.0
 11
741.65114350024601
 21
2037.9336569985151
 31
0.0
  0
LINE
  5
7D73
  8
1
 10
1341.208624980788
 20
1994.9336569985139
 30
0.0
 11
1341.208624980788
 21
1949.9336569985139
 31
0.0
  0
LINE
  5
7D74
  8
1
 10
1336.708624980788
 20
2119.9336569985139
 30
0.0
 11
1336.708624980788
 21
1954.4336569985151
 31
0.0
  0
LINE
  5
7D80
  8
1
 10
1279.408624980789
 20
1854.9336569985139
 30
0.0
 11
1329.408624980789
 21
1854.9336569985139
 31
0.0
  0
LINE
  5
7D81
  8
1
 10
1329.4086249807881
 20
1949.9336569985151
 30
0.0
 11
1281.208624980788
 21
1949.9336569985139
 31
0.0
  0
LINE
  5
7D82
  8
1
 10
1281.208624980788
 20
1949.9336569985151
 30
0.0
 11
1341.208624980788
 21
1949.9336569985139
 31
0.0
  0
LINE
  5
7D83
  8
1
 10
1281.208624980788
 20
1954.4336569985151
 30
0.0
 11
1336.708624980788
 21
1954.4336569985151
 31
0.0
  0
LINE
  5
7D88
  8
1
 10
1281.208624980788
 20
1954.4336569985151
 30
0.0
 11
1281.208624980788
 21
1949.9336569985139
 31
0.0
  0
ARC
  5
7D9B
  8
1
 10
1353.9086249807881
 20
2025.4336569985151
 30
0.0
 40
4.5
 50
90.0
 51
180.0
  0
LINE
  5
7D9C
  8
2
 10
1369.4086249807881
 20
2012.4336569985151
 30
0.0
 11
1321.208624980788
 21
2012.4336569985151
 31
0.0
  0
LINE
  5
7D9D
  8
1
 10
1344.4086249807881
 20
1994.9336569985151
 30
0.0
 11
1341.208624980788
 21
1994.9336569985151
 31
0.0
  0
ARC
  5
7D9E
  8
1
 10
1346.4086249807881
 20
1997.9336569985151
 30
0.0
 40
3.0
 50
270.0
 51
0.0
  0
LINE
  5
7D9F
  8
1
 10
1344.4086249807881
 20
1994.9336569985151
 30
0.0
 11
1346.4086249807881
 21
1994.9336569985151
 31
0.0
  0
LINE
  5
7DA0
  8
1
 10
1336.708624980788
 20
2119.9336569985139
 30
0.0
 11
1341.208624980788
 21
2119.9336569985139
 31
0.0
  0
ARC
  5
7DA1
  8
1
 10
1381.4086249807881
 20
2032.9336569985151
 30
0.0
 40
3.0
 50
270.0
 51
0.0
  0
LINE
  5
7DA2
  8
1
 10
1353.9086249807881
 20
2029.9336569985151
 30
0.0
 11
1381.4086249807881
 21
2029.9336569985151
 31
0.0
  0
LINE
  5
7DA4
  8
1
 10
1909.586114858763
 20
1949.9336569985151
 30
0.0
 11
2469.5861148587628
 21
1949.9336569985151
 31
0.0
  0
LINE
  5
7DA5
  8
1
 10
1799.586114858763
 20
1854.9336569985151
 30
0.0
 11
2579.5861148587628
 21
1854.9336569985151
 31
0.0
  0
LINE
  5
7DA6
  8
1
 10
1909.586114858763
 20
2109.9336569985139
 30
0.0
 11
1909.586114858763
 21
1949.9336569985151
 31
0.0
  0
LINE
  5
7DC9
  8
1
 10
1919.169769198965
 20
2119.9336569985148
 30
0.0
 11
1909.586114858763
 21
2109.9336569985148
 31
0.0
  0
LINE
  5
7DD0
  8
1
 10
2469.5861148587628
 20
2109.9336569985148
 30
0.0
 11
2469.5861148587628
 21
1949.9336569985151
 31
0.0
  0
LINE
  5
7DF5
  8
1
 10
2460.0024605185631
 20
2119.9336569985148
 30
0.0
 11
2469.5861148587628
 21
2109.9336569985148
 31
0.0
  0
LINE
  5
7DF8
  8
1
 10
677.60862498078825
 20
2668.1336569985151
 30
0.0
 11
1341.208624980788
 21
2668.1336569985151
 31
0.0
  0
LINE
  5
7DFA
  8
2
 10
582.28846765922913
 20
2349.9336569985148
 30
0.0
 11
1404.4086249807881
 21
2349.9336569985148
 31
0.0
  0
LINE
  5
7DFF
  8
1
 10
824.40862498078798
 20
2507.4336569985148
 30
0.0
 11
797.16610646133006
 21
2661.9336569985148
 31
0.0
  0
LINE
  5
7E00
  8
1
 10
714.40862498078798
 20
2507.4336569985148
 30
0.0
 11
741.65114350024601
 21
2661.9336569985148
 31
0.0
  0
LINE
  5
7E03
  8
1
 10
834.40862498078809
 20
2507.4336569985148
 30
0.0
 11
704.40862498078809
 21
2507.4336569985148
 31
0.0
  0
LINE
  5
7E29
  8
2
 10
649.40862498078855
 20
2687.4336569985148
 30
0.0
 11
697.60862498078836
 21
2687.4336569985148
 31
0.0
  0
LINE
  5
7E2A
  8
1
 10
664.90862498078855
 20
2669.9336569985148
 30
0.0
 11
637.40862498078855
 21
2669.9336569985148
 31
0.0
  0
ARC
  5
7E2B
  8
1
 10
637.40862498078855
 20
2666.9336569985148
 30
0.0
 40
3.0
 50
90.0
 51
180.0
  0
ARC
  5
7E2C
  8
1
 10
672.40862498078855
 20
2701.9336569985148
 30
0.0
 40
3.0
 50
90.0
 51
180.0
  0
ARC
  5
7E2D
  8
1
 10
664.90862498078855
 20
2674.4336569985148
 30
0.0
 40
4.5
 50
270.0
 51
0.0
  0
LINE
  5
7E2E
  8
1
 10
674.40862498078855
 20
2704.9336569985148
 30
0.0
 11
672.40862498078855
 21
2704.9336569985148
 31
0.0
  0
LINE
  5
7E2F
  8
1
 10
674.40862498078855
 20
2704.9336569985148
 30
0.0
 11
677.60862498078825
 21
2704.9336569985148
 31
0.0
  0
LINE
  5
7E30
  8
1
 10
797.16610646133006
 20
2661.9336569985148
 30
0.0
 11
741.65114350024601
 21
2661.9336569985148
 31
0.0
  0
LINE
  5
7E3A
  8
2
 10
1369.4086249807881
 20
2687.4336569985148
 30
0.0
 11
1321.208624980788
 21
2687.4336569985148
 31
0.0
  0
ARC
  5
7E3B
  8
1
 10
1353.9086249807881
 20
2674.4336569985148
 30
0.0
 40
4.5
 50
180.0
 51
270.0
  0
LINE
  5
7E3C
  8
1
 10
1344.4086249807881
 20
2704.9336569985148
 30
0.0
 11
1341.208624980788
 21
2704.9336569985148
 31
0.0
  0
LINE
  5
7E3D
  8
1
 10
1344.4086249807881
 20
2704.9336569985148
 30
0.0
 11
1346.4086249807881
 21
2704.9336569985148
 31
0.0
  0
ARC
  5
7E3E
  8
1
 10
1346.4086249807881
 20
2701.9336569985148
 30
0.0
 40
3.0
 50
0.0
 51
90.0
  0
ARC
  5
7E3F
  8
1
 10
1381.4086249807881
 20
2666.9336569985148
 30
0.0
 40
3.0
 50
0.0
 51
90.0
  0
LINE
  5
7E40
  8
1
 10
1353.9086249807881
 20
2669.9336569985148
 30
0.0
 11
1381.4086249807881
 21
2669.9336569985148
 31
0.0
  0
LINE
  5
7E97
  8
1
 10
1799.586114858763
 20
1854.9336569985151
 30
0.0
 11
1799.586114858763
 21
1814.9336569985151
 31
0.0
  0
LINE
  5
7E98
  8
1
 10
2579.5861148587628
 20
1854.9336569985151
 30
0.0
 11
2579.5861148587628
 21
1814.9336569985151
 31
0.0
  0
LINE
  5
7E99
  8
1
 10
1799.586114858763
 20
1814.9336569985151
 30
0.0
 11
2579.5861148587628
 21
1814.9336569985151
 31
0.0
  0
LINE
  5
7E9B
  8
1
 10
674.40862498078968
 20
1814.9336569985139
 30
0.0
 11
674.40862498078968
 21
1854.9336569985139
 31
0.0
  0
LINE
  5
7E9C
  8
1
 10
674.40862498078968
 20
1814.9336569985139
 30
0.0
 11
634.40862498078957
 21
1814.9336569985139
 31
0.0
  0
LINE
  5
7E9D
  8
1
 10
674.40862498078968
 20
1854.9336569985139
 30
0.0
 11
672.40862498078957
 21
1854.9336569985139
 31
0.0
  0
LINE
  5
7E9E
  8
1
 10
634.40862498078957
 20
1814.9336569985139
 30
0.0
 11
634.40862498078957
 21
1816.9336569985139
 31
0.0
  0
LINE
  5
7E9F
  8
1
 10
664.90862498078957
 20
1819.9336569985139
 30
0.0
 11
637.40862498078968
 21
1819.9336569985139
 31
0.0
  0
LINE
  5
7EA0
  8
1
 10
669.40862498078957
 20
1824.4336569985139
 30
0.0
 11
669.40862498078957
 21
1851.9336569985139
 31
0.0
  0
ARC
  5
7EA1
  8
1
 10
672.40862498078957
 20
1851.9336569985139
 30
0.0
 40
3.0
 50
90.0
 51
180.0
  0
ARC
  5
7EA2
  8
1
 10
637.40862498078968
 20
1816.9336569985139
 30
0.0
 40
3.0
 50
90.0
 51
180.0
  0
ARC
  5
7EA3
  8
1
 10
664.90862498078957
 20
1824.4336569985139
 30
0.0
 40
4.5
 50
270.0
 51
0.0
  0
LINE
  5
7EA4
  8
1
 10
1344.408624980789
 20
1814.9336569985139
 30
0.0
 11
1344.408624980789
 21
1854.9336569985139
 31
0.0
  0
LINE
  5
7EA5
  8
1
 10
1344.408624980789
 20
1814.9336569985139
 30
0.0
 11
1384.408624980789
 21
1814.9336569985139
 31
0.0
  0
LINE
  5
7EA6
  8
1
 10
1344.408624980789
 20
1854.9336569985139
 30
0.0
 11
1346.408624980789
 21
1854.9336569985139
 31
0.0
  0
LINE
  5
7EA7
  8
1
 10
1384.408624980789
 20
1814.9336569985139
 30
0.0
 11
1384.408624980789
 21
1816.9336569985139
 31
0.0
  0
LINE
  5
7EA8
  8
1
 10
1353.908624980789
 20
1819.9336569985139
 30
0.0
 11
1381.408624980789
 21
1819.9336569985139
 31
0.0
  0
LINE
  5
7EA9
  8
1
 10
1349.408624980789
 20
1824.4336569985139
 30
0.0
 11
1349.408624980789
 21
1851.9336569985139
 31
0.0
  0
ARC
  5
7EAA
  8
1
 10
1346.408624980789
 20
1851.9336569985139
 30
0.0
 40
3.0
 50
0.0
 51
90.0
  0
ARC
  5
7EAB
  8
1
 10
1381.408624980789
 20
1816.9336569985139
 30
0.0
 40
3.0
 50
0.0
 51
90.0
  0
ARC
  5
7EAC
  8
1
 10
1353.908624980789
 20
1824.4336569985139
 30
0.0
 40
4.5
 50
180.0
 51
270.0
  0
LINE
  5
7EAD
  8
1
 10
674.40862498078968
 20
1814.9336569985139
 30
0.0
 11
1344.408624980789
 21
1814.9336569985139
 31
0.0
  0
LINE
  5
7EAE
  8
1
 10
674.40862498078968
 20
1854.9336569985139
 30
0.0
 11
1344.408624980789
 21
1854.9336569985139
 31
0.0
  0
LINE
  5
7EAF
  8
2
 10
652.40862498078957
 20
1830.9201584752429
 30
0.0
 11
652.40862498078957
 21
1796.241458221325
 31
0.0
  0
LINE
  5
7EB0
  8
2
 10
1366.408624980789
 20
1830.9201584752429
 30
0.0
 11
1366.408624980789
 21
1796.241458221325
 31
0.0
  0
LINE
  5
7EB1
  8
1
 10
674.40862498078968
 20
1849.9336569985139
 30
0.0
 11
1344.408624980789
 21
1849.9336569985139
 31
0.0
  0
LINE
  5
7EBE
  8
4
 10
2775.0
 20
750.0
 30
0.0
 11
2775.0
 21
450.0
 31
0.0
  0
LINE
  5
7EBF
  8
4
 10
1725.0
 20
750.0
 30
0.0
 11
1725.0
 21
450.0
 31
0.0
  0
LINE
  5
7EC0
  8
4
 10
975.0
 20
750.0
 30
0.0
 11
975.0
 21
450.0
 31
0.0
  0
LINE
  5
7EC3
  8
4
 10
975.0
 20
450.0
 30
0.0
 11
2775.0
 21
450.0
 31
0.0
  0
LINE
  5
7EC4
  8
4
 10
975.0
 20
600.0
 30
0.0
 11
2775.0
 21
600.0
 31
0.0
  0
TEXT
  5
7EC5
  8
4
 10
1032.753121270352
 20
647.31453879991932
 30
0.0
 40
75.0
  1
機器名称
  0
TEXT
  5
7EC6
  8
4
 10
1029.3871590371959
 20
482.46773509801642
 30
0.0
 40
75.0
  1
機器型番
  0
TEXT
  5
7EC7
  8
4
 10
1766.5181182314971
 20
633.85765343635285
 30
0.0
 40
75.0
  1
ミツヤ軸流ファン
  0
TEXT
  5
7EC8
  8
4
 10
1779.9817433782209
 20
475.739376419915
 30
0.0
 40
75.0
  1
AP＃630-1
  0
TEXT
  5
7ECA
  8
4
 10
1217.418339648862
 20
3575.1432619987731
 30
0.0
 40
80.999999999999986
  1
天井吊防振ベット
  0
TEXT
  5
7ECB
  8
4
 10
474.25138999416959
 20
3800.8214642989469
 30
0.0
 40
108.0
  1
電動機直動式横形軸流ファン
  0
LINE
  5
7ECC
  8
4
 10
375.0
 20
3704.1131313972069
 30
0.0
 11
2775.0
 21
3704.1131313972069
 31
0.0
  0
LINE
  5
7ECD
  8
4
 10
375.0
 20
4004.1131313972069
 30
0.0
 11
2775.0
 21
4004.1131313972069
 31
0.0
  0
LINE
  5
7ECE
  8
4
 10
975.0
 20
750.0
 30
0.0
 11
2775.0
 21
750.0
 31
0.0
  0
LINE
  5
7ECF
  8
4
 10
375.0
 20
4004.1131313972069
 30
0.0
 11
375.0
 21
3704.1131313972069
 31
0.0
  0
TEXT
  5
7ED0
  8
4
 10
406.39976630867932
 20
3573.4792163195152
 30
0.0
 40
80.999999999999986
  1
左回転後方吐出
  0
TEXT
  5
7ED1
  8
4
 10
2203.4543388739339
 20
4059.0916222429628
 30
0.0
 40
84.000000000000014
  1
No.
  0
TEXT
  5
7ED2
  8
4
 10
2220.2998135877242
 20
3575.1432619987731
 30
0.0
 40
80.999999999999986
  1
縮尺：1/15
  0
LINE
  5
7ED3
  8
4
 10
2775.0
 20
4004.1131313972069
 30
0.0
 11
2775.0
 21
3704.1131313972069
 31
0.0
  0
LINE
  5
7ED4
  8
4
 10
3150.0
 20
4425.0
 30
0.0
 11
3150.0
 21
4425.0
 31
0.0
  0
LINE
  5
7ED5
  8
4
 10
2160.9261335397969
 20
4021.895374688102
 30
0.0
 11
2160.9261335397969
 21
4179.9783923246277
 31
0.0
  0
LINE
  5
7ED6
  8
4
 10
2160.9261335397969
 20
4179.9783923246277
 30
0.0
 11
2775.0
 21
4179.9783923246277
 31
0.0
  0
LINE
  5
7ED7
  8
4
 10
2775.0
 20
4179.9783923246277
 30
0.0
 11
2775.0
 21
4021.895374688102
 31
0.0
  0
LINE
  5
7ED8
  8
4
 10
2775.0
 20
4021.895374688102
 30
0.0
 11
2160.9261335397969
 21
4021.895374688102
 31
0.0
  0
LINE
  5
7ED9
  8
4
 10
0.0
 20
0.0
 30
0.0
 11
0.0
 21
4425.0
 31
0.0
  0
LINE
  5
7EDA
  8
4
 10
0.0
 20
4425.0
 30
0.0
 11
3150.0
 21
4425.0
 31
0.0
  0
LINE
  5
7EDB
  8
4
 10
3150.0
 20
4425.0
 30
0.0
 11
3150.0
 21
0.0
 31
0.0
  0
LINE
  5
7EDC
  8
4
 10
3150.0
 20
0.0
 30
0.0
 11
0.0
 21
0.0
 31
0.0
  0
DIMENSION
  5
7EEC
  8
3
  2
*D1
 10
1384.408624980789
 20
1573.748863469805
 30
0.0
 11
997.83379559098091
 21
1573.748863469805
 31
0.0
 70
   128
 13
634.40862498078957
 23
1816.9336569985139
 33
0.0
 14
1384.408624980789
 24
1814.9336569985139
 34
0.0
1001
ACAD
1000
DSTYLE
1002
{
1070
   287
1070
     3
1070
   287
1070
     3
1070
    40
1040
15.0
1070
   143
1040
0.039
1070
   172
1070
     1
1070
   271
1070
     0
1070
   279
1070
     0
1070
   288
1070
     1
1002
}
  0
DIMENSION
  5
7EF9
  8
3
  2
*D2
 10
2579.5861148587628
 20
1558.969209706612
 30
0.0
 11
2188.1739683675219
 21
1558.969209706612
 31
0.0
 70
   128
 13
1799.586114858763
 23
1814.9336569985151
 33
0.0
 14
2579.5861148587628
 24
1814.9336569985151
 34
0.0
1001
ACAD
1000
DSTYLE
1002
{
1070
   287
1070
     3
1070
   287
1070
     3
1070
    40
1040
15.0
1070
   143
1040
0.039
1070
   172
1070
     1
1070
   271
1070
     0
1070
   279
1070
     0
1070
   288
1070
     1
1002
}
  0
DIMENSION
  5
7F06
  8
3
  2
*D3
 10
1685.264294061137
 20
1949.9336569985151
 30
0.0
 11
1685.2642940611361
 21
2123.1044956174242
 31
0.0
 70
   128
 13
1801.195178148148
 23
2349.9336569985148
 33
0.0
 14
1909.586114858763
 24
1949.9336569985151
 34
0.0
 50
90.0
1001
ACAD
1000
DSTYLE
1002
{
1070
   287
1070
     3
1070
   287
1070
     3
1070
    40
1040
15.0
1070
   143
1040
0.039
1070
   172
1070
     1
1070
   271
1070
     0
1070
   279
1070
     0
1070
   288
1070
     1
1002
}
  0
DIMENSION
  5
7F14
  8
3
  2
*D4
 10
1685.2642940611361
 20
1854.9336569985151
 30
0.0
 11
1613.4785797754221
 21
1902.4336569985151
 31
0.0
 12
-209.64044511098831
 22
-148.37278107728159
 32
0.0
 70
     0
  1
(<>)
 13
1909.586114858763
 23
1949.9336569985151
 33
0.0
 14
1799.586114858763
 24
1854.9336569985151
 34
0.0
 50
90.0
1001
ACAD
1000
DSTYLE
1002
{
1070
   288
1070
     1
1070
   172
1070
     1
1070
    75
1070
     1
1070
    40
1040
15.0
1070
   271
1070
     0
1070
   143
1040
0.039
1002
}
  0
DIMENSION
  5
7F24
  8
3
  2
*D5
 10
1685.2642940611361
 20
1814.9336569985151
 30
0.0
 11
1647.7642940611361
 21
1703.505085569944
 31
0.0
 70
     0
 13
1799.586114858763
 23
1854.9336569985151
 33
0.0
 14
1799.586114858763
 24
1814.9336569985151
 34
0.0
 50
90.0
1001
ACAD
1000
DSTYLE
1002
{
1070
   287
1070
     3
1070
   287
1070
     3
1070
    40
1040
15.0
1070
   143
1040
0.039
1070
   172
1070
     1
1070
   271
1070
     0
1070
   279
1070
     0
1070
   288
1070
     1
1002
}
  0
DIMENSION
  5
7F52
  8
3
  2
*D6
 10
2544.5861148587642
 20
2842.503334289655
 30
0.0
 11
2188.1739683675219
 21
2842.503334289655
 31
0.0
 70
   128
 13
1834.586114858763
 23
2349.9336569985148
 33
0.0
 14
2544.5861148587642
 24
2349.9336569985148
 34
0.0
1001
ACAD
1000
DSTYLE
1002
{
1070
   287
1070
     3
1070
   287
1070
     3
1070
    40
1040
15.0
1070
   143
1040
0.039
1070
   172
1070
     1
1070
   271
1070
     0
1070
   279
1070
     0
1070
   288
1070
     1
1002
}
  0
DIMENSION
  5
7F5F
  8
3
  2
*D7
 10
1384.4086249807881
 20
2842.503334289655
 30
0.0
 11
986.97963467376746
 21
2842.503334289655
 31
0.0
 70
   128
 13
634.40862498078877
 23
2666.9336569985148
 33
0.0
 14
1384.4086249807881
 24
2666.9336569985148
 34
0.0
1001
ACAD
1000
DSTYLE
1002
{
1070
   287
1070
     3
1070
   287
1070
     3
1070
    40
1040
15.0
1070
   143
1040
0.039
1070
   172
1070
     1
1070
   271
1070
     0
1070
   279
1070
     0
1070
   288
1070
     1
1002
}
  0
DIMENSION
  5
7F6C
  8
3
  2
*D8
 10
476.83384127975683
 20
1816.9336569985139
 30
0.0
 11
476.83384127975648
 21
2350.8538711649412
 31
0.0
 70
   128
 13
669.40862498078855
 23
2701.9336569985148
 33
0.0
 14
634.40862498078957
 24
1816.9336569985139
 34
0.0
 50
90.0
1001
ACAD
1000
DSTYLE
1002
{
1070
   287
1070
     3
1070
   287
1070
     3
1070
    40
1040
15.0
1070
   143
1040
0.039
1070
   172
1070
     1
1070
   271
1070
     0
1070
   279
1070
     0
1070
   288
1070
     1
1002
}
  0
LINE
  5
8006
  8
2
 10
2554.5861148587628
 20
2298.2208307059209
 30
0.0
 11
2554.5861148587628
 21
1794.9336569985151
 31
0.0
  0
LINE
  5
8007
  8
2
 10
1824.5861148587639
 20
2298.2208307059209
 30
0.0
 11
1824.586114858763
 21
1794.9336569985151
 31
0.0
  0
ENDSEC
  0
EOF
